osu file format v14

[General]
AudioFilename: audio.mp3
AudioLeadIn: 0
PreviewTime: 74156
Countdown: 0
SampleSet: Soft
StackLeniency: 0.7
Mode: 0
LetterboxInBreaks: 0
WidescreenStoryboard: 0

[Editor]
DistanceSpacing: 1.2
BeatDivisor: 4
GridSize: 32
TimelineZoom: 0.8

[Metadata]
Title:Kimi no Tonari ni Itai kara
TitleUnicode:君の隣にいたいから
Artist:SHISHAMO
ArtistUnicode:SHISHAMO
Creator:Sarawatlism
Version:Couple
Source:
Tags:jp Japanese pop rock jpop j-pop jrock j-rock asako miyazaki 宮崎朝子 misaki yoshikawa 吉川美冴貴 aya matsuoka 松岡彩 [_lost_] conner c_o_n_n_e_r frozz fzl_17
BeatmapID:2651636
BeatmapSetID:1276244

[Difficulty]
HPDrainRate:7
CircleSize:4
OverallDifficulty:8.3
ApproachRate:9.1
SliderMultiplier:1.95
SliderTickRate:1

[Events]
//Background and Video events
0,0,"BG.jpg",0,0
//Break Periods
//Storyboard Layer 0 (Background)
//Storyboard Layer 1 (Fail)
//Storyboard Layer 2 (Pass)
//Storyboard Layer 3 (Foreground)
//Storyboard Layer 4 (Overlay)
//Storyboard Sound Samples

[TimingPoints]
520,361.44578313253,4,2,1,60,1,0
520,-142.857142857143,4,2,1,60,0,0
2688,-83.3333333333333,4,2,1,80,0,0
3042,361.44578313253,4,2,1,70,1,0
3042,-90.9090909090909,4,2,1,70,0,0
3132,-90.9090909090909,4,2,1,70,0,0
3313,-90.9090909090909,4,2,1,5,0,0
3403,-90.9090909090909,4,2,1,70,0,0
4578,-90.9090909090909,4,2,1,5,0,0
4668,-90.9090909090909,4,2,1,70,0,0
6204,-90.9090909090909,4,2,1,5,0,0
6295,-90.9090909090909,4,2,1,70,0,0
7469,-90.9090909090909,4,2,1,5,0,0
7560,-90.9090909090909,4,2,1,70,0,0
9096,-90.9090909090909,4,2,1,5,0,0
9186,-90.9090909090909,4,2,1,70,0,0
11987,-90.9090909090909,4,2,1,5,0,0
12078,-90.9090909090909,4,2,1,70,0,0
14879,-90.9090909090909,4,2,1,5,0,0
14969,-90.9090909090909,4,2,1,70,0,0
16144,-90.9090909090909,4,2,1,5,0,0
16234,-90.9090909090909,4,2,1,70,0,0
17770,-90.9090909090909,4,2,1,5,0,0
17861,-90.9090909090909,4,2,1,70,0,0
19035,-90.9090909090909,4,2,1,5,0,0
19126,-90.9090909090909,4,2,1,70,0,0
20391,-111.111111111111,4,2,1,70,0,0
20662,-111.111111111111,4,2,1,5,0,0
20752,-111.111111111111,4,2,1,70,0,0
23554,-111.111111111111,4,2,1,5,0,0
23644,-111.111111111111,4,2,1,70,0,0
24367,-83.3333333333333,4,2,1,70,0,0
24728,-90.9090909090909,4,2,1,70,0,0
25813,-83.3333333333333,4,2,1,70,0,0
26174,-100,4,2,1,60,0,0
27168,-100,4,2,1,5,0,0
27258,-100,4,2,1,60,0,0
28614,-100,4,2,1,5,0,0
28704,-100,4,2,1,60,0,0
29337,-100,4,2,1,5,0,0
29427,-100,4,2,1,60,0,0
30782,-100,4,2,1,5,0,0
30873,-100,4,2,1,60,0,0
32951,-100,4,2,1,5,0,0
33041,-100,4,2,1,60,0,0
34397,-100,4,2,1,5,0,0
34487,-100,4,2,1,60,0,0
38011,-100,4,2,1,5,0,0
38102,-100,4,2,1,60,0,0
38554,-100,4,2,1,5,0,0
38644,-100,4,2,1,60,0,0
40903,-100,4,2,1,5,0,0
40993,-100,4,2,1,60,0,0
41445,-100,4,2,1,5,0,0
41535,-100,4,2,1,60,0,0
42168,-100,4,2,1,5,0,0
42258,-100,4,2,1,60,0,0
45240,-100,4,2,1,5,0,0
45331,-100,4,2,1,60,0,0
45782,-100,4,2,1,5,0,0
45873,-100,4,2,1,60,0,0
47228,-100,4,2,1,5,0,0
47319,-100,4,2,1,60,0,0
47861,-83.3333333333333,4,2,1,70,0,0
48132,-83.3333333333333,4,2,1,5,0,0
48222,-83.3333333333333,4,2,1,70,0,0
48584,-100,4,2,1,70,0,0
48945,-111.111111111111,4,2,1,70,0,0
49307,-125,4,2,1,55,0,0
51023,-125,4,2,1,5,0,0
51114,-125,4,2,1,55,0,0
52108,-125,4,2,1,5,0,0
52198,-125,4,2,1,55,0,0
53915,-125,4,2,1,5,0,0
54005,-125,4,2,1,55,0,0
56807,-125,4,2,1,5,0,0
56897,-125,4,2,1,55,0,0
62590,-125,4,2,1,5,0,0
62680,-125,4,2,1,55,0,0
65481,-125,4,2,1,5,0,0
65572,-125,4,2,1,55,0,0
66566,-125,4,2,1,5,0,0
66656,-100,4,2,1,60,0,0
67017,-166.666666666667,4,2,1,60,0,0
68102,-100,4,2,1,60,0,0
68463,-166.666666666667,4,2,1,60,0,0
68734,-166.666666666667,4,2,1,5,0,0
68825,-100,4,2,1,60,0,0
69548,-90.9090909090909,4,2,1,70,0,0
69819,-90.9090909090909,4,2,1,5,0,0
69909,-90.9090909090909,4,2,1,70,0,0
71264,-90.9090909090909,4,2,1,5,0,0
71355,-90.9090909090909,4,2,1,70,0,0
72439,-83.3333333333333,4,2,1,70,0,0
72710,-83.3333333333333,4,2,1,5,0,0
72801,-83.3333333333333,4,2,1,70,0,0
75331,-83.3333333333333,4,2,1,85,0,1
76686,-83.3333333333333,4,2,1,5,0,1
76776,-83.3333333333333,4,2,1,85,0,1
78493,-83.3333333333333,4,2,1,5,0,1
78584,-83.3333333333333,4,2,1,85,0,1
84276,-83.3333333333333,4,2,1,5,0,1
84367,-83.3333333333333,4,2,1,85,0,1
85451,-76.9230769230769,4,2,1,85,0,1
85722,-76.9230769230769,4,2,1,5,0,1
85813,-90.9090909090909,4,2,1,85,0,1
86174,-111.111111111111,4,2,1,85,0,1
86535,-71.4285714285714,4,2,1,85,0,1
86807,-71.4285714285714,4,2,1,85,0,0
86897,-83.3333333333333,4,2,1,85,0,1
88252,-83.3333333333333,4,2,1,5,0,1
88343,-83.3333333333333,4,2,1,85,0,1
89788,-76.9230769230769,4,2,1,85,0,1
90060,-76.9230769230769,4,2,1,5,0,1
90150,-76.9230769230769,4,2,1,85,0,1
90331,-71.4285714285714,4,2,1,85,0,1
91054,-83.3333333333333,4,2,1,85,0,1
91325,-83.3333333333333,4,2,1,5,0,1
91415,-83.3333333333333,4,2,1,85,0,1
91776,-76.9230769230769,4,2,1,85,0,1
92048,-76.9230769230769,4,2,1,5,0,1
92138,-76.9230769230769,4,2,1,85,0,1
92680,-83.3333333333333,4,2,1,85,0,1
94758,-83.3333333333333,4,2,1,5,0,1
94849,-83.3333333333333,4,2,1,85,0,1
95843,-83.3333333333333,4,2,1,5,0,1
95933,-83.3333333333333,4,2,1,85,0,1
98373,-83.3333333333333,4,2,1,85,0,0
98463,-111.111111111111,4,2,1,70,0,1
100180,-111.111111111111,4,2,1,5,0,1
100270,-111.111111111111,4,2,1,70,0,1
101264,-111.111111111111,4,2,1,5,0,1
101355,-111.111111111111,4,2,1,70,0,1
102168,-111.111111111111,4,2,1,5,0,1
102258,-111.111111111111,4,2,1,70,0,1
103614,-111.111111111111,4,2,1,5,0,1
103704,-111.111111111111,4,2,1,70,0,1
103885,-100,4,2,1,70,0,1
104156,-100,4,2,1,70,0,0
104246,-83.3333333333333,4,2,1,85,0,1
105692,-166.666666666667,4,2,1,85,0,0
106054,-76.9230769230769,4,2,1,85,0,1
106325,-76.9230769230769,4,2,1,5,0,1
106415,-142.857142857143,4,2,1,85,0,1
106776,-83.3333333333333,4,2,1,85,0,0
107048,-83.3333333333333,4,2,1,5,0,0
107138,-90.9090909090909,4,2,1,65,0,1
107228,-90.9090909090909,4,2,1,65,0,0
109397,-90.9090909090909,4,2,1,5,0,0
109487,-90.9090909090909,4,2,1,65,0,0
112288,-90.9090909090909,4,2,1,5,0,0
112379,-90.9090909090909,4,2,1,65,0,0
115180,-90.9090909090909,4,2,1,5,0,0
115270,-90.9090909090909,4,2,1,65,0,0
115722,-90.9090909090909,4,2,1,5,0,0
115813,-125,4,2,1,65,0,0
117258,-111.111111111111,4,2,1,65,0,0
117620,-83.3333333333333,4,2,1,65,0,0
118704,-90.9090909090909,4,2,1,75,0,0
118975,-90.9090909090909,4,2,1,5,0,0
119066,-90.9090909090909,4,2,1,75,0,0
120240,-90.9090909090909,4,2,1,5,0,0
120331,-90.9090909090909,4,2,1,75,0,0
121867,-90.9090909090909,4,2,1,5,0,0
121957,-90.9090909090909,4,2,1,75,0,0
123132,-90.9090909090909,4,2,1,5,0,0
123222,-90.9090909090909,4,2,1,75,0,0
126746,-90.9090909090909,4,2,1,5,0,0
126837,-90.9090909090909,4,2,1,75,0,0
127288,-90.9090909090909,4,2,1,5,0,0
127379,-90.9090909090909,4,2,1,75,0,0
130541,-90.9090909090909,4,2,1,5,0,0
130632,-90.9090909090909,4,2,1,75,0,0
132529,-90.9090909090909,4,2,1,5,0,0
132620,-90.9090909090909,4,2,1,75,0,0
133433,-90.9090909090909,4,2,1,5,0,0
133523,-90.9090909090909,4,2,1,75,0,0
135421,-90.9090909090909,4,2,1,5,0,0
135511,-90.9090909090909,4,2,1,75,0,0
136325,-90.9090909090909,4,2,1,5,0,0
136415,-90.9090909090909,4,2,1,75,0,0
138313,-90.9090909090909,4,2,1,5,0,0
138403,-90.9090909090909,4,2,1,75,0,0
139216,-90.9090909090909,4,2,1,5,0,0
139307,-90.9090909090909,4,2,1,75,0,0
140933,-111.111111111111,4,2,1,75,0,0
141475,-83.3333333333333,4,2,1,75,0,0
141837,-90.9090909090909,4,2,1,75,0,0
142650,-90.9090909090909,4,2,1,5,0,0
142740,-90.9090909090909,4,2,1,75,0,0
144999,-90.9090909090909,4,2,1,5,0,0
145090,-90.9090909090909,4,2,1,75,0,0
146174,-166.666666666667,4,2,1,75,0,0
147168,-166.666666666667,4,2,1,5,0,0
147258,-250,4,2,1,75,0,0
147529,-250,4,2,1,5,0,0
147620,-142.857142857143,4,2,1,50,0,0
149337,-142.857142857143,4,2,1,5,0,0
149427,-142.857142857143,4,2,1,50,0,0
150060,-142.857142857143,4,2,1,5,0,0
150150,-142.857142857143,4,2,1,50,0,0
151505,-142.857142857143,4,2,1,5,0,0
151596,-142.857142857143,4,2,1,50,0,0
158825,-142.857142857143,4,2,2,50,0,0
159096,-142.857142857143,4,2,2,5,0,0
159186,-142.857142857143,4,2,1,50,0,0
167861,-125,4,2,1,50,0,0
168132,-125,4,2,1,5,0,0
168222,-125,4,2,1,52,0,0
168584,-125,4,2,1,54,0,0
169307,-111.111111111111,4,2,1,56,0,0
169668,-111.111111111111,4,2,1,58,0,0
170029,-83.3333333333333,4,2,1,60,0,0
170301,-83.3333333333333,4,2,1,5,0,0
170391,-166.666666666667,4,2,1,60,0,0
170662,-166.666666666667,4,2,1,5,0,0
170752,-142.857142857143,4,2,1,55,0,0
187288,-142.857142857143,4,2,1,5,0,0
187379,-142.857142857143,4,2,1,55,0,0
188011,-142.857142857143,4,2,1,5,0,0
188102,-90.9090909090909,4,2,1,65,0,0
188825,-166.666666666667,4,2,1,65,0,0
189548,-90.9090909090909,4,2,1,65,0,0
189819,-90.9090909090909,4,2,1,5,0,0
189909,-90.9090909090909,4,2,1,65,0,0
190270,-142.857142857143,4,2,1,65,0,0
190632,-83.3333333333333,4,2,1,65,0,0
190903,-83.3333333333333,4,2,1,5,0,0
190993,-90.9090909090909,4,2,1,65,0,0
192349,-90.9090909090909,4,2,1,5,0,0
192439,-90.9090909090909,4,2,1,65,0,0
192710,-90.9090909090909,4,2,1,5,0,0
192801,-90.9090909090909,4,2,1,65,0,0
193885,-83.3333333333333,4,2,1,75,0,0
195240,-83.3333333333333,4,2,1,5,0,0
195331,-83.3333333333333,4,2,1,75,0,0
196596,-76.9230769230769,4,2,1,75,0,0
196867,-76.9230769230769,4,2,1,5,0,0
196957,-76.9230769230769,4,2,1,75,0,0
197499,-166.666666666667,4,2,1,75,0,0
198132,-166.666666666667,4,2,1,5,0,0
198222,-250,4,2,1,40,0,0
199578,-250,4,2,1,5,0,0
199668,-250,4,2,1,40,0,0
203192,-250,4,2,1,5,0,0
203282,-250,4,2,1,40,0,0
203915,-250,4,2,1,5,0,0
204005,-250,4,2,1,40,0,0
209788,-142.857142857143,4,2,1,50,0,0
215572,-125,4,2,1,60,0,0
217017,-90.9090909090909,4,2,1,60,0,0
217379,-83.3333333333333,4,2,1,60,0,0
217650,-83.3333333333333,4,2,1,5,0,0
217740,-83.3333333333333,4,2,1,65,0,0
218463,-90.9090909090909,4,2,1,75,0,0
218734,-90.9090909090909,4,2,1,5,0,0
218825,-90.9090909090909,4,2,1,75,0,0
219909,-83.3333333333333,4,2,1,60,0,0
220632,-83.3333333333333,4,2,1,65,0,0
220813,-83.3333333333333,4,2,1,75,0,0
220993,-83.3333333333333,4,2,1,85,0,0
221174,-83.3333333333333,4,2,1,95,0,0
221355,-83.3333333333333,4,2,1,85,0,1
222710,-83.3333333333333,4,2,1,5,0,1
222801,-83.3333333333333,4,2,1,85,0,1
224517,-83.3333333333333,4,2,1,5,0,1
224608,-83.3333333333333,4,2,1,85,0,1
230301,-83.3333333333333,4,2,1,5,0,1
230391,-83.3333333333333,4,2,1,85,0,1
231475,-76.9230769230769,4,2,1,85,0,1
231746,-76.9230769230769,4,2,1,5,0,1
231837,-90.9090909090909,4,2,1,85,0,1
232198,-111.111111111111,4,2,1,85,0,1
232560,-71.4285714285714,4,2,1,85,0,1
232831,-71.4285714285714,4,2,1,85,0,0
232921,-83.3333333333333,4,2,1,85,0,1
234276,-83.3333333333333,4,2,1,5,0,1
234367,-83.3333333333333,4,2,1,85,0,1
235813,-76.9230769230769,4,2,1,85,0,1
236084,-76.9230769230769,4,2,1,5,0,1
236174,-76.9230769230769,4,2,1,85,0,1
236355,-71.4285714285714,4,2,1,85,0,1
237078,-83.3333333333333,4,2,1,85,0,1
237349,-83.3333333333333,4,2,1,5,0,1
237439,-83.3333333333333,4,2,1,85,0,1
237801,-76.9230769230769,4,2,1,85,0,1
238072,-76.9230769230769,4,2,1,5,0,1
238162,-76.9230769230769,4,2,1,85,0,1
238704,-83.3333333333333,4,2,1,85,0,1
240782,-83.3333333333333,4,2,1,5,0,1
240873,-83.3333333333333,4,2,1,85,0,1
241867,-83.3333333333333,4,2,1,5,0,1
241957,-83.3333333333333,4,2,1,85,0,1
244397,-83.3333333333333,4,2,1,85,0,1
244487,-200,4,2,1,60,0,0
249909,-111.111111111111,4,2,1,70,0,0
250180,-111.111111111111,4,2,1,5,0,0
250270,-83.3333333333333,4,2,1,85,0,1
251716,-83.3333333333333,4,2,1,85,0,0
253523,-166.666666666667,4,2,1,50,0,0
254608,-83.3333333333333,4,2,1,60,0,0
255511,-83.3333333333333,4,2,1,70,0,0
255692,-83.3333333333333,4,2,1,80,0,0
255873,-83.3333333333333,4,2,1,90,0,0
256054,-90.9090909090909,4,2,1,70,0,1
256144,-90.9090909090909,4,2,1,70,0,0
256325,-90.9090909090909,4,2,1,5,0,0
256415,-90.9090909090909,4,2,1,70,0,0
257590,-90.9090909090909,4,2,1,5,0,0
257680,-90.9090909090909,4,2,1,70,0,0
259216,-90.9090909090909,4,2,1,5,0,0
259307,-90.9090909090909,4,2,1,70,0,0
260481,-90.9090909090909,4,2,1,5,0,0
260572,-90.9090909090909,4,2,1,70,0,0
262108,-90.9090909090909,4,2,1,5,0,0
262198,-90.9090909090909,4,2,1,70,0,0
264999,-90.9090909090909,4,2,1,5,0,0
265090,-90.9090909090909,4,2,1,70,0,0
267891,-90.9090909090909,4,2,1,5,0,0
267981,-90.9090909090909,4,2,1,70,0,0
269156,-90.9090909090909,4,2,1,5,0,0
269246,-90.9090909090909,4,2,1,70,0,0
270782,-90.9090909090909,4,2,1,5,0,0
270873,-90.9090909090909,4,2,1,70,0,0
272048,-90.9090909090909,4,2,1,5,0,0
272138,-90.9090909090909,4,2,1,70,0,0
273403,-111.111111111111,4,2,1,70,0,0
273674,-111.111111111111,4,2,1,5,0,0
273764,-111.111111111111,4,2,1,70,0,0
276566,-111.111111111111,4,2,1,5,0,0
276656,-111.111111111111,4,2,1,70,0,0
277740,-100,4,2,1,70,0,0
279186,-100,4,2,1,70,0,0
280903,428.571428571429,4,2,1,70,1,0
281292,666.666666666667,4,2,1,70,1,0
281625,-100,4,2,1,40,0,0

[Colours]
Combo1 : 217,123,163
Combo2 : 244,96,163
Combo3 : 191,99,241
Combo4 : 255,85,85

[HitObjects]
72,160,520,5,2,0:0:0:0:
88,146,610,1,2,0:0:0:0:
105,129,700,1,2,0:0:0:0:
104,247,881,2,0,P|67:236|36:241,1,68.2499979171753,2|2,0:0|0:0,0:0:0:0:
171,182,1242,1,2,0:0:0:0:
207,291,1423,6,0,P|257:306|296:234,1,136.499995834351,2|2,0:0|0:0,0:0:0:0:
257,173,1965,1,2,0:0:0:0:
308,108,2146,1,2,0:0:0:0:
201,31,2327,6,0,P|221:75|228:104,1,68.2499979171753,2|2,0:0|1:2,0:0:0:0:
340,0,2688,6,0,P|323:58|320:127,1,116.999996429443,8|0,0:0|1:2,0:0:0:0:
319,133,2959,1,0,1:2:0:0:
319,133,3042,6,0,B|272:115|240:146|244:149|205:184|156:157,1,160.875004909516,6|0,1:0|2:0,0:0:0:0:
140,150,3403,2,0,P|110:106|137:50,1,107.25000327301,10|2,0:0|1:2,0:0:0:0:
145,38,3674,1,0,1:2:0:0:
145,38,3764,1,2,1:2:0:0:
44,133,3945,1,2,1:2:0:0:
213,77,4126,1,10,0:0:0:0:
36,0,4307,6,0,L|36:178,1,160.875004909516,2|0,0:0|2:0,0:0:0:0:
35,189,4668,1,2,0:0:0:0:
195,271,4849,2,0,P|152:227|108:237,1,107.25000327301,10|2,0:0|1:2,0:0:0:0:
93,252,5120,1,0,1:2:0:0:
93,252,5210,2,0,P|35:233|30:188,1,107.25000327301,2|0,0:1|1:2,0:0:0:0:
145,38,5572,2,0,L|145:159,1,107.25000327301,10|2,0:0|0:0,0:0:0:0:
207,258,5933,6,0,B|253:234|291:267|287:270|324:297|376:267,1,160.875004909516,2|0,1:0|2:0,0:0:0:0:
381,259,6295,2,0,P|402:203|381:158,1,107.25000327301,10|2,0:0|1:2,0:0:0:0:
366,141,6566,1,0,1:2:0:0:
366,141,6656,1,2,1:2:0:0:
477,213,6837,1,2,1:2:0:0:
291,170,7017,1,10,0:0:0:0:
475,12,7198,6,0,L|475:190,1,160.875004909516,2|0,0:0|2:0,0:0:0:0:
477,213,7560,1,2,0:0:0:0:
366,141,7740,1,10,0:0:0:0:
477,213,7921,1,2,1:2:0:0:
292,185,8102,2,0,P|270:128|296:84,1,107.25000327301,2|2,0:1|1:2,0:0:0:0:
381,259,8463,2,0,P|403:316|377:360,1,107.25000327301,10|2,0:0|0:0,0:0:0:0:
124,269,8825,6,0,B|170:245|208:278|204:281|241:308|293:278,1,160.875004909516,6|0,1:0|2:0,0:0:0:0:
295,270,9186,1,8,0:0:0:0:
197,130,9367,2,0,P|158:174|105:179,1,107.25000327301,2|0,1:0|0:0,0:0:0:0:
292,185,9728,1,2,1:2:0:0:
157,29,9909,6,0,P|184:84|321:84,2,214.500006546021,10|0|8,0:0|1:2|0:0,0:0:0:0:
18,144,10813,2,0,P|83:136|101:97,1,107.25000327301,0|0,1:2|0:0,0:0:0:0:
11,10,11174,1,2,1:2:0:0:
185,37,11355,2,0,P|120:45|102:84,1,107.25000327301,10|2,0:1|0:0,0:0:0:0:
59,235,11716,6,0,P|149:233|244:234,1,160.875004909516,2|0,1:0|2:0,0:0:0:0:
243,232,12078,1,8,0:0:0:0:
347,158,12258,2,0,P|307:118|255:131,1,107.25000327301,2|0,1:1|0:0,0:0:0:0:
354,300,12620,1,2,1:2:0:0:
459,206,12801,2,0,B|404:168|355:206|358:211|308:246|239:208,2,214.500006546021,10|0|8,0:1|1:2|0:0,0:0:0:0:
499,328,13704,1,2,1:2:0:0:
374,294,13885,5,2,0:1:0:0:
499,328,14066,1,2,1:2:0:0:
312,367,14246,1,10,0:0:0:0:
499,144,14427,1,8,0:3:0:0:
499,144,14517,1,8,0:3:0:0:
499,144,14608,6,0,L|499:311,1,160.875004909516,6|0,1:1|2:0,0:0:0:0:
499,328,14969,2,0,P|455:293|403:300,1,107.25000327301,10|2,0:0|1:2,0:0:0:0:
384,314,15240,1,0,1:2:0:0:
384,314,15331,2,0,P|407:255|383:214,1,107.25000327301,2|2,1:2|1:2,0:0:0:0:
298,127,15692,1,10,0:0:0:0:
149,264,15873,6,0,B|191:293|230:264|227:260|266:232|320:262,1,160.875004909516,2|0,0:0|2:0,0:0:0:0:
321,261,16234,1,2,0:0:0:0:
210,124,16415,2,0,P|165:170|116:170,1,107.25000327301,10|2,0:0|1:2,0:0:0:0:
209,26,16776,1,2,0:1:0:0:
298,127,16957,1,0,1:2:0:0:
401,50,17138,2,0,P|363:18|308:21,1,107.25000327301,10|0,0:0|0:0,0:0:0:0:
124,11,17499,6,0,L|124:195,1,160.875004909516,2|0,1:1|2:0,0:0:0:0:
123,195,17861,2,0,P|75:152|32:164,1,107.25000327301,8|2,0:0|1:2,0:0:0:0:
22,173,18132,1,0,1:2:0:0:
22,173,18222,2,0,B|45:122|45:122|21:69,1,107.25000327301,2|2,1:2|1:2,0:0:0:0:
150,274,18584,1,10,0:0:0:0:
17,349,18764,6,0,B|59:319|98:349|95:352|134:380|188:350,1,160.875004909516,2|0,0:0|2:0,0:0:0:0:
192,352,19126,1,2,0:0:0:0:
244,168,19307,1,10,0:0:0:0:
192,352,19487,1,2,1:2:0:0:
336,224,19668,1,2,0:0:0:0:
165,112,19849,1,10,0:3:0:0:
253,274,20029,1,6,0:3:0:0:
59,250,20210,1,4,0:3:0:0:
53,235,20301,1,4,0:3:0:0:
46,218,20391,6,0,B|82:197|116:225|111:226|142:248|184:230,1,131.624995983124,6|0,1:2|2:0,0:0:0:0:
186,223,20752,1,2,1:2:0:0:
176,117,20933,1,2,3:2:0:0:
176,117,21023,1,0,3:2:0:0:
176,117,21114,2,0,P|124:118|100:146,1,87.7499973220826,2|2,1:2|0:0,0:0:0:0:
266,137,21475,1,2,1:2:0:0:
219,42,21656,1,2,0:0:0:0:
266,137,21837,6,0,P|319:137|339:104,1,87.7499973220826,8|2,0:0|0:0,0:0:0:0:
403,193,22198,1,2,1:2:0:0:
488,130,22379,2,0,P|458:99|416:105,1,87.7499973220826,10|2,0:3|0:0,0:0:0:0:
324,228,22740,1,2,0:0:0:0:
484,295,22921,2,0,B|507:251|507:251|484:214,1,87.7499973220826,6|4,0:3|0:3,0:0:0:0:
472,206,23192,1,4,0:3:0:0:
472,206,23282,6,0,B|436:185|402:213|407:214|376:236|334:218,1,131.624995983124,6|0,1:2|2:0,0:0:0:0:
324,228,23644,2,0,P|279:204|235:209,1,87.7499973220826,0|0,1:2|0:0,0:0:0:0:
165,135,24005,2,0,P|202:112|245:113,1,87.7499973220826,0|0,1:2|0:0,0:0:0:0:
168,275,24367,6,0,P|124:275|72:222,1,116.999996429443,10|0,0:0|0:0,1:0:0:0:
165,135,24728,5,8,0:0:0:0:
252,290,24909,1,8,0:3:0:0:
252,290,25090,1,4,0:3:0:0:
210,26,25270,5,8,0:3:0:0:
73,226,25451,1,4,0:3:0:0:
73,226,25632,1,4,0:3:0:0:
335,215,25813,6,0,P|291:172|230:186,1,116.999996429443,8|2,0:0|0:0,0:0:0:0:
370,312,26174,6,0,P|434:322|468:209,1,195,6|8,1:2|0:0,0:0:0:0:
401,125,26716,1,2,1:2:0:0:
259,266,26897,2,0,B|218:282|187:256|188:252|155:222|110:248,1,146.25,2|0,0:0|2:0,0:0:0:0:
101,252,27258,1,8,0:0:0:0:
189,169,27439,1,2,0:0:0:0:
93,71,27620,6,0,P|77:123|101:166,1,97.5,2|0,1:2|0:0,0:0:0:0:
187,88,27981,2,0,P|203:36|179:-7,1,97.5,10|0,0:0|1:2,0:0:0:0:
0,3,28343,2,0,L|0:167,1,146.25,2|0,0:0|2:0,0:0:0:0:
1,175,28704,1,10,0:0:0:0:
93,71,28885,1,2,0:0:0:0:
168,257,29066,6,0,P|89:250|14:257,1,146.25,2|0,1:2|2:0,0:0:0:0:
0,258,29427,1,10,0:0:0:0:
94,159,29608,1,0,1:2:0:0:
184,269,29788,2,0,P|239:269|264:227,1,97.5,2|0,0:0|1:2,0:0:0:0:
286,106,30150,1,10,0:0:0:0:
200,186,30331,1,2,0:0:0:0:
349,337,30511,6,0,L|349:179,1,146.25,0|0,1:2|2:0,0:0:0:0:
348,169,30873,1,8,0:0:0:0:
205,75,31054,1,0,1:2:0:0:
348,169,31234,2,0,P|412:166|426:129,1,97.5,0|0,0:0|1:2,0:0:0:0:
298,23,31596,1,8,0:0:0:0:
200,186,31776,1,2,0:0:0:0:
70,62,31957,6,0,P|99:21|205:76,1,195,2|8,1:2|0:0,0:0:0:0:
124,149,32499,1,2,1:2:0:0:
0,0,32680,2,0,L|0:166,1,146.25,2|0,0:0|2:0,0:0:0:0:
0,172,33041,1,8,0:0:0:0:
127,254,33222,1,2,0:0:0:0:
0,330,33403,6,0,P|37:255|133:282,1,195,2|8,1:2|0:0,0:0:0:0:
219,354,33945,1,2,1:2:0:0:
341,202,34126,2,0,P|310:247|219:262,1,146.25,2|0,1:2|2:0,0:0:0:0:
205,247,34487,1,8,0:0:0:0:
294,117,34668,1,2,0:0:0:0:
315,342,34849,6,0,P|417:340|511:341,2,195,2|8|0,1:2|0:0|0:0,0:0:0:0:
205,247,35752,1,0,1:2:0:0:
336,186,35933,2,0,P|389:186|418:227,1,97.5,10|0,0:0|0:0,0:0:0:0:
467,24,36295,6,0,P|417:90|313:86,1,195,2|8,1:2|0:0,0:0:0:0:
224,10,36837,1,2,1:2:0:0:
142,130,37017,2,0,P|174:95|221:98,1,97.5,0|0,0:0|1:2,0:0:0:0:
219,216,37379,1,10,0:0:0:0:
49,244,37560,1,2,3:0:0:0:
49,244,37650,1,0,3:0:0:0:
49,244,37740,6,0,L|49:81,1,146.25,2|0,1:2|2:0,0:0:0:0:
47,75,38102,1,10,0:0:0:0:
132,215,38282,2,0,B|179:234|210:206|208:203|235:173|297:203,1,146.25,2|0,1:2|2:0,0:0:0:0:
287,202,38644,1,2,1:2:0:0:
420,100,38825,2,0,P|378:141|330:140,1,97.5,8|2,0:0|0:0,0:0:0:0:
491,312,39186,6,0,P|470:240|362:251,1,195,2|10,1:2|0:0,0:0:0:0:
268,310,39728,1,0,1:2:0:0:
374,358,39909,2,0,P|393:312|371:267,1,97.5,0|0,0:0|1:2,0:0:0:0:
191,222,40270,1,8,0:0:0:0:
268,310,40451,1,2,0:0:0:0:
15,310,40632,6,0,L|170:310,1,146.25,2|0,1:2|2:0,0:0:0:0:
183,308,40993,1,10,0:0:0:0:
143,157,41174,2,0,P|64:141|32:197,1,146.25,2|0,1:2|2:0,0:0:0:0:
30,206,41535,1,2,1:2:0:0:
117,53,41716,1,8,0:0:0:0:
207,224,41897,6,0,P|277:233|312:158,1,146.25,2|0,0:0|2:0,0:0:0:0:
315,153,42258,1,2,0:0:0:0:
413,216,42439,1,10,0:0:0:0:
235,151,42620,1,2,1:2:0:0:
428,88,42801,1,2,0:0:0:0:
235,151,42981,1,2,1:2:0:0:
485,152,43162,1,10,0:0:0:0:
315,32,43343,1,2,0:0:0:0:
326,247,43523,6,0,P|381:254|414:225,1,97.5,2|2,1:2|0:0,0:0:0:0:
315,153,43885,1,10,0:0:0:0:
229,273,44066,1,2,1:2:0:0:
146,146,44246,2,0,P|207:141|236:177,1,97.5,2|2,0:0|1:2,0:0:0:0:
111,246,44608,1,10,0:0:0:0:
33,130,44788,1,2,0:0:0:0:
0,296,44969,6,0,P|100:293|173:297,1,146.25,2|0,1:2|2:0,0:0:0:0:
174,294,45331,1,8,0:0:0:0:
268,85,45511,2,0,P|227:153|155:148,1,146.25,2|0,1:2|2:0,0:0:0:0:
146,146,45873,1,0,1:2:0:0:
338,267,46054,2,0,P|298:230|249:232,1,97.5,8|2,0:0|0:0,0:0:0:0:
432,329,46415,6,0,P|479:325|512:291,1,97.5,2|2,1:2|0:0,0:0:0:0:
434,203,46776,1,8,0:0:0:0:
322,354,46957,2,0,B|277:375|247:348|251:346|222:320|170:344,1,146.25,0|0,1:2|2:0,0:0:0:0:
163,351,47319,1,2,1:2:0:0:
238,262,47499,2,0,P|255:209|231:164,1,97.5,8|2,0:0|0:0,0:0:0:0:
144,15,47861,6,0,B|112:46|112:46|112:191,1,175.499994644165,6|0,1:2|0:0,0:0:0:0:
112,204,48222,1,8,0:0:0:0:
10,106,48403,1,0,1:2:0:0:
112,204,48584,6,0,P|169:204|196:172,1,97.5,8|0,0:0|0:0,0:0:0:0:
278,60,48945,6,0,P|227:62|200:94,1,87.7499973220826,10|0,0:3|0:0,0:0:0:0:
280,215,49307,6,0,P|346:213|449:217,1,156,6|0,1:2|0:0,0:0:0:0:
477,132,49849,1,0,1:2:0:0:
431,50,50029,2,0,B|383:28|353:66|358:70|322:106|268:77,1,156,8|2,0:0|3:0,0:0:0:0:
198,55,50572,1,0,3:0:0:0:
108,28,50752,6,0,P|58:21|28:76,1,117,2|0,1:2|2:0,0:0:0:0:
26,90,51114,2,0,P|37:136|38:179,1,78,2|0,1:2|0:0,0:0:0:0:
119,216,51475,2,0,P|121:177|131:139,1,78,8|0,0:0|0:0,0:0:0:0:
0,249,51837,2,0,P|59:235|127:232,1,117,2|0,0:0|2:0,0:0:0:0:
131,245,52198,6,0,B|179:267|209:229|204:225|240:189|294:218,1,156,2|0,1:2|0:0,0:0:0:0:
351,263,52740,1,0,1:2:0:0:
435,222,52921,2,0,P|480:179|435:103,1,156,10|0,0:0|3:0,0:0:0:0:
366,49,53463,1,0,3:0:0:0:
362,42,53554,1,0,3:0:0:0:
357,34,53644,6,0,P|301:44|237:44,1,117,2|0,1:2|2:0,0:0:0:0:
228,54,54005,2,0,P|185:40|137:39,1,78,0|0,1:2|0:0,0:0:0:0:
74,90,54367,1,8,0:0:0:0:
3,28,54548,1,0,0:0:0:0:
6,186,54728,2,0,P|54:174|104:174,1,78,2|0,0:0|3:0,0:0:0:0:
94,176,54999,1,0,3:0:0:0:
104,182,55090,6,0,P|143:201|196:116,1,156,6|0,1:2|0:0,0:0:0:0:
250,46,55632,1,0,1:2:0:0:
318,110,55813,2,0,B|366:132|396:94|391:90|427:54|481:83,1,156,8|2,0:0|3:0,0:0:0:0:
503,158,56355,1,2,3:0:0:0:
452,236,56535,6,0,P|412:217|339:221,1,117,2|0,1:2|2:0,0:0:0:0:
336,228,56897,2,0,P|349:180|325:148,1,78,2|0,1:2|0:0,0:0:0:0:
285,299,57258,2,0,P|272:347|296:379,1,78,10|0,0:0|0:0,0:0:0:0:
247,218,57620,2,0,P|201:217|179:245,1,78,2|0,0:0|3:0,0:0:0:0:
171,253,57891,1,0,3:0:0:0:
163,267,57981,6,0,P|98:285|59:208,1,156,2|2,1:2|0:0,0:0:0:0:
106,139,58523,1,2,1:2:0:0:
55,59,58704,2,0,P|9:75|-1:114,1,78,8|0,0:0|0:0,0:0:0:0:
131,7,59066,1,2,3:0:0:0:
190,79,59246,1,0,3:0:0:0:
194,92,59337,1,0,3:0:0:0:
198,105,59427,6,0,B|246:127|276:89|271:85|307:49|361:78,1,156,0|0,1:2|1:2,0:0:0:0:
429,102,59969,1,8,0:0:0:0:
441,91,60060,1,8,0:0:0:0:
454,79,60150,1,8,0:0:0:0:
345,154,60331,1,8,0:3:0:0:
491,217,60511,2,0,P|451:188|414:195,1,78,6|4,0:3|0:3,0:0:0:0:
360,353,60873,6,0,P|407:317|347:255,1,156,6|0,1:2|0:0,0:0:0:0:
280,201,61415,1,0,1:2:0:0:
204,255,61596,2,0,B|155:273|126:239|131:235|95:199|41:228,1,156,8|2,0:0|3:0,0:0:0:0:
10,140,62138,1,0,3:0:0:0:
10,140,62228,1,0,3:0:0:0:
10,140,62319,6,0,P|20:90|92:100,1,117,2|0,1:2|2:0,0:0:0:0:
92,89,62680,2,0,P|100:50|88:12,1,78,2|0,1:2|0:0,0:0:0:0:
160,161,63041,2,0,P|199:169|237:157,1,78,10|0,0:0|0:0,0:0:0:0:
265,69,63403,2,0,P|226:61|188:73,1,78,2|0,0:0|3:0,0:0:0:0:
179,86,63674,1,0,3:0:0:0:
179,86,63764,6,0,B|228:104|257:70|252:66|288:30|342:59,1,156,0|2,1:2|0:0,0:0:0:0:
409,90,64307,1,0,1:2:0:0:
468,18,64487,2,0,P|464:85|462:184,1,156,10|0,0:0|3:0,0:0:0:0:
490,263,65029,1,0,3:0:0:0:
495,274,65120,1,0,3:0:0:0:
499,285,65210,6,0,P|433:282|360:285,1,117,8|0,0:3|2:0,0:0:0:0:
367,285,65572,2,0,P|383:244|364:206,1,78,4|0,0:3|0:0,0:0:0:0:
279,306,65933,1,8,0:0:0:0:
351,365,66114,1,8,0:0:0:0:
292,223,66295,2,0,P|228:225|203:273,1,117,6|0,0:3|2:0,0:0:0:0:
186,279,66656,6,0,P|129:278|106:243,1,97.5,6|0,1:2|0:0,0:0:0:0:
186,139,67017,6,0,B|149:130|114:163|118:166|72:188|31:164|14:100|56:55|109:86,1,233.999992858887,6|10,1:2|0:3,0:0:0:0:
372,178,68102,6,0,P|428:171|440:132,1,97.5,6|0,1:2|0:0,0:0:0:0:
508,289,68463,6,0,P|473:266|420:267,1,87.7499973220826,6|0,1:2|0:0,0:0:0:0:
363,314,68825,5,8,0:0:0:0:
341,334,68915,1,8,0:0:0:0:
313,343,69005,1,8,0:0:0:0:
284,341,69096,1,8,0:0:0:0:
258,327,69186,1,10,0:0:0:0:
240,303,69276,1,8,0:0:0:0:
233,274,69367,1,10,0:0:0:0:
239,246,69457,1,8,0:0:0:0:
256,221,69548,6,0,B|216:242|178:212|184:208|144:175|104:204,1,160.875004909516,6|0,1:2|2:0,0:0:0:0:
86,217,69909,1,10,0:0:0:0:
199,129,70090,1,0,1:2:0:0:
3,175,70270,2,0,L|3:293,1,107.25000327301,2|0,0:0|1:2,0:0:0:0:
110,111,70632,1,10,0:0:0:0:
3,38,70813,1,2,0:0:0:0:
86,217,70993,6,0,P|153:230|199:140,1,160.875004909516,0|0,1:2|2:0,0:0:0:0:
199,129,71355,1,8,0:0:0:0:
111,32,71535,1,2,1:2:0:0:
283,171,71716,2,0,P|340:172|373:125,1,107.25000327301,0|2,0:0|1:2,0:0:0:0:
373,1,72078,2,0,P|316:0|283:47,1,107.25000327301,10|2,0:0|0:0,0:0:0:0:
45,143,72439,6,0,P|87:71|176:110,1,175.499994644165,6|0,1:2|0:0,0:0:0:0:
182,111,72801,5,8,0:0:0:0:
286,36,72981,1,0,1:2:0:0:
182,111,73162,1,8,0:0:0:0:
364,105,73343,1,0,1:2:0:0:
198,11,73523,1,8,0:0:0:0:
300,218,73704,1,0,1:2:0:0:
300,218,73795,1,0,1:2:0:0:
300,218,73885,5,8,0:0:0:0:
300,218,74969,1,8,0:0:0:0:
460,21,75150,2,0,P|452:56|448:86,1,58.4999982147217,8|4,0:3|0:3,0:0:0:0:
269,132,75331,6,0,B|343:98|389:145|385:151|430:190|493:169,1,233.999992858887,6|8,1:2|0:0,0:0:0:0:
373,43,75873,1,0,1:2:0:0:
300,218,76054,2,0,P|237:226|192:180,1,116.999996429443,2|0,0:0|1:2,0:0:0:0:
179,4,76415,2,0,L|179:196,1,175.499994644165,10|0,0:1|0:0,0:0:0:0:
183,197,76776,6,0,P|180:118|58:148,1,233.999992858887,2|10,1:0|0:0,0:0:0:0:
165,282,77319,1,0,1:2:0:0:
2,266,77499,2,0,P|42:224|104:241,1,116.999996429443,2|0,0:1|1:2,0:0:0:0:
224,348,77861,1,8,0:0:0:0:
315,212,78041,1,0,0:0:0:0:
497,314,78222,6,0,P|410:312|321:315,1,175.499994644165,2|0,1:0|2:0,0:0:0:0:
299,315,78584,1,10,0:0:0:0:
438,230,78764,1,0,1:2:0:0:
458,216,78855,1,0,1:2:0:0:
476,202,78945,2,0,P|497:140|465:99,1,116.999996429443,2|0,1:2|1:2,0:0:0:0:
286,32,79307,1,10,0:0:0:0:
397,150,79487,1,0,0:0:0:0:
467,10,79668,6,2,P|407:46|352:53,1,116.999996429443,2|0,1:2|0:0,1:2:0:0:
203,143,80029,2,0,P|260:154|308:186,1,116.999996429443,10|0,0:1|1:2,0:0:0:0:
187,11,80391,1,2,1:0:0:0:
75,131,80572,1,0,3:0:0:0:
57,148,80662,1,0,3:0:0:0:
39,166,80752,2,8,P|3:111|30:59,1,116.999996429443,10|0,0:1|0:0,0:0:0:0:
187,11,81114,6,8,L|187:250,1,233.999992858887,2|8,1:0|0:0,0:0:0:0:
294,368,81656,1,0,1:2:0:0:
393,237,81837,2,0,P|326:229|294:273,1,116.999996429443,2|0,0:0|1:2,0:0:0:0:
459,344,82198,1,8,0:0:0:0:
505,145,82379,1,0,1:2:0:0:
493,123,82469,1,0,1:2:0:0:
481,101,82560,6,8,B|407:67|361:114|365:120|320:159|257:138,1,233.999992858887,2|8,1:0|0:0,0:0:0:0:
137,31,83102,1,0,1:2:0:0:
90,187,83282,2,0,P|130:138|200:154,1,116.999996429443,0|0,0:0|1:2,0:0:0:0:
118,291,83644,1,10,0:0:0:0:
5,172,83825,1,0,0:0:0:0:
118,291,84005,6,0,P|205:289|311:290,1,175.499994644165,2|0,1:0|2:0,0:0:0:0:
316,290,84367,1,8,0:0:0:0:
407,176,84548,2,0,P|343:167|315:211,1,116.999996429443,2|0,1:2|0:0,0:0:0:0:
456,278,84909,1,2,1:2:0:0:
482,116,85090,2,0,P|438:67|389:83,1,116.999996429443,14|2,0:0|0:0,0:0:0:0:
191,135,85451,6,0,P|254:139|257:30,1,190.124991296769,6|0,1:2|0:0,0:0:0:0:
247,19,85813,1,10,0:1:0:0:
315,204,85993,1,0,1:2:0:0:
106,140,86174,6,0,P|138:113|180:121,1,87.7499973220826,10|0,0:1|1:2,0:0:0:0:
315,292,86535,6,0,P|271:290|253:275,1,68.2499979171753,10|8,0:1|0:0,0:0:0:0:
315,204,86716,2,0,P|348:201|376:220,1,68.2499979171753,8|8,0:3|0:3,0:0:0:0:
437,329,86897,6,0,B|373:296|318:342|325:344|267:387|212:362,1,233.999992858887,6|8,1:0|0:0,0:0:0:0:
104,243,87439,1,0,1:2:0:0:
237,147,87620,2,0,P|312:163|318:217,1,116.999996429443,2|0,0:1|1:2,0:0:0:0:
431,315,87981,2,0,L|431:116,1,175.499994644165,8|0,0:0|2:0,0:0:0:0:
437,112,88343,6,0,B|373:145|318:99|325:97|267:54|212:79,1,233.999992858887,2|10,1:0|0:0,0:0:0:0:
99,193,88885,1,0,1:2:0:0:
12,53,89066,2,0,P|76:41|113:91,1,116.999996429443,2|0,0:1|1:2,0:0:0:0:
192,215,89427,1,10,0:0:0:0:
12,161,89608,1,0,0:0:0:0:
191,0,89788,6,0,L|191:197,1,190.124991296769,6|0,1:0|2:0,0:0:0:0:
192,215,90150,1,8,0:0:0:0:
54,348,90331,6,0,P|16:288|46:233,1,136.499995834351,2|0,1:2|0:0,1:0:0:0:
252,304,90692,2,0,P|171:331|129:303,1,136.499995834351,2|0,1:2|0:0,1:0:0:0:
103,175,91054,6,0,B|151:149|193:184|187:186|232:218|274:199,1,175.499994644165,6|0,1:2|2:0,0:0:0:0:
283,184,91415,1,0,1:2:0:0:
423,268,91596,1,8,0:0:0:0:
501,93,91776,6,0,P|447:51|371:133,1,190.124991296769,6|0,1:0|2:0,0:0:0:0:
371,149,92138,1,2,1:2:0:0:
226,20,92319,1,10,0:1:0:0:
103,175,92499,1,10,0:0:0:0:
109,193,92590,1,8,0:0:0:0:
115,209,92680,6,0,B|141:244|196:241|196:241|255:162|196:89,1,233.999992858887,6|8,1:2|0:0,0:0:0:0:
71,19,93222,1,0,1:2:0:0:
209,107,93403,2,0,P|272:110|299:57,1,116.999996429443,2|0,0:0|1:2,0:0:0:0:
71,19,93764,1,8,0:0:0:0:
209,107,93945,1,2,0:0:0:0:
4,199,94126,6,0,P|49:152|107:164,1,116.999996429443,2|0,1:0|0:0,0:0:0:0:
139,370,94487,2,0,P|83:319|143:249,1,175.499994644165,10|0,0:0|2:0,0:0:0:0:
152,244,94849,1,2,0:1:0:0:
292,326,95029,1,0,1:2:0:0:
342,170,95210,2,0,P|279:166|244:217,1,116.999996429443,10|2,0:0|0:0,0:0:0:0:
425,267,95572,6,0,L|425:78,1,175.499994644165,2|0,1:0|2:0,0:0:0:0:
423,69,95933,1,10,0:0:0:0:
266,18,96114,2,0,P|205:13|175:66,1,116.999996429443,2|0,1:2|0:0,0:0:0:0:
218,212,96475,1,2,1:2:0:0:
83,117,96656,1,10,0:0:0:0:
218,212,96837,1,2,0:0:0:0:
21,202,97017,5,2,1:2:0:0:
243,112,97198,1,2,0:0:0:0:
81,301,97379,1,10,0:0:0:0:
21,58,97560,1,10,0:0:0:0:
18,43,97650,1,8,0:0:0:0:
15,28,97740,1,10,0:0:0:0:
119,208,97921,1,8,0:3:0:0:
175,54,98102,1,4,0:3:0:0:
303,195,98282,1,8,0:0:0:0:
318,198,98373,1,8,0:0:0:0:
333,201,98463,6,0,P|388:188|381:87,1,175.499994644165,6|2,1:2|1:2,0:0:0:0:
301,17,99005,2,0,L|301:198,1,175.499994644165,10|2,0:0|1:2,0:0:0:0:
350,286,99548,1,10,0:0:0:0:
267,351,99728,1,2,0:0:0:0:
181,289,99909,6,0,B|147:272|114:299|120:303|92:324|48:310,1,131.624995983124,2|0,1:2|2:0,0:0:0:0:
39,308,100270,1,2,1:2:0:0:
6,207,100451,2,0,P|15:153|117:191,1,175.499994644165,10|2,0:0|1:2,0:0:0:0:
213,196,100993,2,0,B|247:213|280:186|274:182|302:161|346:175,1,131.624995983124,8|0,0:0|2:0,0:0:0:0:
356,180,101355,6,0,P|412:178|390:74,1,175.499994644165,0|2,1:2|1:2,0:0:0:0:
317,30,101897,2,0,P|275:48|159:49,1,131.624995983124,8|0,0:0|0:0,0:0:0:0:
177,48,102258,1,2,1:2:0:0:
95,115,102439,2,0,P|56:88|15:96,1,87.7499973220826,10|2,0:0|0:0,0:0:0:0:
123,211,102801,6,0,P|172:197|188:158,1,87.7499973220826,2|2,1:2|0:0,0:0:0:0:
95,115,103162,1,2,1:2:0:0:
18,188,103343,2,0,L|18:338,1,131.624995983124,10|0,0:0|0:0,0:0:0:0:
18,340,103704,1,2,1:2:0:0:
184,339,103885,6,0,P|155:301|108:300,1,97.5,14|2,0:0|0:0,0:0:0:0:
270,310,104246,6,0,P|333:347|359:223,1,233.999992858887,6|10,1:2|0:0,0:0:0:0:
254,115,104788,1,2,1:2:0:0:
371,231,104969,2,0,P|442:225|454:175,1,116.999996429443,0|2,0:0|1:2,0:0:0:0:
326,50,105331,1,8,0:0:0:0:
142,196,105511,2,0,P|187:188|206:175,1,58.4999982147217,2|0,3:0|3:0,0:0:0:0:
146,62,105692,6,0,B|137:95|137:95|149:122,1,58.4999982147217,8|0,0:0|1:2,0:0:0:0:
0,212,106054,6,0,P|35:147|134:188,1,190.124991296769,14|0,0:0|2:0,0:0:0:0:
142,196,106415,5,2,0:0:0:0:
18,69,106596,1,2,1:2:0:0:
72,291,106776,6,0,P|132:282|256:285,1,175.499994644165,8|0,0:0|0:0,0:0:0:0:
264,293,107138,6,0,P|196:255|293:192,1,214.500006546021,6|8,1:2|0:0,0:0:0:0:
383,233,107680,1,0,3:0:0:0:
395,239,107770,1,0,3:0:0:0:
407,247,107861,2,0,P|467:232|474:176,1,107.25000327301,0|0,1:2|1:2,0:0:0:0:
393,97,108222,1,8,0:0:0:0:
292,177,108403,1,0,0:0:0:0:
208,78,108584,6,0,B|259:51|259:51|307:81,1,107.25000327301,0|0,1:2|1:2,0:0:0:0:
164,168,108945,1,8,0:0:0:0:
77,4,109126,6,0,L|77:170,1,160.875004909516,6|0,1:2|2:0,0:0:0:0:
77,188,109487,1,0,1:2:0:0:
29,307,109668,2,0,P|74:271|129:283,1,107.25000327301,10|8,0:0|0:0,0:0:0:0:
137,287,109939,1,8,0:0:0:0:
153,297,110029,6,0,P|74:331|14:226,1,214.500006546021,6|8,1:2|0:0,0:0:0:0:
177,206,110572,1,0,3:0:0:0:
192,213,110662,1,0,3:0:0:0:
206,220,110752,2,0,P|236:164|205:122,1,107.25000327301,0|0,1:2|1:2,0:0:0:0:
115,43,111114,1,8,0:0:0:0:
210,129,111295,1,0,0:0:0:0:
288,0,111475,6,0,P|239:43|189:40,1,107.25000327301,0|0,1:2|1:2,0:0:0:0:
321,120,111837,1,8,0:0:0:0:
442,3,112017,6,0,B|412:28|412:28|412:164,1,160.875004909516,6|0,1:2|2:0,0:0:0:0:
412,177,112379,1,0,1:2:0:0:
508,304,112560,2,0,P|533:254|506:209,1,107.25000327301,10|8,0:0|0:3,0:0:0:0:
494,198,112831,1,8,0:3:0:0:
494,198,112921,6,0,B|427:160|388:202|396:206|356:244|288:224,1,214.500006546021,6|10,1:2|0:0,0:0:0:0:
184,156,113463,1,2,3:0:0:0:
172,142,113554,1,0,3:0:0:0:
159,128,113644,2,0,P|197:81|259:104,1,107.25000327301,0|2,1:2|1:2,0:0:0:0:
121,222,114005,1,10,0:0:0:0:
23,137,114186,1,0,0:0:0:0:
28,270,114367,6,0,P|92:269|119:235,1,107.25000327301,0|0,1:2|1:2,0:0:0:0:
156,116,114728,1,8,0:0:0:0:
17,0,114909,6,0,L|17:173,1,160.875004909516,6|0,1:2|2:0,0:0:0:0:
17,181,115270,1,0,0:0:0:0:
191,304,115451,2,0,P|197:236|104:240,1,160.875004909516,10|0,0:0|2:0,0:0:0:0:
116,228,115813,6,0,P|150:188|146:158,1,78,0|0,1:2|0:0,0:0:0:0:
169,73,116174,2,0,P|199:109|237:111,1,78,0|0,1:2|0:0,0:0:0:0:
348,26,116535,2,0,P|309:45|271:46,1,78,0|0,1:2|0:0,0:0:0:0:
386,155,116897,2,0,P|347:136|309:135,1,78,0|0,1:2|0:0,0:0:0:0:
511,37,117258,5,8,0:3:0:0:
490,57,117349,1,8,0:3:0:0:
462,67,117439,2,0,P|421:74|400:68,1,43.8749986610413,8|0,0:3|0:0,0:0:0:0:
503,202,117620,6,0,P|462:161|394:161,1,116.999996429443,8|0,0:0|0:0,0:0:0:0:
341,358,117981,5,0,1:2:0:0:
386,358,118072,1,0,1:2:0:0:
420,327,118162,1,8,0:0:0:0:
425,282,118252,1,8,0:0:0:0:
398,245,118343,2,0,P|358:224|331:226,1,58.4999982147217,8|8,0:0|0:0,0:0:0:0:
227,304,118523,2,0,P|255:299|279:283,1,58.4999982147217,8|8,0:0|0:0,0:0:0:0:
247,166,118704,6,0,B|197:142|162:177|169:180|144:213|83:198,1,160.875004909516,6|0,1:2|0:0,0:0:0:0:
68,192,119066,1,10,0:0:0:0:
150,93,119246,1,0,0:0:0:0:
88,274,119427,2,0,P|35:275|-3:230,1,107.25000327301,2|0,0:0|1:2,0:0:0:0:
74,54,119788,1,10,0:0:0:0:
245,184,119969,6,0,L|427:184,1,160.875004909516,2|0,0:0|2:0,0:0:0:0:
430,184,120331,1,2,0:0:0:0:
488,69,120511,2,0,P|442:35|390:54,1,107.25000327301,10|2,0:0|1:2,0:0:0:0:
430,184,120873,1,2,0:0:0:0:
315,41,121054,1,0,1:2:0:0:
245,184,121234,2,0,P|295:195|335:162,1,107.25000327301,8|0,0:0|0:0,0:0:0:0:
162,3,121596,6,0,L|162:172,1,160.875004909516,2|0,1:2|0:0,0:0:0:0:
162,184,121957,2,0,P|121:148|61:160,1,107.25000327301,10|0,0:0|0:0,0:0:0:0:
128,268,122319,1,2,0:0:0:0:
245,184,122499,1,2,1:2:0:0:
50,254,122680,1,10,0:0:0:0:
246,336,122861,6,0,P|291:275|249:196,1,160.875004909516,2|0,0:0|2:0,0:0:0:0:
245,184,123222,1,2,0:0:0:0:
385,265,123403,1,10,0:0:0:0:
245,184,123584,1,2,1:2:0:0:
353,351,123764,1,2,0:0:0:0:
328,120,123945,1,0,1:2:0:0:
204,264,124126,1,10,0:0:0:0:
410,175,124307,1,0,0:0:0:0:
222,76,124487,5,0,1:2:0:0:
385,265,124668,1,2,0:0:0:0:
136,213,124849,2,0,P|170:177|226:181,1,107.25000327301,10|2,0:0|1:2,0:0:0:0:
111,316,125210,2,0,P|47:321|19:291,1,107.25000327301,2|2,0:0|1:2,0:0:0:0:
52,116,125572,1,10,0:0:0:0:
204,264,125752,1,2,0:0:0:0:
318,78,125933,6,0,P|262:57|215:83,1,107.25000327301,2|2,1:2|0:0,0:0:0:0:
311,204,126295,1,10,0:0:0:0:
136,22,126475,2,0,L|136:197,1,160.875004909516,2|0,1:2|2:0,0:0:0:0:
136,213,126837,1,2,1:2:0:0:
277,336,127017,2,0,P|302:283|219:267,1,160.875004909516,10|0,0:0|2:0,0:0:0:0:
204,264,127379,6,0,P|268:247|273:195,1,107.25000327301,2|0,1:2|0:0,0:0:0:0:
223,95,127740,1,8,0:0:0:0:
399,166,127921,2,0,P|355:126|306:136,1,107.25000327301,2|0,1:2|0:0,0:0:0:0:
412,269,128282,2,0,P|463:273|499:235,1,107.25000327301,2|10,1:2|0:0,0:0:0:0:
424,67,128644,1,0,0:0:0:0:
279,201,128825,5,0,1:2:0:0:
489,137,129005,1,0,3:0:0:0:
303,31,129186,1,8,0:0:0:0:
412,269,129367,1,6,1:2:0:0:
205,155,129548,2,0,P|244:112|299:122,1,107.25000327301,0|0,0:0|1:2,0:0:0:0:
333,331,129909,1,8,0:0:0:0:
306,304,129999,1,8,0:0:0:0:
270,291,130090,1,8,0:3:0:0:
232,296,130180,1,8,0:3:0:0:
198,312,130270,6,0,P|145:325|119:228,1,160.875004909516,6|0,1:2|0:0,0:0:0:0:
118,219,130632,1,8,0:0:0:0:
40,115,130813,1,0,1:2:0:0:
118,219,130993,2,0,P|182:218|205:170,1,107.25000327301,0|2,0:0|1:2,0:0:0:0:
106,53,131355,1,8,0:0:0:0:
0,219,131535,6,0,P|84:218|128:220,1,107.25000327301,2|0,0:0|1:2,0:0:0:0:
264,87,131897,2,0,P|198:83|172:122,1,107.25000327301,2|8,0:0|0:0,0:0:0:0:
313,248,132258,2,0,P|391:260|428:180,1,160.875004909516,2|0,1:2|0:0,0:0:0:0:
426,175,132620,1,0,1:2:0:0:
368,8,132801,2,0,P|341:58|350:108,1,107.25000327301,8|2,0:0|3:0,0:0:0:0:
361,126,133072,1,0,3:0:0:0:
361,126,133162,6,0,P|269:123|185:126,1,160.875004909516,0|0,1:2|2:0,0:0:0:0:
176,126,133523,1,8,0:0:0:0:
131,246,133704,2,0,P|179:251|215:199,1,107.25000327301,2|0,1:2|0:0,0:0:0:0:
83,108,134066,1,2,1:2:0:0:
5,211,134246,1,8,0:0:0:0:
176,126,134427,6,0,B|194:69|194:69|168:19,1,107.25000327301,2|0,0:0|1:2,0:0:0:0:
0,101,134788,2,0,B|-18:158|-18:158|8:208,1,107.25000327301,2|8,0:0|0:0,0:0:0:0:
82,302,135150,2,0,P|175:300|270:302,1,160.875004909516,2|0,1:2|0:0,0:0:0:0:
269,300,135511,1,0,1:2:0:0:
415,162,135692,2,0,P|361:216|319:211,1,107.25000327301,8|2,0:0|3:0,0:0:0:0:
314,209,135963,1,0,3:0:0:0:
314,209,136054,6,0,B|365:190|399:224|393:228|435:255|483:233,1,160.875004909516,0|0,1:2|0:0,0:0:0:0:
491,223,136415,1,8,0:0:0:0:
489,94,136596,2,0,P|436:98|410:144,1,107.25000327301,2|0,1:2|0:0,0:0:0:0:
314,209,136957,1,2,1:2:0:0:
246,98,137138,1,8,0:0:0:0:
314,209,137319,1,2,0:0:0:0:
135,215,137499,6,0,P|185:174|230:185,1,107.25000327301,0|2,1:2|0:0,0:0:0:0:
281,295,137861,1,8,0:0:0:0:
51,315,138041,2,0,L|51:153,1,160.875004909516,2|0,1:2|0:0,0:0:0:0:
51,125,138403,1,0,1:2:0:0:
143,35,138584,2,0,P|223:43|242:74,1,107.25000327301,8|2,0:0|3:0,0:0:0:0:
248,80,138855,1,2,3:0:0:0:
248,80,138945,6,0,P|328:104|368:33,1,160.875004909516,2|0,1:2|2:0,0:0:0:0:
370,22,139307,1,8,0:0:0:0:
483,145,139487,2,0,B|505:94|505:94|482:43,1,107.25000327301,2|0,1:2|0:0,0:0:0:0:
364,192,139849,1,2,1:2:0:0:
499,280,140029,1,8,0:0:0:0:
364,192,140210,1,2,0:0:0:0:
316,334,140391,6,0,P|369:341|406:304,1,107.25000327301,14|0,0:0|1:2,0:0:0:0:
274,174,140752,1,0,1:2:0:0:
175,237,140933,6,0,L|175:333,1,87.7499973220826,8|0,0:3|0:0,0:0:0:0:
274,174,141295,1,2,0:0:0:0:
174,74,141475,6,0,P|107:73|84:117,1,116.999996429443,8|8,0:0|0:0,0:0:0:0:
67,127,141746,1,8,0:0:0:0:
67,127,141837,6,0,P|83:71|54:26,1,107.25000327301,6|2,1:2|0:0,0:0:0:0:
7,208,142198,1,8,0:0:0:0:
86,309,142379,2,0,P|158:306|269:308,1,160.875004909516,2|0,1:2|2:0,0:0:0:0:
274,308,142740,1,2,1:2:0:0:
320,166,142921,2,0,P|279:207|227:210,1,107.25000327301,10|2,0:0|0:0,0:0:0:0:
397,344,143282,6,0,P|459:289|399:190,1,214.500006546021,2|10,1:2|0:0,0:0:0:0:
311,85,143825,1,2,1:2:0:0:
401,190,144005,2,0,P|459:190|484:136,1,107.25000327301,2|2,0:0|1:2,0:0:0:0:
375,19,144367,1,10,0:0:0:0:
238,136,144548,1,10,0:0:0:0:
238,136,144638,1,8,0:0:0:0:
238,136,144728,6,0,B|194:156|158:133|163:129|123:98|79:124,1,160.875004909516,6|0,1:2|2:0,0:0:0:0:
66,134,145090,1,8,0:0:0:0:
177,48,145270,1,0,1:2:0:0:
108,213,145451,1,8,0:0:0:0:
75,17,145632,1,8,0:3:0:0:
238,136,145813,1,4,0:3:0:0:
0,147,145993,2,0,P|37:141|60:130,1,53.6250016365052,4|4,0:3|0:3,0:0:0:0:
183,31,146174,6,0,B|123:78|101:180|146:233|218:236|274:183|229:122,1,321.74999018097,6|0,1:2|2:0,0:0:0:0:
230,123,147258,6,0,P|191:104|164:107,1,58.5,8|0,0:3|2:0,0:0:0:0:
236,135,147620,6,0,P|307:151|337:98,1,136.499995834351,6|0,1:2|1:2,0:0:0:0:
378,34,148162,1,2,0:0:0:0:
432,95,148343,2,0,P|426:162|428:246,1,136.499995834351,2|0,1:2|1:2,0:0:0:0:
471,299,148885,1,0,0:0:0:0:
407,350,149066,6,0,P|353:323|296:338,1,102.374996875763,2|0,1:2|2:0,0:0:0:0:
299,335,149427,1,2,1:2:0:0:
238,269,149608,1,2,0:0:0:0:
155,308,149788,2,0,P|213:316|235:273,1,102.374996875763,2|0,1:2|2:0,0:0:0:0:
238,269,150150,1,2,1:2:0:0:
185,205,150331,1,0,3:0:0:0:
174,195,150421,1,0,3:0:0:0:
160,184,150511,6,0,P|123:207|94:213,1,68.2499979171753,2|0,1:2|0:0,0:0:0:0:
158,99,150873,1,2,1:2:0:0:
230,137,151054,1,2,0:0:0:0:
82,8,151234,2,0,L|82:121,1,102.374996875763,2|0,1:2|2:0,0:0:0:0:
82,127,151596,1,2,1:2:0:0:
30,260,151776,1,2,0:0:0:0:
99,212,151957,6,0,B|142:196|172:220|168:227|201:246|243:235,1,136.499995834351,0|0,1:2|1:2,0:0:0:0:
295,190,152499,1,0,3:0:0:0:
371,161,152680,2,0,P|415:161|436:181,1,68.2499979171753,0|0,1:2|3:0,0:0:0:0:
479,242,153041,1,0,1:2:0:0:
428,306,153222,1,2,3:0:0:0:
423,320,153313,1,0,3:0:0:0:
417,335,153403,6,0,P|367:331|279:334,1,136.499995834351,2|0,1:2|1:2,0:0:0:0:
212,288,153945,1,2,0:0:0:0:
230,207,154126,2,0,P|291:218|308:140,1,136.499995834351,2|0,1:2|1:2,0:0:0:0:
292,80,154668,1,2,0:0:0:0:
226,30,154849,6,0,B|183:14|153:38|157:45|124:64|82:53,1,136.499995834351,0|0,1:2|1:2,0:0:0:0:
28,101,155391,1,2,0:0:0:0:
64,174,155572,2,0,P|101:148|138:148,1,68.2499979171753,0|0,1:2|3:0,0:0:0:0:
137,149,155843,1,0,3:0:0:0:
150,155,155933,2,0,L|150:231,1,68.2499979171753,0|2,1:2|0:0,0:0:0:0:
218,269,156295,6,0,B|175:253|145:277|149:284|116:303|74:292,2,136.499995834351,2|2|0,1:2|1:2|1:2,0:0:0:0:
289,308,157198,1,2,3:0:0:0:
297,319,157288,1,0,3:0:0:0:
304,330,157379,2,0,P|348:320|375:318,1,68.2499979171753,2|2,1:2|0:0,0:0:0:0:
451,337,157740,6,0,P|483:293|452:223,1,136.499995834351,0|0,1:2|1:2,0:0:0:0:
386,175,158282,1,0,3:0:0:0:
386,175,158373,1,0,3:0:0:0:
386,175,158463,1,0,3:0:0:0:
463,143,158644,1,0,3:0:0:0:
385,51,158825,2,0,L|385:173,1,102.374996875763,2|0,3:0|2:0,0:0:0:0:
386,175,159186,6,0,P|358:126|281:150,1,136.499995834351,6|0,1:2|1:2,0:0:0:0:
226,193,159728,1,2,0:0:0:0:
152,158,159909,2,0,P|134:120|149:87,1,68.2499979171753,0|2,1:2|3:0,0:0:0:0:
151,80,160180,1,0,3:0:0:0:
151,80,160270,2,0,L|227:80,1,68.2499979171753,0|2,1:2|3:0,0:0:0:0:
51,17,160632,6,0,P|53:70|52:162,1,136.499995834351,0|0,1:2|1:2,0:0:0:0:
10,224,161174,1,0,0:0:0:0:
69,280,161355,2,0,P|104:255|139:255,1,68.2499979171753,0|0,1:2|0:0,0:0:0:0:
193,303,161716,1,0,1:2:0:0:
248,242,161897,1,2,0:0:0:0:
306,300,162078,6,0,P|352:318|403:242,1,136.499995834351,2|2,1:2|1:2,0:0:0:0:
403,179,162620,1,2,0:0:0:0:
345,120,162801,2,0,P|300:120|285:144,1,68.2499979171753,0|2,1:2|3:0,0:0:0:0:
275,149,163072,1,0,3:0:0:0:
275,149,163162,2,0,P|230:149|215:125,1,68.2499979171753,0|2,1:2|3:0,0:0:0:0:
170,65,163523,5,0,0:0:0:0:
124,133,163704,1,2,0:0:0:0:
35,86,163885,2,0,P|64:57|98:63,1,68.2499979171753,2|2,1:2|0:0,0:0:0:0:
81,204,164246,1,2,1:2:0:0:
11,160,164427,1,2,3:0:0:0:
90,283,164608,1,2,1:2:0:0:
160,239,164788,1,2,0:0:0:0:
13,314,164969,6,0,P|0:278|15:248,1,68.2499979171753,2|2,1:2|0:0,0:0:0:0:
90,283,165331,2,0,P|103:319|88:349,1,68.2499979171753,2|2,1:2|0:0,0:0:0:0:
160,239,165692,2,0,P|199:229|232:251,1,68.2499979171753,2|0,1:2|3:0,0:0:0:0:
237,251,165963,1,0,3:0:0:0:
237,251,166054,2,0,P|276:261|309:239,1,68.2499979171753,2|2,1:2|3:0,0:0:0:0:
349,183,166415,6,0,P|378:146|457:182,1,136.499995834351,0|0,1:2|1:2,0:0:0:0:
496,101,166957,1,0,0:0:0:0:
448,34,167138,2,0,P|411:60|375:60,1,68.2499979171753,0|2,1:2|0:0,0:0:0:0:
260,6,167499,2,0,P|302:4|327:26,1,68.2499979171753,2|2,1:2|0:0,0:0:0:0:
262,126,167861,6,0,P|214:124|133:125,1,117,2|0,1:2|2:0,0:0:0:0:
130,129,168222,2,0,P|143:85|127:55,1,78,0|2,1:2|0:0,0:0:0:0:
177,210,168584,1,0,1:2:0:0:
38,236,168764,1,2,3:0:0:0:
38,236,168855,1,0,3:0:0:0:
38,236,168945,2,0,P|72:201|108:209,1,78,0|2,1:2|3:0,0:0:0:0:
185,323,169307,6,0,P|137:300|94:301,1,87.7499973220826,0|0,1:2|0:0,0:0:0:0:
266,178,169668,2,0,P|219:216|176:215,1,87.7499973220826,0|0,1:2|0:0,0:0:0:0:
276,312,170029,6,0,B|321:291|364:320|361:326|401:351|450:328,1,175.499994644165,8|0,0:0|2:0,0:0:0:0:
509,269,170391,6,0,P|470:274|450:329,1,87.7499973220826,8|0,0:3|2:0,0:0:0:0:
444,330,170752,6,0,P|445:237|445:169,1,136.499995834351,6|2,1:2|0:0,0:0:0:0:
399,125,171295,1,0,0:0:0:0:
333,173,171475,2,0,B|292:184|263:168|266:164|228:143|199:161,1,136.499995834351,10|2,0:0|1:2,0:0:0:0:
135,210,172017,1,0,3:0:0:0:
62,172,172198,6,0,P|48:134|60:107,1,68.2499979171753,2|0,0:0|0:0,0:0:0:0:
108,44,172560,2,0,P|172:50|256:44,2,136.499995834351,2|10|2,1:2|0:0|0:0,0:0:0:0:
29,20,173463,1,0,3:0:0:0:
29,20,173554,1,0,3:0:0:0:
29,20,173644,6,0,P|31:91|30:176,1,136.499995834351,2|2,1:2|0:0,0:0:0:0:
9,235,174186,1,0,0:0:0:0:
46,308,174367,2,0,P|90:273|175:286,1,136.499995834351,10|2,0:0|1:2,0:0:0:0:
234,325,174909,1,0,3:0:0:0:
291,266,175090,6,0,P|265:235|230:234,1,68.2499979171753,0|0,3:0|0:0,0:0:0:0:
314,347,175451,2,0,P|378:341|462:347,2,136.499995834351,0|8|2,1:2|0:0|0:0,0:0:0:0:
291,266,176355,1,2,0:0:0:0:
371,249,176535,6,0,P|418:238|404:152,1,136.499995834351,2|2,1:2|0:0,0:0:0:0:
276,80,177258,2,0,P|241:109|151:106,1,136.499995834351,10|4,0:0|3:0,0:0:0:0:
92,52,177801,1,10,0:0:0:0:
9,158,177981,6,0,P|31:129|68:125,1,68.2499979171753,0|8,0:0|0:0,0:0:0:0:
136,183,178343,2,0,B|99:197|69:180|74:176|35:155|-11:179,2,136.499995834351,2|10|2,1:2|0:0|0:0,0:0:0:0:
196,127,179246,1,0,3:0:0:0:
201,115,179337,1,0,3:0:0:0:
208,99,179427,6,0,P|250:77|305:140,1,136.499995834351,2|2,1:2|0:0,0:0:0:0:
357,196,179969,1,0,0:0:0:0:
438,185,180150,2,0,P|479:157|446:78,1,136.499995834351,10|2,0:0|1:2,0:0:0:0:
393,32,180692,1,8,0:0:0:0:
327,80,180873,6,0,P|283:89|253:76,1,68.2499979171753,2|0,0:0|0:0,0:0:0:0:
197,30,181234,1,0,1:2:0:0:
153,99,181415,1,0,0:0:0:0:
8,72,181596,2,0,P|24:34|120:50,1,136.499995834351,12|8,0:0|0:0,0:0:0:0:
153,99,182138,1,8,0:0:0:0:
134,179,182319,6,0,P|66:175|-1:177,1,136.499995834351,6|2,1:2|0:0,0:0:0:0:
258,286,183041,2,0,P|307:297|345:215,1,136.499995834351,8|0,0:0|1:2,0:0:0:0:
273,206,183584,1,10,0:0:0:0:
251,285,183764,2,0,P|205:292|182:275,1,68.2499979171753,0|8,0:0|0:0,0:0:0:0:
136,204,184126,6,0,P|204:207|272:205,2,136.499995834351,2|8|2,1:2|0:0|0:0,0:0:0:0:
89,135,185029,1,0,0:0:0:0:
146,76,185210,2,0,B|183:62|213:79|208:83|247:104|293:80,1,136.499995834351,2|2,1:2|0:0,0:0:0:0:
338,28,185752,1,2,0:0:0:0:
398,82,185933,6,0,P|431:34|505:51,1,136.499995834351,8|0,0:0|1:2,0:0:0:0:
473,123,186475,1,10,0:0:0:0:
411,177,186656,2,0,P|365:162|334:160,1,68.2499979171753,0|10,0:0|0:0,0:0:0:0:
364,285,187017,2,0,P|410:270|489:265,1,102.374996875763,0|0,1:2|2:0,0:0:0:0:
475,267,187379,2,0,P|496:241|486:202,1,68.2499979171753,8|2,0:0|0:0,0:0:0:0:
285,223,187740,2,0,L|285:344,1,102.374996875763,10|0,0:3|2:0,0:0:0:0:
285,338,188102,6,0,P|246:302|193:313,1,107.25000327301,6|0,1:2|0:0,0:0:0:0:
8,317,188463,2,0,P|59:325|96:289,1,107.25000327301,2|0,1:2|0:0,0:0:0:0:
127,204,188825,5,8,0:0:0:0:
183,296,189005,1,8,0:0:0:0:
37,232,189186,1,8,0:0:0:0:
187,148,189367,1,8,0:0:0:0:
37,52,189548,6,0,L|37:221,1,160.875004909516,6|0,1:2|2:0,0:0:0:0:
37,232,189909,2,0,P|78:197|133:208,1,107.25000327301,2|0,1:2|3:0,0:0:0:0:
189,254,190180,1,0,3:0:0:0:
202,268,190270,5,8,0:0:0:0:
290,110,190451,1,0,1:2:0:0:
400,272,190632,6,0,P|302:271|224:272,1,175.499994644165,8|0,0:0|2:0,0:0:0:0:
202,268,190993,6,0,P|276:252|250:135,1,214.500006546021,6|8,1:2|0:0,0:0:0:0:
172,41,191535,1,0,1:2:0:0:
257,138,191716,2,0,P|319:130|340:88,1,107.25000327301,2|0,0:0|1:2,0:0:0:0:
83,0,192078,2,0,L|83:162,1,160.875004909516,10|0,0:0|2:0,0:0:0:0:
72,182,192439,6,0,B|122:157|156:188|152:194|188:226|242:205,1,160.875004909516,0|0,1:2|2:0,0:0:0:0:
244,195,192801,1,8,0:0:0:0:
105,263,192981,1,0,1:2:0:0:
224,116,193162,1,0,0:0:0:0:
197,335,193343,1,0,1:2:0:0:
0,228,193523,2,0,P|46:183|90:195,1,107.25000327301,8|0,0:0|0:0,0:0:0:0:
244,195,193885,6,0,P|192:197|151:144,1,116.999996429443,14|0,0:0|0:0,0:0:0:0:
283,49,194246,1,8,0:3:0:0:
390,138,194427,6,0,P|388:202|389:256,1,116.999996429443,8|0,0:3|0:0,0:0:0:0:
224,116,194788,1,8,0:3:0:0:
477,25,194969,6,0,P|475:127|475:212,1,175.499994644165,4|0,0:3|2:0,0:0:0:0:
477,227,195331,5,14,0:0:0:0:
316,181,195511,1,8,0:3:0:0:
477,227,195692,1,4,0:3:0:0:
240,247,195873,5,14,0:0:0:0:
394,118,196054,1,8,0:3:0:0:
240,247,196234,1,4,0:3:0:0:
449,328,196415,5,8,0:0:0:0:
298,157,196596,6,0,B|244:130|207:163|211:169|172:204|114:181,1,190.124991296769,6|0,1:2|2:0,0:0:0:0:
94,177,196957,1,8,0:0:0:0:
250,262,197138,1,8,0:0:0:0:
107,77,197319,1,0,1:2:0:0:
11,282,197499,6,0,P|74:298|73:182,1,204.749993751526,14|0,0:0|2:0,0:0:0:0:
75,170,198222,6,0,B|135:179|156:135|155:132|184:86|253:85|285:146|272:204|202:199,1,292.5,2|0,0:0|2:0,0:0:0:0:
198,207,199668,6,0,P|147:193|194:59,1,234,2|2,0:0|0:0,0:0:0:0:
248,17,200933,1,2,0:0:0:0:
299,77,201114,6,0,B|348:84|366:48|365:46|389:8|445:8|471:57|460:105|403:100,1,234,2|2,0:0|0:0,0:0:0:0:
409,186,202379,1,0,3:0:0:0:
409,186,202469,1,0,3:0:0:0:
409,186,202560,6,0,B|361:172|325:157|325:157|299:170|303:198,1,136.5,2|0,0:0|2:0,0:0:0:0:
294,213,203282,6,0,B|246:199|210:184|210:184|184:197|188:225,1,136.5,2|0,0:0|2:0,0:0:0:0:
185,233,204005,6,0,P|144:226|100:229,2,78,2|2|2,0:0|0:0|0:0,0:0:0:0:
199,240,205090,2,0,P|192:200|192:192,1,39
143,70,205451,2,0,P|142:108|135:147,1,78,2|2,0:0|0:0,0:0:0:0:
128,157,206174,6,0,P|72:152|40:154,1,78,2|0,0:0|0:0,0:0:0:0:
143,70,206716,1,0,0:0:0:0:
211,124,206897,2,0,P|249:133|292:103,1,78,2|2,0:0|0:0,0:0:0:0:
328,53,207439,2,0,P|366:44|409:74,1,78,2|2,0:0|0:0,0:0:0:0:
435,125,207981,2,0,P|430:162|430:178,1,39,2|2,0:0|0:0,0:0:0:0:
423,240,208343,6,0,P|374:233|335:232,1,78,2|2,0:0|0:0,0:0:0:0:
238,333,209066,2,0,P|278:333|298:298,1,78,2|2,0:0|3:0,0:0:0:0:
192,198,209788,6,0,B|149:180|125:203|128:208|101:232|46:217,1,136.499995834351,6|0,1:2|0:0,0:0:0:0:
61,56,210511,2,0,P|107:32|175:94,1,136.499995834351,10|0,0:0|0:0,0:0:0:0:
244,113,211054,1,2,0:0:0:0:
316,76,211234,6,0,P|325:38|315:2,1,68.2499979171753,2|0,0:0|0:0,0:0:0:0:
361,144,211596,2,0,P|341:204|362:280,2,136.499995834351,2|8|2,1:2|0:0|0:0,0:0:0:0:
416,83,212499,1,0,0:0:0:0:
477,136,212680,6,0,P|476:211|477:291,1,136.499995834351,2|2,1:2|0:0,0:0:0:0:
425,336,213222,1,2,0:0:0:0:
360,284,213403,2,0,B|319:263|288:292|294:294|261:322|220:307,1,136.499995834351,8|0,0:0|0:0,0:0:0:0:
167,259,213945,1,2,0:0:0:0:
99,305,214126,6,0,P|57:311|33:295,1,68.2499979171753,2|0,0:0|0:0,0:0:0:0:
13,219,214487,2,0,P|11:150|2:83,2,136.499995834351,0|8|2,1:2|0:0|0:0,0:0:0:0:
90,190,215391,1,2,0:0:0:0:
163,248,215572,6,0,P|231:260|261:172,1,156,6|0,1:2|0:0,0:0:0:0:
366,32,216295,2,0,P|298:20|268:108,1,156,10|0,0:0|0:0,0:0:0:0:
267,192,216837,1,0,3:0:0:0:
271,199,216927,1,0,3:0:0:0:
276,206,217017,6,0,P|338:195|384:190,1,107.25000327301,2|0,1:2|0:0,0:0:0:0:
512,355,217379,2,0,B|463:370|431:334|435:328|406:295|349:316,1,175.499994644165,10|0,0:0|2:0,0:0:0:0:
223,365,217740,6,0,P|258:360|287:345,1,58.4999982147217,8|8,0:0|0:0,0:0:0:0:
212,265,217921,2,0,P|185:254|157:250,1,58.4999982147217,8|8,0:0|0:0,0:0:0:0:
68,367,218102,6,0,P|104:362|132:347,1,58.4999982147217,10|8,0:0|0:0,0:0:0:0:
55,254,218282,2,0,P|29:242|0:242,1,58.4999982147217,10|8,0:0|0:0,0:0:0:0:
199,127,218463,6,0,B|153:112|123:146|127:151|99:182|46:163,1,160.875004909516,6|0,1:2|2:0,0:0:0:0:
28,151,218825,1,10,0:0:0:0:
105,48,219005,1,2,1:2:0:0:
206,140,219186,2,0,P|274:145|302:104,1,107.25000327301,0|2,0:0|1:2,0:0:0:0:
181,6,219548,1,10,0:0:0:0:
28,151,219728,1,2,0:0:0:0:
240,66,219909,5,2,1:2:0:0:
15,5,220090,1,0,1:2:0:0:
219,228,220270,1,0,1:2:0:0:
5,172,220451,1,0,1:2:0:0:
258,44,220632,5,8,0:0:0:0:
292,25,220722,1,8,0:0:0:0:
330,23,220813,1,10,0:0:0:0:
366,38,220903,1,8,0:0:0:0:
392,67,220993,6,0,P|428:57|465:56,1,58.4999982147217,10|8,0:0|0:0,0:0:0:0:
484,176,221174,2,0,P|456:165|428:157,1,58.4999982147217,10|8,0:0|0:0,0:0:0:0:
219,228,221355,6,0,B|293:194|339:241|335:247|380:286|443:265,1,233.999992858887,6|8,1:2|0:0,0:0:0:0:
347,151,221897,1,0,1:2:0:0:
249,310,222078,2,0,P|186:312|147:269,1,116.999996429443,2|0,0:0|1:2,0:0:0:0:
38,190,222439,2,0,P|120:201|139:120,1,175.499994644165,10|0,0:1|0:0,0:0:0:0:
139,104,222801,6,0,B|213:138|259:91|255:85|300:46|363:67,1,233.999992858887,2|10,1:0|0:0,0:0:0:0:
450,175,223343,1,0,1:2:0:0:
259,200,223523,2,0,P|282:158|355:155,1,116.999996429443,2|0,0:1|1:2,0:0:0:0:
455,302,223885,1,10,0:0:0:0:
335,230,224066,1,0,0:0:0:0:
450,0,224246,6,0,L|450:185,1,175.499994644165,2|0,1:0|2:0,0:0:0:0:
450,202,224608,1,8,0:0:0:0:
342,330,224788,1,0,1:2:0:0:
342,330,224879,1,0,1:2:0:0:
342,330,224969,2,0,P|288:339|240:289,1,116.999996429443,2|0,1:2|1:2,0:0:0:0:
198,166,225331,1,10,0:0:0:0:
335,230,225511,1,0,0:0:0:0:
367,79,225692,6,2,P|307:81|274:131,1,116.999996429443,2|0,1:2|0:0,1:2:0:0:
114,226,226054,2,0,P|174:224|207:174,1,116.999996429443,10|0,0:1|1:2,0:0:0:0:
154,50,226415,1,2,1:0:0:0:
24,105,226596,1,0,3:2:0:0:
12,113,226686,1,0,3:2:0:0:
0,122,226776,2,0,L|0:243,1,116.999996429443,10|0,0:1|0:0,0:0:0:0:
88,349,227138,6,0,B|162:383|208:336|204:330|249:291|312:312,1,233.999992858887,2|8,1:2|0:0,0:0:0:0:
439,358,227680,1,0,1:2:0:0:
398,164,227861,2,0,P|368:208|401:273,1,116.999996429443,2|0,0:0|1:2,0:0:0:0:
494,172,228222,1,8,0:0:0:0:
403,64,228403,1,0,1:2:0:0:
403,64,228493,1,0,1:2:0:0:
403,64,228584,6,0,B|329:30|283:77|287:83|242:122|179:101,1,233.999992858887,2|10,1:0|0:0,0:0:0:0:
73,14,229126,1,0,1:2:0:0:
7,157,229307,2,0,P|47:108|121:125,1,116.999996429443,0|0,0:0|1:2,0:0:0:0:
180,223,229668,1,10,0:0:0:0:
7,157,229849,1,0,0:0:0:0:
179,19,230029,6,0,L|179:213,1,175.499994644165,2|0,1:0|2:0,0:0:0:0:
180,223,230391,1,10,0:0:0:0:
77,319,230572,2,0,B|53:264|53:264|79:204,1,116.999996429443,2|0,1:2|0:0,0:0:0:0:
179,366,230933,1,2,1:2:0:0:
351,332,231114,2,0,P|316:290|254:295,1,116.999996429443,14|2,0:0|0:0,0:0:0:0:
249,158,231475,6,0,P|333:173|375:82,1,190.124991296769,6|0,1:2|0:0,0:0:0:0:
367,61,231837,1,10,0:1:0:0:
471,134,232017,1,0,1:2:0:0:
282,70,232198,5,10,0:1:0:0:
470,8,232379,1,0,1:2:0:0:
469,237,232560,2,0,P|414:222|393:220,1,68.2499979171753,10|8,0:1|0:0,0:0:0:0:
267,164,232740,2,0,P|300:158|333:147,1,68.2499979171753,10|8,3:0|3:0,0:0:0:0:
192,264,232921,6,0,P|70:264|63:173,1,233.999992858887,6|8,1:2|0:0,0:0:0:0:
163,73,233463,1,0,1:2:0:0:
267,164,233644,2,0,P|343:168|377:129,1,116.999996429443,2|0,0:1|1:2,0:0:0:0:
62,0,234005,2,0,L|62:199,1,175.499994644165,8|0,0:0|2:0,0:0:0:0:
56,207,234367,6,0,B|120:174|175:220|168:222|226:265|281:240,1,233.999992858887,2|10,1:0|0:0,0:0:0:0:
370,136,234909,1,0,1:2:0:0:
264,43,235090,2,0,P|203:45|176:90,1,116.999996429443,2|0,0:1|1:2,0:0:0:0:
370,136,235451,1,10,0:0:0:0:
457,26,235632,1,0,0:0:0:0:
499,240,235813,6,0,L|287:240,1,190.124991296769,6|0,1:0|2:0,0:0:0:0:
277,241,236174,1,8,0:0:0:0:
361,48,236355,6,0,P|419:93|489:100,1,136.499995834351,2|0,1:2|0:0,1:0:0:0:
173,213,236716,2,0,P|222:163|301:161,1,136.499995834351,2|0,1:2|0:0,1:0:0:0:
24,23,237078,6,0,P|58:93|162:91,1,175.499994644165,6|0,1:2|2:0,0:0:0:0:
166,89,237439,1,0,1:2:0:0:
31,176,237620,1,8,0:0:0:0:
208,292,237801,6,0,P|100:290|5:293,1,190.124991296769,6|0,1:0|2:0,0:0:0:0:
0,293,238162,1,2,1:2:0:0:
163,200,238343,1,8,0:0:0:0:
280,301,238523,1,8,0:0:0:0:
286,319,238614,1,8,0:0:0:0:
292,335,238704,6,0,B|318:370|385:351|385:351|440:285|373:215,1,233.999992858887,6|8,1:0|0:0,0:0:0:0:
282,134,239246,1,0,1:2:0:0:
385,229,239427,2,0,P|448:232|475:179,1,116.999996429443,2|0,0:0|1:2,0:0:0:0:
345,63,239788,1,8,0:0:0:0:
246,208,239969,1,2,0:0:0:0:
178,78,240150,6,0,P|234:76|270:120,1,116.999996429443,2|0,1:0|0:0,0:0:0:0:
91,308,240511,2,0,L|91:123,1,175.499994644165,10|0,0:0|2:0,0:0:0:0:
91,105,240873,1,2,0:1:0:0:
246,208,241054,1,0,1:0:0:0:
277,35,241234,2,0,P|214:31|179:82,1,116.999996429443,10|2,0:0|0:0,0:0:0:0:
246,208,241596,6,0,P|344:206|435:208,1,175.499994644165,2|0,1:0|2:0,0:0:0:0:
445,205,241957,1,10,0:0:0:0:
431,65,242138,2,0,P|387:101|325:111,1,116.999996429443,2|0,1:2|0:0,0:0:0:0:
178,78,242499,1,2,1:2:0:0:
246,208,242680,1,10,0:0:0:0:
277,35,242861,1,2,0:0:0:0:
103,124,243041,5,2,1:2:0:0:
329,111,243222,1,2,0:0:0:0:
133,0,243403,1,10,0:0:0:0:
246,208,243584,1,10,0:0:0:0:
246,208,243674,1,8,0:0:0:0:
246,208,243764,1,10,0:0:0:0:
31,176,243945,1,8,0:3:0:0:
178,78,244126,1,4,0:3:0:0:
149,250,244307,1,4,0:3:0:0:
134,262,244397,1,8,0:3:0:0:
119,272,244487,6,0,B|86:295|39:273|39:273|0:228|26:175|26:175|83:135|136:175,1,292.5,10|0,1:3|0:0,0:0:0:0:
490,234,245933,6,0,B|539:182|499:103|499:103|412:67|367:151,1,292.5,2|0,3:0|0:0,0:0:0:0:
240,0,247379,6,0,B|189:64|231:135|236:129|287:201|234:282,1,292.5,2|0,3:0|0:0,0:0:0:0:
7,292,248825,6,0,B|-39:279|-34:214|30:188|52:237|69:256|67:260|87:276|117:269,1,195,2|0,3:0|0:0,0:0:0:0:
222,212,249728,1,0,3:0:0:0:
222,212,249819,1,0,3:0:0:0:
222,212,249909,6,0,P|187:163|124:180,1,131.624995983124,8|0,0:3|2:0,0:0:0:0:
117,194,250270,6,0,B|177:239|237:195|231:191|290:153|357:189,1,233.999992858887,6|10,1:2|0:0,0:0:0:0:
464,247,250813,1,2,1:2:0:0:
369,351,250993,2,0,P|315:315|312:255,1,116.999996429443,0|2,0:0|1:2,0:0:0:0:
426,151,251355,1,8,0:0:0:0:
267,32,251535,6,0,P|276:67|282:98,1,58.4999982147217,2|0,1:2|1:2,0:0:0:0:
308,267,251716,1,8,0:0:0:0:
115,178,253523,5,2,0:0:0:0:
132,171,253614,1,2,0:0:0:0:
148,164,253704,1,2,0:0:0:0:
64,249,253885,6,0,P|25:238|6:212,1,58.4999982147217,2|2,0:0|0:0,0:0:0:0:
145,277,254246,1,2,0:0:0:0:
115,178,254427,1,2,0:0:0:0:
143,289,254608,6,0,P|224:282|281:280,1,116.999996429443,8|0,0:0|1:2,0:0:0:0:
340,132,254969,2,0,P|259:139|202:141,1,116.999996429443,8|0,0:0|1:2,0:0:0:0:
396,291,255331,5,8,0:0:0:0:
430,308,255421,1,8,0:0:0:0:
468,303,255511,1,8,0:0:0:0:
498,278,255602,1,8,0:0:0:0:
509,241,255692,6,0,P|482:222|451:217,1,58.4999982147217,8|8,0:0|0:0,0:0:0:0:
347,144,255873,2,0,P|375:137|398:119,1,58.4999982147217,8|8,0:0|0:0,0:0:0:0:
322,278,256054,6,0,P|249:273|151:277,1,160.875004909516,6|0,1:0|2:0,0:0:0:0:
143,289,256415,2,0,P|171:238|147:188,1,107.25000327301,10|2,0:0|1:2,0:0:0:0:
140,177,256686,1,0,1:2:0:0:
140,177,256776,1,2,1:2:0:0:
241,98,256957,1,2,1:2:0:0:
57,221,257138,1,10,0:0:0:0:
21,17,257319,6,0,P|45:71|152:69,1,160.875004909516,2|0,0:0|2:0,0:0:0:0:
155,61,257680,1,2,0:0:0:0:
340,114,257861,2,0,P|297:70|253:80,1,107.25000327301,10|2,0:0|1:2,0:0:0:0:
241,98,258132,1,0,1:2:0:0:
226,115,258222,2,0,L|226:235,1,107.25000327301,2|2,1:1|1:2,0:0:0:0:
420,130,258584,2,0,B|442:77|442:77|414:15,1,107.25000327301,10|2,0:0|0:0,0:0:0:0:
501,270,258945,6,0,B|455:246|417:279|421:282|384:309|332:279,1,160.875004909516,2|0,1:0|2:0,0:0:0:0:
320,266,259307,2,0,P|299:210|320:165,1,107.25000327301,10|2,0:0|1:2,0:0:0:0:
335,142,259578,1,0,1:2:0:0:
335,142,259668,1,2,1:2:0:0:
226,222,259849,1,2,1:2:0:0:
420,130,260029,1,10,0:0:0:0:
227,30,260210,6,0,L|227:208,1,160.875004909516,2|0,0:0|2:0,0:0:0:0:
226,222,260572,1,2,0:0:0:0:
134,131,260752,1,10,0:0:0:0:
226,222,260933,1,2,1:2:0:0:
52,262,261114,2,0,P|95:217|152:226,1,107.25000327301,2|2,0:1|1:2,0:0:0:0:
71,346,261475,1,10,0:0:0:0:
6,181,261656,1,2,0:0:0:0:
71,346,261837,6,0,P|156:345|240:347,1,160.875004909516,6|0,1:0|2:0,0:0:0:0:
255,345,262198,1,8,0:0:0:0:
335,192,262379,2,0,P|296:236|243:241,1,107.25000327301,2|0,1:0|0:0,0:0:0:0:
407,316,262740,1,2,1:2:0:0:
504,142,262921,6,0,P|496:182|490:358,2,214.500006546021,10|0|8,0:0|1:2|0:0,0:0:0:0:
414,48,263825,2,0,P|346:48|322:85,1,107.25000327301,0|0,1:2|0:0,0:0:0:0:
341,202,264186,1,2,1:2:0:0:
164,75,264367,2,0,P|194:33|246:34,1,107.25000327301,10|2,0:1|0:0,0:0:0:0:
239,205,264728,6,0,L|61:205,1,160.875004909516,2|0,1:0|2:0,0:0:0:0:
53,204,265090,1,8,0:0:0:0:
103,321,265270,2,0,P|154:327|188:289,1,107.25000327301,2|0,1:2|0:0,0:0:0:0:
83,121,265632,1,2,1:2:0:0:
3,339,265813,2,0,B|58:301|107:339|104:344|154:379|223:341,2,214.500006546021,10|0|8,0:0|1:2|0:0,0:0:0:0:
53,204,266716,1,2,1:2:0:0:
179,280,266897,5,2,0:1:0:0:
53,204,267078,1,0,1:2:0:0:
214,112,267258,1,10,0:0:0:0:
52,13,267439,1,8,1:3:0:0:
52,13,267529,1,8,0:3:0:0:
52,13,267620,6,0,L|52:180,1,160.875004909516,6|0,1:0|2:0,0:0:0:0:
53,204,267981,2,0,P|97:169|149:176,1,107.25000327301,10|2,0:0|1:2,0:0:0:0:
172,189,268252,1,0,1:2:0:0:
193,205,268343,2,0,P|245:208|285:174,1,107.25000327301,2|2,1:2|1:2,0:0:0:0:
204,74,268704,1,10,0:0:0:0:
158,290,268885,6,0,P|239:289|328:290,1,160.875004909516,2|0,0:0|2:0,0:0:0:0:
342,285,269246,1,2,0:0:0:0:
453,220,269427,2,0,P|409:179|364:185,1,107.25000327301,10|2,0:0|1:2,0:0:0:0:
193,205,269788,1,2,0:1:0:0:
325,102,269969,1,2,1:2:0:0:
128,39,270150,2,0,P|155:88|210:89,1,107.25000327301,10|2,0:0|0:0,0:0:0:0:
366,3,270511,6,0,L|366:187,1,160.875004909516,2|0,1:0|2:0,0:0:0:0:
365,184,270873,2,0,P|317:141|274:153,1,107.25000327301,10|2,0:0|1:2,0:0:0:0:
259,163,271144,1,0,1:2:0:0:
243,179,271234,2,0,P|265:124|241:75,1,107.25000327301,2|2,1:2|1:2,0:0:0:0:
107,203,271596,1,10,0:0:0:0:
163,318,271776,6,0,B|205:288|244:318|241:321|280:349|334:319,1,160.875004909516,2|0,0:0|2:0,0:0:0:0:
333,309,272138,1,2,0:0:0:0:
243,179,272319,1,10,0:0:0:0:
416,268,272499,1,2,1:2:0:0:
185,234,272680,1,2,0:1:0:0:
420,110,272861,1,10,0:3:0:0:
333,309,273041,1,6,0:3:0:0:
243,179,273222,1,6,0:3:0:0:
237,164,273313,1,4,0:3:0:0:
230,147,273403,6,0,B|266:126|300:154|295:155|326:177|368:159,1,131.624995983124,6|0,1:2|2:0,0:0:0:0:
378,151,273764,1,2,1:2:0:0:
354,42,273945,1,2,3:0:0:0:
354,42,274035,1,0,3:0:0:0:
354,42,274126,2,0,P|302:43|278:71,1,87.7499973220826,2|2,1:2|0:0,0:0:0:0:
228,159,274487,1,2,1:2:0:0:
171,69,274668,1,2,0:0:0:0:
79,168,274849,6,0,P|132:168|152:135,1,87.7499973220826,10|2,0:0|0:0,0:0:0:0:
72,72,275210,1,2,1:2:0:0:
0,152,275391,2,0,L|0:246,1,87.7499973220826,10|2,0:3|0:0,0:0:0:0:
103,260,275752,1,2,0:0:0:0:
37,384,275933,2,0,B|14:340|14:340|37:303,1,87.7499973220826,6|4,0:3|0:3,0:0:0:0:
49,296,276204,1,4,0:3:0:0:
49,296,276295,6,0,B|85:275|119:303|114:304|145:326|187:308,1,131.624995983124,6|0,1:2|2:0,0:0:0:0:
188,298,276656,2,0,P|233:274|277:279,1,87.7499973220826,2|2,1:2|0:0,0:0:0:0:
341,197,277017,2,0,P|304:174|261:175,1,87.7499973220826,2|2,1:2|0:0,0:0:0:0:
373,328,277379,6,0,P|417:328|457:280,1,87.7499973220826,2|2,1:2|0:0,0:0:0:0:
261,174,277740,5,8,0:0:0:0:
373,328,277921,1,10,0:3:0:0:
373,328,278102,1,6,0:3:0:0:
155,207,278282,5,6,0:3:0:0:
376,84,278463,1,10,0:3:0:0:
376,84,278644,1,6,0:3:0:0:
275,312,278825,6,0,P|216:319|183:290,1,97.5,6|0,0:3|0:0,0:0:0:0:
423,185,279186,5,6,1:2:0:0:
256,192,279276,12,2,281625,0:0:0:0:
