osu file format v14

[General]
AudioFilename: audio.mp3
AudioLeadIn: 0
PreviewTime: 151199
Countdown: 0
SampleSet: Soft
StackLeniency: 0.7
Mode: 0
LetterboxInBreaks: 0
WidescreenStoryboard: 1

[Editor]
DistanceSpacing: 0.9
BeatDivisor: 3
GridSize: 32
TimelineZoom: 1

[Metadata]
Title:Asu wa Nai
TitleUnicode:明日はない
Artist:SHISHAMO
ArtistUnicode:SHISHAMO
Creator:Gibune
Version:Normal
Source:
Tags:Cami jp japanese rock jrock j-rock female vocals No Tomorrow asako miyazaki 宮崎朝子 misaki yoshikawa 吉川美冴貴 aya matsuoka 松岡彩 single
BeatmapID:2560350
BeatmapSetID:1230419

[Difficulty]
HPDrainRate:4
CircleSize:3.5
OverallDifficulty:4
ApproachRate:5.5
SliderMultiplier:1.2
SliderTickRate:1

[Events]
//Background and Video events
0,0,"IMG_20200120_060419.jpg",0,0
//Break Periods
2,55387,56835
//Storyboard Layer 0 (Background)
//Storyboard Layer 1 (Fail)
//Storyboard Layer 2 (Pass)
//Storyboard Layer 3 (Foreground)
//Storyboard Layer 4 (Overlay)
//Storyboard Sound Samples

[TimingPoints]
2225,413.793103448276,4,2,0,60,1,0
2225,-95.2380952380952,4,2,0,60,0,0
22082,413.793103448276,4,2,0,60,1,0
22082,-95.2380952380952,4,2,0,60,0,0
24362,413.793103448276,4,2,0,60,1,0
24982,-95.2380952380952,4,2,0,60,0,0
25396,413.793103448276,4,2,0,60,1,0
25396,-95.2380952380952,4,2,0,60,0,0
28698,413.793103448276,4,2,0,60,1,0
28698,-95.2380952380952,4,2,0,60,0,0
61821,413.793103448276,4,2,0,60,1,0
63062,-95.2380952380952,4,2,0,70,0,0
63475,413.793103448276,4,2,0,70,1,0
63475,-95.2380952380952,4,2,0,70,0,0
84051,365.853658536585,4,2,0,70,1,0
84142,-95.2380952380952,4,2,0,70,0,0
84371,413.793103448276,4,2,0,70,1,0
84992,413.793103448276,4,2,0,70,1,0
84992,-95.2380952380952,4,2,0,70,0,0
87888,363.636363636364,4,2,0,70,1,0
87888,-95.2380952380952,4,2,0,70,0,0
88297,413.793103448276,4,2,0,70,1,0
88716,413.793103448276,4,2,0,70,1,0
89129,-95.2380952380952,4,2,0,70,0,0
89957,413.793103448276,4,2,0,70,1,0
89957,-95.2380952380952,4,2,0,70,0,0
94897,413.793103448276,4,2,0,70,1,0
94897,-95.2380952380952,4,2,0,70,0,0
103600,413.793103448276,4,2,0,70,1,0
104841,413.793103448276,4,2,0,70,1,0
106496,-95.2380952380952,4,2,0,70,0,0
117904,413.793103448276,4,2,0,70,1,0
117904,-95.2380952380952,4,2,0,70,0,0
118548,413.793103448276,4,2,0,70,1,0
118548,-95.2380952380952,4,2,0,70,0,0
118754,375,4,2,0,70,1,0
119331,413.793103448276,4,2,0,70,1,0
119744,413.793103448276,4,2,0,70,1,0
121192,-95.2380952380952,4,2,0,70,0,0
127630,413.793103448276,4,2,0,70,1,0
127836,-95.2380952380952,4,2,0,70,0,0
128042,413.793103448276,4,2,0,70,1,0
128455,-95.2380952380952,4,2,0,70,0,0
129056,413.793103448276,4,2,0,70,1,0
129262,-95.2380952380952,4,2,0,70,0,0
129676,413.793103448276,4,2,0,70,1,0
129676,-95.2380952380952,4,2,0,70,0,0
142924,413.793103448276,4,2,0,70,1,0
142924,-95.2380952380952,4,2,0,70,0,0
152434,413.793103448276,4,2,0,70,1,0
152847,413.793103448276,4,2,0,70,1,0
153674,-95.2380952380952,4,2,0,70,0,0
162760,413.793103448276,4,2,0,70,1,0
162760,-95.2380952380952,4,2,0,70,0,0
164420,413.793103448276,4,2,0,70,1,0
164420,-95.2380952380952,4,2,0,70,0,0
164860,413.793103448276,4,2,0,70,1,0
166091,413.793103448276,4,2,0,70,1,0
166091,-95.2380952380952,4,2,0,70,0,0
184285,413.793103448276,4,2,0,70,1,0
184285,-95.2380952380952,4,2,0,70,0,0
200451,413.793103448276,4,2,0,70,1,0
200836,413.793103448276,4,2,0,70,1,0
200836,-95.2380952380952,4,2,0,70,0,0
204153,413.793103448276,4,2,0,60,1,0
204153,-95.2380952380952,4,2,0,70,0,0
214080,413.793103448276,4,2,0,60,1,0
214080,-95.2380952380952,4,2,0,70,0,0

[Colours]
Combo1 : 172,222,97
Combo2 : 224,175,103
Combo3 : 105,179,233
Combo4 : 228,88,91

[HitObjects]
485,40,2225,6,0,P|413:30|351:25,1,126,6|0,3:2|1:0,2:0:0:0:
307,46,2845,1,2,2:0:0:0:
251,62,3052,2,0,P|268:125|272:197,1,126,2|0,3:2|1:0,2:0:0:0:
300,295,3880,2,0,P|346:306|376:306,1,63,2|0,3:2|3:0,2:0:0:0:
405,271,4293,2,0,P|447:265|477:262,1,63,0|2,1:0|2:0,2:0:0:0:
507,222,4707,1,2,3:2:0:0:
462,117,5121,1,0,1:0:0:0:
407,131,5328,1,2,3:2:0:0:
353,150,5535,5,0,3:2:0:0:
258,212,5949,2,0,P|216:204|184:199,2,63,0|2|0,1:0|2:0|3:0,2:0:0:0:
298,251,6569,1,2,3:2:0:0:
339,289,6776,2,0,P|372:279|415:269,1,63,0|2,1:0|3:2,2:0:0:0:
454,256,7190,2,0,P|482:188|484:119,1,126,0|2,3:0|1:2,2:0:0:0:
404,56,8018,2,0,L|321:45,2,63,0|0|0,3:2|3:0|1:0,2:0:0:0:
337,148,8845,6,0,P|296:156|261:160,1,63,2|2,3:2|3:2,2:0:0:0:
219,144,9259,1,0,1:0:0:0:
114,188,9673,1,2,3:2:0:0:
68,291,10087,2,0,P|102:295|145:307,1,63,0|2,1:0|3:2,2:0:0:0:
163,347,10500,2,0,P|198:342|245:340,1,63,0|2,3:2|3:2,2:0:0:0:
272,308,10914,2,0,P|276:257|276:224,2,63,0|2|2,1:2|2:0|3:2,2:0:0:0:
378,349,11742,1,0,1:0:0:0:
456,267,12156,6,0,P|460:229|464:197,2,63,0|2|0,3:0|3:2|1:0,2:0:0:0:
399,275,12776,1,2,2:0:0:0:
358,235,12983,2,0,P|345:200|338:160,2,63,0|2|0,3:0|3:2|1:0,2:0:0:0:
245,253,13811,2,0,P|209:241|167:235,1,63,2|0,3:2|3:0,2:0:0:0:
127,232,14225,1,0,1:0:0:0:
84,194,14431,1,2,2:0:0:0:
145,35,15052,1,0,1:0:0:0:
197,14,15259,1,8,2:3:0:0:
252,24,15466,6,0,P|310:27|395:18,1,126,4|2,3:1|1:2,2:0:0:0:
479,71,16293,1,2,3:2:0:0:
508,180,16707,2,0,P|460:226|450:292,1,126,2|0,1:2|3:0,2:0:0:0:
397,307,17328,1,2,3:2:0:0:
340,301,17535,2,0,B|273:294|284:319|203:313,1,126,2|0,1:2|3:0,2:0:0:0:
112,275,18362,1,2,1:2:0:0:
33,192,18776,6,0,P|29:153|42:61,1,126,2|2,3:2|1:2,2:0:0:0:
143,20,19604,1,2,3:2:0:0:
194,120,20018,1,2,1:2:0:0:
216,233,20431,2,0,P|220:278|196:364,1,126,2|0,3:2|1:0,2:0:0:0:
314,355,21259,2,0,P|363:340|438:323,1,126,0|0,3:0|1:0,2:0:0:0:
473,213,22082,6,0,P|430:197|392:187,1,63,4|2,3:2|3:2,2:0:0:0:
365,161,22495,1,0,1:0:0:0:
308,164,22702,1,2,2:0:0:0:
270,121,22909,1,2,3:2:0:0:
161,155,23323,2,0,P|110:165|83:166,1,63,2|0,1:2|3:0,2:0:0:0:
47,142,23737,2,0,P|29:107|24:71,2,63,4|2|0,3:2|3:2|1:0,2:0:0:0:
26,194,24362,1,4,3:2:0:0:
37,306,24775,1,0,3:0:0:0:
85,335,24982,2,0,P|131:328|164:324,1,63,0|2,1:0|2:0,2:0:0:0:
200,346,25396,6,0,B|268:345|257:371|335:361,1,126,4|0,3:2|1:0,2:0:0:0:
374,335,26017,1,2,2:0:0:0:
402,285,26224,1,2,3:2:0:0:
388,172,26637,2,0,L|392:105,1,63,0|2,1:0|2:0,2:0:0:0:
374,54,27051,2,0,P|334:32|245:11,1,126,2|0,3:2|1:0,2:0:0:0:
199,17,27672,1,0,3:0:0:0:
145,0,27879,2,0,P|105:9|67:12,1,63,0|0,3:0|3:0,2:0:0:0:
26,16,28293,1,0,1:0:0:0:
72,119,28698,6,0,P|55:149|43:184,2,63,4|2|0,3:2|3:2|1:0,2:0:0:0:
126,102,29318,1,2,2:0:0:0:
179,121,29525,2,0,P|217:125|253:126,1,63,0|2,3:0|3:2,2:0:0:0:
292,99,29939,1,0,1:0:0:0:
394,146,30353,2,0,P|400:195|399:232,1,63,0|2,3:0|3:2,2:0:0:0:
375,260,30766,2,0,P|334:275|300:280,1,63,0|2,1:0|2:0,2:0:0:0:
259,267,31180,2,0,L|192:256,2,62.9999980773926,0|0|0,3:0|0:0|1:0,0:0:0:0:
245,322,31801,1,2,3:2:0:0:
194,346,32008,6,0,P|157:353|112:358,2,62.9999980773926,2|0|2,3:2|3:0|1:2,2:0:0:0:
173,234,32835,2,0,P|182:192|181:159,2,63,0|2|0,3:0|3:2|1:0,2:0:0:0:
229,243,33456,1,2,3:2:0:0:
285,247,33663,2,0,P|320:232|360:225,1,63,0|2,3:2|3:2,2:0:0:0:
389,261,34077,2,0,P|453:279|533:283,2,126,2|0|0,1:2|3:0|1:0,2:0:0:0:
323,168,35318,6,0,P|309:118|308:89,1,63,0|2,3:2|3:2,2:0:0:0:
269,65,35732,1,0,1:0:0:0:
170,19,36146,1,0,3:0:0:0:
170,19,36353,1,2,3:2:0:0:
77,84,36766,1,2,3:2:0:0:
44,130,36973,2,0,P|29:205|26:272,1,126,0|0,3:0|1:0,2:0:0:0:
55,302,37594,1,2,2:0:0:0:
140,376,38008,1,2,3:2:0:0:
194,361,38215,1,0,1:0:0:0:
279,286,38629,6,0,P|285:247|282:214,2,63,0|2|0,3:0|3:2|1:0,2:0:0:0:
299,339,39249,1,2,2:0:0:0:
355,339,39456,2,0,P|397:350|425:353,2,63,0|2|0,3:0|3:2|1:0,2:0:0:0:
362,282,40077,1,2,3:2:0:0:
404,244,40284,2,0,P|447:237|485:238,2,63,0|2|0,3:2|3:2|1:0,2:0:0:0:
408,130,41111,1,0,3:0:0:0:
493,55,41525,2,0,P|469:21|442:9,1,63,4|4,1:2|2:3,2:0:0:0:
394,18,41939,6,0,B|323:10|336:35|257:29,1,126,6|2,3:2|1:2,2:0:0:0:
178,97,42766,1,2,3:2:0:0:
85,31,43180,1,2,1:2:0:0:
16,121,43594,2,0,L|32:202,1,63,0|2,3:2|3:2,2:0:0:0:
22,239,44008,1,2,1:2:0:0:
93,326,44422,1,0,3:0:0:0:
192,270,44835,1,0,1:0:0:0:
243,293,45042,1,2,2:0:0:0:
294,317,45249,6,0,P|366:315|446:308,1,126,2|2,3:2|1:2,2:0:0:0:
433,197,46077,1,2,3:2:0:0:
488,98,46491,1,2,1:2:0:0:
409,15,46904,2,0,P|357:19|268:17,1,126,0|0,3:0|1:0,2:0:0:0:
220,113,47732,2,0,L|151:121,2,63,0|0|0,3:0|3:0|1:0,2:0:0:0:
329,142,48560,5,4,3:2:0:0:
343,196,48766,1,2,3:2:0:0:
317,246,48973,2,0,B|333:321|304:307|321:398,1,126,0|2,1:2|3:2,2:0:0:0:
430,377,49801,2,0,P|473:382|507:384,1,63,0|2,1:0|2:0,2:0:0:0:
505,327,50215,2,0,L|514:245,2,63,6|4|0,3:2|2:3|1:0,2:0:0:0:
455,299,50835,1,4,3:2:0:0:
392,204,51249,1,2,3:2:0:0:
413,151,51456,2,0,P|437:120|452:88,1,63,0|2,1:0|2:0,2:0:0:0:
430,44,51870,6,0,P|356:26|290:19,1,126,6|0,3:2|1:0,2:0:0:0:
255,44,52491,1,2,2:0:0:0:
213,83,52697,2,0,P|195:166|190:217,1,126,0|0,3:0|1:0,2:0:0:0:
211,259,53318,1,2,2:0:0:0:
195,313,53525,2,0,P|134:332|57:342,1,126,2|0,3:2|1:0,2:0:0:0:
14,243,54353,2,0,L|0:171,2,63,0|0|2,3:0|3:0|1:2,2:0:0:0:
127,236,55180,1,4,2:0:0:0:
452,355,58077,6,0,P|443:301|437:269,1,63,4|0,1:2|2:0,2:0:0:0:
417,241,58491,2,0,P|431:202|446:168,2,62.9999980773926,4|2|0,3:1|3:2|1:0,2:0:0:0:
362,256,59111,1,0,2:0:0:0:
309,235,59318,1,2,3:2:0:0:
195,231,59732,1,0,1:0:0:0:
159,186,59939,1,2,2:0:0:0:
170,130,60146,6,0,B|157:92|157:92|191:51|191:51|179:12,3,126,2|6|2|6,1:2|1:2|1:2|1:2,2:0:0:0:
496,91,63062,6,0,L|423:98,1,63,0|0,1:0|1:0,2:0:0:0:
389,133,63475,2,0,P|358:141|304:143,2,63,4|2|0,3:2|3:2|1:0,2:0:0:0:
428,173,64095,1,2,2:0:0:0:
410,226,64302,1,2,3:2:0:0:
433,337,64716,1,2,1:2:0:0:
324,371,65130,2,0,P|245:366|181:369,1,126,2|2,3:2|1:2,2:0:0:0:
95,318,65957,2,0,P|74:260|72:184,1,126,2|2,3:2|1:2,2:0:0:0:
34,88,66785,6,0,P|39:41|49:9,1,63,2|2,3:2|3:2,2:0:0:0:
97,10,67199,2,0,P|140:3|181:-3,1,63,0|2,1:0|2:0,2:0:0:0:
202,37,67612,1,2,3:2:0:0:
309,1,68026,1,2,1:2:0:0:
368,97,68440,2,0,L|359:179,2,63,4|0|0,3:2|2:0|1:0,2:0:0:0:
476,61,69268,2,0,L|467:-4,2,63,0|2|0,3:0|3:2|1:0,2:0:0:0:
512,169,70095,6,0,P|484:191|460:215,1,63,4|0,3:1|3:2,2:0:0:0:
414,237,70509,2,0,P|368:244|344:243,1,63,0|2,1:0|2:0,2:0:0:0:
303,213,70923,1,2,3:2:0:0:
224,294,71337,1,2,1:2:0:0:
315,360,71750,2,0,B|380:351|369:379|449:366,1,126,6|2,3:2|1:2,2:0:0:0:
510,279,72578,1,2,3:2:0:0:
440,189,72992,1,2,1:2:0:0:
339,136,73406,6,0,P|296:127|253:124,1,63,4|2,3:2|3:2,2:0:0:0:
225,149,73819,2,0,P|179:153|137:155,1,63,0|2,1:0|2:0,2:0:0:0:
118,117,74233,1,0,3:2:0:0:
25,182,74647,1,2,1:2:0:0:
25,295,75061,2,0,P|60:304|156:313,1,126,0|0,3:2|1:0,2:0:0:0:
245,373,75888,2,0,L|314:361,1,63,0|0,3:0|1:0,2:0:0:0:
335,313,76302,2,0,L|411:320,1,63,0|0,1:0|1:0,2:0:0:0:
451,298,76716,6,0,P|472:235|480:155,2,126,6|0|2,3:2|1:0|3:2,2:0:0:0:
356,234,77957,1,2,1:2:0:0:
243,219,78371,2,0,P|209:223|169:232,2,63,2|0|0,3:2|2:0|1:0,2:0:0:0:
312,129,79199,2,0,P|315:87|316:55,2,63,0|0|0,3:2|3:0|1:2,2:0:0:0:
199,111,80026,6,0,P|130:106|70:106,2,126,2|2|2,3:2|1:2|3:2,2:0:0:0:
235,218,81268,2,0,P|226:259|214:294,1,63,2|0,1:2|2:0,2:0:0:0:
168,303,81681,2,0,P|134:314|28:333,1,126,2|0,3:2|1:0,2:0:0:0:
3,225,82509,1,2,3:2:0:0:
57,125,82923,1,0,1:2:0:0:
16,19,83337,6,0,P|55:10|107:1,1,63,4|2,3:2|3:2,2:0:0:0:
133,16,83750,2,0,P|169:21|215:24,1,63,0|2,1:0|2:0,2:0:0:0:
242,57,84142,1,0,3:2:0:0:
355,57,84577,1,2,1:2:0:0:
440,123,84992,2,0,L|509:117,2,63,6|4|0,3:2|2:3|1:0,2:0:0:0:
398,161,85612,1,6,3:2:0:0:
347,136,85819,2,0,P|333:180|338:275,1,125.999996154785,2|0,2:0|1:0,2:0:0:0:
447,250,86647,6,0,P|456:294|465:329,1,63,4|0,3:2|2:0,2:0:0:0:
421,353,87060,1,0,1:0:0:0:
366,369,87267,2,0,P|294:378|218:376,1,126,4|0,2:3|3:0,2:0:0:0:
208,331,87888,2,0,P|159:319|123:313,1,63,2|4,3:2|2:3,2:0:0:0:
90,325,88297,1,6,3:2:0:0:
52,218,88716,1,0,1:0:0:0:
118,126,89129,2,0,P|159:115|196:109,1,63,0|0,3:0|3:0,2:0:0:0:
230,135,89543,2,0,P|282:142|316:143,1,63,0|0,1:0|1:0,2:0:0:0:
343,167,89957,6,0,P|374:241|380:295,1,126,4|0,3:2|1:0,2:0:0:0:
286,349,90784,2,0,L|217:358,2,63,0|0|0,3:0|3:0|1:0,2:0:0:0:
279,235,91611,2,0,B|209:226|219:259|137:247,1,126,0|0,3:2|1:0,2:0:0:0:
49,206,92439,2,0,L|37:132,2,63,0|0|0,3:0|3:0|1:0,2:0:0:0:
100,307,93267,6,0,L|108:384,2,63,0|0|0,3:2|3:0|1:0,2:0:0:0:
153,206,94094,2,0,L|142:132,2,63,0|0|0,3:0|3:0|1:0,2:0:0:0:
207,222,94715,1,2,2:0:0:0:
250,198,94897,2,0,P|319:194|389:209,1,126,2|2,3:1|1:0,2:0:0:0:
413,246,95517,2,0,L|422:323,2,63,2|0|2,2:0|3:0|3:2,2:0:0:0:
460,213,96138,1,2,1:0:0:0:
494,116,96552,6,0,P|467:97|431:78,1,63,4|2,3:2|3:1,2:0:0:0:
410,34,96965,1,0,1:0:0:0:
354,20,97172,1,2,2:1:0:0:
243,47,97586,2,0,L|166:40,2,63,2|0|2,3:1|1:0|2:1,2:0:0:0:
269,97,98207,2,0,P|276:145|277:178,1,63,0|2,3:0|3:1,2:0:0:0:
244,206,98621,1,0,1:0:0:0:
193,231,98827,2,0,P|136:239|47:233,1,126,2|2,2:1|3:1,2:0:0:0:
25,198,99448,1,0,1:0:0:0:
1,87,99862,6,0,B|72:70|61:93|137:78,1,126,2|0,3:1|1:0,2:0:0:0:
173,48,100483,1,2,2:0:0:0:
207,1,100689,2,0,B|276:21|255:36|329:63,1,126,2|0,3:1|1:0,2:0:0:0:
373,47,101310,1,2,2:0:0:0:
426,23,101517,2,0,B|476:75|450:77|503:137,1,126,2|0,3:1|1:0,2:0:0:0:
472,179,102138,1,2,2:0:0:0:
437,225,102345,2,0,P|386:230|358:237,1,63,2|0,3:1|1:0,2:0:0:0:
317,229,102758,2,0,P|283:223|245:214,1,63,0|0,1:0|1:0,2:0:0:0:
198,225,103172,5,6,3:2:0:0:
101,175,103600,1,2,1:0:0:0:
101,175,103806,1,2,3:1:0:0:
63,278,104220,1,2,3:1:0:0:
63,278,104427,1,2,1:0:0:0:
154,344,104841,1,2,3:1:0:0:
154,344,105047,1,2,3:1:0:0:
259,312,105461,1,2,3:1:0:0:
259,312,105668,1,2,3:1:0:0:
362,344,106082,1,2,1:0:0:0:
477,340,106496,6,0,P|490:299|498:263,1,63,2|2,3:2|3:1,2:0:0:0:
484,228,106909,1,2,1:2:0:0:
484,228,107116,1,2,2:1:0:0:
444,121,107530,1,0,2:0:0:0:
482,79,107737,2,0,P|493:44|495:7,1,63,0|2,1:0|2:1,2:0:0:0:
439,6,108151,2,0,L|359:0,2,63,2|0|0,3:1|3:2|1:0,2:0:0:0:
407,53,108772,1,2,2:1:0:0:
317,122,109185,1,2,3:1:0:0:
260,115,109392,2,0,P|218:107|182:91,1,63,0|0,1:0|2:0,2:0:0:0:
147,75,109806,6,0,P|80:64|14:58,1,126,6|2,3:2|1:0,2:0:0:0:
23,115,110427,2,0,L|-5:181,2,63,0|0|0,2:0|2:0|3:0,2:0:0:0:
72,142,111047,1,2,1:0:0:0:
111,245,111461,2,0,P|179:263|241:267,1,126,2|2,3:1|1:0,2:0:0:0:
284,240,112082,2,0,L|296:164,2,63,0|0|0,2:0|2:0|3:0,2:0:0:0:
315,287,112703,1,2,1:0:0:0:
254,384,113116,6,0,P|174:374|123:374,1,126,4|2,3:2|1:2,2:0:0:0:
76,350,113737,1,2,2:0:0:0:
4,262,114151,1,2,3:2:0:0:
35,215,114358,1,2,1:0:0:0:
0,105,114772,2,0,P|36:55|84:6,1,126,2|2,3:2|1:0,2:0:0:0:
194,16,115599,2,0,P|232:23|277:23,1,63,4|0,2:3|1:0,2:0:0:0:
301,58,116013,2,0,P|337:55|378:49,1,63,0|0,1:0|1:0,2:0:0:0:
419,60,116427,1,4,3:2:0:0:
237,188,117904,6,0,B|168:189|178:167|110:178,1,126,6|0,3:2|3:0,2:0:0:0:
52,198,118548,2,0,P|41:230|31:259,1,62.9999980773926,2|0,1:2|3:0,2:0:0:0:
14,308,118941,1,2,3:2:0:0:
92,373,119331,1,4,1:2:0:0:
196,329,119744,1,4,3:2:0:0:
506,189,120985,5,0,1:0:0:0:
451,174,121192,2,0,B|390:168|400:188|323:187,1,126,6|0,3:2|3:0,2:0:0:0:
271,172,121813,2,0,L|203:185,2,63,2|0|2,1:2|3:0|3:2,2:0:0:0:
286,120,122433,1,0,3:0:0:0:
286,120,122640,1,0,1:0:0:0:
220,27,123054,1,6,3:2:0:0:
194,126,124502,6,0,B|118:137|134:114|48:118,1,126,6|0,3:2|3:0,2:0:0:0:
50,172,125123,2,0,P|64:212|82:237,1,63,2|0,1:2|3:0,2:0:0:0:
117,266,125537,1,2,3:2:0:0:
167,367,125950,1,4,1:2:0:0:
271,323,126364,1,4,3:2:0:0:
390,37,127630,5,0,1:0:0:0:
335,20,127836,2,0,B|264:8|271:31|195:14,1,126,6|0,3:2|3:0,2:0:0:0:
159,46,128455,2,0,P|114:34|81:28,1,63,2|0,1:2|3:0,2:0:0:0:
43,46,128869,1,0,3:0:0:0:
58,152,129262,2,0,P|68:188|76:225,1,63,0|0,1:0|1:0,2:0:0:0:
51,262,129676,5,6,3:2:0:0:
132,340,130090,2,0,P|165:373|196:386,2,63,0|2|0,1:2|2:0|3:2,2:0:0:0:
128,283,130711,1,2,3:2:0:0:
158,234,130918,1,0,1:0:0:0:
213,224,131124,2,0,P|274:216|350:198,1,126,2|0,2:0|3:0,2:0:0:0:
393,206,131745,2,0,P|429:209|468:218,1,63,2|0,1:2|2:0,2:0:0:0:
483,263,132159,1,2,3:2:0:0:
509,373,132573,1,0,1:0:0:0:
395,371,132987,6,0,P|353:368|311:355,1,63,4|2,3:2|3:2,2:0:0:0:
294,320,133400,2,0,P|261:317|210:321,1,63,0|2,1:2|2:0,2:0:0:0:
186,352,133814,1,0,3:2:0:0:
186,352,134021,1,2,3:2:0:0:
80,311,134435,2,0,P|68:247|65:180,1,126,2|0,2:0|3:0,2:0:0:0:
32,139,135056,1,0,1:0:0:0:
8,87,135262,1,2,2:0:0:0:
27,33,135469,1,2,3:2:0:0:
142,33,135883,2,0,P|184:8|215:-2,1,63,4|0,1:2|3:0,2:0:0:0:
243,35,136297,6,0,P|290:36|325:32,1,63,4|2,3:2|3:2,2:0:0:0:
355,6,136711,2,0,P|393:12|441:20,1,63,0|2,1:0|2:0,2:0:0:0:
448,65,137124,1,2,3:2:0:0:
511,158,137538,2,0,P|498:193|487:240,1,63,2|2,1:2|2:0,2:0:0:0:
434,214,137952,2,0,P|391:202|304:194,1,126,2|0,3:2|1:0,2:0:0:0:
258,216,138573,1,2,2:0:0:0:
152,173,138987,1,0,3:0:0:0:
98,191,139193,2,0,P|87:231|80:272,1,63,2|0,1:2|2:0,2:0:0:0:
98,306,139607,6,0,P|152:335|224:349,1,126,2|0,3:2|1:0,2:0:0:0:
326,371,140435,2,0,P|403:361|456:360,1,126,0|0,3:0|1:0,2:0:0:0:
497,255,141262,2,0,P|488:186|474:114,1,126,2|0,3:2|1:0,2:0:0:0:
386,62,142090,2,0,P|372:134|351:199,1,126,4|0,2:3|1:0,2:0:0:0:
306,205,142711,1,2,2:0:0:0:
306,205,142924,6,0,L|228:190,2,63,4|2|0,3:2|2:0|1:0,2:0:0:0:
333,315,143751,2,0,L|342:392,2,63,0|0|0,3:0|3:0|1:0,2:0:0:0:
279,296,144372,1,2,2:0:0:0:
222,294,144579,2,0,L|144:311,2,63,2|2|0,3:2|2:0|1:0,2:0:0:0:
228,180,145406,2,0,L|234:111,2,63,0|0|0,3:0|3:0|1:2,2:0:0:0:
117,204,146234,6,0,P|101:158|80:125,1,63,4|2,3:2|2:0,2:0:0:0:
115,92,146648,2,0,P|127:45|128:10,1,63,0|2,1:0|2:0,2:0:0:0:
179,5,147061,1,0,3:0:0:0:
234,16,147268,1,2,3:2:0:0:
340,55,147682,1,0,3:0:0:0:
392,76,147889,2,0,P|410:117|414:145,1,63,6|0,3:2|2:0,2:0:0:0:
379,180,148303,2,0,P|339:192|306:193,1,63,2|0,1:2|2:0,2:0:0:0:
266,169,148717,1,2,3:2:0:0:
225,275,149130,1,0,1:0:0:0:
328,320,149544,6,0,P|366:336|413:348,1,63,4|0,3:2|3:0,2:0:0:0:
442,331,149958,1,0,1:0:0:0:
487,297,150165,1,6,3:2:0:0:
507,185,150579,2,0,L|513:112,2,63,0|0|0,1:0|1:0|1:0,2:0:0:0:
464,222,151199,1,6,3:2:0:0:
165,68,152434,5,0,1:0:0:0:
217,168,152847,1,6,3:2:0:0:
200,280,153260,1,6,3:2:0:0:
124,366,153674,2,0,P|82:373|39:381,1,63,6|0,3:2|1:0,2:0:0:0:
22,335,154088,2,0,P|13:302|9:266,1,63,0|0,1:0|1:0,2:0:0:0:
29,220,154502,6,0,P|33:160|38:129,2,63,4|2|0,3:2|3:2|1:0,2:0:0:0:
85,226,155122,1,2,2:0:0:0:
137,205,155329,1,0,3:2:0:0:
216,124,155743,1,0,1:0:0:0:
204,11,156157,6,0,L|129:5,2,63,2|0|0,3:2|2:0|1:0,2:0:0:0:
317,11,156984,2,0,L|394:-3,2,63,0|0|0,3:0|3:0|1:0,2:0:0:0:
280,116,157812,2,0,P|246:111|200:108,1,63,4|2,3:2|3:2,2:0:0:0:
164,128,158226,2,0,P|120:140|85:146,1,63,0|2,1:0|2:0,2:0:0:0:
50,121,158640,1,2,3:2:0:0:
1,223,159053,1,2,1:2:0:0:
95,286,159467,6,0,P|166:279|231:278,1,126,2|2,3:2|1:2,2:0:0:0:
306,351,160295,1,2,3:2:0:0:
401,290,160709,1,2,1:2:0:0:
495,227,161122,2,0,P|498:186|506:142,1,63,0|2,3:2|3:2,2:0:0:0:
485,109,161536,2,0,P|475:61|458:26,1,63,0|2,1:0|2:0,2:0:0:0:
421,18,161950,1,2,3:2:0:0:
319,67,162364,1,2,1:2:0:0:
217,17,162760,6,0,P|205:57|192:148,1,126,2|0,3:2|1:0,2:0:0:0:
250,238,163587,2,0,P|245:278|235:314,1,63,2|0,3:2|1:0,2:0:0:0:
193,333,164001,2,0,P|157:348|116:356,1,63,0|0,1:0|1:0,2:0:0:0:
78,338,164415,1,6,3:2:0:0:
124,234,164860,1,2,1:2:0:0:
229,255,165273,1,2,3:2:0:0:
288,345,165687,1,2,1:2:0:0:
376,274,166091,6,0,L|450:283,2,62.9999980773926,2|0|0,3:2|2:0|1:0,2:0:0:0:
287,202,166918,2,0,L|273:124,2,63,0|0|0,3:0|3:0|1:0,2:0:0:0:
383,142,167746,2,0,B|453:131|435:157|522:147,2,126,2|2|2,3:2|1:2|3:2,2:0:0:0:
269,137,168987,2,0,P|271:90|276:49,1,63,2|0,1:2|2:0,2:0:0:0:
306,27,169401,6,0,P|371:15|438:12,1,126,2|0,3:2|1:0,2:0:0:0:
505,97,170228,1,0,3:0:0:0:
466,203,170642,1,0,1:0:0:0:
510,307,171056,2,0,P|489:330|462:352,1,63,4|2,3:2|3:2,2:0:0:0:
407,343,171470,2,0,P|371:341|330:349,1,63,0|2,1:0|2:0,2:0:0:0:
288,336,171884,2,0,P|266:280|242:192,1,126,2|2,3:2|1:2,2:0:0:0:
282,108,172711,6,0,L|372:95,2,63,6|4|0,3:2|2:3|1:0,2:0:0:0:
225,112,173332,1,6,3:2:0:0:
182,74,173539,2,0,L|176:3,2,63,0|0|2,2:0|3:0|1:2,2:0:0:0:
72,102,174366,2,0,P|62:149|57:179,1,63,4|2,3:2|2:0,2:0:0:0:
18,202,174780,1,0,1:0:0:0:
39,254,174987,2,0,B|52:324|30:314|37:384,1,126,2|2,2:0|3:2,2:0:0:0:
93,377,175608,2,0,P|138:381|167:382,1,63,0|0,1:2|2:0,2:0:0:0:
204,351,176022,5,4,3:2:0:0:
283,270,176435,1,0,1:0:0:0:
204,187,176849,2,0,P|197:143|197:101,1,63,0|0,3:0|1:0,2:0:0:0:
238,86,177263,2,0,P|255:39|262:15,1,63,0|0,1:0|1:0,2:0:0:0:
315,19,177677,2,0,L|400:14,2,63,6|0|2,3:2|3:0|1:2,2:0:0:0:
328,73,178297,1,0,2:0:0:0:
373,107,178504,1,0,3:0:0:0:
485,122,178918,1,0,1:0:0:0:
511,232,179332,6,0,P|465:242|384:249,1,126,2|2,3:2|1:2,2:0:0:0:
275,273,180159,2,0,P|200:278|136:292,1,126,2|2,1:2|1:2,2:0:0:0:
72,205,180987,6,0,P|81:157|85:127,1,63,4|2,3:2|3:2,2:0:0:0:
58,91,181401,2,0,P|52:50|51:20,1,63,0|2,1:2|2:0,2:0:0:0:
101,1,181815,1,2,3:2:0:0:
194,65,182228,1,2,1:2:0:0:
293,10,182642,2,0,L|366:4,2,63,2|0|0,3:2|2:0|1:0,2:0:0:0:
294,123,183470,2,0,L|302:191,2,63,0|2|0,3:0|3:2|1:0,2:0:0:0:
184,152,184285,6,0,P|179:189|174:228,1,63,4|2,3:2|3:2,2:0:0:0:
193,268,184698,2,0,P|199:318|209:353,1,63,0|2,1:0|2:0,2:0:0:0:
249,362,185112,1,0,3:0:0:0:
349,309,185526,1,0,1:0:0:0:
457,341,185940,2,0,P|481:281|498:221,1,126,2|2,3:2|1:2,2:0:0:0:
425,134,186767,1,2,3:2:0:0:
492,43,187181,1,2,1:2:0:0:
384,7,187595,6,0,P|347:18|298:29,1,63,6|0,3:2|2:0,2:0:0:0:
271,46,188009,2,0,P|234:45|195:37,1,63,2|0,1:2|2:0,2:0:0:0:
151,44,188422,1,2,3:2:0:0:
45,3,188836,1,2,1:2:0:0:
0,107,189250,2,0,B|71:102|53:126|140:122,1,126,0|0,3:0|1:0,2:0:0:0:
234,149,190078,2,0,P|242:189|243:227,1,63,2|2,1:2|3:2,2:0:0:0:
210,257,190491,2,0,P|217:296|226:333,1,63,2|0,1:2|1:0,2:0:0:0:
273,342,190905,6,0,P|331:347|401:350,2,126,6|2|2,3:2|1:2|3:2,2:0:0:0:
312,235,192147,1,2,1:2:0:0:
206,192,192560,2,0,P|172:196|131:207,2,63,2|0|0,3:2|3:0|1:0,2:0:0:0:
285,111,193388,2,0,P|288:69|288:38,2,63,0|0|0,3:0|3:0|1:0,2:0:0:0:
388,158,194216,6,0,P|456:179|515:214,2,126,6|0|2,3:2|1:0|3:2,2:0:0:0:
344,262,195457,2,0,P|335:310|325:334,1,63,2|0,1:2|3:0,2:0:0:0:
276,342,195871,2,0,P|211:332|144:328,1,126,2|0,3:2|1:0,2:0:0:0:
48,280,196698,1,2,3:2:0:0:
85,172,197112,1,0,1:0:0:0:
191,133,197526,6,0,P|233:126|276:121,1,63,4|0,3:2|3:0,2:0:0:0:
306,144,197940,2,0,P|342:149|380:157,1,63,0|2,1:0|2:0,2:0:0:0:
416,183,198353,2,0,P|407:242|387:309,1,126,2|2,3:2|1:2,2:0:0:0:
279,338,199181,2,0,L|197:347,2,63,6|4|0,3:2|2:3|1:0,2:0:0:0:
320,298,199802,2,6,P|337:234|331:161,1,125.999996154785
275,156,200451,1,0,1:0:0:0:
185,214,200836,6,0,P|168:169|138:89,1,126,6|2,3:2|1:2,2:0:0:0:
59,18,201664,2,0,P|54:50|40:96,1,63,0|2,3:2|3:2,2:0:0:0:
64,133,202078,1,0,1:0:0:0:
42,185,202285,1,2,2:0:0:0:
61,238,202491,1,0,3:0:0:0:
118,335,202905,1,0,1:0:0:0:
207,265,203319,2,0,P|216:222|218:174,1,63,2|0,3:2|3:0,2:0:0:0:
224,146,203733,2,0,P|259:109|289:85,1,63,4|4,2:3|2:3,2:0:0:0:
275,44,204153,6,0,P|351:48|414:75,1,126,6|0,3:2|1:0,2:0:0:0:
383,178,204980,2,0,P|391:216|396:257,1,63,2|0,3:2|3:0,2:0:0:0:
362,287,205394,2,0,P|315:296|276:301,1,63,2|0,1:2|3:0,2:0:0:0:
256,261,205808,2,0,L|247:178,2,63,0|2|0,3:2|3:2|1:0,2:0:0:0:
216,301,206428,1,2,2:0:0:0:
109,329,206842,1,2,3:2:0:0:
109,329,207049,2,0,P|103:293|98:241,1,63,0|2,1:0|2:0,2:0:0:0:
124,215,207463,6,0,P|64:204|-18:215,1,126,2|2,3:2|1:2,2:0:0:0:
67,118,208290,1,0,3:0:0:0:
73,61,208497,2,0,L|66:-11,2,63,2|0|2,3:2|1:0|3:2,2:0:0:0:
129,68,209118,2,0,P|164:54|206:47,1,63,2|0,2:0|3:0,2:0:0:0:
240,25,209532,1,2,1:2:0:0:
294,124,209946,2,0,L|299:197,2,63,0|0|0,3:0|3:0|1:0,2:0:0:0:
343,20,210773,6,0,B|411:9|399:33|472:27,1,126,2|0,3:2|1:0,2:0:0:0:
492,78,211394,2,0,P|502:130|509:214,1,126,2|2,2:0|2:0,2:0:0:0:
409,258,212221,1,2,3:2:0:0:
357,281,212428,2,0,L|275:274,2,63,0|2|0,3:0|3:2|1:0,2:0:0:0:
384,330,213049,1,2,2:0:0:0:
277,370,213463,1,2,3:2:0:0:
224,347,213670,2,0,P|184:332|142:322,1,63,0|2,1:0|3:2,2:0:0:0:
109,343,214080,6,0,L|36:352,2,63,2|0|0,3:2|3:0|1:0,2:0:0:0:
139,233,214907,2,0,L|126:146,2,63,2|0|0,3:2|3:0|1:0,2:0:0:0:
239,179,215735,2,0,L|250:99,2,63,2|0|0,3:2|3:0|1:0,2:0:0:0:
325,260,216562,2,0,L|317:326,1,63,0|2,3:0|1:2,2:0:0:0:
328,382,216976,1,0,1:0:0:0:
328,382,217183,1,6,1:2:0:0:
