osu file format v14

[General]
AudioFilename: audio.mp3
AudioLeadIn: 0
PreviewTime: 151199
Countdown: 0
SampleSet: Soft
StackLeniency: 0.7
Mode: 0
LetterboxInBreaks: 0
WidescreenStoryboard: 1

[Editor]
DistanceSpacing: 1
BeatDivisor: 3
GridSize: 32
TimelineZoom: 1

[Metadata]
Title:Asu wa Nai
TitleUnicode:明日はない
Artist:SHISHAMO
ArtistUnicode:SHISHAMO
Creator:Gibune
Version:Easy
Source:
Tags:Cami jp japanese rock jrock j-rock female vocals No Tomorrow asako miyazaki 宮崎朝子 misaki yoshikawa 吉川美冴貴 aya matsuoka 松岡彩 single
BeatmapID:2562601
BeatmapSetID:1230419

[Difficulty]
HPDrainRate:2.5
CircleSize:3
OverallDifficulty:2
ApproachRate:4
SliderMultiplier:0.9
SliderTickRate:1

[Events]
//Background and Video events
0,0,"IMG_20200120_060419.jpg",0,0
//Break Periods
2,55387,56757
//Storyboard Layer 0 (Background)
//Storyboard Layer 1 (Fail)
//Storyboard Layer 2 (Pass)
//Storyboard Layer 3 (Foreground)
//Storyboard Layer 4 (Overlay)
//Storyboard Sound Samples

[TimingPoints]
2225,413.793103448276,4,2,0,60,1,0
22082,413.793103448276,4,2,0,60,1,0
24362,413.793103448276,4,2,0,60,1,0
25396,413.793103448276,4,2,0,60,1,0
28698,413.793103448276,4,2,0,60,1,0
61821,413.793103448276,4,2,0,60,1,0
63062,-100,4,2,0,70,0,0
63475,413.793103448276,4,2,0,70,1,0
84051,365.853658536585,4,2,0,70,1,0
84371,413.793103448276,4,2,0,70,1,0
84992,413.793103448276,4,2,0,70,1,0
87888,363.636363636364,4,2,0,70,1,0
88297,413.793103448276,4,2,0,70,1,0
88716,413.793103448276,4,2,0,70,1,0
89957,413.793103448276,4,2,0,70,1,0
94897,413.793103448276,4,2,0,70,1,0
103600,413.793103448276,4,2,0,70,1,0
104841,413.793103448276,4,2,0,70,1,0
117904,413.793103448276,4,2,0,70,1,0
118548,413.793103448276,4,2,0,70,1,0
118754,375,4,2,0,70,1,0
119331,413.793103448276,4,2,0,70,1,0
119744,413.793103448276,4,2,0,70,1,0
127630,413.793103448276,4,2,0,70,1,0
128042,413.793103448276,4,2,0,70,1,0
129056,413.793103448276,4,2,0,70,1,0
129676,413.793103448276,4,2,0,70,1,0
142924,413.793103448276,4,2,0,70,1,0
152434,413.793103448276,4,2,0,70,1,0
152847,413.793103448276,4,2,0,70,1,0
162760,413.793103448276,4,2,0,70,1,0
164420,413.793103448276,4,2,0,70,1,0
164860,413.793103448276,4,2,0,70,1,0
166091,413.793103448276,4,2,0,70,1,0
184285,413.793103448276,4,2,0,70,1,0
200451,413.793103448276,4,2,0,70,1,0
200836,413.793103448276,4,2,0,70,1,0
204153,413.793103448276,4,2,0,60,1,0
214080,413.793103448276,4,2,0,60,1,0

[Colours]
Combo1 : 172,222,97
Combo2 : 224,175,103
Combo3 : 105,179,233
Combo4 : 228,88,91

[HitObjects]
59,31,2225,6,0,P|65:96|65:141,1,90,6|0,3:2|1:0,2:0:0:0:
102,203,3052,1,2,3:2:0:0:
72,288,3466,1,0,1:0:0:0:
142,343,3880,2,0,P|176:362|228:384,2,90,2|0|2,3:2|1:0|3:2,2:0:0:0:
186,264,5121,1,0,1:0:0:0:
275,273,5535,5,0,3:2:0:0:
359,242,5949,2,0,P|373:283|386:328,2,90,0|0|0,1:0|3:0|1:0,2:0:0:0:
350,152,7190,1,0,3:0:0:0:
287,87,7604,2,0,P|200:103|113:137,1,180,2|0,1:2|1:0,2:0:0:0:
35,178,8845,6,0,L|19:268,2,90,2|0|2,3:2|1:0|3:2,2:0:0:0:
47,88,10087,1,0,1:0:0:0:
134,66,10500,2,0,P|178:59|240:54,2,90,0|0|2,3:2|1:2|3:2,2:0:0:0:
188,138,11742,1,0,1:0:0:0:
169,226,12156,6,0,P|110:203|70:193,2,90,0|0|0,3:0|1:0|3:0,2:0:0:0:
185,314,13397,1,0,1:0:0:0:
249,377,13811,2,0,P|303:371|386:358,1,135,2|2,3:2|2:0,2:0:0:0:
508,310,15052,1,0,1:0:0:0:
457,235,15466,6,0,P|460:182|467:135,2,90,4|2|2,3:1|1:2|3:2,2:0:0:0:
368,255,16707,2,0,P|272:261|200:204,1,180,2|2,1:2|1:2,2:0:0:0:
192,36,18362,1,2,1:2:0:0:
278,61,18776,6,0,P|322:58|378:42,2,90,2|2|2,3:2|1:2|3:2,2:0:0:0:
207,117,20018,1,2,1:2:0:0:
120,140,20431,2,0,P|101:226|153:301,1,180,2|0,3:2|3:0,2:0:0:0:
322,249,22082,6,0,P|338:307|342:344,2,90,4|0|2,3:2|1:0|3:2,2:0:0:0:
271,174,23323,1,2,1:2:0:0:
267,84,23737,2,0,L|408:72,1,136.0875,4|4,3:2|3:2,2:0:0:0:
472,127,24775,2,0,L|480:188,1,45,0|0,3:0|1:0,2:0:0:0:
437,257,25396,6,0,P|382:264|340:263,1,90,4|0,3:2|1:0,2:0:0:0:
257,273,26224,1,2,3:2:0:0:
167,281,26637,1,0,1:0:0:0:
90,329,27051,2,0,P|36:258|41:166,1,180,2|0,3:2|3:0,2:0:0:0:
73,87,28293,1,0,1:0:0:0:
133,17,28698,6,0,P|192:9|233:6,2,90,4|0|0,3:2|1:0|3:0,2:0:0:0:
159,103,29939,1,0,1:0:0:0:
230,157,30353,2,0,P|249:191|256:253,2,90,0|0|0,3:0|1:0|3:0,2:0:0:0:
294,93,31594,1,0,1:0:0:0:
382,111,32008,6,0,L|389:213,1,90,2|2,3:2|1:2,2:0:0:0:
393,290,32835,2,0,L|301:303,1,90,0|0,3:0|1:0,2:0:0:0:
261,222,33663,2,0,L|158:216,1,90,0|2,3:2|1:2,2:0:0:0:
4,279,34904,1,0,1:0:0:0:
47,361,35318,6,0,P|96:369|150:367,1,90,0|0,3:2|1:0,2:0:0:0:
225,357,36146,2,0,P|291:343|322:342,1,90,0|0,3:0|1:0,2:0:0:0:
404,344,36973,2,0,P|402:290|422:196,1,135,0|2,3:0|2:0,2:0:0:0:
311,125,38215,1,0,1:0:0:0:
231,167,38629,6,0,P|225:210|228:272,2,90,0|0|0,3:0|1:0|3:0,2:0:0:0:
156,116,39870,1,0,1:0:0:0:
155,26,40284,2,0,L|248:40,1,90,0|0,3:2|1:0,2:0:0:0:
421,7,41525,1,4,1:2:0:0:
472,80,41939,6,0,P|490:132|514:176,2,90,6|2|2,3:2|1:2|3:2,2:0:0:0:
381,81,43180,2,0,P|337:154|318:255,1,180,2|2,1:2|1:2,2:0:0:0:
430,382,44835,1,0,1:0:0:0:
486,313,45249,6,0,P|479:259|474:212,2,90,2|2|2,3:2|1:2|3:2,2:0:0:0:
400,285,46491,1,2,1:2:0:0:
365,201,46904,2,0,B|260:178|284:213|186:198,1,180,0|0,3:0|3:0,2:0:0:0:
150,280,48146,1,0,1:0:0:0:
62,258,48560,6,0,P|49:192|47:153,2,90,4|0|2,3:2|1:2|3:2,2:0:0:0:
67,348,49801,1,0,1:0:0:0:
153,374,50215,2,0,L|292:354,1,135,6|4,3:2|3:2,2:0:0:0:
374,373,51249,2,0,L|427:361,1,45,2|0,3:2|1:0,2:0:0:0:
459,284,51870,6,0,P|470:232|474:180,1,90,6|0,3:2|1:0,2:0:0:0:
443,110,52697,2,0,P|383:94|342:86,1,90,0|0,3:0|1:0,2:0:0:0:
272,123,53525,2,0,P|177:158|96:140,1,180,2|0,3:2|3:0,2:0:0:0:
24,97,54766,1,2,1:2:0:0:
34,7,55180,1,4,2:0:0:0:
318,182,58077,5,4,1:2:0:0:
396,136,58490,2,0,B|405:77|383:90|392:34,2,90,4|0|2,3:1|1:0|3:2,2:0:0:0:
412,224,59732,1,0,1:0:0:0:
339,277,60146,2,0,P|293:282|230:284,1,90,2|6,1:2|1:2,2:0:0:0:
187,218,60973,1,2,1:2:0:0:
102,249,61387,1,6,1:2:0:0:
1,26,63062,5,0,1:0:0:0:
89,42,63475,2,0,P|138:33|188:29,2,90,4|0|2,3:2|1:0|3:2,2:0:0:0:
57,126,64716,1,2,1:2:0:0:
136,168,65130,2,0,P|206:160|245:154,1,90,2|2,3:2|1:2,2:0:0:0:
309,123,65957,2,0,P|355:119|400:123,1,90,2|2,3:2|1:2,2:0:0:0:
474,170,66785,6,0,P|491:212|506:257,2,90,2|0|2,3:2|1:0|3:2,2:0:0:0:
401,223,68026,1,2,1:2:0:0:
328,275,68440,2,0,B|233:261|256:308|141:291,1,180,4|0,3:2|3:0,2:0:0:0:
111,116,70095,6,0,P|132:76|148:34,2,90,4|0|2,3:1|1:0|3:2,2:0:0:0:
191,155,71337,1,2,1:2:0:0:
252,89,71750,2,0,P|324:77|358:74,1,90,6|2,3:2|1:2,2:0:0:0:
423,111,72578,2,0,P|479:120|525:120,1,90,2|2,3:2|1:2,2:0:0:0:
494,209,73406,6,0,P|483:256|457:309,2,90,4|0|0,3:2|1:0|3:2,2:0:0:0:
405,194,74647,1,2,1:2:0:0:
319,164,75061,2,0,P|231:165|152:223,1,180,0|0,3:2|3:0,2:0:0:0:
182,302,76302,1,0,1:0:0:0:
253,358,76716,6,0,L|356:343,1,90,6|0,3:2|1:0,2:0:0:0:
415,292,77543,2,0,P|451:268|509:256,1,90,2|2,3:2|1:2,2:0:0:0:
461,173,78371,2,0,B|344:154|383:193|269:180,1,180,2|0,3:2|3:2,2:0:0:0:
210,127,79612,1,0,1:2:0:0:
249,46,80026,6,0,P|301:22|344:15,1,90,2|2,3:2|1:2,2:0:0:0:
414,54,80854,2,0,P|471:53|511:45,1,90,2|2,3:2|1:2,2:0:0:0:
499,137,81681,2,0,P|453:211|364:239,1,180,2|2,3:2|3:2,2:0:0:0:
284,204,82923,1,0,1:2:0:0:
199,236,83337,6,0,P|156:245|103:266,1,90,4|0,3:2|1:0,2:0:0:0:
22,227,84142,1,0,3:0:0:0:
16,132,84577,1,2,1:2:0:0:
93,89,84992,2,0,L|188:77,1,90,6|0,3:2|1:0,2:0:0:0:
268,105,85819,2,0,P|326:109|366:99,1,90,2|0,2:0|1:0,2:0:0:0:
436,60,86647,6,0,L|457:204,1,135,4|4,3:2|2:3,2:0:0:0:
389,254,87681,1,0,3:0:0:0:
255,248,88297,1,6,3:2:0:0:
183,307,88716,1,0,1:0:0:0:
27,215,89543,1,0,1:0:0:0:
40,127,89957,6,0,P|90:104|132:94,1,90,4|0,3:2|1:0,2:0:0:0:
205,133,90784,1,0,3:0:0:0:
284,91,91198,1,0,1:0:0:0:
324,171,91611,2,0,P|344:233|349:271,1,90,0|0,3:2|1:0,2:0:0:0:
413,313,92439,1,0,3:0:0:0:
495,276,92853,1,0,1:0:0:0:
506,186,93267,6,0,P|496:136|498:90,1,90,0|0,3:2|1:0,2:0:0:0:
429,37,94094,1,0,3:0:0:0:
340,53,94508,1,0,1:0:0:0:
258,15,94897,6,0,P|205:8|152:5,1,90,2|2,3:1|1:0,2:0:0:0:
86,43,95724,1,0,3:0:0:0:
91,134,96138,1,2,1:0:0:0:
42,209,96552,6,0,L|166:267,1,135,4|2,3:2|2:1,2:0:0:0:
229,328,97586,2,0,L|290:312,1,45,2|0,3:1|1:0,2:0:0:0:
357,285,98207,2,0,L|375:138,2,135,0|2|0,3:0|2:1|1:0,2:0:0:0:
302,356,99862,6,0,L|201:361,1,90,2|0,3:1|1:0,2:0:0:0:
128,326,100689,1,2,3:1:0:0:
94,242,101103,1,0,1:0:0:0:
133,161,101517,2,0,P|149:115|148:63,1,90,2|0,3:1|1:0,2:0:0:0:
211,8,102345,1,2,3:1:0:0:
300,2,102758,1,0,1:0:0:0:
378,47,103172,5,6,3:2:0:0:
411,180,103806,1,2,3:1:0:0:
308,267,104427,1,2,1:0:0:0:
173,266,105047,1,2,3:1:0:0:
54,199,105668,2,0,P|35:248|26:305,1,90,2|2,3:1|1:0,2:0:0:0:
83,355,106496,6,0,L|222:369,1,135,2|2,3:2|2:1,2:0:0:0:
334,300,107737,1,0,1:0:0:0:
418,330,108151,2,0,P|457:272|458:195,1,135,2|2,3:1|2:1,2:0:0:0:
375,104,109392,1,0,1:0:0:0:
299,55,109806,6,0,P|246:45|202:45,2,90,6|2|0,3:2|1:0|2:0,2:0:0:0:
290,144,111047,1,2,1:0:0:0:
298,233,111461,2,0,P|323:272|361:303,2,90,2|2|0,3:1|1:0|2:0,2:0:0:0:
213,202,112703,1,2,1:0:0:0:
123,211,113116,6,0,L|100:351,1,135,4|2,3:2|2:0,2:0:0:0:
10,244,114358,1,2,1:0:0:0:
42,160,114772,1,2,3:2:0:0:
0,77,115185,2,0,P|13:35|40:0,1,90,2|4,1:0|2:3,2:0:0:0:
130,13,116013,1,0,1:0:0:0:
211,50,116427,1,4,3:2:0:0:
419,286,117904,5,6,3:2:0:0:
283,323,118548,1,2,1:2:0:0:
197,284,118941,1,2,3:2:0:0:
128,231,119331,1,4,1:2:0:0:
40,251,119744,1,4,3:2:0:0:
472,19,121192,6,0,P|491:100|489:165,1,135,6|2,3:2|1:2,2:0:0:0:
434,222,122226,1,2,3:2:0:0:
464,306,122640,1,0,1:0:0:0:
400,369,123054,1,6,3:2:0:0:
228,104,124502,6,0,P|162:95|83:108,1,135,6|2,3:2|1:2,2:0:0:0:
87,194,125537,1,2,3:2:0:0:
22,256,125950,1,4,1:2:0:0:
68,333,126364,1,4,3:2:0:0:
381,367,127836,6,0,P|350:309|349:238,1,135,6|2,3:2|1:2,2:0:0:0:
407,173,128869,1,2,3:2:0:0:
365,99,129262,1,0,1:0:0:0:
389,12,129676,2,0,P|441:5|491:7,2,90,6|0|0,3:2|1:2|3:2,2:0:0:0:
263,62,131124,6,0,P|182:63|123:39,1,135,2|2,2:0|1:2,2:0:0:0:
45,70,132159,1,2,3:2:0:0:
101,140,132573,1,0,1:0:0:0:
79,228,132987,2,0,P|75:278|65:318,2,90,4|0|0,3:2|1:2|3:2,2:0:0:0:
187,146,134435,6,0,P|235:143|319:184,1,135,2|0,2:0|1:0,2:0:0:0:
350,259,135469,1,2,3:2:0:0:
439,250,135883,1,4,1:2:0:0:
490,176,136297,2,0,P|500:122|505:70,2,90,4|0|2,3:2|1:0|3:2,2:0:0:0:
403,150,137538,1,2,1:2:0:0:
338,87,137952,6,0,P|284:78|199:73,1,135,2|2,3:2|2:0,2:0:0:0:
119,113,138987,2,0,L|126:162,1,45,0|2,3:0|1:2,2:0:0:0:
187,222,139607,2,0,P|238:233|283:235,1,90,2|0,3:2|1:0,2:0:0:0:
363,254,140435,1,0,3:0:0:0:
381,342,140849,1,0,1:0:0:0:
293,364,141262,6,0,P|241:368|196:358,1,90,2|0,3:2|1:0,2:0:0:0:
114,367,142090,1,4,2:3:0:0:
48,304,142504,1,0,1:0:0:0:
56,214,142924,2,0,P|66:158|59:120,1,90,4|0,3:2|1:0,2:0:0:0:
196,7,144165,1,0,1:0:0:0:
267,61,144579,6,0,P|279:101|280:164,1,90,2|0,3:2|1:0,2:0:0:0:
339,319,145820,1,0,1:2:0:0:
421,282,146234,1,4,3:2:0:0:
488,222,146648,2,0,P|480:180|458:134,1,90,0|0,1:0|3:0,2:0:0:0:
486,51,147475,1,2,1:2:0:0:
400,21,147889,6,0,L|302:7,1,90,6|2,3:2|1:2,2:0:0:0:
226,39,148717,2,0,L|129:49,1,90,2|0,3:2|1:0,2:0:0:0:
82,120,149544,2,0,L|94:260,1,135,4|6,3:2|3:2,2:0:0:0:
180,276,150579,2,0,P|225:251|314:255,1,135,0|6,1:0|3:2,2:0:0:0:
49,334,152434,5,0,1:0:0:0:
76,248,152847,2,0,P|83:209|88:154,2,90,6|6|6,3:2|3:2|3:2,2:0:0:0:
137,313,154088,1,0,1:0:0:0:
220,346,154502,6,0,P|266:366|318:379,2,90,4|0|0,3:2|1:0|3:2,2:0:0:0:
270,271,155743,1,0,1:0:0:0:
322,197,156157,6,0,P|241:161|158:220,1,180,2|0,3:2|3:0,2:0:0:0:
28,87,157812,2,0,P|21:25|8:-16,2,90,4|0|2,3:2|1:0|3:2,2:0:0:0:
82,158,159053,1,2,1:2:0:0:
64,246,159467,2,0,P|51:297|43:348,1,90,2|2,3:2|1:2,2:0:0:0:
132,357,160295,2,0,P|177:349|224:336,1,90,2|2,3:2|1:2,2:0:0:0:
292,284,161122,6,0,P|289:234|280:193,2,90,0|0|2,3:2|1:0|3:2,2:0:0:0:
381,291,162364,1,2,1:2:0:0:
442,231,162760,2,0,P|423:142|345:73,1,180,2|2,3:2|3:2,2:0:0:0:
272,79,164001,1,0,1:0:0:0:
256,168,164420,5,6,3:2:0:0:
263,263,164860,1,2,1:2:0:0:
199,322,165273,2,0,P|146:338|91:343,1,90,2|2,3:2|1:2,2:0:0:0:
58,269,166091,2,0,B|32:154|74:195|64:88,1,180,2|0,3:2|3:0,2:0:0:0:
122,23,167332,1,0,1:0:0:0:
198,71,167746,6,0,P|240:80|293:89,1,90,2|2,3:2|1:2,2:0:0:0:
369,53,168573,2,0,P|430:43|474:43,1,90,2|2,3:2|1:2,2:0:0:0:
507,117,169401,2,0,P|497:204|437:294,1,180,2|0,3:2|3:0,2:0:0:0:
421,367,170642,1,0,1:0:0:0:
344,319,171056,6,0,P|327:272|323:226,2,90,4|0|2,3:2|1:0|3:2,2:0:0:0:
258,348,172297,1,2,1:2:0:0:
180,301,172711,2,0,L|180:205,1,90,6|0,3:2|1:0,2:0:0:0:
260,170,173539,2,0,L|276:69,1,90,0|2,2:0|1:2,2:0:0:0:
200,26,174366,6,0,L|60:11,1,135,4|2,3:2|2:0,2:0:0:0:
26,92,175401,2,0,P|64:143|56:226,1,135,2|4,3:2|3:2,2:0:0:0:
114,285,176435,1,0,1:0:0:0:
187,336,176849,2,0,P|230:296|252:251,1,90,0|0,3:0|1:0,2:0:0:0:
306,203,177677,6,0,P|357:203|401:215,2,90,6|2|0,3:2|1:2|3:0,2:0:0:0:
232,151,178918,1,0,1:0:0:0:
148,185,179332,2,0,L|132:283,1,90,2|2,3:2|1:2,2:0:0:0:
45,254,180159,2,0,L|29:156,1,90,2|2,1:2|1:2,2:0:0:0:
60,80,180987,6,0,P|81:32|103:2,2,90,4|0|2,3:2|1:2|3:2,2:0:0:0:
141,118,182228,1,2,1:2:0:0:
228,99,182642,2,0,B|246:201|208:169|223:287,1,180,2|0,3:2|3:0,2:0:0:0:
102,374,184285,6,0,P|48:383|1:384,2,90,4|0|0,3:2|1:0|3:0,2:0:0:0:
192,377,185526,1,0,1:0:0:0:
268,330,185940,2,0,P|267:272|259:221,1,90,2|2,3:2|1:2,2:0:0:0:
264,150,186767,2,0,P|207:130|169:124,1,90,2|2,3:2|1:2,2:0:0:0:
96,87,187595,6,0,P|104:42|114:0,2,90,6|2|2,3:2|1:2|3:2,2:0:0:0:
80,175,188836,1,2,1:2:0:0:
134,246,189250,2,0,P|191:293|298:277,1,180,0|2,3:0|1:2,2:0:0:0:
381,287,190491,1,2,1:2:0:0:
455,236,190905,6,0,L|443:138,1,90,6|2,3:2|1:2,2:0:0:0:
421,57,191733,2,0,L|323:39,1,90,2|2,3:2|1:2,2:0:0:0:
220,116,192767,2,0,P|206:180|210:267,1,135,0|0,3:2|3:0,2:0:0:0:
291,285,193802,1,0,1:0:0:0:
238,357,194216,6,0,P|182:365|135:360,1,90,6|0,3:2|1:0,2:0:0:0:
89,294,195043,2,0,P|42:274|3:264,1,90,2|2,3:2|1:2,2:0:0:0:
0,174,195871,2,0,P|24:138|57:0,1,180,2|2,3:2|3:2,2:0:0:0:
142,36,197112,1,0,1:0:0:0:
230,22,197526,6,0,P|277:18|331:32,2,90,4|0|2,3:2|1:0|3:2,2:0:0:0:
243,110,198767,1,2,1:2:0:0:
237,199,199181,2,0,P|290:220|378:228,1,135,6|6,3:2|3:2,2:0:0:0:
497,172,200451,1,2,1:2:0:0:
436,113,200836,6,0,P|432:51|438:14,2,90,6|2|0,3:2|1:2|3:2,2:0:0:0:
394,193,202078,1,0,1:0:0:0:
304,184,202491,1,0,3:0:0:0:
226,229,202905,1,0,1:0:0:0:
56,167,203733,1,4,2:3:0:0:
107,92,204153,6,0,P|122:43|149:10,2,90,6|0|2,3:2|1:0|3:2,2:0:0:0:
197,91,205394,1,2,1:2:0:0:
286,87,205808,2,0,L|304:232,1,135,0|2,3:2|2:0,2:0:0:0:
308,311,206842,2,0,L|254:316,1,45,2|0,3:2|1:0,2:0:0:0:
198,252,207463,6,0,P|143:238|92:244,1,90,2|2,3:2|1:2,2:0:0:0:
88,327,208290,2,0,P|32:328|-10:308,1,90,0|0,3:0|1:0,2:0:0:0:
1,225,209118,1,2,2:0:0:0:
56,154,209532,2,0,P|137:124|227:171,1,180,2|0,1:2|1:0,2:0:0:0:
302,191,210773,6,0,L|448:171,1,135,2|2,3:2|2:0,2:0:0:0:
490,100,211808,2,0,L|482:42,1,45,2|0,2:0|1:0,2:0:0:0:
408,9,212428,2,0,P|332:24|271:24,1,135,0|2,3:0|2:0,2:0:0:0:
149,75,213670,1,0,1:0:0:0:
62,49,214080,6,0,P|39:89|25:147,1,90,2|0,3:2|1:0,2:0:0:0:
90,194,214907,1,2,3:2:0:0:
49,274,215321,1,0,1:0:0:0:
122,325,215735,2,0,P|169:326|230:313,1,90,2|0,3:2|1:0,2:0:0:0:
300,334,216562,1,0,3:0:0:0:
372,280,216976,2,0,L|378:221,1,45,0|6,1:0|1:2,2:0:0:0:
