osu file format v14

[General]
AudioFilename: audio.mp3
AudioLeadIn: 0
PreviewTime: 151199
Countdown: 0
SampleSet: Soft
StackLeniency: 0.7
Mode: 0
LetterboxInBreaks: 0
WidescreenStoryboard: 1

[Editor]
Bookmarks: 28698,63475,88297,116427,151199,177677,204153
DistanceSpacing: 1
BeatDivisor: 4
GridSize: 32
TimelineZoom: 3.399998

[Metadata]
Title:Asu wa Nai
TitleUnicode:明日はない
Artist:SHISHAMO
ArtistUnicode:SHISHAMO
Creator:Gibune
Version:Collab Insane
Source:
Tags:Cami jp japanese rock jrock j-rock female vocals No Tomorrow asako miyazaki 宮崎朝子 misaki yoshikawa 吉川美冴貴 aya matsuoka 松岡彩 single
BeatmapID:2557984
BeatmapSetID:1230419

[Difficulty]
HPDrainRate:6.5
CircleSize:4.3
OverallDifficulty:8
ApproachRate:8.4
SliderMultiplier:1.4
SliderTickRate:1

[Events]
//Background and Video events
0,0,"IMG_20200120_060419.jpg",0,0
//Break Periods
2,55387,56844
//Storyboard Layer 0 (Background)
//Storyboard Layer 1 (Fail)
//Storyboard Layer 2 (Pass)
//Storyboard Layer 3 (Foreground)
//Storyboard Layer 4 (Overlay)
//Storyboard Sound Samples

[TimingPoints]
2225,413.793103448276,4,2,0,60,1,0
22082,413.793103448276,4,2,0,60,1,0
24362,413.793103448276,4,2,0,60,1,0
24362,-83.3333333333333,4,2,0,60,0,0
25396,413.793103448276,4,2,0,60,1,0
28698,413.793103448276,4,2,0,60,1,0
50835,-83.3333333333333,4,2,0,60,0,0
51870,-100,4,2,0,60,0,0
61821,413.793103448276,4,2,0,60,1,0
63062,-100,4,2,0,70,0,0
63475,413.793103448276,4,2,0,70,1,0
84051,365.853658536585,4,2,0,70,1,0
84371,413.793103448276,4,2,0,70,1,0
84992,413.793103448276,4,2,0,70,1,0
85612,-83.3333333333333,4,2,0,70,0,0
87474,-100,4,2,0,70,0,0
87888,363.636363636364,4,2,0,70,1,0
88297,413.793103448276,4,2,0,70,1,0
88716,413.793103448276,4,2,0,70,1,0
89957,413.793103448276,4,2,0,70,1,0
94897,413.793103448276,4,2,0,70,1,0
94897,-83.3333333333333,4,2,0,70,0,0
99862,-100,4,2,0,70,0,0
103172,-90.9090909090909,4,2,0,70,0,0
103600,413.793103448276,4,2,0,70,1,0
103806,-90.9090909090909,4,2,0,70,0,0
104841,413.793103448276,4,2,0,70,1,0
105047,-90.9090909090909,4,2,0,70,0,0
107116,-100,4,2,0,70,0,0
117904,413.793103448276,4,2,0,70,1,0
118548,413.793103448276,4,2,0,70,1,0
118754,375,4,2,0,70,1,0
119331,413.793103448276,4,2,0,70,1,0
119331,-83.3333333333333,4,2,0,70,0,0
119744,413.793103448276,4,2,0,70,1,0
121192,-100,4,2,0,70,0,0
125950,-83.3333333333333,4,2,0,70,0,0
127630,413.793103448276,4,2,0,70,1,0
128042,413.793103448276,4,2,0,70,1,0
129056,413.793103448276,4,2,0,70,1,0
129676,413.793103448276,4,2,0,70,1,0
142924,413.793103448276,4,2,0,70,1,0
152434,413.793103448276,4,2,0,70,1,0
152847,413.793103448276,4,2,0,70,1,0
152847,-86.9565217391304,4,2,0,70,0,0
155329,-100,4,2,0,70,0,0
162760,413.793103448276,4,2,0,70,1,0
164420,413.793103448276,4,2,0,70,1,0
164860,413.793103448276,4,2,0,70,1,0
166091,413.793103448276,4,2,0,70,1,0
173332,-83.3333333333333,4,2,0,70,0,0
173953,-100,4,2,0,70,0,0
184285,413.793103448276,4,2,0,70,1,0
200451,413.793103448276,4,2,0,70,1,0
200836,413.793103448276,4,2,0,70,1,0
204153,413.793103448276,4,2,0,60,1,0
214080,413.793103448276,4,2,0,60,1,0

[Colours]
Combo1 : 172,222,97
Combo2 : 224,175,103
Combo3 : 105,179,233
Combo4 : 228,88,91

[HitObjects]
434,27,2225,6,0,B|358:18|370:59|298:51,1,140,6|0,3:2|1:0,2:0:0:0:
161,105,2845,1,2,2:0:0:0:
217,178,3052,2,0,B|289:170|277:211|356:202,1,140,2|0,3:2|1:0,2:0:0:0:
443,250,3673,1,2,3:2:0:0:
299,354,3880,6,0,L|288:284,1,70,2|0,3:2|3:0,2:0:0:0:
327,130,4293,1,0,1:0:0:0:
451,41,4500,1,2,2:0:0:0:
379,0,4707,2,0,L|377:83,1,70,2|0,3:2|3:0,2:0:0:0:
250,118,5121,1,0,1:0:0:0:
178,13,5328,1,2,3:2:0:0:
124,128,5535,6,0,L|111:212,1,70,0|2,3:2|3:2,3:2:0:0:
15,92,5949,2,0,L|2:8,1,70,0|2,1:0|2:0,2:0:0:0:
111,56,6362,1,0,3:0:0:0:
216,96,6569,1,2,3:2:0:0:
113,197,6776,2,0,P|122:237|139:281,1,70,0|2,1:0|3:2,2:0:0:0:
282,246,7190,5,0,3:0:0:0:
201,384,7397,1,2,3:2:0:0:
187,313,7604,2,0,P|261:323|330:340,1,140,2|0,1:2|3:2,2:0:0:0:
443,301,8225,1,0,3:0:0:0:
351,216,8431,2,0,P|356:170|362:132,1,70,0|0,1:0|2:0,2:0:0:0:
279,36,8845,5,2,3:2:0:0:
195,72,9052,1,2,3:2:0:0:
82,15,9259,2,0,P|46:22|8:23,1,70,0|2,1:0|2:0,2:0:0:0:
88,163,9673,2,0,P|137:154|196:172,1,105,2|0,3:2|2:0,2:0:0:0:
203,193,10087,1,0,1:0:0:0:
126,245,10293,1,2,3:2:0:0:
296,187,10500,6,0,L|302:265,1,70,0|2,3:2|3:2,2:0:0:0:
382,132,10914,2,0,L|388:54,1,70,0|2,1:2|2:0,2:0:0:0:
477,167,11328,2,0,B|454:240|497:235|477:305,1,140,2|0,3:2|1:0,2:0:0:0:
400,265,11949,1,2,3:2:0:0:
299,353,12156,6,0,P|262:363|208:366,1,70,0|2,3:0|3:2,2:0:0:0:
120,287,12569,2,0,P|153:277|188:273,1,70,0|2,1:0|2:0,2:0:0:0:
281,191,12983,1,0,3:0:0:0:
271,106,13190,1,2,3:2:0:0:
187,116,13397,1,0,1:0:0:0:
196,200,13604,1,2,3:2:0:0:
349,139,13811,6,0,P|359:95|362:55,1,70,2|0,3:2|3:0,2:0:0:0:
422,22,14225,1,0,1:0:0:0:
260,10,14431,2,0,P|191:25|116:28,1,140,2|0,2:0|3:0,2:0:0:0:
25,105,15052,1,0,1:0:0:0:
143,164,15259,1,8,2:3:0:0:
143,164,15362,1,8,2:3:0:0:
143,164,15466,6,0,L|148:237,1,70,4|0,3:1|2:0,2:0:0:0:
244,352,15880,2,0,L|248:282,1,70,2|0,1:2|2:0,2:0:0:0:
125,349,16293,1,2,3:2:0:0:
125,349,16500,1,0,3:0:0:0:
248,282,16707,6,0,B|329:272|298:307|400:297,1,140,2|0,1:2|3:0,2:0:0:0:
489,362,17328,1,2,3:2:0:0:
489,362,17535,2,0,P|497:280|498:207,1,140,2|0,1:2|3:0,2:0:0:0:
434,147,18156,1,0,3:0:0:0:
342,181,18362,2,0,P|294:179|231:152,1,105,2|0,1:2|2:0,2:0:0:0:
235,131,18776,5,2,3:2:0:0:
183,217,18983,1,0,3:0:0:0:
57,156,19190,2,0,P|73:73|87:17,1,140,2|2,1:2|3:2,2:0:0:0:
187,47,19811,1,0,3:0:0:0:
187,47,20018,2,0,P|233:43|294:34,1,105,2|0,1:2|3:0,2:0:0:0:
314,50,20431,6,0,P|356:60|458:69,1,140,2|0,3:2|1:0,2:0:0:0:
452,69,21259,1,0,3:0:0:0:
464,166,21466,1,0,3:0:0:0:
476,263,21673,2,0,P|470:300|451:331,1,70,0|0,1:0|2:0,2:0:0:0:
425,329,21983,1,2,2:0:0:0:
425,329,22082,6,0,P|387:337|342:342,1,70,4|2,3:2|3:2,2:0:0:0:
219,299,22495,1,0,1:0:0:0:
292,230,22702,1,2,2:0:0:0:
292,230,22909,2,0,P|284:182|276:150,1,70,2|0,3:2|3:0,2:0:0:0:
313,89,23323,1,2,1:2:0:0:
124,93,23530,1,0,3:0:0:0:
173,25,23737,6,0,P|137:21|100:18,1,70,4|2,3:2|3:2,2:0:0:0:
32,149,24150,1,0,1:0:0:0:
236,274,24362,6,0,B|209:242|209:242|216:153|216:153|195:122,1,168,4|0,3:2|3:0,2:0:0:0:
286,215,24982,1,0,1:0:0:0:
164,304,25189,1,2,2:0:0:0:
164,304,25293,1,0,3:0:0:0:
164,304,25396,5,4,3:2:0:0:
225,373,25603,1,0,3:0:0:0:
315,354,25810,1,0,1:0:0:0:
360,274,26017,1,2,2:0:0:0:
368,267,26120,1,2,2:0:0:0:
376,260,26224,2,0,P|412:261|456:252,2,70,2|0|0,3:2|3:0|1:0,2:0:0:0:
306,149,26844,1,2,2:0:0:0:
306,149,27051,6,0,B|223:141|244:176|139:163,1,140,2|0,3:2|1:0,2:0:0:0:
118,83,27672,1,0,3:0:0:0:
118,83,27879,2,0,P|164:68|196:59,1,70,0|0,3:0|3:0,2:0:0:0:
305,61,28293,1,0,1:0:0:0:
305,61,28698,5,4,3:2:0:0:
262,144,28904,1,2,3:2:0:0:
324,212,29111,2,0,L|393:200,1,70,0|2,1:0|2:0,2:0:0:0:
266,148,29525,5,0,3:0:0:0:
266,148,29732,1,2,3:2:0:0:
232,232,29939,2,0,L|162:243,1,70,0|2,1:0|3:2,2:0:0:0:
80,131,30353,5,0,3:0:0:0:
171,150,30560,1,2,3:2:0:0:
193,331,30766,5,0,1:0:0:0:
103,312,30973,1,2,2:0:0:0:
162,243,31180,2,0,P|173:208|172:171,1,70,0|2,3:0|3:2,2:0:0:0:
284,312,31594,2,0,L|356:301,1,70,0|2,1:0|3:2,2:0:0:0:
366,310,31904,1,2,2:0:0:0:
376,319,32008,6,0,P|399:290|406:255,1,70,2|0,3:2|3:0,2:0:0:0:
348,185,32422,2,0,L|337:72,1,105,2|0,1:2|2:0,2:0:0:0:
329,68,32835,5,0,3:0:0:0:
411,25,33042,1,2,3:2:0:0:
254,129,33249,5,0,1:0:0:0:
172,86,33456,1,2,3:2:0:0:
175,179,33663,6,0,P|209:176|237:156,1,70,0|2,3:2|3:2,2:0:0:0:
84,203,34077,2,0,B|167:210|136:249|211:254,1,140,2|0,1:2|3:0,2:0:0:0:
210,254,34698,1,0,3:0:0:0:
300,229,34904,1,0,1:0:0:0:
282,320,35111,5,2,3:2:0:0:
312,231,35318,2,0,P|349:217|384:222,1,70,0|2,3:2|3:2,2:0:0:0:
483,122,35732,2,0,L|415:134,1,70,0|2,1:0|2:0,2:0:0:0:
309,49,36146,1,0,3:0:0:0:
187,92,36353,1,2,3:2:0:0:
229,161,36560,1,0,1:0:0:0:
174,238,36766,1,2,3:2:0:0:
229,161,36973,6,0,L|298:168,1,70,0|0,3:2|2:0,2:0:0:0:
157,100,37387,1,0,1:0:0:0:
85,159,37594,2,0,P|72:195|77:242,1,70,2|0,2:0|3:0,2:0:0:0:
127,291,38008,1,2,3:2:0:0:
34,305,38215,5,0,1:0:0:0:
156,201,38422,1,2,3:2:0:0:
218,269,38629,6,0,L|296:283,1,70,0|2,3:0|3:2,2:0:0:0:
385,174,39042,2,0,P|350:175|322:194,1,70,0|2,1:0|2:0,2:0:0:0:
380,266,39456,5,0,3:0:0:0:
465,125,39663,1,2,3:2:0:0:
321,194,39870,1,0,1:0:0:0:
406,53,40077,1,2,3:2:0:0:
313,55,40284,6,0,P|276:49|230:41,1,70,0|2,3:2|3:2,2:0:0:0:
128,124,40698,2,0,P|192:125|274:140,1,140,0|0,1:0|3:0,2:0:0:0:
266,138,41318,1,0,3:0:0:0:
128,124,41525,5,4,1:2:0:0:
320,217,41732,1,4,2:3:0:0:
187,258,41939,6,0,P|193:223|195:189,1,70,6|0,3:2|3:0,2:0:0:0:
266,138,42353,2,0,P|301:128|335:125,1,70,2|0,1:2|2:0,2:0:0:0:
475,251,42766,5,2,3:2:0:0:
320,217,42973,1,0,3:0:0:0:
408,186,43180,2,0,L|384:310,1,105,2|0,1:2|2:0,2:0:0:0:
394,307,43594,6,0,P|355:296|323:306,1,70,0|2,3:2|3:2,2:0:0:0:
162,261,44008,2,0,P|229:266|271:213,1,140,2|0,1:2|3:0,2:0:0:0:
271,213,44629,1,0,3:0:0:0:
209,79,44835,2,0,L|202:149,1,70,0|2,1:0|2:0,2:0:0:0:
296,129,45249,5,2,3:2:0:0:
296,129,45456,1,0,3:2:0:0:
132,28,45663,1,2,1:2:0:0:
132,28,45870,1,0,2:0:0:0:
49,132,46077,6,0,L|118:120,1,70,2|0,3:2|3:0,2:0:0:0:
263,248,46491,2,0,L|194:235,1,70,2|0,1:2|2:0,2:0:0:0:
107,216,46904,5,0,3:0:0:0:
212,119,47111,1,0,3:0:0:0:
107,216,47318,1,0,1:0:0:0:
49,132,47525,1,0,2:0:0:0:
201,215,47732,6,0,P|237:208|277:207,1,70,0|0,3:0|3:0,2:0:0:0:
432,254,48146,1,0,1:0:0:0:
432,254,48560,5,4,3:2:0:0:
362,192,48766,1,2,3:2:0:0:
284,243,48973,2,0,P|272:279|274:316,1,70,0|2,1:2|2:0,2:0:0:0:
362,192,49387,2,0,L|338:41,1,140,2|0,3:2|1:0,2:0:0:0:
171,178,50008,1,2,2:0:0:0:
262,152,50215,5,6,3:2:0:0:
99,47,50422,1,4,2:3:0:0:
46,173,50628,1,0,1:0:0:0:
235,62,50835,6,0,B|304:52|291:87|375:74,1,126,4|0,3:2|2:0,2:0:0:0:
401,23,51249,1,2,3:2:0:0:
319,164,51456,5,0,1:0:0:0:
442,116,51663,1,2,2:0:0:0:
447,125,51766,1,2,3:0:0:0:
452,135,51870,6,0,P|463:175|451:212,1,70,6|0,3:2|3:0,2:0:0:0:
365,312,52284,2,0,L|373:243,1,70,0|2,1:0|2:0,2:0:0:0:
452,293,52697,5,0,3:0:0:0:
452,293,52904,1,2,3:2:0:0:
290,201,53111,1,0,1:0:0:0:
290,201,53318,1,2,2:0:0:0:
223,266,53525,6,0,B|149:258|154:299|80:293,1,140,2|0,3:2|1:0,2:0:0:0:
87,293,54353,1,0,3:0:0:0:
151,226,54560,1,0,3:0:0:0:
59,118,54766,2,0,P|64:153|65:188,1,70,2|0,1:2|2:0,2:0:0:0:
87,293,55180,1,2,2:0:0:0:
430,288,57870,5,0,3:0:0:0:
424,296,58077,2,0,P|386:283|368:252,1,70,4|0,1:2|2:0,2:0:0:0:
317,96,58491,5,4,3:1:0:0:
380,166,58697,1,2,3:2:0:0:
347,253,58904,2,0,P|338:290|332:322,1,70,0|0,1:0|2:0,2:0:0:0:
250,262,59318,2,0,P|236:193|220:125,1,140,2|0,3:2|1:0,2:0:0:0:
328,173,59939,1,2,2:0:0:0:
159,271,60146,6,0,P|121:283|86:269,1,70,2|0,1:2|2:0,2:0:0:0:
335,289,60560,2,0,P|347:327|333:362,1,70,6|0,1:2|2:0,2:0:0:0:
353,113,60973,2,0,P|391:101|426:115,1,70,2|0,1:2|2:0,2:0:0:0:
166,85,61387,2,0,P|154:47|168:12,1,70,6|0,1:2|2:0,2:0:0:0:
262,58,61821,5,0,3:0:0:0:
262,58,62234,1,0,3:0:0:0:
262,58,62648,1,0,3:0:0:0:
262,58,63062,1,0,1:0:0:0:
258,92,63165,1,0,1:0:0:0:
254,127,63269,1,0,1:0:0:0:
250,162,63372,1,0,1:0:0:0:
247,197,63475,5,4,3:2:0:0:
383,233,63681,1,2,3:2:0:0:
303,260,63888,1,0,1:0:0:0:
327,170,64095,1,2,2:0:0:0:
359,323,64302,6,0,P|326:335|270:340,1,70,2|0,3:2|2:0,2:0:0:0:
383,233,64716,2,0,P|427:242|465:259,1,70,2|0,1:2|2:0,2:0:0:0:
512,119,65130,6,0,L|500:35,1,70,2|0,3:2|3:0,2:0:0:0:
288,0,65543,2,0,L|276:84,1,70,2|0,1:2|2:0,2:0:0:0:
391,155,65957,5,2,3:2:0:0:
479,104,66164,1,0,3:0:0:0:
301,102,66371,2,0,P|291:144|290:182,1,70,2|0,1:2|2:0,2:0:0:0:
207,308,66785,5,2,3:2:0:0:
110,325,66992,1,2,3:2:0:0:
93,228,67199,1,0,1:0:0:0:
190,211,67406,1,2,2:0:0:0:
18,292,67612,6,0,P|9:259|9:214,1,70,2|0,3:2|3:0,2:0:0:0:
161,120,68026,2,0,P|170:153|169:197,1,70,2|0,1:2|2:0,2:0:0:0:
44,46,68440,6,0,B|131:67|107:22|201:41,1,140,4|0,3:2|1:0,2:0:0:0:
181,37,69061,1,2,2:0:0:0:
284,108,69268,5,0,3:0:0:0:
381,90,69475,1,2,3:2:0:0:
471,246,69681,5,0,1:0:0:0:
374,228,69888,1,2,2:0:0:0:
241,327,70095,6,0,P|201:335|156:334,1,70,4|0,3:1|3:2,2:0:0:0:
39,282,70509,1,0,1:0:0:0:
164,216,70716,1,2,2:0:0:0:
37,132,70923,6,0,L|26:209,1,70,2|0,3:2|3:0,2:0:0:0:
186,69,71337,2,0,L|175:-8,1,70,2|0,1:2|2:0,2:0:0:0:
183,192,71750,6,0,P|224:184|265:168,1,70,6|0,3:2|3:0,2:0:0:0:
402,102,72164,2,0,P|366:94|256:51,1,140,2|2,1:2|3:2,2:0:0:0:
163,92,72785,5,0,3:2:0:0:
271,200,72992,2,0,P|304:211|338:217,1,70,2|0,1:2|2:0,2:0:0:0:
455,324,73406,5,4,3:2:0:0:
414,188,73612,1,2,3:2:0:0:
343,312,73819,1,0,1:0:0:0:
479,242,74026,1,2,2:0:0:0:
349,134,74233,6,0,P|356:87|366:46,1,70,0|0,3:2|3:0,2:0:0:0:
238,10,74647,2,0,P|189:25|116:28,1,105,2|0,1:2|2:0,2:0:0:0:
114,10,75061,6,0,P|102:69|93:159,1,140,0|0,3:2|1:0,2:0:0:0:
93,148,75888,1,0,3:0:0:0:
163,289,76095,5,0,1:0:0:0:
197,283,76199,1,0,1:0:0:0:
231,287,76302,1,0,1:0:0:0:
263,301,76406,1,0,1:0:0:0:
294,315,76509,1,0,1:0:0:0:
329,319,76612,1,0,1:0:0:0:
363,313,76716,6,0,P|396:299|450:291,1,70,6|0,3:2|3:0,2:0:0:0:
512,187,77130,2,0,P|477:179|445:166,1,70,0|0,1:0|2:0,2:0:0:0:
436,139,77440,1,0,1:0:0:0:
436,139,77543,5,2,3:2:0:0:
346,191,77750,1,0,3:0:0:0:
242,81,77957,2,0,P|277:65|324:11,1,105,2|0,1:2|2:0,2:0:0:0:
348,9,78371,5,2,3:2:0:0:
210,13,78578,1,2,3:2:0:0:
192,146,78785,2,0,P|158:162|123:170,1,70,0|2,1:0|2:0,2:0:0:0:
100,157,79095,1,0,1:0:0:0:
100,157,79199,5,0,3:2:0:0:
221,220,79406,1,0,3:0:0:0:
154,73,79612,2,0,P|108:63|76:59,1,70,0|0,1:2|3:2,3:2:0:0:
0,181,80026,6,0,P|10:227|14:259,1,70,2|0,3:2|3:0,2:0:0:0:
119,329,80440,2,0,P|156:312|191:306,1,70,2|0,1:2|2:0,2:0:0:0:
209,320,80750,1,0,1:0:0:0:
209,320,80854,5,2,3:2:0:0:
322,374,81061,1,0,3:0:0:0:
287,239,81268,2,0,P|252:226|212:219,1,70,2|0,1:2|2:0,2:0:0:0:
359,135,81681,6,0,B|439:136|413:169|510:163,1,140,2|0,3:2|1:0,2:0:0:0:
372,221,82302,1,0,3:0:0:0:
372,221,82406,1,0,1:0:0:0:
372,221,82509,5,2,3:2:0:0:
387,319,82716,1,0,3:0:0:0:
263,217,82923,5,0,1:2:0:0:
277,122,83130,1,0,3:0:0:0:
160,38,83337,6,0,P|125:27|87:21,1,70,4|2,3:2|3:2,2:0:0:0:
0,144,83750,2,0,P|34:138|67:127,1,70,0|2,1:0|2:0,2:0:0:0:
87,107,84051,1,0,1:0:0:0:
87,107,84142,5,0,3:2:0:0:
206,160,84371,1,0,3:0:0:0:
98,252,84577,2,0,P|89:313|108:368,1,105,2|0,1:2|2:0,2:0:0:0:
124,367,84992,5,6,3:2:0:0:
216,248,85198,1,4,2:3:0:0:
308,366,85405,1,0,1:0:0:0:
448,225,85612,6,0,B|405:209|405:209|322:222|322:222|268:204,1,168,6|0,3:2|3:0,2:0:0:0:
397,286,86233,2,0,P|403:323|411:378,1,83.9999974365235,0|0,1:0|2:0,2:0:0:0:
265,311,86647,5,4,3:2:0:0:
363,194,86854,1,2,2:0:0:0:
221,157,87061,1,0,1:0:0:0:
195,274,87268,1,4,2:3:0:0:
195,274,87371,1,0,1:0:0:0:
195,274,87474,2,0,L|143:263,1,35,0|4,3:0|2:3,2:0:0:0:
265,311,87681,2,0,L|299:303,1,35,0|0,3:0|3:0,2:0:0:0:
361,274,87888,5,2,3:2:0:0:
356,239,87978,1,4,2:3:0:0:
351,204,88069,1,4,2:3:0:0:
347,169,88160,1,4,2:3:0:0:
347,122,88297,5,6,3:2:0:0:
432,16,88607,1,0,3:0:0:0:
432,16,88716,1,0,1:0:0:0:
261,86,89025,5,0,1:0:0:0:
254,73,89129,1,0,3:0:0:0:
187,7,89336,1,0,3:0:0:0:
153,95,89542,5,0,1:0:0:0:
128,134,89646,1,0,1:0:0:0:
150,174,89749,1,0,1:0:0:0:
119,208,89853,1,0,1:0:0:0:
141,249,89957,6,2,L|180:255,14,35,4|0|0|0|0|0|0|0|0|0|0|0|0|0|0,3:2|2:0|3:0|2:0|1:0|2:0|2:0|2:0|3:0|2:0|3:0|2:0|1:0|2:0|2:0,2:1:0:0:
238,177,91508,5,2,2:0:0:0:
256,198,91612,2,2,L|290:192,14,35,0|0|0|0|0|0|0|0|0|0|0|0|0|0|0,3:2|2:0|3:0|2:0|1:0|2:0|2:0|2:0|3:0|2:0|3:0|2:0|1:0|2:0|2:0,2:1:0:0:
364,249,93267,6,2,L|398:255,12,35,0|0|0|0|0|0|0|0|0|0|0|0|0,3:2|2:0|3:0|2:0|1:0|2:0|2:0|2:0|3:0|2:0|3:0|2:0|1:0,2:1:0:0:
286,299,94715,5,2,2:0:0:0:
360,155,94897,2,0,P|357:118|350:62,1,84,2|0,3:1|3:0,2:0:0:0:
264,42,95207,5,2,2:1:0:0:
254,60,95310,2,0,P|255:39|258:18,1,42,2|0,1:0|2:0,2:0:0:0:
178,117,95517,6,0,L|126:126,1,42,2|2,2:0|2:0,2:0:0:0:
56,215,95724,1,0,3:0:0:0:
72,217,95828,1,2,2:0:0:0:
84,228,95931,1,2,3:2:0:0:
166,327,96138,2,0,B|160:282|160:282|180:261|180:261|174:210,1,126,2|0,1:0|2:0,2:0:0:0:
170,196,96552,5,4,3:2:0:0:
347,244,96759,1,2,3:1:0:0:
262,297,96965,5,0,1:0:0:0:
337,150,97172,2,0,P|344:112|350:64,1,84,2|0,2:1|3:0,3:0:0:0:
245,171,97586,5,2,3:1:0:0:
393,254,97793,1,0,1:0:0:0:
301,336,98000,1,2,2:1:0:0:
421,257,98207,6,0,B|440:221|440:221|432:170,1,84,0|2,3:0|3:1,2:0:0:0:
232,272,98621,1,0,1:0:0:0:
344,206,98828,6,0,B|277:209|289:173|207:177,1,126,2|0,2:1|2:0,2:0:0:0:
201,194,99241,2,0,L|160:202,1,42,2|0,3:1|2:0,2:0:0:0:
44,199,99448,1,0,1:0:0:0:
48,222,99862,6,0,B|37:205|37:205|14:61,1,140,2|0,3:1|1:0,2:0:0:0:
141,135,100483,5,2,2:0:0:0:
134,150,100586,1,2,2:0:0:0:
127,166,100690,2,0,B|125:145|125:145|178:9,1,140,2|0,3:1|1:0,2:0:0:0:
251,137,101310,5,2,2:0:0:0:
237,146,101414,1,2,2:0:0:0:
223,157,101517,2,0,B|232:138|232:138|345:47,1,140,2|0,3:1|1:0,2:0:0:0:
340,189,102138,5,2,2:0:0:0:
323,189,102241,1,2,2:0:0:0:
311,192,102345,1,2,3:1:0:0:
311,192,102552,5,0,1:0:0:0:
333,231,102655,1,0,1:0:0:0:
370,257,102759,1,0,1:0:0:0:
414,263,102862,1,0,1:0:0:0:
459,255,102965,1,0,1:0:0:0:
496,228,103069,1,0,1:0:0:0:
511,188,103172,6,0,B|451:180|457:208|389:202,1,115.5,6|0,3:2|2:0,2:0:0:0:
313,174,103600,1,2,1:0:0:0:
416,14,103806,6,0,B|389:68|418:71|391:134,1,115.5,2|0,3:1|2:0,2:0:0:0:
313,174,104220,1,2,3:1:0:0:
193,26,104427,6,0,B|236:67|248:41|299:86,1,115.5,2|0,1:0|2:0,2:0:0:0:
313,174,104841,1,2,3:1:0:0:
136,243,105047,6,0,B|189:214|167:195|226:159,1,115.5,2|0,3:1|2:0,2:0:0:0:
313,174,105461,1,2,3:1:0:0:
323,365,105668,6,0,B|312:305|287:319|271:253,1,115.5,2|0,3:1|2:0,2:0:0:0:
313,174,106082,1,2,1:0:0:0:
383,236,106289,5,2,2:0:0:0:
390,245,106392,1,2,2:0:0:0:
398,253,106496,1,2,3:2:0:0:
449,175,106703,1,2,3:1:0:0:
303,112,106909,5,2,1:2:0:0:
353,33,107116,2,0,B|333:97|333:97|355:167,1,140,2|0,2:1|3:0,2:0:0:0:
449,175,107737,5,0,1:0:0:0:
289,235,107944,1,2,2:1:0:0:
429,267,108151,6,0,L|363:291,1,70,2|0,3:1|3:2,2:0:0:0:
216,176,108565,1,0,1:0:0:0:
129,210,108772,2,2,B|179:220|179:220|200:257|200:257|267:273,1,140,2|2,2:1|3:1,2:1:0:0:
340,291,109392,1,0,1:0:0:0:
340,291,109806,6,0,P|324:241|336:191,1,105,6|0,3:2|2:0,2:0:0:0:
395,119,110220,2,0,L|407:39,1,70,2|0,1:0|2:0,2:0:0:0:
408,37,110530,1,4,2:3:0:0:
322,68,110737,1,4,2:3:0:0:
322,68,110841,1,0,3:0:0:0:
239,25,111047,2,0,P|203:16|163:9,1,70,2|0,1:0|2:0,2:0:0:0:
70,77,111358,5,2,2:0:0:0:
79,70,111461,2,0,P|94:131|76:175,1,105,2|0,3:1|2:0,2:0:0:0:
22,252,111875,2,0,L|96:270,1,70,2|0,1:0|2:0,2:0:0:0:
100,271,112185,1,4,2:3:0:0:
178,220,112392,1,4,2:3:0:0:
178,220,112496,1,0,3:0:0:0:
248,281,112703,2,0,B|278:296|278:296|326:292,1,70,2|0,1:0|2:0,2:0:0:0:
388,232,113013,5,2,2:0:0:0:
396,221,113116,1,4,3:2:0:0:
301,151,113323,6,0,L|306:186,3,35,2|2|2|2,3:2|2:0|1:2|2:0,2:0:0:0:
300,139,113737,1,2,2:0:0:0:
178,220,113944,6,0,L|173:254,3,35,2|2|2|2,3:2|2:0|3:2|2:0,2:0:0:0:
179,208,114358,1,2,1:0:0:0:
62,107,114565,6,0,P|57:87|54:64,1,35,2|2,2:0|2:0,2:0:0:0:
148,75,114772,5,2,3:2:0:0:
179,104,114875,2,0,P|196:113|223:118,1,35,2|0,2:1|3:0,2:0:0:0:
269,314,115082,5,2,2:0:0:0:
309,269,115185,2,0,P|326:260|353:255,1,35,2|0,1:0|3:0,2:0:0:0:
491,166,115392,5,2,2:0:0:0:
493,178,115496,1,2,2:1:0:0:
499,192,115599,1,4,2:3:0:0:
499,192,115806,5,0,1:0:0:0:
453,186,115909,1,0,1:0:0:0:
406,180,116013,1,0,1:0:0:0:
360,174,116116,1,0,1:0:0:0:
317,172,116220,1,0,1:0:0:0:
317,172,116427,5,4,3:2:0:0:
440,81,117904,6,0,B|398:85|398:85|363:131|363:131|308:133,1,140,6|0,3:2|3:0,2:0:0:0:
416,185,118548,1,2,1:2:0:0:
320,56,118754,1,0,3:0:0:0:
320,56,118847,1,0,1:0:0:0:
320,56,118941,2,0,P|277:46|237:30,1,70,2|0,3:2|3:0,2:0:0:0:
110,79,119332,6,0,B|125:115|125:115|168:143|168:143|182:183,1,126,4|0,1:2|2:0,2:0:0:0:
154,248,119744,5,4,3:2:0:0:
154,248,120985,5,0,1:0:0:0:
319,329,121192,6,0,B|281:322|281:322|226:357|226:357|176:349,1,140,6|0,3:2|3:0,2:0:0:0:
276,235,121812,1,2,1:2:0:0:
350,355,122019,1,0,3:0:0:0:
350,355,122123,1,0,1:0:0:0:
350,355,122226,2,0,P|394:363|427:363,1,70,2|0,3:2|3:0,2:0:0:0:
509,249,122640,1,0,1:0:0:0:
373,180,122847,1,0,1:0:0:0:
367,192,122950,1,0,1:0:0:0:
361,204,123054,5,6,3:2:0:0:
361,204,124502,6,0,B|367:160|367:160|409:121|409:121|414:71,1,140,6|0,3:2|3:0,2:0:0:0:
283,144,125123,1,2,1:2:0:0:
233,28,125330,1,0,3:0:0:0:
233,28,125433,1,0,1:0:0:0:
233,28,125537,2,0,P|194:22|155:12,1,70,2|0,3:2|3:0,2:0:0:0:
30,80,125950,6,0,B|43:119|43:119|26:165|26:165|41:206,1,126,4|0,1:2|2:0,2:0:0:0:
101,236,126364,5,4,3:2:0:0:
101,236,127630,5,0,1:0:0:0:
152,375,127836,6,0,B|175:340|175:340|168:278|168:278|189:239,1,140,6|0,3:2|3:0,2:0:0:0:
276,183,128455,1,2,1:2:0:0:
341,326,128662,1,0,3:0:0:0:
338,339,128766,1,0,1:0:0:0:
335,352,128869,1,2,3:2:0:0:
477,298,129056,5,0,1:0:0:0:
486,264,129159,1,0,1:0:0:0:
486,229,129262,1,0,1:0:0:0:
476,195,129366,1,0,1:0:0:0:
458,166,129469,1,0,1:0:0:0:
432,142,129573,1,0,1:0:0:0:
402,126,129676,6,0,L|324:134,1,70,6|2,3:2|3:2,2:0:0:0:
218,248,130090,2,0,L|296:255,1,70,0|2,1:2|2:0,2:0:0:0:
411,323,130504,1,0,3:2:0:0:
458,166,130711,1,2,3:2:0:0:
312,229,130918,1,0,1:0:0:0:
505,234,131124,6,0,P|498:160|482:83,1,140,2|0,2:0|3:0,2:0:0:0:
369,0,131745,2,0,P|372:37|380:75,1,70,2|0,1:2|2:0,2:0:0:0:
299,151,132159,1,2,3:2:0:0:
299,151,132366,1,0,3:0:0:0:
190,55,132573,2,0,L|114:62,1,70,0|2,1:0|2:0,2:0:0:0:
32,133,132987,5,4,3:2:0:0:
138,173,133193,1,2,3:2:0:0:
101,247,133400,2,0,P|89:284|83:330,1,70,0|2,1:2|2:0,2:0:0:0:
206,384,133814,2,0,P|217:350|223:316,1,70,0|2,3:2|3:2,2:0:0:0:
366,241,134228,1,0,1:2:0:0:
296,282,134435,6,0,P|279:206|273:128,1,140,2|0,2:0|3:0,2:0:0:0:
332,34,135056,1,0,1:0:0:0:
187,5,135262,1,2,2:0:0:0:
187,5,135366,1,0,3:0:0:0:
187,5,135469,2,0,P|136:18|104:21,1,70,2|0,3:2|3:0,2:0:0:0:
12,127,135883,1,4,1:2:0:0:
50,213,136090,1,0,3:0:0:0:
193,155,136297,6,0,L|201:68,1,70,4|2,3:2|3:2,2:0:0:0:
328,215,136711,2,0,L|336:302,1,70,0|2,1:0|2:0,2:0:0:0:
169,346,137124,2,0,B|101:352|118:385|27:377,1,140,2|2,3:2|1:2,2:0:0:0:
88,220,137745,1,2,2:0:0:0:
128,283,137952,6,0,P|212:261|271:236,1,140,2|0,3:2|1:0,2:0:0:0:
411,155,138573,2,0,P|327:133|268:108,1,140,2|0,2:0|3:0,2:0:0:0:
182,36,139193,2,0,P|137:45|103:61,1,70,2|0,1:2|3:0,2:0:0:0:
106,81,139504,1,2,2:0:0:0:
106,81,139607,5,2,3:2:0:0:
165,175,139814,1,0,3:0:0:0:
322,173,140021,1,0,1:0:0:0:
421,69,140228,5,0,3:0:0:0:
423,55,140331,1,0,1:0:0:0:
425,41,140435,1,0,3:0:0:0:
512,70,140642,1,0,3:0:0:0:
411,155,140849,1,0,1:0:0:0:
307,48,141056,5,4,2:3:0:0:
293,51,141159,1,4,2:3:0:0:
279,54,141262,1,2,3:2:0:0:
258,142,141469,1,0,2:0:0:0:
139,78,141676,1,0,1:0:0:0:
159,222,141883,5,4,2:3:0:0:
157,235,141987,1,4,2:3:0:0:
156,249,142090,1,4,2:3:0:0:
154,263,142193,1,4,2:3:0:0:
153,277,142297,1,4,3:0:0:0:
273,361,142504,1,0,1:0:0:0:
396,293,142711,1,2,2:0:0:0:
428,305,142813,1,4,2:3:0:0:
462,307,142924,6,0,P|474:270|479:232,1,70,4|2,3:2|2:0,2:0:0:0:
407,114,143337,2,0,P|395:151|390:189,1,70,0|0,1:0|2:0,2:0:0:0:
290,202,143751,1,0,3:0:0:0:
290,202,143958,1,0,3:0:0:0:
241,70,144165,1,0,1:0:0:0:
160,80,144372,1,2,2:0:0:0:
307,21,144579,6,0,P|348:27|383:29,1,70,2|2,3:2|2:0,2:0:0:0:
502,77,144992,1,0,1:0:0:0:
502,77,145406,1,0,3:0:0:0:
451,162,145613,1,0,3:0:0:0:
497,250,145820,1,0,1:2:0:0:
413,334,146027,1,2,2:0:0:0:
413,334,146234,6,0,P|372:327|336:327,1,70,4|2,3:2|2:0,2:0:0:0:
232,187,146648,2,0,P|273:194|309:194,1,70,0|2,1:0|2:0,2:0:0:0:
192,322,147061,2,0,P|165:290|147:259,1,70,0|2,3:0|3:2,2:0:0:0:
124,256,147372,1,0,3:0:0:0:
124,256,147475,1,2,1:0:0:0:
172,131,147682,1,0,3:0:0:0:
80,12,147889,6,0,P|73:48|71:87,1,70,6|0,3:2|2:0,2:0:0:0:
281,16,148303,2,0,P|279:51|272:85,1,70,2|0,1:2|2:0,2:0:0:0:
9,0,148717,2,0,P|2:36|0:75,1,70,2|0,3:2|3:0,2:0:0:0:
60,220,149130,1,0,1:0:0:0:
199,151,149337,1,2,2:0:0:0:
115,159,149544,5,4,3:2:0:0:
187,225,149751,1,0,3:0:0:0:
275,181,149958,1,0,1:0:0:0:
419,233,150165,1,6,3:2:0:0:
419,233,150579,5,0,1:0:0:0:
420,198,150682,1,0,1:0:0:0:
422,163,150786,1,0,1:0:0:0:
424,128,150889,1,0,1:0:0:0:
425,93,150992,1,0,1:0:0:0:
427,58,151096,1,0,1:0:0:0:
429,23,151199,5,6,3:2:0:0:
419,233,152434,5,0,1:0:0:0:
275,85,152847,6,0,P|246:131|258:210,1,120.75,6|0,3:2|2:0,2:0:0:0:
418,232,153260,2,0,P|388:180|335:156,1,120.75,6|0,3:2|2:0,2:0:0:0:
325,248,153674,1,6,3:2:0:0:
201,351,153881,5,0,1:0:0:0:
159,370,153984,1,0,1:0:0:0:
112,368,154088,1,0,1:0:0:0:
70,347,154191,1,0,1:0:0:0:
41,310,154295,1,0,1:0:0:0:
28,265,154398,1,0,1:0:0:0:
42,221,154502,6,0,L|127:229,1,80.5000015354157,4|2,3:2|3:2,2:0:0:0:
208,240,154915,1,0,1:0:0:0:
273,98,155122,1,2,2:0:0:0:
208,240,155329,6,0,P|197:288|211:317,1,70,0|2,3:2|3:2,2:0:0:0:
400,290,155743,2,0,L|295:278,1,105,0|0,1:0|2:0,2:0:0:0:
343,328,156157,5,2,3:2:0:0:
427,202,156364,1,0,3:0:0:0:
424,305,156571,5,0,1:0:0:0:
346,155,156778,1,2,2:0:0:0:
295,278,156984,6,0,P|255:290|219:285,1,70,0|0,3:0|3:0,2:0:0:0:
67,160,157398,1,0,1:0:0:0:
67,160,157812,5,4,3:2:0:0:
254,89,158019,1,2,3:2:0:0:
171,214,158226,2,0,P|177:182|179:144,1,70,0|2,1:0|2:0,2:0:0:0:
228,323,158640,2,0,B|151:333|170:290|91:301,1,140,2|2,3:2|1:2,2:0:0:0:
92,300,159260,1,0,3:0:0:0:
211,228,159467,6,0,P|244:208|257:175,1,70,2|0,3:2|3:0,2:0:0:0:
349,67,159881,2,0,L|339:137,1,70,2|0,1:2|2:0,2:0:0:0:
464,231,160295,1,2,3:2:0:0:
431,144,160502,1,0,3:0:0:0:
387,284,160709,2,0,P|419:270|459:274,1,70,2|0,1:2|2:0,2:0:0:0:
256,180,161122,5,0,3:2:0:0:
183,317,161329,1,2,3:2:0:0:
296,266,161536,5,0,1:0:0:0:
179,126,161743,1,2,2:0:0:0:
111,188,161950,6,0,P|137:211|171:217,1,70,2|0,3:2|3:0,2:0:0:0:
197,58,162364,2,0,L|179:126,1,70,2|0,1:2|2:0,2:0:0:0:
245,275,162760,6,0,B|299:272|299:272|325:290|325:290|387:286,1,140,2|0,3:2|1:0,2:0:0:0:
379,286,163380,1,0,2:0:0:0:
452,228,163587,1,2,3:2:0:0:
414,142,163794,5,0,1:0:0:0:
368,132,163897,1,0,1:0:0:0:
322,122,164001,1,0,1:0:0:0:
276,113,164104,1,0,1:0:0:0:
234,107,164208,1,0,1:0:0:0:
192,101,164311,1,0,1:0:0:0:
150,95,164420,6,0,P|189:92|216:64,1,70,6|0,3:2|3:0,2:0:0:0:
155,165,164860,2,0,L|150:245,1,70,2|0,1:2|2:0,2:0:0:0:
143,244,165170,1,0,1:0:0:0:
136,252,165273,1,2,3:2:0:0:
52,170,165480,1,0,3:0:0:0:
181,52,165687,2,0,P|222:41|288:58,1,105,2|0,1:2|2:0,2:0:0:0:
344,125,166091,6,0,L|492:116,1,140,2|0,3:2|1:0,2:0:0:0:
327,221,166711,1,2,2:0:0:0:
315,215,166815,1,0,1:0:0:0:
304,211,166918,2,0,P|287:248|287:278,1,70,0|0,3:0|3:0,2:0:0:0:
124,367,167332,2,0,P|107:330|107:300,1,70,0|0,1:0|2:0,2:0:0:0:
267,298,167746,6,0,L|199:311,1,70,2|0,3:2|3:0,2:0:0:0:
90,213,168159,2,0,L|159:226,1,70,2|0,1:2|2:0,2:0:0:0:
170,220,168470,1,0,1:0:0:0:
183,215,168573,2,0,P|197:179|195:146,1,70,2|0,3:2|3:0,2:0:0:0:
106,27,168987,2,0,L|117:97,1,70,2|0,1:2|2:0,2:0:0:0:
274,198,169401,5,2,3:2:0:0:
331,124,169608,2,0,B|258:116|263:152|190:147,1,140,2|0,3:2|2:0,2:0:0:0:
189,140,170125,1,0,1:0:0:0:
184,132,170228,5,0,3:0:0:0:
228,50,170435,1,0,3:0:0:0:
101,175,170642,6,0,P|95:138|84:99,1,70,0|0,1:0|2:0,2:0:0:0:
172,239,171056,5,4,3:2:0:0:
301,177,171263,1,2,3:2:0:0:
397,282,171470,1,0,1:0:0:0:
275,194,171677,6,0,L|315:205,1,35,2|0,2:0|1:0,2:0:0:0:
424,263,171884,2,0,P|387:271|357:282,1,70,2|0,3:2|3:0,2:0:0:0:
396,170,172297,2,0,P|391:136|382:102,1,70,2|0,1:2|2:0,2:0:0:0:
262,283,172711,5,6,3:2:0:0:
450,280,172918,1,4,2:3:0:0:
302,169,173125,1,0,1:0:0:0:
356,347,173332,6,0,P|368:260|384:182,1,168,6|0,3:2|3:0,2:0:0:0:
236,102,173953,2,0,P|212:135|208:175,1,70,2|0,1:2|2:0,2:0:0:0:
265,235,174263,1,0,1:0:0:0:
274,224,174366,5,4,3:2:0:0:
113,158,174573,1,2,2:0:0:0:
180,279,174780,1,0,1:0:0:0:
219,130,174987,6,0,L|207:163,1,35,2|0,2:0|1:0,2:0:0:0:
154,301,175194,1,0,3:0:0:0:
113,158,175401,5,2,3:2:0:0:
248,303,175608,2,0,P|311:319|368:320,1,105,0|0,1:2|2:0,2:0:0:0:
361,343,176022,5,4,3:2:0:0:
431,168,176228,1,2,3:2:0:0:
493,294,176435,1,0,1:0:0:0:
301,205,176642,1,2,2:0:0:0:
328,50,176849,5,0,3:0:0:0:
373,59,176953,1,0,1:0:0:0:
418,69,177056,1,0,1:0:0:0:
467,82,177159,1,0,1:0:0:0:
510,93,177263,5,0,1:0:0:0:
465,102,177366,1,0,1:0:0:0:
420,112,177470,1,0,1:0:0:0:
375,121,177573,1,0,1:0:0:0:
348,164,177677,6,0,P|309:153|265:145,1,70,6|0,3:2|3:0,2:0:0:0:
75,255,178091,2,0,P|112:244|155:229,1,70,2|0,1:2|2:0,2:0:0:0:
306,310,178504,5,0,3:0:0:0:
142,328,178711,1,2,2:0:0:0:
266,206,178918,5,0,1:0:0:0:
279,376,179125,1,2,2:0:0:0:
398,241,179332,6,0,L|476:224,1,70,2|0,3:2|3:0,2:0:0:0:
246,118,179746,2,0,L|168:101,1,70,2|0,1:2|3:0,2:0:0:0:
364,42,180159,5,2,1:2:0:0:
396,145,180366,1,0,3:0:0:0:
202,148,180573,5,2,1:2:0:0:
195,259,180780,1,0,3:0:0:0:
51,121,180987,6,0,P|39:81|23:46,1,70,4|2,3:2|3:2,2:0:0:0:
160,12,181401,1,0,1:2:0:0:
160,12,181608,1,2,2:0:0:0:
202,148,181815,2,0,P|240:138|276:120,1,70,2|0,3:2|3:0,2:0:0:0:
424,234,182228,2,0,P|392:219|358:211,1,70,2|0,1:2|2:0,2:0:0:0:
331,224,182539,1,0,3:0:0:0:
335,228,182642,5,2,3:2:0:0:
233,253,182849,1,0,3:0:0:0:
131,278,183056,2,0,P|87:275|53:269,1,70,0|2,1:0|2:0,2:0:0:0:
195,324,183470,5,0,3:0:0:0:
297,349,183677,1,2,3:2:0:0:
399,374,183884,2,0,P|443:371|477:365,1,70,0|2,1:0|2:0,2:0:0:0:
501,209,184285,5,4,3:2:0:0:
335,179,184491,1,2,3:2:0:0:
446,293,184698,5,0,1:0:0:0:
429,117,184905,1,2,2:0:0:0:
316,212,185112,6,0,P|275:204|232:199,1,70,0|2,3:0|2:0,2:0:0:0:
62,92,185526,2,0,P|103:84|146:79,1,70,0|0,1:0|2:0,2:0:0:0:
308,0,185940,5,2,3:2:0:0:
468,56,186147,1,0,3:2:0:0:
388,28,186353,2,0,P|377:97|374:167,1,140,2|2,1:2|3:2,2:0:0:0:
374,167,186974,5,0,3:0:0:0:
289,290,187181,2,0,P|252:268|178:254,1,105,2|0,1:2|2:0,2:0:0:0:
168,268,187595,5,6,3:2:0:0:
121,369,187802,1,0,3:0:0:0:
56,241,188009,6,0,P|45:194|35:162,1,70,2|0,1:2|2:0,2:0:0:0:
97,65,188422,1,2,3:2:0:0:
3,3,188629,1,0,3:0:0:0:
101,140,188836,2,0,P|145:135|175:129,1,70,2|0,1:2|2:0,2:0:0:0:
258,24,189250,5,0,3:0:0:0:
341,87,189457,1,2,3:2:0:0:
414,248,189664,5,0,1:0:0:0:
293,216,189871,1,0,3:0:0:0:
144,373,190078,5,2,1:2:0:0:
263,335,190285,1,2,3:2:0:0:
172,133,190491,5,2,1:2:0:0:
56,88,190698,1,0,1:0:0:0:
52,74,190802,1,0,1:0:0:0:
48,58,190905,6,0,P|124:39|202:33,1,140,6|2,3:2|1:2,2:0:0:0:
311,123,191526,1,0,2:0:0:0:
311,123,191629,1,0,1:0:0:0:
311,123,191733,2,0,P|348:105|379:79,1,70,2|0,3:2|3:0,2:0:0:0:
505,37,192147,1,2,1:2:0:0:
505,37,192560,5,2,3:2:0:0:
439,119,192767,1,0,3:0:0:0:
507,198,192974,2,0,P|496:235|475:264,1,70,0|2,1:0|2:0,2:0:0:0:
446,256,193285,1,0,1:0:0:0:
450,260,193388,5,0,3:0:0:0:
382,344,193595,1,0,3:0:0:0:
257,241,193802,2,0,P|259:195|270:157,1,70,0|2,1:0|2:0,2:0:0:0:
112,8,194216,6,0,P|110:54|99:92,1,70,6|0,3:2|2:0,2:0:0:0:
3,207,194629,1,0,1:0:0:0:
136,291,194836,5,0,1:0:0:0:
140,304,194940,1,0,1:0:0:0:
143,317,195043,2,0,B|211:318|191:347|283:339,1,140,2|2,3:2|1:2,2:0:0:0:
391,220,195664,1,0,3:0:0:0:
391,220,195767,1,0,3:0:0:0:
391,220,195871,6,0,P|374:159|368:56,1,140,2|0,3:2|1:0,2:0:0:0:
493,5,196491,5,0,2:0:0:0:
493,5,196595,1,0,1:0:0:0:
493,5,196698,1,2,3:2:0:0:
467,161,196905,1,0,3:0:0:0:
291,142,197112,2,0,P|239:153|181:152,1,105,0|0,1:0|2:0,2:0:0:0:
171,129,197526,5,4,3:2:0:0:
56,161,197733,1,0,3:0:0:0:
211,248,197940,1,0,1:0:0:0:
71,303,198147,5,2,2:0:0:0:
60,312,198250,1,0,1:0:0:0:
49,321,198353,2,0,L|34:241,1,70,2|0,3:2|3:0,2:0:0:0:
171,129,198767,2,0,L|158:197,1,70,2|0,1:2|2:0,2:0:0:0:
206,365,199181,5,6,3:2:0:0:
351,227,199388,1,4,2:3:0:0:
171,129,199595,1,0,1:0:0:0:
378,208,199802,6,0,B|391:175|391:175|366:108|366:108|390:49,1,140,6|0,3:2|3:0,2:0:0:0:
240,2,200451,5,2,1:2:0:0:
264,151,200657,1,0,3:0:0:0:
262,164,200761,1,0,3:0:0:0:
260,177,200836,6,0,P|256:256|261:319,1,140,6|2,3:2|1:2,2:0:0:0:
382,362,201457,1,2,2:0:0:0:
395,358,201560,1,0,1:0:0:0:
408,353,201664,1,0,3:2:0:0:
476,262,201871,1,2,3:2:0:0:
399,177,202078,1,0,1:0:0:0:
470,86,202285,1,2,2:0:0:0:
470,86,202388,1,0,3:0:0:0:
470,86,202491,6,0,B|393:77|411:108|326:93,1,140,0|0,3:0|1:0,2:0:0:0:
218,12,203112,1,0,3:0:0:0:
221,15,203216,1,0,1:0:0:0:
225,19,203319,1,2,3:2:0:0:
126,98,203526,1,0,3:0:0:0:
205,195,203733,5,4,2:3:0:0:
209,229,203836,1,4,2:3:0:0:
214,264,203940,1,4,2:3:0:0:
219,299,204043,1,4,2:3:0:0:
225,333,204153,6,0,P|262:317|306:311,1,70,6|0,3:2|2:0,2:0:0:0:
383,334,204566,1,0,1:0:0:0:
437,190,204773,1,2,2:0:0:0:
383,334,204980,6,0,P|397:289|396:249,1,70,2|0,3:2|3:0,2:0:0:0:
233,131,205394,2,0,L|246:224,1,70,2|0,1:2|3:0,2:0:0:0:
327,157,205808,5,0,3:2:0:0:
238,38,206015,1,2,3:2:0:0:
327,157,206221,1,0,1:0:0:0:
230,231,206428,6,0,B|154:225|167:260|84:257,1,140,2|2,2:0|3:2,2:0:0:0:
29,189,207049,1,0,1:0:0:0:
122,66,207256,5,2,2:0:0:0:
122,66,207359,1,2,2:0:0:0:
122,66,207463,2,0,P|108:98|103:133,1,70,2|0,3:2|3:0,2:0:0:0:
244,253,207877,2,0,P|257:221|263:186,1,70,2|0,1:2|2:0,2:0:0:0:
170,197,208290,5,0,3:0:0:0:
244,253,208497,1,2,3:2:0:0:
179,320,208704,1,0,1:0:0:0:
257,370,208911,1,2,3:2:0:0:
330,265,209118,6,0,P|334:226|343:189,1,70,2|0,3:2|3:0,2:0:0:0:
492,201,209532,2,0,B|481:123|458:158|441:63,1,140,2|0,1:2|3:0,2:0:0:0:
264,77,210153,1,0,3:0:0:0:
187,129,210359,1,0,1:0:0:0:
192,320,210773,6,0,P|122:316|55:336,1,140,2|0,3:2|1:0,2:0:0:0:
5,258,211394,2,0,P|4:223|13:188,1,70,2|0,2:0|3:0,2:0:0:0:
92,140,211808,2,0,L|82:58,1,70,2|0,2:0|1:0,2:0:0:0:
3,23,212221,5,2,3:2:0:0:
114,68,212428,2,0,P|149:80|184:84,1,70,0|2,3:0|3:2,2:0:0:0:
349,126,212842,1,0,1:0:0:0:
278,66,213049,2,0,L|260:134,1,70,2|0,2:0|3:0,2:0:0:0:
217,287,213463,5,2,3:2:0:0:
415,213,213670,1,0,1:0:0:0:
260,134,213877,1,2,3:2:0:0:
307,342,214080,6,0,P|316:260|325:190,1,140,2|0,3:2|1:0,2:0:0:0:
217,287,214907,6,0,P|226:205|235:135,1,140,2|0,3:2|1:0,2:0:0:0:
127,232,215735,6,0,P|131:191|136:156,1,70,2|0,3:2|3:0,2:0:0:0:
331,75,216148,5,0,1:0:0:0:
391,194,216355,1,2,2:0:0:0:
421,104,216562,1,0,3:0:0:0:
283,222,216769,5,2,1:2:0:0:
484,262,216976,1,0,1:0:0:0:
283,222,217183,1,6,1:2:0:0:
