osu file format v14

[General]
AudioFilename: ashita mo.mp3
AudioLeadIn: 0
PreviewTime: 189759
Countdown: 0
SampleSet: Soft
StackLeniency: 0.4
Mode: 0
LetterboxInBreaks: 0
WidescreenStoryboard: 0

[Editor]
Bookmarks: 317132,318473,338584,340596,351983
DistanceSpacing: 1
BeatDivisor: 4
GridSize: 4
TimelineZoom: 1.8

[Metadata]
Title:Ashita mo
TitleUnicode:明日も
Artist:SHISHAMO
ArtistUnicode:SHISHAMO
Creator:Chekito
Version:Beautiful Memories
Source:
Tags:ashitamo Asako Miyazaki 宮崎朝子 Misaki Yoshikawa 吉川美冴貴 Aya Matsuoka 松岡彩 indie rock jrock lince cosmico
BeatmapID:1531401
BeatmapSetID:725292

[Difficulty]
HPDrainRate:6.3
CircleSize:3.9
OverallDifficulty:7.5
ApproachRate:9
SliderMultiplier:1.6
SliderTickRate:1

[Events]
//Background and Video events
0,0,"aUj5iUk.jpg",0,0
//Break Periods
2,254348,273143
//Storyboard Layer 0 (Background)
//Storyboard Layer 1 (Fail)
//Storyboard Layer 2 (Pass)
//Storyboard Layer 3 (Foreground)
//Storyboard Sound Samples

[TimingPoints]
709,335.195530726257,4,2,0,40,1,0
4731,-100,4,2,1,40,0,0
6072,-100,4,2,1,60,0,0
7762,335.195530726257,4,2,1,60,1,0
8755,335.195530726257,4,2,1,60,1,0
16715,-100,4,2,1,5,0,0
16799,-100,4,2,1,60,0,0
18224,-100,4,2,1,5,0,0
18308,-100,4,2,1,60,0,0
19732,-100,4,2,1,5,0,0
19816,-100,4,2,1,60,0,0
22079,-100,4,2,1,5,0,0
22162,-100,4,2,1,60,0,0
24425,-100,4,2,1,5,0,0
24509,-100,4,2,1,60,0,0
24760,-100,4,2,1,5,0,0
24844,-100,4,2,1,60,0,0
28866,-166.666666666667,4,2,1,50,0,0
31548,-100,4,2,1,60,0,0
46548,-100,4,2,1,5,0,0
46632,-100,4,2,1,60,0,0
49984,322.58064516129,4,2,1,60,1,0
50628,335.195530726257,4,2,1,50,1,0
51298,-200,4,2,1,50,0,0
51549,-100,4,2,1,5,0,0
51633,-100,4,2,1,50,0,0
52003,335.195530726257,4,2,1,50,1,0
53008,335.195530726257,4,2,1,50,1,0
60633,-100,4,2,1,5,0,0
60717,-100,4,2,1,50,0,0
73454,-100,4,2,1,30,0,0
73790,-100,4,2,1,40,0,0
74125,-100,4,2,1,50,0,0
74460,-125,4,2,1,40,0,0
76723,-125,4,2,1,5,0,0
76806,-76.9230769230769,4,2,1,40,0,0
77058,-76.9230769230769,4,2,1,5,0,0
77142,-100,4,2,1,50,0,0
85521,-100,4,2,1,20,0,0
85605,-100,4,2,1,50,0,0
86024,-100,4,2,1,20,0,0
86108,-100,4,2,1,50,0,0
86527,334.952269301625,4,2,1,60,1,1
86527,-83.3333333333333,4,2,1,60,0,1
93895,-71.4285714285714,4,2,1,60,0,1
94147,-71.4285714285714,4,2,1,5,0,1
94230,-71.4285714285714,4,2,1,60,0,1
94482,-62.5,4,2,1,5,0,1
94565,-83.3333333333333,4,2,1,60,0,1
103944,335.195530726257,4,2,1,60,1,1
103944,-83.3333333333333,4,2,1,60,0,1
104865,-83.3333333333333,4,2,1,5,0,1
104949,-83.3333333333333,4,2,1,60,0,1
106625,-83.3333333333333,4,2,1,70,0,0
107953,365.853658536585,4,2,1,60,1,1
107953,-83.3333333333333,4,2,1,60,0,1
108318,335.195530726257,4,2,1,60,1,1
108318,-83.3333333333333,4,2,1,60,0,1
109323,334.634690462911,4,2,1,60,1,1
109323,-83.3333333333333,4,2,1,60,0,1
115346,-71.4285714285714,4,2,1,60,0,1
115597,-71.4285714285714,4,2,1,5,0,1
115681,-71.4285714285714,4,2,1,60,0,1
115932,-71.4285714285714,4,2,1,5,0,1
116015,-83.3333333333333,4,2,1,60,0,1
121620,-83.3333333333333,4,2,1,5,0,1
121704,-83.3333333333333,4,2,1,60,0,1
123963,-83.3333333333333,4,2,1,5,0,1
124046,-83.3333333333333,4,2,1,60,0,1
125385,340.909090909091,4,2,1,60,1,1
125385,-83.3333333333333,4,2,1,60,0,1
126407,-83.3333333333333,4,2,1,70,0,1
126492,-83.3333333333333,4,2,1,60,0,1
126748,333.796940194715,4,2,1,80,1,1
126748,-83.3333333333333,4,2,1,80,0,1
126831,-83.3333333333333,4,2,1,60,0,1
127999,-83.3333333333333,4,2,1,5,0,1
128083,-83.3333333333333,4,2,1,60,0,1
128416,-200,4,2,1,60,0,1
129001,-200,4,2,1,5,0,1
129084,-200,4,2,1,60,0,1
129418,335.195530726257,4,2,1,40,1,0
130758,-200,4,2,1,40,0,0
133440,-100,4,2,1,40,0,0
134781,335.758254057079,4,2,1,40,1,0
151149,-100,4,2,1,5,0,0
151233,-100,4,2,1,50,0,0
151820,-100,4,2,1,5,0,0
151904,-100,4,2,1,50,0,0
152240,334.877490651337,4,2,1,40,1,0
153914,-133.333333333333,4,2,1,30,0,0
154584,-133.333333333333,4,2,1,70,0,0
154919,-100,4,2,1,50,0,0
165551,-100,4,2,1,5,0,0
165635,-100,4,2,1,50,0,0
168565,-100,4,2,1,5,0,0
168648,-100,4,2,1,50,0,0
175765,-100,4,2,1,5,0,0
175879,331.491712707182,4,2,1,50,1,0
176375,335.195530726257,4,2,1,50,1,0
177715,-125,4,2,1,40,0,0
179978,-125,4,2,1,5,0,0
180062,-76.9230769230769,4,2,1,40,0,0
180313,-76.9230769230769,4,2,1,5,0,0
180397,-100,4,2,1,50,0,0
184419,333.333333333333,4,2,1,50,1,0
188419,335.195530726257,4,2,1,50,1,0
189759,334.821428571429,4,2,1,60,1,1
189759,-83.3333333333333,4,2,1,60,0,1
197125,-71.4285714285714,4,2,1,60,0,1
197376,-71.4285714285714,4,2,1,5,0,1
197459,-71.4285714285714,4,2,1,60,0,1
197711,-62.5,4,2,1,5,0,1
197794,-83.3333333333333,4,2,1,60,0,1
200475,335.195530726257,4,2,1,60,1,1
200475,-83.3333333333333,4,2,1,60,0,1
208100,-83.3333333333333,4,2,1,5,0,1
208184,-83.3333333333333,4,2,1,60,0,1
208529,335.195530726257,4,2,1,60,1,1
208529,-83.3333333333333,4,2,1,60,0,1
211229,334.9148758024,4,2,1,60,1,1
211229,-83.3333333333333,4,2,1,60,0,1
216587,-133.333333333333,4,2,1,60,0,1
216838,-133.333333333333,4,2,1,5,0,1
216922,-83.3333333333333,4,2,1,60,0,1
218597,-71.4285714285714,4,2,1,60,0,1
218848,-71.4285714285714,4,2,1,5,0,1
218932,-71.4285714285714,4,2,1,60,0,1
219183,-71.4285714285714,4,2,1,5,0,1
219266,-83.3333333333333,4,2,1,60,0,1
224876,-83.3333333333333,4,2,1,5,0,1
224960,-83.3333333333333,4,2,1,60,0,1
227221,-83.3333333333333,4,2,1,5,0,1
227304,-83.3333333333333,4,2,1,60,0,1
229649,-83.3333333333333,4,2,1,70,0,1
229733,-83.3333333333333,4,2,1,60,0,1
229984,-83.3333333333333,4,2,1,80,0,1
230067,-83.3333333333333,4,2,1,60,0,1
231240,-83.3333333333333,4,2,1,5,0,1
231323,-83.3333333333333,4,2,1,60,0,1
231909,-83.3333333333333,4,2,1,5,0,1
231993,-83.3333333333333,4,2,1,60,0,1
232663,335.195530726257,4,2,1,40,1,0
232663,-83.3333333333333,4,2,1,40,0,0
232914,-83.3333333333333,4,2,1,5,0,0
232998,-83.3333333333333,4,2,1,70,0,0
250093,-71.4285714285714,4,2,1,70,0,0
250596,-71.4285714285714,4,2,1,50,0,0
251015,-71.4285714285714,4,2,1,5,0,0
251098,-71.4285714285714,4,2,1,50,0,0
251350,-71.4285714285714,4,2,1,5,0,0
251456,335.195530726257,4,2,1,50,1,0
251456,-71.4285714285714,4,2,1,50,0,0
253131,-200,4,2,1,50,0,0
254148,335.195530726257,4,2,1,50,1,0
272906,335.195530726257,4,2,1,50,1,0
273743,-100,4,2,1,50,0,0
275587,-83.3333333333333,4,2,1,60,0,1
281202,-83.3333333333333,4,2,1,5,0,1
281285,-83.3333333333333,4,2,1,60,0,1
282961,-71.4285714285714,4,2,1,60,0,1
283213,-71.4285714285714,4,2,1,5,0,1
283297,-71.4285714285714,4,2,1,60,0,1
283548,-71.4285714285714,4,2,1,5,0,1
283632,-83.3333333333333,4,2,1,60,0,1
289246,-83.3333333333333,4,2,1,5,0,1
289330,-83.3333333333333,4,2,1,60,0,1
289581,-83.3333333333333,4,2,1,5,0,1
289665,-83.3333333333333,4,2,1,60,0,1
291593,-83.3333333333333,4,2,1,5,0,1
291676,-83.3333333333333,4,2,1,60,0,1
293939,-83.3333333333333,4,2,1,5,0,1
294023,-83.3333333333333,4,2,1,70,0,1
294274,-83.3333333333333,4,2,1,5,0,1
294332,335.195530726257,4,2,1,80,1,1
294332,-83.3333333333333,4,2,1,80,0,1
294416,-83.3333333333333,4,2,1,60,0,1
295669,335.195530726257,4,2,1,60,1,1
295669,-83.3333333333333,4,2,1,60,0,1
296704,335.195530726257,4,2,1,60,1,0
296704,-133.333333333333,4,2,1,60,0,0
296955,-83.3333333333333,4,2,1,5,0,0
297020,335.195530726257,4,2,1,60,1,1
297020,-83.3333333333333,4,2,1,60,0,1
297438,-83.3333333333333,4,2,1,5,0,1
297522,-83.3333333333333,4,2,1,60,0,1
301293,-83.3333333333333,4,2,1,5,0,1
301377,-83.3333333333333,4,2,1,60,0,1
304394,-71.4285714285714,4,2,1,60,0,1
304645,-71.4285714285714,4,2,1,5,0,1
304729,-71.4285714285714,4,2,1,60,0,1
304980,-71.4285714285714,4,2,1,5,0,1
305064,-83.3333333333333,4,2,1,60,0,1
307997,-83.3333333333333,4,2,1,5,0,1
308081,-83.3333333333333,4,2,1,60,0,1
310679,-83.3333333333333,4,2,1,5,0,1
310763,-83.3333333333333,4,2,1,60,0,1
313360,-83.3333333333333,4,2,1,5,0,1
313444,-83.3333333333333,4,2,1,60,0,1
315037,-83.3333333333333,4,2,1,5,0,1
315121,-83.3333333333333,4,2,1,60,0,1
315707,-83.3333333333333,4,2,1,5,0,1
315791,-83.3333333333333,4,2,1,60,0,1
318472,335.570469798658,4,2,1,60,1,1
318472,-83.3333333333333,4,2,1,60,0,1
318723,-83.3333333333333,4,2,1,5,0,1
318807,-83.3333333333333,4,2,1,60,0,1
321408,-83.3333333333333,4,2,1,5,0,1
321492,-83.3333333333333,4,2,1,60,0,1
323757,-83.3333333333333,4,2,1,5,0,1
323841,-71.4285714285714,4,2,1,60,0,1
324092,-71.4285714285714,4,2,1,5,0,1
324176,-83.3333333333333,4,2,1,60,0,1
325854,-71.4285714285714,4,2,1,60,0,1
326106,-71.4285714285714,4,2,1,5,0,1
326190,-71.4285714285714,4,2,1,60,0,1
326441,-71.4285714285714,4,2,1,5,0,1
326525,-83.3333333333333,4,2,1,60,0,1
326777,-83.3333333333333,4,2,1,5,0,1
326861,-83.3333333333333,4,2,1,60,0,1
329210,334.821428571429,4,2,1,60,1,1
329210,-83.3333333333333,4,2,1,60,0,1
329461,-83.3333333333333,4,2,1,5,0,1
329544,-83.3333333333333,4,2,1,60,0,1
332139,-83.3333333333333,4,2,1,5,0,1
332223,-83.3333333333333,4,2,1,60,0,1
336827,-83.3333333333333,4,2,1,5,0,1
336910,-83.3333333333333,4,2,1,60,0,1
337162,-83.3333333333333,4,2,1,5,0,1
337245,-83.3333333333333,4,2,1,60,0,1
338501,-83.3333333333333,4,2,1,5,0,1
338585,335.195530726257,4,2,1,60,1,1
338920,-133.333333333333,4,2,1,60,0,1
340596,-133.333333333333,4,2,1,40,0,1
341257,335.946248600224,4,2,1,40,1,0
341257,-125,4,2,1,40,0,0
351983,-100,4,2,1,50,0,0
352007,352.941176470588,4,2,1,50,1,0
352712,328.767123287671,4,2,1,50,1,0
353369,342.857142857143,4,2,1,50,1,0
354741,334.261838440111,4,2,1,50,1,0
356896,331.491712707182,4,2,1,50,1,0
357415,334.261838440111,4,2,1,50,1,0
357415,-83.3333333333333,4,2,1,50,0,0
357665,-83.3333333333333,4,2,1,5,0,0
357749,-83.3333333333333,4,2,1,50,0,0
358000,-83.3333333333333,4,2,1,5,0,0
358083,-100,4,2,1,50,0,0
360089,338.696020321761,4,2,1,50,1,0
360766,-100,4,2,1,60,0,0
362120,335.195530726257,4,2,1,60,1,0

[Colours]
Combo1 : 128,255,0
Combo2 : 245,240,35
Combo3 : 158,215,248
Combo4 : 243,247,138

[HitObjects]
160,267,709,5,2,3:2:0:0:
160,131,876,1,2,3:2:0:0:
192,111,1379,5,2,3:2:0:0:
192,273,1546,1,2,3:2:0:0:
224,267,2049,5,2,3:2:0:0:
224,131,2217,1,2,3:2:0:0:
256,111,2720,5,2,3:2:0:0:
256,273,2887,1,2,3:2:0:0:
288,267,3390,5,2,3:2:0:0:
288,131,3558,1,2,3:2:0:0:
320,111,4060,5,2,3:2:0:0:
320,273,4228,1,2,3:2:0:0:
405,194,4731,5,8,0:0:0:0:
320,111,4898,1,2,3:2:0:0:
320,273,5066,1,12,0:0:0:0:
320,273,5401,5,8,0:0:0:0:
292,265,5485,1,8,0:0:0:0:
263,265,5569,1,8,0:0:0:0:
236,273,5653,1,8,0:0:0:0:
215,291,5736,1,8,0:0:0:0:
197,312,5820,1,8,0:0:0:0:
172,325,5904,1,8,0:0:0:0:
143,326,5988,1,8,0:0:0:0:
115,318,6072,6,0,B|99:264|99:264|116:226|116:226|93:162,1,160,4|8,0:0|0:0,0:0:0:0:
51,82,6574,1,2,3:2:0:0:
147,84,6742,2,0,L|237:91,1,80,0|2,0:0|3:2,0:0:0:0:
284,166,7077,2,0,L|374:159,1,80,8|0,0:0|0:0,0:0:0:0:
459,150,7412,6,0,L|452:336,1,168,2|8,3:2|0:0,0:0:0:0:
368,369,7929,2,0,P|349:320|242:289,1,160,2|2,3:2|3:2,0:0:0:0:
175,340,8432,1,8,0:0:0:0:
59,171,8599,1,0,0:0:0:0:
59,171,8755,6,0,P|78:220|179:252,1,160,0|8,0:0|0:0,0:0:0:0:
231,178,9257,1,2,3:2:0:0:
231,178,9425,2,0,B|283:154|283:154|392:169,1,160,0|8,0:0|0:0,0:0:0:0:
479,184,9928,1,0,0:0:0:0:
436,63,10095,2,0,B|384:87|384:87|275:72,1,160,2|8,3:2|0:0,0:0:0:0:
199,24,10598,2,0,L|208:112,1,80,2|0,3:2|0:0,0:0:0:0:
119,142,10933,1,2,3:2:0:0:
194,201,11101,2,0,L|185:280,1,80,8|0,0:0|0:0,0:0:0:0:
176,376,11436,6,0,B|259:394|248:336|332:362,1,160,6|8,3:2|0:0,0:0:0:0:
422,381,11939,1,2,3:2:0:0:
394,289,12106,2,0,L|401:202,1,80,0|2,0:0|3:2,0:0:0:0:
481,155,12442,2,0,L|474:68,1,80,8|0,0:0|0:0,0:0:0:0:
401,12,12777,5,2,3:2:0:0:
401,12,13112,1,8,0:0:0:0:
309,43,13280,2,0,P|273:54|221:48,1,80,2|0,3:2|0:0,0:0:0:0:
185,135,13615,2,0,P|150:125|97:130,1,80,2|8,0:0|0:0,0:0:0:0:
46,51,13950,1,0,0:0:0:0:
10,140,14118,6,0,B|31:188|31:188|15:298,1,160,0|8,0:0|0:0,0:0:0:0:
67,374,14620,2,0,B|115:353|115:353|225:369,1,160,2|2,3:2|3:2,0:0:0:0:
316,382,15123,1,8,0:0:0:0:
386,316,15291,1,0,0:0:0:0:
281,206,15458,6,0,L|295:285,1,80,2|0,3:2|0:0,0:0:0:0:
381,142,15794,1,8,0:0:0:0:
381,142,15961,2,0,L|368:221,1,80,2|0,3:2|0:0,0:0:0:0:
295,285,16296,1,2,3:2:0:0:
204,252,16464,2,0,P|165:244|81:268,1,120,8|0,0:0|0:0,0:0:0:0:
55,285,16799,6,0,L|44:118,1,160,6|8,3:2|0:0,0:0:0:0:
84,38,17302,1,2,3:2:0:0:
135,119,17470,2,0,L|141:206,1,80,0|2,0:0|3:2,0:0:0:0:
186,38,17805,1,8,0:0:0:0:
229,122,17972,6,0,P|281:127|348:102,1,120,0|0,0:0|0:0,0:0:0:0:
370,73,18308,1,0,0:0:0:0:
399,164,18475,1,8,0:0:0:0:
429,255,18643,2,0,L|341:248,1,80,2|0,3:2|0:0,0:0:0:0:
292,326,18978,1,2,3:2:0:0:
230,251,19146,2,0,L|142:258,1,80,8|0,0:0|0:0,0:0:0:0:
76,342,19481,6,0,L|208:349,1,120,2|0,3:2|0:0,0:0:0:0:
235,347,19816,2,0,P|247:316|244:259,1,80,8|2,0:0|3:2,0:0:0:0:
161,224,20151,2,0,P|149:193|152:136,1,80,0|2,0:0|3:2,0:0:0:0:
210,72,20486,1,8,0:0:0:0:
381,175,20654,6,0,B|327:195|327:195|205:167,1,160,2|0,3:2|0:0,0:0:0:0:
295,104,21157,1,8,0:0:0:0:
381,33,21324,2,0,B|327:13|327:13|205:41,1,160,2|2,3:2|3:2,0:0:0:0:
160,104,21827,2,0,L|21:102,1,120,8|0,0:0|0:0,0:0:0:0:
0,97,22162,6,0,P|30:147|19:262,1,160,6|8,3:2|0:0,0:0:0:0:
60,336,22665,2,0,P|110:305|225:316,1,160,2|2,3:2|3:2,0:0:0:0:
292,357,23168,2,0,P|345:367|381:362,1,80,8|0,0:0|0:0,0:0:0:0:
442,300,23503,6,0,B|431:245|431:245|446:209|446:209|431:142,1,160,2|8,3:2|0:0,0:0:0:0:
352,200,24006,1,2,3:2:0:0:
273,145,24173,2,0,P|232:158|145:155,1,120,2|0,3:2|0:0,0:0:0:0:
171,195,24509,2,0,P|130:182|43:185,1,120,8|0,0:0|0:0,0:0:0:0:
19,203,24844,6,0,B|38:151|38:151|29:47,1,160,6|8,3:2|0:0,0:0:0:0:
135,9,25347,2,0,B|116:61|116:61|125:165,1,160,2|2,3:2|3:2,0:0:0:0:
192,233,25849,2,0,L|280:228,1,80,8|0,0:0|0:0,0:0:0:0:
368,222,26185,6,0,P|410:271|401:361,1,160,2|8,3:2|0:0,0:0:0:0:
321,307,26687,2,0,L|144:319,1,160,2|2,3:2|0:0,0:0:0:0:
65,326,27190,2,0,L|51:236,1,80,8|0,0:0|0:0,0:0:0:0:
82,89,27525,5,2,3:2:0:0:
60,166,27693,1,0,0:0:0:0:
136,190,27861,1,2,3:2:0:0:
159,113,28028,1,0,0:0:0:0:
159,113,28363,5,2,3:2:0:0:
113,267,28531,1,8,3:0:0:0:
113,267,28866,5,6,3:2:0:0:
113,267,29201,2,0,L|166:269,1,47.9999985351563,2|0,3:2|0:0,0:0:0:0:
214,212,29537,2,0,L|261:210,1,47.9999985351563,2|0,3:2|0:0,0:0:0:0:
314,266,29872,2,0,L|361:267,1,47.9999985351563,2|0,3:2|0:0,0:0:0:0:
421,219,30207,2,0,P|439:170|430:118,1,95.9999970703126,2|2,3:2|3:2,0:0:0:0:
375,76,30710,1,0,0:0:0:0:
310,141,30877,5,8,0:0:0:0:
299,27,31045,1,8,0:0:0:0:
310,141,31548,6,0,P|257:158|181:95,1,160,6|8,3:2|0:0,0:0:0:0:
113,29,32051,2,0,P|141:93|127:181,1,160,2|2,3:2|3:2,0:0:0:0:
58,241,32553,2,0,P|45:283|51:324,1,80,8|0,0:0|0:0,0:0:0:0:
134,363,32889,6,0,B|185:331|185:331|300:338,1,160,2|8,3:2|0:0,0:0:0:0:
345,225,33391,2,0,B|294:257|294:257|179:250,1,160,2|2,3:2|3:2,0:0:0:0:
132,180,33894,1,8,0:0:0:0:
58,241,34062,1,0,0:0:0:0:
36,115,34229,6,0,B|87:138|87:138|199:122,1,160,2|8,3:2|0:0,0:0:0:0:
250,48,34732,2,0,L|334:55,2,80,2|0|2,3:2|0:0|3:2,0:0:0:0:
190,123,35235,2,0,P|189:160|199:208,1,80,8|0,0:0|0:0,0:0:0:0:
261,273,35570,5,2,3:2:0:0:
291,156,35738,1,0,0:0:0:0:
197,202,35905,1,8,0:0:0:0:
323,142,36073,1,2,3:2:0:0:
261,273,36241,2,0,L|270:360,1,80,0|2,0:0|3:2,0:0:0:0:
176,379,36576,1,8,0:0:0:0:
176,379,36743,1,0,0:0:0:0:
125,297,36911,6,0,P|88:312|45:311,1,80,2|0,3:2|0:0,0:0:0:0:
48,199,37246,2,0,P|87:198|124:213,1,80,8|2,0:0|3:2,0:0:0:0:
216,278,37581,2,0,L|210:364,2,80,0|2|8,0:0|3:2|0:0,0:0:0:0:
225,166,38084,1,0,0:0:0:0:
318,228,38252,6,0,B|400:259|388:191|476:225,1,160,2|8,3:2|0:0,0:0:0:0:
470,81,38755,2,0,P|399:87|355:162,1,160,2|2,3:2|3:2,0:0:0:0:
362,252,39257,1,8,0:0:0:0:
277,206,39425,1,0,0:0:0:0:
278,301,39592,6,0,P|223:314|128:273,1,160,2|8,3:2|0:0,0:0:0:0:
102,183,40095,1,2,3:2:0:0:
176,121,40263,2,0,P|194:159|193:203,1,80,0|2,0:0|3:2,0:0:0:0:
102,183,40598,1,8,0:0:0:0:
89,87,40766,1,0,0:0:0:0:
176,121,40933,6,0,P|234:136|334:87,1,160,2|8,3:2|0:0,0:0:0:0:
339,4,41436,1,2,3:2:0:0:
413,65,41604,2,0,P|419:108|406:147,1,80,0|2,0:0|3:2,0:0:0:0:
327,193,41939,1,8,0:0:0:0:
412,235,42106,1,0,0:0:0:0:
332,291,42274,6,0,L|172:282,1,160,0|8,0:0|0:0,0:0:0:0:
85,210,42777,2,0,L|245:201,1,160,2|2,3:2|3:2,0:0:0:0:
340,192,43280,1,8,0:0:0:0:
283,114,43447,1,0,0:0:0:0:
377,101,43615,2,0,P|339:34|263:16,1,160,2|8,3:2|0:0,0:0:0:0:
283,114,44118,1,2,3:2:0:0:
192,83,44285,5,0,0:0:0:0:
207,177,44453,1,2,3:2:0:0:
119,144,44620,1,8,0:0:0:0:
104,238,44788,1,0,0:0:0:0:
193,272,44956,6,0,L|297:265,1,80
368,259,45291,1,8,0:0:0:0:
329,346,45458,2,0,L|499:358,1,160,2|2,3:2|3:2,0:0:0:0:
447,264,45961,2,0,L|367:258,1,80,8|0,0:0|0:0,0:0:0:0:
282,213,46296,6,0,P|258:167|266:95,1,120,2|0,3:2|0:0,0:0:0:0:
288,68,46632,2,0,P|235:96|140:80,1,160,8|0,0:0|0:0,0:0:0:0:
80,4,47134,1,2,3:2:0:0:
48,94,47302,2,0,L|53:179,1,80,8|0,0:0|3:2,0:0:0:0:
59,269,47637,6,0,B|111:244|111:244|219:257,1,160,6|8,3:2|0:0,0:0:0:0:
317,326,48140,1,2,3:2:0:0:
163,338,48308,2,0,B|265:351|265:351|317:326,1,160,6|8,3:2|0:0,0:0:0:0:
212,256,48810,1,2,3:2:0:0:
317,326,48978,6,0,L|412:320,1,80,6|0,3:2|0:0,0:0:0:0:
492,316,49313,1,8,0:0:0:0:
440,234,49481,2,0,B|436:177|436:177|459:144|459:144|454:77,1,160,0|2,0:0|3:2,0:0:0:0:
358,23,49984,1,8,0:0:0:0:
373,117,50145,1,2,3:2:0:0:
257,30,50306,5,8,0:0:0:0:
222,203,50629,6,0,L|265:196,1,26.6666666666667,8|0,3:0|0:0,0:0:0:0:
117,154,50963,6,0,L|155:176,1,26.6666666666667,8|0,3:0|0:0,0:0:0:0:
83,60,51298,6,0,L|103:127,1,60,8|0,0:0|0:0,0:0:0:0:
117,154,51633,5,6,3:2:0:0:
117,154,52003,2,0,L|208:145,1,80,8|2,0:0|3:2,0:0:0:0:
251,225,52338,2,0,L|342:233,1,80,0|2,0:0|3:2,0:0:0:0:
385,154,52673,2,0,L|476:146,1,80,8|0,0:0|0:0,0:0:0:0:
510,231,53008,6,0,P|496:326|441:355,1,160,2|8,3:2|0:0,0:0:0:0:
376,288,53510,1,2,3:2:0:0:
335,375,53678,2,0,P|306:368|246:369,1,80,0|2,0:0|3:2,0:0:0:0:
160,381,54013,1,8,0:0:0:0:
195,291,54181,1,0,0:0:0:0:
195,291,54348,6,0,P|206:231|163:144,1,160,2|8,3:2|0:0,0:0:0:0:
85,64,54851,2,0,P|135:98|232:94,1,160,2|2,3:2|3:2,0:0:0:0:
296,23,55354,2,0,P|338:13|377:20,1,80,8|0,0:0|0:0,0:0:0:0:
444,84,55689,6,0,P|425:131|443:239,1,160,2|8,3:2|0:0,0:0:0:0:
483,322,56192,1,2,3:2:0:0:
396,362,56359,1,0,0:0:0:0:
396,362,56527,1,2,3:2:0:0:
353,275,56695,1,8,0:0:0:0:
301,384,56862,1,0,0:0:0:0:
256,298,57030,6,0,B|210:275|210:275|83:295,1,160,0|8,0:0|0:0,0:0:0:0:
6,311,57533,1,2,3:2:0:0:
35,220,57700,1,0,0:0:0:0:
35,220,57868,1,2,3:2:0:0:
123,184,58035,1,8,0:0:0:0:
32,118,58203,1,2,3:2:0:0:
142,193,58371,6,0,P|217:171|251:96,1,160,0|8,0:0|0:0,0:0:0:0:
342,10,58873,2,0,P|328:86|376:148,1,160,2|2,3:2|0:0,0:0:0:0:
466,182,59376,2,0,P|490:221|492:256,1,80,8|0,0:0|0:0,0:0:0:0:
394,322,59711,5,2,3:2:0:0:
412,243,59879,1,0,0:0:0:0:
329,264,60047,1,8,0:0:0:0:
311,185,60214,1,2,3:2:0:0:
217,329,60382,2,0,P|273:332|325:293,1,120
329,264,60717,1,8,0:0:0:0:
236,238,60885,1,0,0:0:0:0:
217,329,61052,6,0,P|171:353|76:302,1,160,2|8,3:2|0:0,0:0:0:0:
158,121,61555,2,0,B|167:181|167:181|146:210|146:210|155:276,1,160,2|2,3:2|0:0,0:0:0:0:
236,238,62058,1,8,0:0:0:0:
81,160,62225,1,0,0:0:0:0:
222,56,62393,6,0,P|242:93|245:142,1,80,6|0,3:2|0:0,0:0:0:0:
319,193,62728,2,0,P|324:153|343:118,1,80,8|2,0:0|3:2,0:0:0:0:
422,64,63063,1,0,0:0:0:0:
492,176,63231,2,0,P|446:187|406:182,1,80,2|8,3:2|0:0,0:0:0:0:
343,118,63566,6,0,P|294:108|177:130,1,160
148,214,64069,1,8,0:0:0:0:
224,272,64237,1,2,3:2:0:0:
224,272,64404,2,0,P|246:233|246:195,2,80,0|2|8,0:0|3:2|0:0,0:0:0:0:
134,307,64907,1,0,0:0:0:0:
148,214,65075,6,0,P|90:222|17:147,1,160,0|8,0:0|0:0,0:0:0:0:
109,130,65577,2,0,P|161:122|239:203,1,160,2|2,3:2|3:2,0:0:0:0:
218,283,66080,2,0,P|214:330|226:366,1,80,8|0,0:0|0:0,0:0:0:0:
310,316,66415,6,0,B|374:313|374:313|403:338|403:338|466:334,1,160,2|8,3:2|0:0,0:0:0:0:
512,249,66918,1,2,3:2:0:0:
512,249,67086,2,0,L|426:259,1,80,0|2,0:0|3:2,0:0:0:0:
340,222,67421,1,8,0:0:0:0:
310,316,67589,1,0,0:0:0:0:
310,316,67756,6,0,B|264:288|264:288|156:308,1,160,0|8,0:0|0:0,0:0:0:0:
65,328,68259,1,2,3:2:0:0:
65,328,68426,2,0,P|79:284|76:245,1,80,0|2,0:0|3:2,0:0:0:0:
19,173,68762,1,8,0:0:0:0:
96,116,68929,1,0,0:0:0:0:
96,116,69097,6,0,B|130:153|130:153|264:140,1,160,0|8,0:0|0:0,0:0:0:0:
335,131,69600,1,2,3:2:0:0:
335,131,69767,2,0,P|317:85|286:58,1,80,0|2,0:0|3:2,0:0:0:0:
203,224,70102,2,0,P|251:231|293:215,1,80,8|0,0:0|0:0,0:0:0:0:
335,131,70438,5,6,3:2:0:0:
380,269,70605,1,0,0:0:0:0:
408,185,70773,1,8,0:0:0:0:
303,308,70940,1,2,3:2:0:0:
465,258,71108,5,6,3:2:0:0:
306,219,71276,1,0,0:0:0:0:
434,173,71443,1,8,0:0:0:0:
375,284,71611,1,2,3:2:0:0:
347,132,71778,6,0,P|273:127|213:197,1,160,6|8,3:2|0:0,0:0:0:0:
187,276,72281,2,0,P|113:281|53:211,1,160,2|2,3:2|3:2,0:0:0:0:
139,105,72784,1,8,0:0:0:0:
144,195,72952,1,2,3:2:0:0:
55,70,73119,5,8,0:0:0:0:
55,70,73454,5,8,3:0:0:0:
139,105,73790,5,4,3:0:0:0:
144,195,74125,5,8,3:0:0:0:
187,276,74460,6,0,B|232:297|232:297|313:276,1,128,6|8,3:2|0:0,0:0:0:0:
247,211,74963,1,8,0:0:0:0:
187,144,75130,2,0,B|232:123|232:123|313:144,1,128,2|8,3:2|0:0,0:0:0:0:
365,211,75633,1,0,0:0:0:0:
399,128,75801,6,0,P|389:91|361:68,1,64,2|0,3:2|0:0,0:0:0:0:
307,142,76136,1,8,0:0:0:0:
307,142,76304,1,8,0:0:0:0:
365,211,76471,2,0,P|374:251|361:304,1,96,0|0,0:0|0:0,0:0:0:0:
340,327,76806,6,4,B|260:292|268:358|185:322,1,155.999992858887
162,305,77142,6,0,B|170:246|170:246|151:213|151:213|161:139,1,160,6|8,3:2|0:0,0:0:0:0:
239,99,77644,1,0,0:0:0:0:
251,194,77812,2,0,P|291:192|330:171,1,80,2|0,3:2|0:0,0:0:0:0:
363,85,78147,1,8,0:0:0:0:
451,240,78315,6,0,P|398:244|324:164,1,160,6|2,3:2|3:2,0:0:0:0:
363,85,78818,1,8,0:0:0:0:
294,17,78985,2,0,B|246:-2|246:-2|139:34,1,160,2|2,3:2|0:0,0:0:0:0:
54,3,79488,1,8,0:0:0:0:
74,97,79656,1,0,0:0:0:0:
74,97,79823,6,0,P|81:149|48:264,1,160,6|8,3:2|0:0,0:0:0:0:
69,347,80326,2,0,P|113:318|231:299,1,160,2|2,3:2|3:2,0:0:0:0:
310,322,80829,2,0,P|352:329|392:320,1,80,8|0,0:0|0:0,0:0:0:0:
455,252,81164,6,0,P|445:222|441:166,1,80,2|0,3:2|0:0,0:0:0:0:
364,91,81499,2,0,P|361:130|349:168,1,80,8|2,0:0|3:2,0:0:0:0:
259,204,81834,2,0,P|216:217|188:245,1,80,0|2,0:0|3:2,0:0:0:0:
150,328,82170,2,0,P|107:315|79:287,1,80,12|0,0:0|0:0,0:0:0:0:
41,186,82505,6,0,P|85:193|165:120,1,160,6|8,3:2|0:0,0:0:0:0:
151,25,83008,1,2,3:2:0:0:
238,63,83175,2,0,L|323:56,1,80,0|2,0:0|3:2,0:0:0:0:
413,49,83510,1,8,0:0:0:0:
396,143,83678,1,0,0:0:0:0:
380,237,83845,6,0,P|330:221|226:268,1,160,0|8,0:0|0:0,0:0:0:0:
202,349,84348,2,0,P|152:365|48:318,1,160,2|2,3:2|3:2,0:0:0:0:
29,234,84851,1,12,0:0:0:0:
123,253,85019,1,0,0:0:0:0:
174,90,85186,5,2,3:2:0:0:
110,151,85354,1,0,0:0:0:0:
25,128,85521,1,0,0:0:0:0:
277,100,85689,5,2,3:2:0:0:
192,77,85856,1,0,0:0:0:0:
128,138,86024,1,2,0:0:0:0:
372,96,86192,2,0,P|342:111|276:103,1,80,8|0,0:0|0:0,0:0:0:0:
225,175,86527,6,0,B|221:248|221:248|240:284|240:284|234:372,1,191.999994140625,6|8,3:2|0:0,0:0:0:0:
338,311,87029,1,2,3:2:0:0:
338,311,87196,2,0,P|399:295|510:360,1,191.999994140625,0|8,0:0|0:0,0:0:0:0:
471,158,87699,1,0,0:0:0:0:
471,158,87866,2,0,P|395:213|302:201,1,191.999994140625,2|8,3:2|0:0,0:0:0:0:
223,129,88369,1,2,3:2:0:0:
223,129,88536,2,0,P|147:73|54:85,1,191.999994140625,0|8,0:0|0:0,0:0:0:0:
12,182,89039,1,0,0:0:0:0:
84,258,89206,6,0,B|232:252|232:252|198:300,1,191.999994140625,2|8,3:2|0:0,0:0:0:0:
144,372,89709,1,2,3:2:0:0:
144,372,89876,2,0,B|292:378|292:378|258:330,1,191.999994140625,0|8,0:0|0:0,0:0:0:0:
325,254,90378,1,0,0:0:0:0:
393,333,90546,6,0,P|450:342|494:336,1,95.9999970703126,2|0,3:2|0:0,0:0:0:0:
509,203,90881,2,0,P|461:198|414:207,1,95.9999970703126,8|2,0:0|3:2,0:0:0:0:
312,262,91216,2,0,P|260:278|218:274,1,95.9999970703126,0|2,0:0|3:2,0:0:0:0:
161,174,91551,2,0,P|208:171|253:186,1,95.9999970703126,8|0,0:0|0:0,0:0:0:0:
125,262,91886,6,0,P|72:213|95:106,1,191.999994140625,6|8,3:2|0:0,0:0:0:0:
201,59,92388,1,2,3:2:0:0:
255,160,92556,2,0,P|311:122|431:132,1,191.999994140625,0|8,0:0|0:0,0:0:0:0:
494,227,93058,1,0,0:0:0:0:
423,318,93226,2,0,B|352:324|352:324|315:300|315:300|239:305,1,191.999994140625,2|8,3:2|0:0,0:0:0:0:
139,365,93728,1,2,3:2:0:0:
57,259,93895,6,0,P|136:263|201:197,1,167.999994873047,2|0,3:2|0:0,0:0:0:0:
80,110,94230,2,0,P|37:176|61:265,1,167.999994873047,8|0,0:0|0:0,0:0:0:0:
197,205,94565,6,0,P|243:167|368:199,1,191.999994140625,2|8,3:2|0:0,0:0:0:0:
422,293,95068,1,2,3:2:0:0:
503,211,95235,2,0,P|489:155|493:111,1,95.9999970703126,0|2,0:0|3:2,0:0:0:0:
389,64,95570,2,0,P|390:111|377:157,1,95.9999970703126,8|0,0:0|0:0,0:0:0:0:
291,236,95905,6,0,B|190:280|209:195|106:228,1,191.999994140625,2|8,3:2|0:0,0:0:0:0:
149,307,96408,1,2,3:2:0:0:
243,165,96575,2,0,L|231:63,1,95.9999970703126,0|2,0:0|3:2,0:0:0:0:
154,114,96910,1,12,0:0:0:0:
321,131,97077,1,0,0:0:0:0:
200,240,97245,6,0,P|150:224|103:235,1,95.9999970703126,6|0,3:2|0:0,0:0:0:0:
107,379,97580,2,0,P|153:387|198:371,1,95.9999970703126,8|2,0:0|3:2,0:0:0:0:
292,304,97915,2,0,B|367:297|367:297|402:324|402:324|485:315,1,191.999994140625,0|8,0:0|0:0,0:0:0:0:
471,197,98417,6,0,B|456:229|427:236|427:236|387:193|395:109,1,191.999994140625
455,38,98920,1,8,0:0:0:0:
359,22,99087,2,0,P|290:20|179:75,1,191.999994140625,2|2,3:2|3:2,0:0:0:0:
155,165,99590,1,8,0:0:0:0:
306,145,99757,1,0,0:0:0:0:
187,251,99925,6,0,P|160:212|155:165,1,95.9999970703126,2|0,3:2|0:0,0:0:0:0:
306,145,100260,2,0,P|333:184|338:231,1,95.9999970703126,8|2,0:0|3:2,0:0:0:0:
256,338,100594,2,0,B|205:364|205:364|49:330,1,191.999994140625,0|8,0:0|0:0,0:0:0:0:
0,217,101097,2,0,P|91:232|154:165,1,191.999994140625
127,52,101599,1,8,0:0:0:0:
127,52,101767,1,2,3:2:0:0:
235,91,101934,2,0,P|276:82|336:83,1,95.9999970703126,0|2,0:0|3:2,0:0:0:0:
408,166,102269,1,8,0:0:0:0:
442,55,102437,1,0,0:0:0:0:
309,177,102604,6,0,P|306:226|322:275,1,95.9999970703126,6|0,3:2|0:0,0:0:0:0:
395,330,102939,1,8,0:0:0:0:
291,379,103107,2,0,B|239:349|239:349|100:364,1,191.999994140625,2|2,3:2|3:2,0:0:0:0:
31,280,103609,2,0,L|139:269,1,95.9999970703126,8|0,0:0|0:0,0:0:0:0:
180,168,103944,5,2,3:2:0:0:
126,270,104111,1,0,0:0:0:0:
236,365,104279,2,0,L|224:269,1,95.9999970703126,8|2,0:0|0:0,0:0:0:0:
321,149,104614,2,0,P|303:236|327:295,1,143.999995605469,2|0,3:2|0:0,0:0:0:0:
355,303,104949,2,0,P|401:275|428:224,1,95.9999970703126,12|0,0:0|0:0,0:0:0:0:
428,86,105284,6,0,P|382:112|242:107,1,191.999994140625,6|8,3:2|0:0,0:0:0:0:
179,39,105787,1,2,3:2:0:0:
66,144,105955,2,0,P|117:154|249:106,1,191.999994140625,0|8,0:0|0:0,0:0:0:0:
179,39,106457,1,0,0:0:0:0:
247,204,106625,5,8,0:0:0:0:
170,15,106793,1,2,3:2:0:0:
148,152,106960,1,2,3:2:0:0:
324,107,107128,2,0,P|268:98|143:157,1,191.999994140625,8|2,0:0|3:2,0:0:0:0:
42,234,107631,2,0,P|101:245|136:274,1,95.9999970703126,12|2,0:0|3:2,0:0:0:0:
216,369,107953,6,0,P|272:378|374:291,1,191.999994140625,6|8,3:2|0:0,0:0:0:0:
256,175,108485,1,2,3:2:0:0:
270,279,108653,1,0,0:0:0:0:
379,164,108820,2,0,L|368:64,1,95.9999970703126,2|8,3:2|0:0,0:0:0:0:
249,5,109155,1,0,0:0:0:0:
249,5,109323,6,0,P|248:63|128:114,1,191.999994140625,0|8,0:0|0:0,0:0:0:0:
48,48,109824,2,0,B|63:122|63:122|37:157|37:157|53:246,1,191.999994140625,2|2,3:2|3:2,0:0:0:0:
150,301,110326,1,8,0:0:0:0:
48,355,110494,1,0,0:0:0:0:
146,207,110661,6,0,P|193:215|255:215,1,95.9999970703126,2|0,3:2|0:0,0:0:0:0:
268,326,110996,2,0,P|309:318|377:318,1,95.9999970703126,8|2,0:0|3:2,0:0:0:0:
479,311,111330,1,0,0:0:0:0:
411,217,111498,2,0,L|399:117,1,95.9999970703126,2|8,3:2|0:0,0:0:0:0:
384,7,111832,1,0,0:0:0:0:
289,73,112000,6,0,B|307:213|307:213|259:187,1,191.999994140625,2|8,3:2|0:0,0:0:0:0:
157,273,112502,2,0,B|201:239|201:239|325:309,1,191.999994140625,2|2,3:2|3:2,0:0:0:0:
223,369,113003,1,8,0:0:0:0:
157,273,113171,1,0,0:0:0:0:
157,273,113338,6,0,B|169:205|169:205|145:164|145:164|159:88,1,191.999994140625,6|8,3:2|0:0,0:0:0:0:
270,42,113840,1,2,3:2:0:0:
270,42,114007,2,0,P|260:97|285:147,1,95.9999970703126,0|2,0:0|3:2,0:0:0:0:
369,197,114342,1,8,0:0:0:0:
449,45,114509,6,0,P|441:138|369:197,1,191.999994140625
273,133,115011,2,0,P|232:127|174:140,1,95.9999970703126,8|2,0:0|3:2,0:0:0:0:
83,196,115346,6,0,P|115:247|102:367,1,167.999994873047,2|0,3:2|0:0,0:0:0:0:
94,381,115681,2,0,P|155:342|248:349,1,167.999994873047,8|0,0:0|0:0,0:0:0:0:
277,372,116015,6,0,P|330:382|415:277,1,191.999994140625,2|8,3:2|0:0,0:0:0:0:
336,205,116517,1,2,3:2:0:0:
434,113,116684,2,0,L|414:217,1,95.9999970703126,0|2,0:0|3:2,0:0:0:0:
321,289,117019,1,8,0:0:0:0:
254,172,117186,1,0,0:0:0:0:
254,172,117354,6,0,B|156:123|165:211|70:173,1,191.999994140625,2|8,3:2|0:0,0:0:0:0:
75,23,117856,1,2,3:2:0:0:
75,23,118023,2,0,P|104:62|113:112,1,95.9999970703126,0|2,0:0|3:2,0:0:0:0:
13,279,118358,1,12,0:0:0:0:
66,185,118525,1,0,0:0:0:0:
107,344,118692,6,0,P|174:340|273:262,1,191.999994140625,6|8,3:2|0:0,0:0:0:0:
327,156,119194,1,2,3:2:0:0:
488,226,119362,2,0,P|397:223|326:154,1,191.999994140625,0|8,0:0|0:0,0:0:0:0:
351,43,119863,1,0,0:0:0:0:
243,85,120031,6,0,B|171:89|171:89|138:57|138:57|61:60,1,191.999994140625,2|8,3:2|0:0,0:0:0:0:
3,157,120533,2,0,B|98:153|98:153|56:242,1,191.999994140625,2|2,3:2|3:2,0:0:0:0:
131,301,121035,1,8,0:0:0:0:
174,215,121202,1,0,0:0:0:0:
224,339,121369,6,0,L|379:330,1,143.999995605469,2|0,3:2|0:0,0:0:0:0:
406,329,121704,2,0,P|389:288|394:225,1,95.9999970703126,8|2,0:0|3:2,0:0:0:0:
502,161,122039,5,0,0:0:0:0:
484,269,122206,1,2,3:2:0:0:
372,127,122373,1,8,0:0:0:0:
390,237,122541,1,0,0:0:0:0:
461,58,122708,6,0,P|412:81|286:36,1,191.999994140625,2|8,3:2|0:0,0:0:0:0:
192,27,123210,2,0,P|218:74|182:203,1,191.999994140625,2|2,3:2|3:2,0:0:0:0:
166,295,123712,2,0,P|233:278|308:300,1,143.999995605469,8|0,0:0|0:0,0:0:0:0:
334,320,124046,6,0,P|400:330|405:230,1,191.999994140625,6|8,3:2|0:0,0:0:0:0:
297,189,124548,2,0,P|283:104|368:99,1,191.999994140625,2|2,3:2|3:2,0:0:0:0:
405,230,125050,1,8,0:0:0:0:
314,303,125218,1,0,0:0:0:0:
314,303,125385,6,0,P|281:291|205:292,1,95.9999970703126,2|0,3:2|0:0,0:0:0:0:
137,369,125725,2,0,P|104:381|28:380,1,95.9999970703126,8|2,0:0|3:2,0:0:0:0:
55,203,126066,2,0,L|83:312,1,95.9999970703126,6|0,0:0|0:0,0:0:0:0:
186,123,126407,2,0,L|163:216,1,95.9999970703126,12|0,0:0|0:0,0:0:0:0:
7,16,126748,6,0,L|54:202,1,191.999994140625,6|8,3:2|0:0,0:0:0:0:
78,295,127248,1,2,3:2:0:0:
150,231,127415,2,0,P|203:220|263:238,1,95.9999970703126,0|2,0:0|3:2,0:0:0:0:
301,305,127749,2,0,P|354:316|441:286,1,143.999995605469,8|0,0:0|0:0,0:0:0:0:
460,257,128083,5,8,0:0:0:0:
367,77,128250,1,2,3:2:0:0:
315,171,128416,2,0,B|363:192|363:192|463:163,1,140,8|0,0:0|0:0,0:0:0:0:
481,155,129084,1,2,3:2:0:0:
481,155,129418,6,0,B|479:270|479:270|443:242,1,160,6|8,0:0|0:0,0:0:0:0:
331,145,129920,1,0,0:0:0:0:
311,237,130088,1,2,3:2:0:0:
245,103,130255,1,0,0:0:0:0:
217,255,130423,1,8,0:0:0:0:
158,64,130591,1,0,0:0:0:0:
125,284,130758,5,8,0:0:0:0:
125,284,131093,2,0,P|83:305|11:232,1,160,0|2,0:0|3:2,0:0:0:0:
158,64,132099,5,4,0:0:0:0:
245,103,132434,1,0,0:0:0:0:
331,145,132769,1,0,0:0:0:0:
417,187,133105,1,0,0:0:0:0:
335,322,133440,6,0,L|332:241,1,80,8|2,0:0|3:2,0:0:0:0:
331,145,133775,1,2,3:2:0:0:
249,280,133943,2,0,L|246:199,1,80,8|2,0:0|3:2,0:0:0:0:
245,103,134278,1,2,3:2:0:0:
160,252,134445,2,0,L|158:172,1,80,12|0,0:0|0:0,0:0:0:0:
157,64,134781,6,0,P|85:66|5:117,1,160,6|8,3:2|0:0,0:0:0:0:
15,206,135284,2,0,P|81:248|161:252,1,160,2|2,3:2|3:2,0:0:0:0:
245,207,135788,2,0,P|288:202|327:213,1,80,8|0,0:0|0:0,0:0:0:0:
399,269,136124,2,0,P|448:258|482:149,1,160,2|8,3:2|0:0,0:0:0:0:
424,87,136627,5,2,3:2:0:0:
406,185,136795,1,0,0:0:0:0:
340,27,136963,1,2,3:2:0:0:
406,185,137131,1,8,0:0:0:0:
312,118,137299,1,0,0:0:0:0:
312,118,137467,6,0,B|266:100|266:100|140:120,1,160,0|8,0:0|0:0,0:0:0:0:
63,142,137970,1,2,3:2:0:0:
135,291,138138,1,0,0:0:0:0:
148,195,138306,1,2,3:2:0:0:
61,235,138474,1,8,0:0:0:0:
64,112,138642,1,0,0:0:0:0:
148,195,138810,6,0,P|198:202|316:186,1,160,0|8,0:0|0:0,0:0:0:0:
259,105,139313,2,0,P|309:98|427:114,1,160,2|2,3:2|3:2,0:0:0:0:
467,193,139817,1,8,0:0:0:0:
510,107,139985,1,0,0:0:0:0:
367,191,140153,5,2,3:2:0:0:
496,193,140321,1,0,0:0:0:0:
405,84,140488,1,8,0:0:0:0:
512,207,140656,1,2,3:2:0:0:
354,213,140824,2,0,P|345:260|353:300,1,80,0|2,0:0|3:2,0:0:0:0:
400,373,141160,1,8,0:0:0:0:
304,382,141328,1,0,0:0:0:0:
304,382,141496,6,0,P|268:351|131:346,1,160,0|8,0:0|0:0,0:0:0:0:
77,259,141999,2,0,P|155:256|221:212,1,160,2|2,3:2|3:2,0:0:0:0:
157,100,142503,2,0,P|134:137|131:194,1,80,8|0,0:0|0:0,0:0:0:0:
252,125,142839,5,2,3:2:0:0:
227,31,143007,1,0,0:0:0:0:
157,100,143174,1,8,0:0:0:0:
242,9,143342,1,2,3:2:0:0:
254,146,143510,2,0,P|296:153|334:141,1,80,0|2,0:0|3:2,0:0:0:0:
388,65,143846,1,8,0:0:0:0:
436,235,144014,6,0,P|361:213|330:142,1,160
427,139,144517,1,8,0:0:0:0:
436,235,144685,1,2,3:2:0:0:
436,235,144853,2,0,L|443:322,1,80,0|2,0:0|3:2,0:0:0:0:
332,381,145189,1,8,0:0:0:0:
351,286,145357,1,0,0:0:0:0:
260,315,145525,6,0,B|178:345|188:282|98:313,1,160,0|8,0:0|0:0,0:0:0:0:
35,243,146028,2,0,B|43:188|43:188|28:150|28:150|37:87,1,160,2|2,3:2|3:2,0:0:0:0:
135,55,146532,2,0,L|120:138,1,80,8|0,0:0|0:0,0:0:0:0:
176,221,146868,2,0,P|232:224|288:135,1,160,2|8,3:2|0:0,0:0:0:0:
261,45,147371,1,2,3:2:0:0:
261,45,147539,1,0,0:0:0:0:
194,116,147707,1,2,3:2:0:0:
346,78,147875,1,8,0:0:0:0:
261,45,148043,1,0,0:0:0:0:
291,161,148211,6,0,P|359:175|432:127,1,160,0|8,0:0|0:0,0:0:0:0:
433,31,148714,1,2,3:2:0:0:
346,78,148882,1,0,0:0:0:0:
455,140,149050,1,2,3:2:0:0:
323,64,149218,1,8,0:0:0:0:
377,203,149386,1,0,0:0:0:0:
377,203,149554,6,0,B|389:257|389:257|356:359,1,160,0|8,0:0|0:0,0:0:0:0:
273,307,150058,2,0,P|207:294|128:353,1,160,2|2,3:2|3:2,0:0:0:0:
43,374,150561,1,8,0:0:0:0:
67,280,150729,1,0,0:0:0:0:
91,186,150897,6,0,P|134:213|232:191,1,120,6|0,3:2|0:0,0:0:0:0:
228,194,151233,1,8,0:0:0:0:
286,118,151401,1,2,3:2:0:0:
337,36,151568,2,0,P|380:9|478:31,1,120,6|0,3:2|0:0,0:0:0:0:
474,28,151904,1,8,0:0:0:0:
491,122,152072,1,2,3:2:0:0:
510,215,152240,6,0,B|454:230|454:230|350:195,1,160,6|8,3:2|0:0,0:0:0:0:
346,293,152742,2,0,B|294:276|294:276|190:306,1,160,2|2,3:2|3:2,0:0:0:0:
101,335,153244,5,8,0:0:0:0:
191,183,153412,1,2,3:2:0:0:
20,120,153579,1,8,0:0:0:0:
20,120,153914,6,0,P|35:158|37:183,1,60.0000022888184,8|8,3:0|3:0,0:0:0:0:
191,183,154249,2,0,P|176:221|174:246,1,60.0000022888184,4|4,3:0|3:0,0:0:0:0:
101,335,154584,1,8,0:0:0:0:
101,335,154919,6,0,B|163:331|163:331|185:353|185:353|252:346,1,160,6|8,3:2|0:0,0:0:0:0:
347,337,155421,1,2,3:2:0:0:
292,258,155588,2,0,P|339:242|375:246,1,80,0|2,0:0|3:2,0:0:0:0:
434,315,155923,2,0,P|481:331|517:327,1,80,8|0,0:0|0:0,0:0:0:0:
475,139,156258,6,0,B|483:253|483:253|442:221,1,160,2|8,3:2|0:0,0:0:0:0:
375,162,156760,1,2,3:2:0:0:
292,258,156928,1,0,0:0:0:0:
362,182,157095,1,2,3:2:0:0:
380,295,157263,1,8,0:0:0:0:
272,169,157430,1,0,0:0:0:0:
272,169,157598,2,0,B|185:145|199:215|118:188,1,160,0|8,0:0|0:0,0:0:0:0:
29,157,158100,1,2,3:2:0:0:
29,157,158267,6,0,L|22:77,1,80,0|2,0:0|3:2,0:0:0:0:
112,268,158602,1,8,0:0:0:0:
18,272,158770,1,0,0:0:0:0:
112,268,158937,2,0,L|119:188,1,80,2|0,3:2|0:0,0:0:0:0:
29,379,159272,1,8,0:0:0:0:
127,384,159439,1,2,3:2:0:0:
29,379,159607,2,0,L|22:299,1,80,0|2,0:0|3:2,0:0:0:0:
112,268,159942,1,8,0:0:0:0:
189,324,160109,6,0,B|240:347|240:347|347:320,1,160
431,288,160611,2,0,L|509:314,1,80,8|2,0:0|3:2,0:0:0:0:
462,167,160946,1,0,0:0:0:0:
434,264,161114,1,2,3:2:0:0:
374,121,161281,1,8,0:0:0:0:
331,207,161449,6,0,P|293:229|171:219,1,160
96,182,161951,2,0,L|83:100,1,80,8|2,0:0|3:2,0:0:0:0:
70,7,162286,1,0,0:0:0:0:
156,48,162453,2,0,P|197:56|235:47,1,80,2|8,3:2|0:0,0:0:0:0:
318,2,162788,1,0,0:0:0:0:
352,117,162956,5,2,3:2:0:0:
324,25,163123,1,0,0:0:0:0:
276,170,163290,1,8,0:0:0:0:
375,102,163458,1,2,3:2:0:0:
352,244,163625,2,0,B|188:253,1,160,0|8,0:0|0:0,0:0:0:0:
101,284,164128,1,0,0:0:0:0:
33,211,164295,6,0,P|21:177|26:130,1,80,2|0,3:2|0:0,0:0:0:0:
96,68,164630,1,8,0:0:0:0:
257,187,164797,2,0,P|205:164|102:168,1,160,2|2,3:2|0:0,0:0:0:0:
13,234,165300,2,0,P|32:272|33:357,1,120,12|0,0:0|0:0,0:0:0:0:
15,373,165635,6,0,L|102:367,1,80,6|0,3:2|0:0,0:0:0:0:
161,297,165969,2,0,L|248:303,1,80,8|2,0:0|3:2,0:0:0:0:
319,358,166304,1,0,0:0:0:0:
380,284,166472,2,0,P|363:242|365:200,1,80,2|8,3:2|0:0,0:0:0:0:
417,128,166807,6,0,P|432:90|344:86,1,160
294,158,167309,1,8,0:0:0:0:
232,83,167476,1,2,3:2:0:0:
232,83,167644,2,0,P|191:73|148:79,2,80,0|2|8,0:0|3:2|0:0,0:0:0:0:
294,158,168146,1,0,0:0:0:0:
211,207,168314,6,0,B|201:255|201:255|223:331,1,120,2|0,3:2|0:0,0:0:0:0:
234,351,168648,2,0,P|196:337|150:342,1,80,8|2,0:0|3:2,0:0:0:0:
32,370,168983,2,0,P|72:335|72:228,1,160,0|8,0:0|0:0,0:0:0:0:
0,174,169486,1,0,0:0:0:0:
88,137,169653,2,0,B|168:100|165:173|243:136,1,160,2|8,3:2|0:0,0:0:0:0:
290,54,170155,1,2,3:2:0:0:
345,132,170323,2,0,L|338:215,1,80,0|2,0:0|3:2,0:0:0:0:
405,280,170658,1,8,0:0:0:0:
325,334,170825,6,0,P|282:313|160:324,1,160
91,369,171328,1,8,0:0:0:0:
19,305,171495,1,2,3:2:0:0:
19,305,171662,2,0,P|34:262|32:229,1,80,0|2,0:0|3:2,0:0:0:0:
14,133,171997,1,8,0:0:0:0:
104,164,172165,1,0,0:0:0:0:
104,164,172332,6,0,L|270:158,1,160,0|8,0:0|0:0,0:0:0:0:
341,101,172834,1,2,3:2:0:0:
366,193,173002,2,0,P|410:177|445:178,1,80,0|2,0:0|3:2,0:0:0:0:
445,297,173337,2,0,P|405:296|368:281,1,80,8|0,0:0|0:0,0:0:0:0:
274,193,173672,5,6,3:2:0:0:
235,311,173839,1,0,0:0:0:0:
195,234,174007,1,8,0:0:0:0:
311,340,174174,1,2,3:2:0:0:
274,193,174341,5,4,0:0:0:0:
166,248,174509,1,2,0:0:0:0:
336,257,174676,1,8,0:0:0:0:
201,149,174844,1,0,0:0:0:0:
152,333,175011,6,0,P|198:327|250:220,1,160,6|8,3:2|0:0,0:0:0:0:
159,87,175513,2,0,L|166:222,1,120,2|0,3:2|0:0,0:0:0:0:
166,248,175879,5,2,3:2:0:0:
241,165,176044,2,0,P|275:168|317:200,1,80,8|2,0:0|3:2,0:0:0:0:
82,170,176376,1,8,0:0:0:0:
82,170,176710,5,6,3:2:0:0:
166,248,177045,5,6,3:2:0:0:
241,165,177380,5,6,3:2:0:0:
157,87,177715,6,0,L|163:217,1,128,6|8,0:0|0:0,0:0:0:0:
241,165,178218,1,8,0:0:0:0:
325,87,178386,2,0,L|319:217,1,128,2|8,3:2|0:0,0:0:0:0:
244,263,178888,1,0,0:0:0:0:
291,339,179056,6,0,P|329:350|360:344,1,64,2|0,3:2|0:0,0:0:0:0:
244,263,179391,1,8,0:0:0:0:
244,263,179559,1,8,0:0:0:0:
191,335,179726,2,0,P|155:348|96:343,1,96
69,330,180062,2,0,P|108:280|100:186,1,155.999992858887,4|0,0:0|0:0,0:0:0:0:
77,195,180397,6,0,P|53:157|85:47,1,160,6|8,3:2|0:0,0:0:0:0:
167,14,180900,1,0,0:0:0:0:
238,81,181067,2,0,P|247:128|242:169,1,80,0|2,0:0|3:2,0:0:0:0:
172,222,181402,1,8,0:0:0:0:
276,318,181570,6,0,P|246:246|172:223,1,160,6|2,3:2|3:2,0:0:0:0:
31,330,182073,1,8,0:0:0:0:
31,330,182240,2,0,B|89:351|89:351|182:319,1,160,2|2,3:2|3:2,0:0:0:0:
172,222,182743,1,12,0:0:0:0:
259,264,182911,1,0,0:0:0:0:
256,168,183078,6,0,B|259:109|259:109|235:81|235:81|237:17,1,160,6|8,3:2|0:0,0:0:0:0:
329,44,183581,2,0,P|367:25|468:76,1,160,2|2,3:2|3:2,0:0:0:0:
484,165,184084,2,0,P|453:196|410:205,1,80,8|0,0:0|0:0,0:0:0:0:
324,189,184419,6,0,P|311:236|314:281,1,80,2|0,3:2|0:0,0:0:0:0:
235,325,184752,2,0,P|234:285|222:247,1,80,8|2,0:0|3:2,0:0:0:0:
148,185,185085,2,0,L|67:193,1,80,0|2,0:0|3:2,0:0:0:0:
24,96,185419,2,0,L|104:104,1,80,12|0,0:0|0:0,0:0:0:0:
180,52,185752,6,0,B|262:26|248:93|332:75,1,160,6|8,3:2|0:0,0:0:0:0:
409,26,186252,1,2,3:2:0:0:
421,121,186419,2,0,P|460:111|507:114,1,80,0|2,0:0|3:2,0:0:0:0:
501,224,186752,2,0,P|461:225|422:215,1,80,8|0,0:0|0:0,0:0:0:0:
336,172,187085,6,0,P|280:176|205:253,1,160,0|8,0:0|0:0,0:0:0:0:
120,285,187585,2,0,P|127:240|67:148,1,160,2|2,3:2|3:2,0:0:0:0:
54,53,188085,2,0,P|98:69|135:67,1,80,8|0,0:0|0:0,0:0:0:0:
210,14,188419,5,12,0:0:0:0:
226,108,188586,1,2,3:2:0:0:
242,202,188754,1,2,3:2:0:0:
388,80,188921,5,12,0:0:0:0:
298,47,189089,1,2,3:2:0:0:
210,14,189256,1,2,3:2:0:0:
242,202,189424,5,8,0:0:0:0:
278,171,189508,1,8,0:0:0:0:
314,141,189592,1,8,0:0:0:0:
351,110,189675,1,8,0:0:0:0:
388,80,189759,6,0,B|378:158|378:158|406:189|406:189|397:266,1,191.999994140625,6|8,3:2|0:0,0:0:0:0:
374,375,190261,1,2,3:2:0:0:
374,375,190428,2,0,P|326:338|188:337,1,191.999994140625,0|8,0:0|0:0,0:0:0:0:
129,240,190930,1,0,0:0:0:0:
129,240,191098,2,0,P|223:246|304:197,1,191.999994140625,2|8,3:2|0:0,0:0:0:0:
358,95,191600,1,2,3:2:0:0:
422,190,191767,2,0,P|466:124|438:17,1,191.999994140625,0|8,0:0|0:0,0:0:0:0:
358,95,192270,1,0,0:0:0:0:
280,9,192437,6,0,B|205:16|205:16|184:56|184:56|108:63,1,191.999994140625,2|8,3:2|0:0,0:0:0:0:
14,93,192939,1,2,3:2:0:0:
14,93,193107,2,0,B|-2:171|50:224|50:224|76:178,1,191.999994140625,0|8,0:0|0:0,0:0:0:0:
158,102,193609,1,0,0:0:0:0:
240,182,193776,6,0,P|251:240|243:284,1,95.9999970703126,2|0,3:2|0:0,0:0:0:0:
148,339,194111,2,0,P|142:291|153:244,1,95.9999970703126,8|2,0:0|3:2,0:0:0:0:
262,166,194446,2,0,B|299:158|299:158|360:172,1,95.9999970703126,0|2,0:0|3:2,0:0:0:0:
397,278,194781,2,0,B|434:286|434:286|495:272,1,95.9999970703126,8|0,0:0|0:0,0:0:0:0:
510,116,195116,6,0,P|419:104|355:171,1,191.999994140625,6|8,3:2|0:0,0:0:0:0:
397,278,195618,1,2,3:2:0:0:
397,278,195785,2,0,B|299:308|316:223|213:263,1,191.999994140625,0|8,0:0|0:0,0:0:0:0:
115,335,196288,1,0,0:0:0:0:
38,248,196455,2,0,B|15:189|15:189|55:60,1,191.999994140625,2|8,3:2|0:0,0:0:0:0:
135,146,196957,1,2,3:2:0:0:
135,146,197125,6,0,P|193:166|276:104,1,167.999994873047,2|0,3:2|0:0,0:0:0:0:
172,6,197459,2,0,P|125:46|137:149,1,167.999994873047,8|0,0:0|0:0,0:0:0:0:
274,108,197794,6,0,P|350:81|423:157,1,191.999994140625,2|8,3:2|0:0,0:0:0:0:
435,266,198296,1,2,3:2:0:0:
361,354,198464,2,0,P|324:349|264:349,1,95.9999970703126,0|2,0:0|3:2,0:0:0:0:
203,251,198799,2,0,P|250:251|298:245,1,95.9999970703126,8|0,0:0|0:0,0:0:0:0:
386,170,199134,6,0,B|392:27|392:27|380:49|358:66,1,191.999994140625,2|8,3:2|0:0,0:0:0:0:
259,7,199636,1,2,3:2:0:0:
208,111,199803,2,0,P|259:121|301:114,1,95.9999970703126,0|2,0:0|3:2,0:0:0:0:
157,24,200138,1,12,0:0:0:0:
179,205,200305,1,0,0:0:0:0:
68,112,200475,6,0,L|59:207,1,95.9999970703126,4|0,0:0|0:0,0:0:0:0:
188,300,200810,2,0,L|179:205,1,95.9999970703126,8|0,0:0|0:0,0:0:0:0:
267,78,201145,2,0,P|306:126|432:113,1,191.999994140625,0|8,0:0|0:0,0:0:0:0:
482,16,201648,6,0,B|453:67|453:67|480:201,1,191.999994140625
507,308,202150,1,8,0:0:0:0:
400,263,202318,2,0,B|307:230|314:330|209:294,1,191.999994140625,2|2,3:2|0:0,0:0:0:0:
141,121,202821,1,8,0:0:0:0:
249,220,202988,1,0,0:0:0:0:
133,347,203156,6,0,P|120:298|130:253,1,95.9999970703126,2|0,3:2|0:0,0:0:0:0:
254,128,203491,2,0,P|263:174|250:220,1,95.9999970703126,8|2,0:0|3:2,0:0:0:0:
86,165,203826,2,0,B|54:112|66:74|66:74|109:49|159:61,1,191.999994140625,0|8,0:0|0:0,0:0:0:0:
254,128,204329,6,0,B|317:153|398:122|398:122|383:166,1,191.999994140625
347,273,204832,1,8,0:0:0:0:
347,273,205000,1,2,3:2:0:0:
439,341,205167,2,0,P|459:297|458:239,1,95.9999970703126,0|2,0:0|3:2,0:0:0:0:
383,164,205502,1,8,0:0:0:0:
347,273,205670,1,0,0:0:0:0:
267,189,205838,6,0,P|232:186|175:213,1,95.9999970703126,6|0,3:2|0:0,0:0:0:0:
122,312,206173,1,8,0:0:0:0:
39,231,206340,2,0,B|67:171|67:171|49:46,1,191.999994140625,2|2,3:2|3:2,0:0:0:0:
160,26,206843,2,0,L|174:133,1,95.9999970703126,8|0,0:0|0:0,0:0:0:0:
276,170,207178,5,2,3:2:0:0:
172,120,207346,1,0,0:0:0:0:
81,232,207514,2,0,L|176:216,1,95.9999970703126,8|2,0:0|3:2,0:0:0:0:
307,158,207849,2,0,P|289:245|313:304,1,143.999995605469,2|0,3:2|0:0,0:0:0:0:
341,312,208184,2,0,P|387:284|414:233,1,95.9999970703126,12|0,0:0|0:0,0:0:0:0:
429,106,208529,6,0,P|371:136|252:88,1,191.999994140625,4|8,0:0|0:0,0:0:0:0:
222,0,209031,1,2,3:2:0:0:
167,123,209199,1,0,0:0:0:0:
258,95,209366,1,2,3:2:0:0:
127,32,209534,2,0,L|140:127,1,95.9999970703126,12|0,0:0|0:0,0:0:0:0:
37,258,209869,5,8,0:0:0:0:
48,99,210037,1,2,3:2:0:0:
133,312,210204,1,12,0:0:0:0:
73,180,210372,1,2,3:2:0:0:
36,343,210540,5,2,3:2:0:0:
209,216,210707,1,10,0:0:0:0:
222,252,210791,1,8,0:0:0:0:
212,289,210875,1,8,0:0:0:0:
372,309,211042,1,8,0:0:0:0:
353,274,211126,1,8,0:0:0:0:
357,232,211229,6,0,L|345:84,1,143.999995605469,6|0,3:2|0:0,0:0:0:0:
316,66,211563,2,0,P|274:51|213:72,1,95.9999970703126,8|2,0:0|3:2,0:0:0:0:
135,135,211898,1,0,0:0:0:0:
191,231,212066,2,0,P|192:286|180:327,1,95.9999970703126,2|8,3:2|0:0,0:0:0:0:
281,380,212401,1,0,0:0:0:0:
281,380,212568,6,0,B|312:338|312:338|364:369|451:356,1,191.999994140625,0|8,0:0|0:0,0:0:0:0:
466,242,213071,2,0,P|411:270|306:199,1,191.999994140625,2|2,3:2|3:2,0:0:0:0:
315,74,213573,1,8,0:0:0:0:
398,173,213740,1,0,0:0:0:0:
229,271,213908,6,0,P|214:222|214:178,1,95.9999970703126,2|0,3:2|0:0,0:0:0:0:
126,57,214243,2,0,P|125:104|111:150,1,95.9999970703126,8|2,0:0|3:2,0:0:0:0:
4,195,214578,1,0,0:0:0:0:
91,269,214745,2,0,L|192:261,1,95.9999970703126,2|8,3:2|0:0,0:0:0:0:
301,249,215080,1,0,0:0:0:0:
254,353,215247,6,0,P|315:363|410:280,1,191.999994140625,2|8,3:2|0:0,0:0:0:0:
309,71,215750,2,0,B|290:142|290:142|319:182|319:182|301:249,1,191.999994140625,2|2,3:2|3:2,0:0:0:0:
215,201,216252,1,8,0:0:0:0:
390,123,216420,1,0,0:0:0:0:
270,0,216587,6,0,P|239:28|226:88,1,90.0000034332277,6|0,3:2|0:0,0:0:0:0:
222,111,216922,2,0,P|170:132|84:81,1,143.999995605469,8|0,0:0|0:0,0:0:0:0:
79,61,217257,1,0,0:0:0:0:
88,156,217424,1,2,3:2:0:0:
97,251,217592,1,8,0:0:0:0:
195,341,217759,2,0,B|212:200|212:200|218:230|241:248,1,191.999994140625
343,378,218262,2,0,P|385:377|425:334,1,95.9999970703126,8|2,0:0|3:2,0:0:0:0:
507,197,218597,6,0,P|443:213|352:155,1,167.999994873047,2|0,3:2|0:0,0:0:0:0:
460,52,218932,2,0,P|505:99|501:207,1,167.999994873047,8|0,0:0|0:0,0:0:0:0:
358,164,219266,6,0,B|263:128|270:217|155:168,1,191.999994140625,2|8,3:2|0:0,0:0:0:0:
125,69,219769,1,2,3:2:0:0:
224,12,219936,2,0,L|218:112,1,95.9999970703126,0|2,0:0|3:2,0:0:0:0:
143,195,220271,1,8,0:0:0:0:
49,173,220439,1,0,0:0:0:0:
143,195,220606,6,0,L|149:295,1,95.9999970703126,2|0,3:2|0:0,0:0:0:0:
248,232,220941,1,8,0:0:0:0:
233,345,221108,2,0,B|382:332|382:332|361:369,1,191.999994140625,2|2,3:2|3:2,0:0:0:0:
454,271,221611,1,12,0:0:0:0:
454,271,221778,1,0,0:0:0:0:
407,166,221946,6,0,P|359:127|227:146,1,191.999994140625,6|8,3:2|0:0,0:0:0:0:
186,263,222448,1,2,3:2:0:0:
16,237,222616,2,0,P|107:215|187:264,1,191.999994140625,0|8,0:0|0:0,0:0:0:0:
256,356,223118,1,0,0:0:0:0:
352,293,223285,6,0,B|419:273|472:318|472:318|455:292|456:250,1,191.999994140625,2|8,3:2|0:0,0:0:0:0:
478,143,223788,2,0,B|411:163|358:118|358:118|375:144|374:178,1,191.999994140625,2|2,3:2|3:2,0:0:0:0:
271,263,224290,1,8,0:0:0:0:
290,169,224458,1,0,0:0:0:0:
175,239,224625,6,0,P|128:257|39:215,1,143.999995605469,2|0,3:2|0:0,0:0:0:0:
31,187,224960,2,0,L|39:86,1,95.9999970703126,8|2,0:0|3:2,0:0:0:0:
158,28,225295,5,0,0:0:0:0:
121,157,225462,1,2,3:2:0:0:
230,122,225630,1,8,0:0:0:0:
267,251,225797,1,0,0:0:0:0:
140,346,225965,6,0,P|176:262|267:251,1,191.999994140625,2|8,3:2|0:0,0:0:0:0:
333,344,226467,2,0,P|423:332|459:248,1,191.999994140625,2|2,3:2|3:2,0:0:0:0:
399,149,226969,2,0,P|346:171|254:152,1,143.999995605469,8|0,0:0|0:0,0:0:0:0:
229,137,227304,6,0,B|234:292|234:292|199:252,1,191.999994140625,6|8,3:2|0:0,0:0:0:0:
118,74,227807,2,0,B|113:229|113:229|148:189,1,191.999994140625,2|2,3:2|3:2,0:0:0:0:
229,137,228309,1,8,0:0:0:0:
294,232,228477,1,0,0:0:0:0:
294,232,228644,6,0,P|346:238|389:229,1,95.9999970703126,2|0,3:2|0:0,0:0:0:0:
452,133,228979,2,0,P|400:127|357:136,1,95.9999970703126,8|2,0:0|3:2,0:0:0:0:
283,254,229314,2,0,P|281:304|290:355,1,95.9999970703126,6|0,0:0|0:0,0:0:0:0:
179,191,229649,2,0,P|181:236|172:292,1,95.9999970703126,12|0,0:0|0:0,0:0:0:0:
75,128,229984,6,0,P|68:200|81:334,1,191.999994140625,6|8,3:2|0:0,0:0:0:0:
179,380,230486,1,2,3:2:0:0:
259,297,230654,2,0,B|294:286|294:286|355:302,1,95.9999970703126,0|2,0:0|3:2,0:0:0:0:
461,343,230988,2,0,P|437:291|443:198,1,143.999995605469,8|0,0:0|0:0,0:0:0:0:
461,173,231323,5,8,0:0:0:0:
313,103,231491,1,2,3:2:0:0:
314,122,231575,1,0,0:0:0:0:
315,141,231658,2,0,L|163:131,1,143.999995605469,12|0,0:0|0:0,0:0:0:0:
111,179,231993,5,8,0:0:0:0:
98,215,232077,1,8,0:0:0:0:
105,252,232161,1,8,0:0:0:0:
133,277,232244,1,8,0:0:0:0:
169,287,232328,1,8,0:0:0:0:
207,281,232412,1,8,0:0:0:0:
235,254,232496,1,8,0:0:0:0:
270,239,232579,1,8,0:0:0:0:
307,231,232663,6,0,P|354:241|406:318,1,143.999995605469,2|0,3:2|0:0,0:0:0:0:
403,354,232998,6,0,L|416:157,1,191.999994140625,12|0,0:0|0:0,0:0:0:0:
418,143,233417,1,0,0:0:0:0:
420,123,233500,1,0,0:0:0:0:
352,30,233668,1,8,0:0:0:0:
298,132,233836,2,0,B|194:173|217:85|99:128,1,191.999994140625,0|0,0:0|0:0,0:0:0:0:
151,211,234338,1,8,0:0:0:0:
151,211,234506,1,2,3:2:0:0:
90,309,234674,6,0,P|55:281|35:225,1,95.9999970703126,0|2,0:0|3:2,0:0:0:0:
37,215,234925,1,0,0:0:0:0:
43,196,235009,1,8,0:0:0:0:
151,211,235176,6,0,P|186:183|206:127,1,95.9999970703126,0|2,0:0|3:2,0:0:0:0:
204,117,235428,1,0,0:0:0:0:
198,98,235512,1,0,0:0:0:0:
90,113,235679,6,0,P|55:85|35:29,1,95.9999970703126,8|2,0:0|3:2,0:0:0:0:
37,19,235931,1,0,0:0:0:0:
43,0,236014,1,0,0:0:0:0:
148,10,236182,1,2,3:2:0:0:
198,98,236350,2,0,P|255:108|292:93,1,95.9999970703126,8|2,0:0|3:2,0:0:0:0:
382,26,236685,6,0,L|371:220,1,191.999994140625,2|8,3:2|0:0,0:0:0:0:
363,332,237188,2,0,P|321:281|196:269,1,191.999994140625,2|2,3:2|3:2,0:0:0:0:
104,329,237690,2,0,L|89:180,1,143.999995605469,8|0,0:0|0:0,0:0:0:0:
87,147,238026,6,0,P|136:160|195:90,1,143.999995605469,6|0,3:2|0:0,0:0:0:0:
198,60,238361,1,8,0:0:0:0:
264,189,238528,1,2,3:2:0:0:
351,13,238696,1,0,0:0:0:0:
391,93,238864,2,0,P|345:102|300:88,1,95.9999970703126,2|8,3:2|0:0,0:0:0:0:
196,25,239199,6,0,B|201:99|201:99|172:137|172:137|178:212,1,191.999994140625,0|0,0:0|0:0,0:0:0:0:
237,305,239702,1,8,0:0:0:0:
369,212,239869,2,0,L|178:206,1,191.999994140625,2|2,3:2|3:2,0:0:0:0:
158,205,240288,1,0,0:0:0:0:
138,204,240372,1,8,0:0:0:0:
237,305,240540,1,0,0:0:0:0:
282,130,240707,6,0,L|377:133,1,95.9999970703126,2|0,3:2|0:0,0:0:0:0:
479,221,241042,1,8,0:0:0:0:
508,75,241210,1,2,3:2:0:0:
377,133,241378,1,0,0:0:0:0:
496,240,241545,2,0,L|488:340,1,95.9999970703126,2|12,3:2|0:0,0:0:0:0:
377,133,241880,1,0,0:0:0:0:
393,323,242048,6,0,L|385:227,1,95.9999970703126,14|2,3:2|3:2,0:0:0:0:
285,101,242383,1,2,3:2:0:0:
301,291,242551,6,0,L|293:195,1,95.9999970703126,14|2,3:2|3:2,0:0:0:0:
193,69,242886,1,2,3:2:0:0:
209,259,243054,5,12,0:0:0:0:
207,235,243137,1,0,0:0:0:0:
205,211,243221,1,2,3:2:0:0:
203,187,243305,1,0,0:0:0:0:
201,163,243389,6,0,P|145:152|114:122,1,95.9999970703126,6|0,3:2|0:0,0:0:0:0:
193,69,243724,1,8,0:0:0:0:
282,105,243892,2,0,P|338:93|369:63,1,95.9999970703126,2|0,3:2|0:0,0:0:0:0:
288,12,244227,1,2,3:2:0:0:
201,163,244394,2,0,L|206:237,2,63.9999980468751,8|0|0,0:0|0:0|0:0,0:0:0:0:
299,198,244730,6,0,L|290:300,1,95.9999970703126,2|0,3:2|0:0,0:0:0:0:
360,359,245065,1,8,0:0:0:0:
205,379,245232,2,0,L|192:179,1,191.999994140625,2|0,3:2|0:0,0:0:0:0:
250,110,245735,1,8,0:0:0:0:
140,72,245903,1,0,0:0:0:0:
283,17,246070,6,0,P|329:49|348:107,1,95.9999970703126,2|0,3:2|0:0,0:0:0:0:
342,180,246406,1,8,0:0:0:0:
429,141,246573,1,2,3:2:0:0:
429,141,246657,1,0,0:0:0:0:
429,141,246741,2,0,P|422:200|467:276,1,143.999995605469,0|0,0:0|0:0,0:0:0:0:
494,299,247076,2,0,P|465:287|383:291,1,95.9999970703126,8|0,0:0|0:0,0:0:0:0:
316,357,247411,6,0,B|269:378|269:378|164:345,1,143.999995605469,2|0,3:2|0:0,0:0:0:0:
147,330,247746,1,8,0:0:0:0:
258,105,247914,2,0,B|286:229|286:229|263:296,1,191.999994140625,2|2,3:2|3:2,0:0:0:0:
183,163,248417,1,8,0:0:0:0:
283,89,248584,1,0,0:0:0:0:
186,251,248752,6,0,P|145:281|56:268,1,143.999995605469,6|0,3:2|0:0,0:0:0:0:
28,243,249087,1,8,0:0:0:0:
101,130,249255,2,0,P|107:75|22:119,1,191.999994140625,0|2,0:0|3:2,0:0:0:0:
20,124,249674,1,0,0:0:0:0:
26,142,249757,1,8,0:0:0:0:
118,210,249925,1,0,0:0:0:0:
207,136,250093,6,0,B|219:92|206:42|206:42|256:108|330:79,1,223.999993164063,2|8,3:2|0:0,0:0:0:0:
414,23,250595,1,2,3:2:0:0:
411,56,250679,1,0,0:0:0:0:
408,89,250763,2,0,B|403:155|403:155|426:187|426:187|419:252,1,167.999994873047,0|0,0:0|0:0,0:0:0:0:
411,293,251098,2,0,P|367:242|250:251,1,167.999994873047,12|0,0:0|0:0,0:0:0:0:
234,264,251456,5,8,0:0:0:0:
193,44,251623,1,8,0:0:0:0:
147,293,251958,5,8,0:0:0:0:
188,73,252126,1,8,0:0:0:0:
212,349,252461,5,8,0:0:0:0:
193,102,252796,1,8,0:0:0:0:
59,199,253131,2,0,L|221:191,1,160,12|2,0:0|3:2,0:0:0:0:
346,183,254148,5,4,0:0:0:0:
346,173,273743,5,2,3:2:0:0:
273,87,273911,2,0,P|234:113|156:102,1,120,12|0,0:0|0:0,0:0:0:0:
132,81,274246,5,12,0:0:0:0:
85,283,274414,1,2,3:2:0:0:
209,206,274581,1,2,0:0:0:0:
66,299,274749,5,8,0:0:0:0:
125,106,274917,1,2,3:2:0:0:
191,339,275084,1,2,0:0:0:0:
0,178,275252,5,8,0:0:0:0:
6,138,275336,1,8,0:0:0:0:
12,98,275419,1,8,0:0:0:0:
19,58,275503,1,8,0:0:0:0:
26,20,275587,6,0,P|73:83|137:78,1,143.999995605469,6|0,3:2|0:0,0:0:0:0:
162,56,275922,2,0,L|148:168,1,95.9999970703126,8|2,0:0|3:2,0:0:0:0:
224,239,276257,1,0,0:0:0:0:
317,171,276425,2,0,P|270:133|226:123,1,95.9999970703126,2|8,3:2|0:0,0:0:0:0:
224,239,276760,1,0,0:0:0:0:
304,320,276928,2,0,B|368:348|452:315|452:315|431:335|424:360,1,191.999994140625,0|8,0:0|0:0,0:0:0:0:
477,226,277431,2,0,B|408:204|329:231|329:231|348:214|357:186,1,191.999994140625,2|2,3:2|3:2,0:0:0:0:
324,46,277933,1,8,0:0:0:0:
264,159,278101,1,0,0:0:0:0:
209,57,278269,6,0,P|168:50|106:66,1,95.9999970703126,2|0,3:2|0:0,0:0:0:0:
34,144,278604,2,0,P|81:151|121:176,1,95.9999970703126,8|2,0:0|3:2,0:0:0:0:
156,287,278939,1,0,0:0:0:0:
256,232,279107,2,0,B|271:197|271:197|262:137,1,95.9999970703126,2|8,3:2|0:0,0:0:0:0:
249,25,279442,1,0,0:0:0:0:
352,76,279609,6,0,B|414:108|501:68|501:68|489:85|485:105,1,191.999994140625,2|8,3:2|0:0,0:0:0:0:
475,216,280112,2,0,B|478:232|490:249|490:249|403:209|341:241,1,191.999994140625,2|2,3:2|3:2,0:0:0:0:
256,319,280615,1,8,0:0:0:0:
194,222,280783,1,0,0:0:0:0:
194,222,280950,6,0,B|190:169|190:169|212:140|212:140|207:84,1,143.999995605469,6|0,3:2|0:0,0:0:0:0:
207,85,281285,2,0,P|248:112|299:104,1,95.9999970703126,8|0,0:0|0:0,0:0:0:0:
360,12,281621,1,0,0:0:0:0:
360,12,281788,1,0,0:0:0:0:
400,191,281956,1,8,0:0:0:0:
471,106,282123,6,0,B|429:75|429:75|293:106,1,191.999994140625
199,131,282626,1,8,0:0:0:0:
269,223,282794,1,2,3:2:0:0:
339,315,282961,2,0,P|278:299|179:340,1,167.999994873047,2|0,3:2|0:0,0:0:0:0:
158,373,283297,2,0,P|179:311|128:206,1,167.999994873047,8|0,0:0|0:0,0:0:0:0:
111,196,283632,6,0,P|90:134|142:23,1,191.999994140625,2|8,3:2|0:0,0:0:0:0:
253,2,284135,1,2,3:2:0:0:
288,111,284302,2,0,P|235:117|188:97,1,95.9999970703126,0|2,0:0|3:2,0:0:0:0:
353,31,284637,1,8,0:0:0:0:
400,136,284805,1,0,0:0:0:0:
400,136,284973,6,0,B|406:209|406:209|379:248|379:248|384:319,1,191.999994140625,2|8,3:2|0:0,0:0:0:0:
474,369,285475,1,2,3:2:0:0:
474,369,285643,2,0,L|469:274,1,95.9999970703126,0|2,0:0|3:2,0:0:0:0:
316,177,285978,1,12,0:0:0:0:
293,289,286146,1,0,0:0:0:0:
157,248,286313,6,0,P|222:180|316:177,1,191.999994140625,6|8,3:2|0:0,0:0:0:0:
399,250,286816,1,2,3:2:0:0:
335,344,286984,2,0,P|287:264|316:176,1,191.999994140625,0|8,0:0|0:0,0:0:0:0:
416,120,287487,1,0,0:0:0:0:
348,26,287654,6,0,B|319:56|310:84|310:84|258:49|194:56,1,191.999994140625,2|8,3:2|0:0,0:0:0:0:
112,199,288157,2,0,P|182:138|276:157,1,191.999994140625,2|2,3:2|3:2,0:0:0:0:
333,254,288660,1,8,0:0:0:0:
391,154,288827,1,0,0:0:0:0:
409,325,288995,6,0,P|356:355|266:333,1,143.999995605469,2|0,3:2|0:0,0:0:0:0:
247,315,289330,2,0,B|202:293|202:293|95:313,1,143.999995605469,8|0,0:0|0:0,0:0:0:0:
72,319,289665,5,0,0:0:0:0:
113,202,289833,1,0,0:0:0:0:
84,111,290000,1,8,0:0:0:0:
125,228,290168,1,0,0:0:0:0:
197,138,290336,6,0,B|298:99|279:194|382:156,1,191.999994140625,2|8,3:2|0:0,0:0:0:0:
424,51,290838,2,0,B|393:157|393:157|417:249,1,191.999994140625,2|2,3:2|3:2,0:0:0:0:
446,346,291341,2,0,P|401:317|314:320,1,143.999995605469,8|0,0:0|0:0,0:0:0:0:
281,342,291676,6,0,P|226:358|172:249,1,191.999994140625,6|8,3:2|0:0,0:0:0:0:
233,163,292179,2,0,P|208:77|119:79,1,191.999994140625,2|2,3:2|3:2,0:0:0:0:
77,187,292682,1,8,0:0:0:0:
167,258,292850,1,0,0:0:0:0:
167,258,293017,6,0,L|270:253,1,95.9999970703126,2|0,3:2|0:0,0:0:0:0:
378,245,293352,1,8,0:0:0:0:
349,356,293520,1,2,3:2:0:0:
495,297,293688,2,0,P|425:296|378:245,1,143.999995605469,2|0,3:2|0:0,0:0:0:0:
377,206,294023,2,0,P|329:154|259:153,1,143.999995605469,8|0,0:0|0:0,0:0:0:0:
230,179,294332,6,0,B|182:210|182:210|34:171,1,191.999994140625,6|8,3:2|0:0,0:0:0:0:
163,108,294834,1,2,3:2:0:0:
254,269,295002,2,0,L|246:373,1,95.9999970703126,0|2,0:0|3:2,0:0:0:0:
159,307,295337,5,8,0:0:0:0:
349,231,295505,1,0,0:0:0:0:
163,108,295669,5,12,0:0:0:0:
254,269,295836,1,2,3:2:0:0:
325,62,296004,1,2,3:2:0:0:
159,307,296171,5,12,0:0:0:0:
261,146,296339,1,2,3:2:0:0:
329,367,296506,1,2,3:2:0:0:
383,260,296704,2,0,L|270:268,1,90.0000034332277,12|0,0:0|0:0,0:0:0:0:
252,268,297020,6,0,P|245:227|253:166,1,95.9999970703126,6|0,3:2|0:0,0:0:0:0:
329,87,297355,2,0,L|388:93,1,47.9999985351563,8|0,0:0|0:0,0:0:0:0:
249,2,297522,2,0,P|213:88|252:174,1,191.999994140625,2|2,3:2|3:2,0:0:0:0:
346,278,298025,2,0,P|310:264|236:277,1,95.9999970703126,8|0,0:0|0:0,0:0:0:0:
159,335,298360,6,0,B|165:267|165:267|134:236|134:236|141:153,1,191.999994140625,2|8,3:2|0:0,0:0:0:0:
93,72,298863,2,0,P|51:76|5:102,1,95.9999970703126,2|0,3:2|0:0,0:0:0:0:
159,5,299198,2,0,P|197:3|260:19,1,95.9999970703126,2|8,3:2|0:0,0:0:0:0:
331,100,299533,1,0,0:0:0:0:
213,203,299701,6,0,P|303:187|331:100,1,191.999994140625,2|8,3:2|0:0,0:0:0:0:
253,15,300204,1,2,3:2:0:0:
175,100,300371,2,0,L|70:91,1,95.9999970703126,0|2,0:0|3:2,0:0:0:0:
26,194,300707,2,0,L|131:185,1,95.9999970703126,8|0,0:0|0:0,0:0:0:0:
236,180,301042,6,0,P|251:234|221:333,1,143.999995605469,2|0,3:2|0:0,0:0:0:0:
201,343,301377,2,0,L|99:331,1,95.9999970703126,8|2,0:0|3:2,0:0:0:0:
236,180,301712,1,0,0:0:0:0:
236,180,301880,1,2,3:2:0:0:
326,301,302047,1,12,0:0:0:0:
326,301,302215,1,0,0:0:0:0:
413,227,302383,6,0,B|419:84|419:84|379:117,1,191.999994140625,6|8,3:2|0:0,0:0:0:0:
314,20,302885,1,2,3:2:0:0:
214,80,303053,2,0,P|289:134|381:115,1,191.999994140625,0|8,0:0|0:0,0:0:0:0:
314,20,303556,1,0,0:0:0:0:
214,80,303723,6,0,P|212:160|234:277,1,191.999994140625,2|8,3:2|0:0,0:0:0:0:
311,353,304226,1,2,3:2:0:0:
178,331,304394,2,0,P|121:327|26:383,1,167.999994873047,2|0,3:2|0:0,0:0:0:0:
27,380,304729,2,0,P|64:309|57:224,1,167.999994873047,8|0,0:0|0:0,0:0:0:0:
32,194,305064,6,0,P|21:142|134:96,1,191.999994140625,2|8,3:2|0:0,0:0:0:0:
205,176,305567,1,2,3:2:0:0:
291,100,305735,2,0,B|363:91|363:91|403:117|403:117|483:102,1,191.999994140625,0|8,0:0|0:0,0:0:0:0:
425,20,306237,1,0,0:0:0:0:
339,183,306405,6,0,B|324:252|358:323|358:323|332:306|297:303,1,191.999994140625,2|8,3:2|0:0,0:0:0:0:
207,349,306908,1,2,3:2:0:0:
128,264,307075,2,0,P|119:207|127:163,1,95.9999970703126,0|2,0:0|3:2,0:0:0:0:
210,91,307411,1,12,0:0:0:0:
99,56,307578,1,0,0:0:0:0:
298,29,307746,6,0,P|316:82|288:165,1,143.999995605469,6|0,3:2|0:0,0:0:0:0:
253,177,308081,2,0,P|217:168|158:173,1,95.9999970703126,8|2,0:0|3:2,0:0:0:0:
50,254,308416,2,0,P|104:246|196:345,1,191.999994140625,0|8,0:0|0:0,0:0:0:0:
300,381,308919,6,0,P|303:326|243:200,1,191.999994140625
158,172,309422,1,8,0:0:0:0:
259,20,309589,2,0,B|282:89|282:89|247:204,1,191.999994140625,2|2,3:2|3:2,0:0:0:0:
194,334,310092,1,8,0:0:0:0:
328,274,310260,1,0,0:0:0:0:
158,172,310427,6,0,P|100:198|62:274,1,143.999995605469,2|0,3:2|0:0,0:0:0:0:
62,266,310763,2,0,L|76:67,1,191.999994140625,8|0,0:0|0:0,0:0:0:0:
75,74,311265,1,2,3:2:0:0:
160,1,311433,2,0,P|185:46|187:96,1,95.9999970703126,8|0,0:0|0:0,0:0:0:0:
166,203,311768,6,0,B|222:175|222:175|362:192,1,191.999994140625,2|8,3:2|0:0,0:0:0:0:
463,213,312271,1,2,3:2:0:0:
375,287,312438,2,0,L|262:273,1,95.9999970703126,0|2,0:0|3:2,0:0:0:0:
278,88,312774,1,12,0:0:0:0:
382,100,312941,1,0,0:0:0:0:
279,275,313109,6,0,P|228:248|206:164,1,143.999995605469,6|0,3:2|0:0,0:0:0:0:
214,131,313444,2,0,L|110:140,1,95.9999970703126,8|2,0:0|3:2,0:0:0:0:
3,152,313779,1,0,0:0:0:0:
3,152,313947,1,2,3:2:0:0:
91,228,314114,2,0,P|113:186|117:138,1,95.9999970703126,8|0,0:0|0:0,0:0:0:0:
0,10,314450,6,0,P|24:50|63:78,1,95.9999970703126,2|0,3:2|0:0,0:0:0:0:
172,40,314785,2,0,P|226:22|312:59,1,143.999995605469,8|0,0:0|0:0,0:0:0:0:
326,83,315120,2,0,L|317:195,1,95.9999970703126,4|0,0:0|0:0,0:0:0:0:
330,354,315455,2,0,L|340:210,1,143.999995605469,12|0,0:0|0:0,0:0:0:0:
318,178,315790,6,0,B|218:140|233:228|130:190,1,191.999994140625,6|8,3:2|0:0,0:0:0:0:
87,86,316293,1,2,3:2:0:0:
185,27,316461,2,0,L|175:137,1,95.9999970703126,0|2,0:0|3:2,0:0:0:0:
143,287,316796,2,0,L|134:191,1,95.9999970703126,12|0,0:0|0:0,0:0:0:0:
276,77,317131,5,12,0:0:0:0:
246,291,317299,1,2,3:1:0:0:
375,165,317466,1,8,0:0:0:0:
420,372,317634,1,2,3:2:0:0:
231,198,317802,5,8,0:0:0:0:
204,185,317885,1,8,0:0:0:0:
175,182,317969,1,8,0:0:0:0:
146,187,318053,1,8,0:0:0:0:
121,201,318137,1,8,0:0:0:0:
92,207,318221,1,8,0:0:0:0:
63,203,318304,2,0,L|57:145,1,47.9999985351563,8|8,0:0|0:0,0:0:0:0:
51,42,318472,6,0,P|101:84|182:58,1,143.999995605469,6|0,3:2|0:0,0:0:0:0:
198,38,318807,6,0,P|250:17|274:127,1,191.999994140625,8|0,0:0|0:0,0:0:0:0:
220,213,319310,1,2,3:2:0:0:
300,294,319478,2,0,P|325:253|330:195,1,95.9999970703126,8|0,0:0|3:2,0:0:0:0:
275,108,319814,6,0,B|216:73|216:73|72:100,1,191.999994140625,0|8,0:0|0:0,0:0:0:0:
21,179,320317,2,0,B|142:201|142:201|201:166,1,191.999994140625,2|2,3:2|3:2,0:0:0:0:
292,95,320820,1,8,0:0:0:0:
201,166,320988,1,2,3:2:0:0:
308,206,321156,6,0,P|329:257|306:349,1,143.999995605469,2|0,3:2|0:0,0:0:0:0:
311,341,321492,2,0,L|203:333,1,95.9999970703126,8|2,0:0|3:2,0:0:0:0:
115,274,321827,2,0,P|157:264|195:229,1,95.9999970703126,0|2,0:0|3:2,0:0:0:0:
227,118,322163,1,8,0:0:0:0:
114,146,322331,1,0,0:0:0:0:
195,228,322498,6,0,B|343:220|343:220|314:255,1,191.999994140625,2|8,3:2|0:0,0:0:0:0:
229,330,323002,2,0,B|201:363|201:363|349:355,1,191.999994140625,2|2,3:2|3:2,0:0:0:0:
464,350,323505,2,0,P|430:297|444:210,1,143.999995605469,12|0,0:0|0:0,0:0:0:0:
464,190,323841,6,0,P|479:139|381:120,1,167.999994873047,6|0,3:2|0:0,0:0:0:0:
367,141,324176,2,0,B|263:188|281:102|181:131,1,191.999994140625,8|0,0:0|0:0,0:0:0:0:
120,226,324680,1,2,3:2:0:0:
63,104,324847,1,8,0:0:0:0:
33,255,325015,2,0,P|75:306|191:284,1,191.999994140625
253,190,325518,2,0,P|301:176|353:196,1,95.9999970703126,8|2,0:0|3:2,0:0:0:0:
409,319,325854,6,0,P|344:270|343:189,1,167.999994873047,2|0,3:2|0:0,0:0:0:0:
489,197,326190,2,0,P|478:277|408:318,1,167.999994873047,8|0,0:0|0:0,0:0:0:0:
343,189,326525,6,0,B|299:155|299:155|210:168,1,143.999995605469,2|0,3:2|0:0,0:0:0:0:
173,174,326861,2,0,L|186:282,1,95.9999970703126,8|2,0:0|3:2,0:0:0:0:
94,99,327196,1,0,0:0:0:0:
72,195,327364,1,2,3:2:0:0:
196,75,327532,1,8,0:0:0:0:
68,105,327700,1,0,0:0:0:0:
195,193,327867,6,0,P|258:215|373:158,1,191.999994140625,2|8,3:2|0:0,0:0:0:0:
419,63,328371,1,0,0:0:0:0:
419,63,328539,2,0,B|390:113|390:113|417:262,1,191.999994140625,2|12,3:2|0:0,0:0:0:0:
439,357,329042,1,0,0:0:0:0:
330,325,329210,6,0,P|274:344|197:304,1,143.999995605469,6|0,3:2|0:0,0:0:0:0:
182,274,329544,2,0,L|188:170,1,95.9999970703126,8|2,0:0|3:2,0:0:0:0:
125,80,329879,2,0,P|156:130|286:126,1,191.999994140625,0|8,0:0|0:0,0:0:0:0:
358,50,330381,2,0,P|420:50|447:168,1,191.999994140625
353,217,330884,1,8,0:0:0:0:
451,342,331051,2,0,P|438:251|353:217,1,191.999994140625,2|2,3:2|0:0,0:0:0:0:
265,291,331553,1,8,0:0:0:0:
247,176,331721,1,0,0:0:0:0:
137,240,331888,6,0,P|207:233|246:176,1,143.999995605469,2|0,3:2|0:0,0:0:0:0:
248,137,332223,2,0,L|361:142,1,95.9999970703126,8|2,0:0|3:2,0:0:0:0:
213,43,332558,2,0,P|173:74|148:132,1,95.9999970703126,0|2,0:0|3:2,0:0:0:0:
248,137,332893,1,8,0:0:0:0:
355,22,333060,6,0,P|404:66|412:188,1,191.999994140625,0|0,0:0|0:0,0:0:0:0:
309,234,333562,1,8,0:0:0:0:
213,222,333730,1,2,3:2:0:0:
309,234,333897,2,0,L|319:338,1,95.9999970703126,0|2,0:0|3:2,0:0:0:0:
243,140,334232,1,8,0:0:0:0:
204,248,334399,1,0,0:0:0:0:
88,96,334567,6,0,P|154:161|244:139,1,191.999994140625,6|8,3:2|0:0,0:0:0:0:
299,39,335069,2,0,P|343:82|334:214,1,191.999994140625,2|2,3:2|3:2,0:0:0:0:
243,268,335571,1,8,0:0:0:0:
344,320,335739,1,0,0:0:0:0:
235,172,335906,2,0,L|244:282,1,95.9999970703126,2|0,3:2|0:0,0:0:0:0:
150,336,336241,1,8,0:0:0:0:
150,336,336408,1,2,3:2:0:0:
57,267,336576,6,0,B|37:198|37:198|63:109,1,143.999995605469,6|0,3:2|0:0,0:0:0:0:
150,336,336910,2,0,B|170:267|170:267|144:178,1,143.999995605469,12|0,0:0|0:0,0:0:0:0:
57,128,337245,6,0,B|105:164|105:164|273:123,1,191.999994140625,6|8,3:2|0:0,0:0:0:0:
149,54,337747,1,2,3:2:0:0:
247,216,337915,2,0,L|346:196,1,95.9999970703126,0|2,0:0|3:2,0:0:0:0:
454,174,338250,2,0,P|462:117|401:57,1,143.999995605469,8|0,0:0|0:0,0:0:0:0:
367,59,338585,5,2,3:2:0:0:
341,196,338752,1,2,3:2:0:0:
217,98,338920,2,0,B|145:100|159:43|93:35|93:35|113:274|113:274|58:347|-46:280|41:200|97:235,1,600.000022888184,4|0,3:2|0:0,0:0:0:0:
230,303,341257,6,0,L|225:378,2,64
235,213,341760,1,0,0:0:0:0:
240,123,341928,1,0,0:0:0:0:
235,213,342096,2,0,L|367:206,1,128,2|0,3:2|0:0,0:0:0:0:
452,203,342600,6,0,L|457:275,2,64,0|0|0,0:0|0:0|0:0,0:0:0:0:
447,113,343104,1,0,0:0:0:0:
442,23,343272,1,0,0:0:0:0:
447,113,343440,2,0,L|315:106,1,128,2|0,3:2|0:0,0:0:0:0:
229,96,343944,6,0,L|234:24,2,64,0|0|0,0:0|0:0|0:0,0:0:0:0:
224,186,344448,1,0,0:0:0:0:
219,276,344616,1,0,0:0:0:0:
224,186,344784,2,0,L|92:193,1,128,2|0,3:2|0:0,0:0:0:0:
25,249,345288,2,0,L|31:312,1,64,0|0,0:0|0:0,0:0:0:0:
14,159,345624,5,0,0:0:0:0:
110,278,345960,1,0,0:0:0:0:
174,111,346296,1,0,0:0:0:0:
174,111,346632,6,0,L|170:34,2,64,0|0|0,0:0|0:0|0:0,0:0:0:0:
176,200,347136,1,0,0:0:0:0:
177,289,347304,1,0,0:0:0:0:
176,200,347472,2,0,L|303:206,1,128,2|0,3:2|0:0,0:0:0:0:
392,215,347975,6,0,L|396:292,2,64,0|0|0,0:0|0:0|0:0,0:0:0:0:
390,126,348479,1,0,0:0:0:0:
389,37,348647,1,0,0:0:0:0:
390,126,348815,2,0,L|262:119,1,128,2|0,3:2|0:0,0:0:0:0:
172,116,349319,6,0,L|168:39,2,64,0|0|0,0:0|0:0|0:0,0:0:0:0:
174,205,349823,1,0,0:0:0:0:
175,294,349991,1,0,0:0:0:0:
174,205,350159,2,0,L|301:211,1,128,2|0,3:2|0:0,0:0:0:0:
377,260,350663,2,0,L|372:323,1,64,0|0,0:0|0:0,0:0:0:0:
383,170,350999,1,0,0:0:0:0:
278,308,351335,5,8,0:0:0:0:
248,209,351503,1,8,0:0:0:0:
191,340,351671,1,8,0:0:0:0:
149,151,351839,1,8,0:0:0:0:
32,241,352007,6,0,P|79:256|129:248,1,80,12|0,0:0|0:0,0:0:0:0:
226,137,352359,2,0,P|186:136|148:150,1,80,2|0,3:2|0:0,0:0:0:0:
109,254,352712,1,8,0:0:0:0:
6,109,352876,2,0,P|84:106|149:150,1,160,2|0,3:2|0:0,0:0:0:0:
268,257,353369,6,0,L|262:341,1,80,2|0,3:2|0:0,0:0:0:0:
374,274,353711,2,0,L|368:194,1,80,2|0,3:2|0:0,0:0:0:0:
291,112,354054,1,8,0:0:0:0:
434,82,354226,2,0,B|397:120|397:120|291:112,1,160,2|2,3:2|0:0,0:0:0:0:
179,98,354741,6,0,P|194:151|185:187,1,80,2|0,3:2|0:0,0:0:0:0:
94,303,355075,2,0,P|90:263|104:226,1,80,2|0,3:2|0:0,0:0:0:0:
189,174,355409,1,8,0:0:0:0:
42,97,355576,2,0,P|45:175|104:226,1,160,2|2,3:2|0:0,0:0:0:0:
214,160,356078,2,0,L|207:258,1,80,2|8,3:2|0:0,0:0:0:0:
198,335,356412,1,2,3:2:0:0:
198,335,356746,5,8,0:0:0:0:
129,233,356896,1,8,0:0:0:0:
155,235,356978,1,8,0:0:0:0:
182,237,357061,1,8,0:0:0:0:
208,239,357144,1,8,0:0:0:0:
235,241,357227,1,8,0:0:0:0:
261,244,357310,1,8,0:0:0:0:
288,245,357415,6,0,B|394:248|394:248|365:273,1,143.999995605469,6|0,3:2|0:0,0:0:0:0:
400,169,357749,2,0,B|293:165|293:165|323:141,1,143.999995605469,2|0,3:2|0:0,0:0:0:0:
392,87,358083,1,8,0:0:0:0:
214,26,358250,2,0,B|271:81|271:81|210:133,1,160,2|0,3:2|0:0,0:0:0:0:
113,191,358752,6,0,P|97:147|101:102,1,80,6|0,3:2|0:0,0:0:0:0:
189,311,359086,2,0,P|204:274|205:235,1,80,2|0,3:2|0:0,0:0:0:0:
113,191,359420,1,8,0:0:0:0:
32,329,359587,2,0,B|80:356|80:356|213:322,1,160,2|8,3:2|0:0,0:0:0:0:
318,287,360089,6,0,L|312:371,1,80,6|0,3:2|0:0,0:0:0:0:
404,159,360427,2,0,L|410:243,1,80,2|0,3:2|0:0,0:0:0:0:
318,287,360766,1,8,0:0:0:0:
254,158,360935,1,2,3:2:0:0:
193,260,361105,1,8,0:0:0:0:
269,132,361274,1,0,0:0:0:0:
310,263,361443,5,12,0:0:0:0:
152,165,361613,1,0,0:0:0:0:
360,182,361782,1,12,0:0:0:0:
169,274,361951,1,0,0:0:0:0:
356,80,362120,5,8,0:0:0:0:
301,291,362287,1,8,0:0:0:0:
148,133,362455,1,8,0:0:0:0:
183,361,362622,1,8,0:0:0:0:
