osu file format v14

[General]
AudioFilename: audio.mp3
AudioLeadIn: 0
PreviewTime: 44121
Countdown: 0
SampleSet: Soft
StackLeniency: 0.7
Mode: 0
LetterboxInBreaks: 0
WidescreenStoryboard: 0

[Editor]
DistanceSpacing: 1
BeatDivisor: 4
GridSize: 32
TimelineZoom: 1

[Metadata]
Title:My Dear
TitleUnicode:My Dear
Artist:SHIROKUMA (CV:Sakurai Takahiro)
ArtistUnicode:シロクマ (CV:櫻井孝宏)
Creator:CrystilonZ
Version:My Bear
Source:しろくまカフェ
Tags:Café Polar Bear Cafe ED Ending Pengin ペンギン Panda パンダ Sasako 笹子 Grizzly グリズリ Llama ラマ Sloth ナマケモノ Nakemono
BeatmapID:982909
BeatmapSetID:458735

[Difficulty]
HPDrainRate:6
CircleSize:4
OverallDifficulty:6
ApproachRate:7.8
SliderMultiplier:1.6
SliderTickRate:1

[Events]
//Background and Video events
Video,80,"video.avi"
0,0,"bg11.jpg",0,0
//Break Periods
//Storyboard Layer 0 (Background)
//Storyboard Layer 1 (Fail)
//Storyboard Layer 2 (Pass)
//Storyboard Layer 3 (Foreground)
//Storyboard Sound Samples

[TimingPoints]
758,545.454545454546,4,2,1,45,1,0
43439,-100,4,2,1,30,0,0
43576,-100,4,2,1,45,0,0
43712,-100,4,2,1,30,0,0
43848,-100,4,2,1,50,0,0
44394,-100,4,2,1,65,0,1
44530,-100,4,2,1,52,0,1
61576,-100,4,2,1,52,0,0
61848,-100,4,2,1,65,0,1
61985,-100,4,2,1,52,0,1
79303,-100,4,2,1,52,0,0
85985,-100,4,2,1,50,0,0
86394,-100,4,2,1,40,0,0
86939,-100,4,2,1,30,0,0
87485,-100,4,2,1,20,0,0
88030,-100,4,2,1,12,0,0
88576,-100,4,2,1,8,0,0
89121,-100,4,2,1,5,0,0

[Colours]
Combo1 : 55,185,255
Combo2 : 128,128,192
Combo3 : 136,192,255
Combo4 : 185,185,255
SliderBorder : 217,212,200
SliderTrackOverride : 4,29,51

[HitObjects]
63,277,758,6,0,B|103:263|139:277|139:277|187:297|231:269,1,160,2|0,0:0|0:0,0:0:0:0:
180,121,1576,2,0,P|168:158|177:197,1,80,2|0,0:0|0:0,0:0:0:0:
351,249,2121,1,0,0:0:0:0:
258,159,2394,1,8,0:0:0:0:
218,275,2667,1,0,0:0:0:0:
409,317,2939,6,0,P|440:252|392:169,1,160,2|0,0:0|0:0,0:0:0:0:
274,252,3758,2,0,P|312:260|351:249,1,80,2|0,0:0|0:0,0:0:0:0:
486,156,4303,1,0,0:0:0:0:
409,317,4576,1,8,0:0:0:0:
307,171,4848,1,0,0:0:0:0:
223,353,5121,6,0,B|169:363|169:363|118:349|118:349|45:363,1,160,2|0,0:0|0:0,0:0:0:0:
189,248,5939,2,0,P|206:201|193:158,1,80,2|0,0:0|0:0,0:0:0:0:
117,42,6485,1,0,0:0:0:0:
115,198,6758,1,8,0:0:0:0:
256,123,7030,1,0,0:0:0:0:
53,135,7303,6,0,P|31:169|82:279,1,160,2|0,0:2|0:0,0:0:0:0:
237,334,8121,2,0,L|327:328,1,80,2|0,0:2|0:0,0:0:0:0:
352,350,8530,1,8,0:0:0:0:
352,350,8667,1,8,0:0:0:0:
368,189,8939,1,8,0:0:0:0:
506,277,9212,1,0,0:0:0:0:
297,246,9485,6,0,P|275:199|289:155,1,80,2|0,0:0|0:0,0:0:0:0:
357,34,10030,1,0,0:0:0:0:
368,189,10303,1,2,0:0:0:0:
220,125,10576,2,0,B|184:112|144:127|144:127|102:144|57:125,1,160,0|8,0:0|0:0,0:0:0:0:
9,14,11394,1,0,0:0:0:0:
118,185,11667,6,0,P|141:232|118:334,1,160,2|0,0:0|0:0,0:0:0:0:
118,185,12485,1,2,0:0:0:0:
118,185,13030,1,0,0:0:0:0:
219,125,13303,1,8,0:0:0:0:
218,242,13576,1,0,0:0:0:0:
155,56,13848,6,0,P|195:31|242:37,1,80,2|0,0:0|0:0,0:0:0:0:
376,88,14394,1,0,0:0:0:0:
327,239,14667,1,2,0:0:0:0:
219,125,14939,1,0,0:0:0:0:
317,35,15212,1,0,0:0:0:0:
351,166,15485,1,8,0:0:0:0:
229,32,15758,1,0,0:0:0:0:
174,203,16030,5,2,0:0:0:0:
308,85,16303,2,0,P|355:73|397:87,1,80
485,229,16848,1,2,0:0:0:0:
485,229,17394,1,0,0:0:0:0:
351,166,17667,1,8,0:0:0:0:
464,76,17939,1,0,0:0:0:0:
258,145,18212,6,0,P|256:184|274:220,1,80,2|0,0:0|0:0,0:0:0:0:
485,229,18758,1,0,0:0:0:0:
392,47,19030,1,2,0:0:0:0:
352,166,19303,1,0,0:0:0:0:
464,76,19576,1,0,0:0:0:0:
395,239,19848,1,8,0:0:0:0:
280,101,20121,1,0,0:0:0:0:
475,199,20394,6,0,P|485:251|471:285,1,80,2|0,0:0|0:0,0:0:0:0:
346,341,20939,1,0,0:0:0:0:
475,199,21212,1,2,0:0:0:0:
278,159,21485,2,0,B|241:149|203:173|203:173|169:197|120:184,1,160,0|8,0:0|0:0,0:0:0:0:
153,92,22303,1,0,0:0:0:0:
260,251,22576,6,0,P|322:247|370:149,1,160,2|0,0:0|0:0,0:0:0:0:
185,200,23394,2,0,P|168:240|177:289,1,80,2|0,0:0|0:0,0:0:0:0:
273,161,23939,1,0,0:0:0:0:
124,130,24212,1,8,0:0:0:0:
171,275,24485,1,0,0:0:0:0:
209,94,24758,6,0,P|185:57|148:41,1,80,2|0,0:0|0:0,0:0:0:0:
34,140,25303,1,0,0:0:0:0:
175,278,25576,1,2,0:0:0:0:
175,278,26121,1,0,0:0:0:0:
273,163,26394,1,8,0:0:0:0:
326,304,26667,1,0,0:0:0:0:
212,95,26939,6,0,P|258:71|300:78,1,80,2|0,0:0|0:0,0:0:0:0:
362,205,27485,1,0,0:0:0:0:
212,95,27758,1,2,0:0:0:0:
172,274,28030,2,0,P|143:302|31:288,1,160,0|8,0:0|0:0,0:0:0:0:
39,151,28848,1,0,0:0:0:0:
172,274,29121,5,2,0:0:0:0:
212,95,29394,1,0,0:0:0:0:
96,235,29667,1,0,0:0:0:0:
276,260,29939,1,2,0:0:0:0:
276,260,30485,1,0,0:0:0:0:
168,186,30758,1,8,0:0:0:0:
283,127,31030,1,0,0:0:0:0:
181,284,31303,5,2,0:0:0:0:
192,91,31576,1,0,0:0:0:0:
352,198,31848,1,0,0:0:0:0:
167,188,32121,2,0,L|82:194,1,80,2|0,0:0|0:0,0:0:0:0:
49,55,32667,1,0,0:0:0:0:
87,193,32939,1,8,0:0:0:0:
192,91,33212,1,0,0:0:0:0:
9,149,33485,6,0,B|-11:188|4:228|4:228|23:275|-1:319,1,160,2|0,0:0|0:0,0:0:0:0:
153,187,34303,2,0,P|194:177|237:188,1,80,2|0,0:0|0:0,0:0:0:0:
350,266,34848,1,0,0:0:0:0:
195,259,35121,1,8,0:0:0:0:
282,130,35394,1,0,0:0:0:0:
236,337,35667,6,0,P|195:347|152:336,1,80,2|0,0:0|0:0,0:0:0:0:
133,166,36212,1,0,0:0:0:0:
309,282,36485,2,0,P|327:320|320:370,1,80,2|0,0:0|0:0,0:0:0:0:
229,250,37030,2,0,P|211:212|218:162,1,80,0|8,0:0|0:0,0:0:0:0:
307,75,37576,1,0,0:0:0:0:
133,166,37848,6,0,L|54:172,1,80,2|0,0:0|0:0,0:0:0:0:
0,324,38394,1,0,0:0:0:0:
133,166,38667,1,2,0:0:0:0:
217,353,38939,2,0,L|296:359,1,80
495,319,39485,1,8,0:0:0:0:
296,359,39758,1,0,0:0:0:0:
359,169,40030,6,0,P|377:96|321:28,1,160,2|0,0:0|0:0,0:0:0:0:
121,51,40848,1,2,0:0:0:0:
121,51,41394,1,0,0:0:0:0:
282,113,41667,1,8,0:0:0:0:
58,211,41939,1,0,0:0:0:0:
219,273,42212,6,0,B|257:258|299:272|299:272|341:286|393:266,1,160,2|0,0:0|0:0,0:0:0:0:
282,113,43030,1,2,0:0:0:0:
258,357,43303,1,8,0:0:0:0:
220,368,43439,1,8,0:0:0:0:
181,361,43575,1,8,0:0:0:0:
149,338,43712,1,8,0:0:0:0:
131,302,43848,1,8,0:0:0:0:
199,124,44121,1,2,0:0:0:0:
258,357,44394,6,0,P|338:362|385:294,1,160,4|8,0:0|0:0,0:0:0:0:
476,136,45212,2,0,P|435:112|336:163,1,160,2|0,0:0|0:0,0:0:0:0:
299,281,46030,1,8,0:0:0:0:
414,195,46303,1,0,0:0:0:0:
194,101,46576,6,0,P|151:94|117:108,1,80,2|0,0:0|0:0,0:0:0:0:
123,340,47121,1,8,0:0:0:0:
162,176,47394,1,2,0:0:0:0:
295,281,47667,1,2,0:0:0:0:
166,261,47939,1,2,0:0:0:0:
245,158,48212,1,8,0:0:0:0:
221,318,48485,1,0,0:0:0:0:
194,101,48758,5,2,0:0:0:0:
397,175,49030,1,0,0:0:0:0:
285,64,49303,1,8,0:0:0:0:
286,299,49576,1,2,0:0:0:0:
162,176,49848,1,0,0:0:0:0:
329,133,50121,1,0,0:0:0:0:
231,235,50394,1,8,0:0:0:0:
194,101,50667,1,0,0:0:0:0:
351,249,50939,6,0,P|394:259|437:244,1,80,2|0,0:0|0:0,0:0:0:0:
489,83,51485,1,8,0:0:0:0:
289,191,51758,2,0,P|269:221|268:266,1,80,2|0,0:0|0:0,0:0:0:0:
494,306,52303,1,0,0:0:0:0:
389,173,52576,1,8,0:0:0:0:
321,333,52848,1,0,0:0:0:0:
465,217,53121,5,2,0:0:0:0:
268,261,53394,1,0,0:0:0:0:
329,78,53667,1,8,0:0:0:0:
178,239,53939,2,0,P|176:289|199:325,1,80,2|0,0:0|0:0,0:0:0:0:
346,287,54485,1,2,0:0:0:0:
237,172,54758,1,8,0:0:0:0:
275,363,55030,1,0,0:0:0:0:
301,111,55303,6,0,P|255:86|157:136,1,160,2|8,0:0|0:0,0:0:0:0:
385,149,56121,2,0,P|391:87|368:51,1,80,2|0,0:0|0:0,0:0:0:0:
237,172,56667,2,0,P|231:234|254:270,1,80,2|8,0:0|0:0,0:0:0:0:
410,323,57212,1,0,0:0:0:0:
195,352,57485,6,0,L|105:347,1,80,2|0,0:0|0:0,0:0:0:0:
26,156,58030,1,8,0:0:0:0:
115,347,58303,1,2,0:0:0:0:
237,172,58576,2,0,P|243:110|220:74,1,80,0|2,0:0|0:0,0:0:0:0:
100,8,59121,1,8,0:0:0:0:
164,136,59394,1,0,0:0:0:0:
247,19,59667,6,0,L|336:14,1,80,2|0,0:0|0:0,0:0:0:0:
509,87,60212,1,8,0:0:0:0:
346,194,60485,2,0,P|332:246|344:290,1,80,2|0,0:0|0:0,0:0:0:0:
458,364,61030,1,8,0:0:0:0:
458,364,61167,1,8,0:0:0:0:
458,364,61303,1,8,0:0:0:0:
346,194,61576,1,8,0:0:0:0:
233,361,61848,6,0,B|196:378|152:358|152:358|110:338|68:359,1,160,4|8,0:0|0:0,0:0:0:0:
222,234,62667,2,0,P|250:158|226:82,1,160,2|0,0:0|0:0,0:0:0:0:
45,57,63485,1,8,0:0:0:0:
142,160,63758,1,0,0:0:0:0:
250,11,64030,6,0,L|343:6,1,80,2|0,0:0|0:0,0:0:0:0:
460,156,64576,1,8,0:0:0:0:
329,6,64848,1,2,0:0:0:0:
395,207,65121,1,8,0:0:0:0:
395,207,65258,1,8,0:0:0:0:
395,207,65394,1,8,0:0:0:0:
407,244,65530,1,2,0:0:0:0:
402,283,65667,1,8,0:0:0:0:
383,318,65803,1,0,0:0:0:0:
349,339,65939,1,0,0:0:0:0:
134,375,66212,6,0,L|40:369,1,80,2|0,0:0|0:0,0:0:0:0:
3,174,66758,2,0,L|97:167,1,80,8|2,0:0|0:0,0:0:0:0:
299,222,67303,1,0,0:0:0:0:
134,375,67576,1,0,0:0:0:0:
83,169,67848,1,8,0:0:0:0:
219,93,68121,1,0,0:0:0:0:
312,305,68394,6,0,P|360:313|400:295,1,80,2|0,0:0|0:0,0:0:0:0:
444,136,68939,1,8,0:0:0:0:
243,247,69212,2,0,P|221:286|226:334,1,80,2|0,0:0|0:0,0:0:0:0:
389,304,69758,1,0,0:0:0:0:
293,171,70030,1,8,0:0:0:0:
283,382,70303,1,0,0:0:0:0:
108,258,70576,5,2,0:0:0:0:
249,104,70848,1,0,0:0:0:0:
312,305,71121,1,8,0:0:0:0:
166,135,71394,2,0,P|160:89|182:48,1,80,2|0,0:0|0:0,0:0:0:0:
383,20,71939,1,2,0:0:0:0:
249,104,72212,1,8,0:0:0:0:
388,179,72485,1,0,0:0:0:0:
166,136,72758,6,0,P|105:107|20:148,1,160,2|8,0:0|0:0,0:0:0:0:
244,180,73576,2,0,P|256:143|249:104,1,80,2|0,0:0|0:0,0:0:0:0:
97,203,74121,2,0,P|85:240|92:279,1,80,2|8,0:0|0:0,0:0:0:0:
329,328,74667,1,0,0:0:0:0:
249,104,74939,6,0,B|201:91|201:91|146:106|146:106|88:95,1,160,2|8,0:0|0:0,0:0:0:0:
248,104,75758,1,2,0:0:0:0:
248,104,76303,1,2,0:0:0:0:
329,326,76576,1,8,0:0:0:0:
179,255,76848,1,0,0:0:0:0:
401,174,77121,6,0,P|412:130|396:84,1,80,2|0,0:0|0:0,0:0:0:0:
267,24,77667,1,8,0:0:0:0:
340,245,77939,2,0,P|384:269|423:263,1,80,2|0,0:0|0:0,0:0:0:0:
452,256,78348,1,8,0:0:0:0:
452,256,78485,1,8,0:0:0:0:
319,132,78758,1,8,0:0:0:0:
280,311,79030,1,0,0:0:0:0:
403,174,79303,5,2,0:0:0:0:
280,311,81485,5,2,0:0:0:0:
232,138,83667,6,0,B|194:123|151:139|151:139|111:155|70:136,1,160,2|8,0:0|0:0,0:0:0:0:
319,104,84485,2,0,P|329:148|309:194,1,80,2|0,0:0|0:0,0:0:0:0:
194,222,85030,1,2,0:0:0:0:
296,19,85303,2,0,P|344:19|380:44,1,80,2|0,0:0|0:0,0:0:0:0:
319,180,85848,5,2,0:0:0:0:
256,192,85985,12,0,89121,1:0:0:0:
