osu file format v14

[General]
AudioFilename: audio.mp3
AudioLeadIn: 0
PreviewTime: 48145
Countdown: 0
SampleSet: Soft
StackLeniency: 0.7
Mode: 0
LetterboxInBreaks: 0
WidescreenStoryboard: 0

[Editor]
DistanceSpacing: 1.2
BeatDivisor: 3
GridSize: 4
TimelineZoom: 2.999999

[Metadata]
Title:Tell Me What To Do
TitleUnicode:Tell Me What To Do
Artist:SHINee
ArtistUnicode:샤이니
Creator:Lapis Aoki
Version:Normal
Source:
Tags:SM엔터테인먼트 S.M.Entertainment KT 뮤직 KT MUSIC 1 and 1 - The 5th Album Repackage 온유 ONEW 종현 JONGHYUN 키 KEY 민호 MINHO 태민 TAEMIN K-pop Kpop
BeatmapID:1189703
BeatmapSetID:562758

[Difficulty]
HPDrainRate:4
CircleSize:3
OverallDifficulty:4
ApproachRate:5
SliderMultiplier:1.2
SliderTickRate:1

[Events]
//Background and Video events
Video,313,"taemin ah~.mp4"
0,0,"TMWTD2.jpg",0,0
//Break Periods
2,2535,16375
2,48495,53335
2,117615,122455
2,171415,184375
//Storyboard Layer 0 (Background)
//Storyboard Layer 1 (Fail)
//Storyboard Layer 2 (Pass)
//Storyboard Layer 3 (Foreground)
//Storyboard Sound Samples

[TimingPoints]
295,480,4,2,1,40,1,0
2215,-100,4,2,99,70,0,0
17575,-100,4,2,1,50,0,0
32935,-100,4,2,1,60,0,0
33415,-100,4,2,2,60,0,0
33895,-100,4,2,1,60,0,0
34375,-100,4,2,2,60,0,0
34855,-100,4,2,1,60,0,0
35335,-100,4,2,2,60,0,0
35815,-100,4,2,1,60,0,0
36295,-100,4,2,2,60,0,0
36775,-100,4,2,1,60,0,0
37255,-100,4,2,2,60,0,0
37735,-100,4,2,1,60,0,0
38215,-100,4,2,2,60,0,0
38695,-100,4,2,1,60,0,0
39175,-100,4,2,2,60,0,0
39655,-100,4,2,1,60,0,0
40135,-100,4,2,2,60,0,0
40615,-100,4,2,1,60,0,0
41095,-100,4,2,2,60,0,0
41575,-100,4,2,1,60,0,0
42055,-100,4,2,2,60,0,0
42535,-100,4,2,1,60,0,0
43015,-100,4,2,2,60,0,0
43495,-100,4,2,1,60,0,0
43975,-100,4,2,2,60,0,0
44455,-100,4,2,1,60,0,0
44935,-100,4,2,2,60,0,0
45415,-100,4,2,1,60,0,0
45895,-100,4,2,2,60,0,0
46375,-100,4,2,1,60,0,0
46855,-100,4,2,2,60,0,0
47335,-100,4,2,1,60,0,0
47815,-100,4,2,2,60,0,0
48295,-100,4,2,99,60,0,0
54535,-100,4,2,1,40,0,0
55015,-100,4,2,1,50,0,0
55495,-100,4,2,1,50,0,0
55975,-100,4,2,1,70,0,1
56455,-100,4,2,2,70,0,1
56935,-100,4,2,1,70,0,1
57415,-100,4,2,2,70,0,1
57895,-100,4,2,1,70,0,1
58375,-100,4,2,2,70,0,1
58855,-100,4,2,1,70,0,1
59335,-100,4,2,2,70,0,1
59815,-100,4,2,1,70,0,1
60295,-100,4,2,2,70,0,1
60775,-100,4,2,1,70,0,1
61255,-100,4,2,2,70,0,1
61735,-100,4,2,1,70,0,1
62215,-100,4,2,2,70,0,1
62695,-100,4,2,1,70,0,1
63175,-100,4,2,2,70,0,1
63655,-100,4,2,1,70,0,1
64135,-100,4,2,2,70,0,1
64615,-100,4,2,1,70,0,1
65095,-100,4,2,2,70,0,1
65575,-100,4,2,1,70,0,1
66055,-100,4,2,2,70,0,1
66535,-100,4,2,1,70,0,1
67015,-100,4,2,2,70,0,1
67495,-100,4,2,1,70,0,1
67975,-100,4,2,2,70,0,1
68455,-100,4,2,1,70,0,1
68935,-100,4,2,2,70,0,1
69415,-100,4,2,1,70,0,1
69895,-100,4,2,2,70,0,1
70375,-100,4,2,1,70,0,0
70855,-100,4,2,2,70,0,0
71335,-100,4,2,1,70,0,1
71815,-100,4,2,2,70,0,1
72295,-100,4,2,1,70,0,1
72775,-100,4,2,2,70,0,1
73255,-100,4,2,1,70,0,1
73735,-100,4,2,2,70,0,1
74215,-100,4,2,1,70,0,1
74695,-100,4,2,2,70,0,1
75175,-100,4,2,1,70,0,1
75655,-100,4,2,2,70,0,1
76135,-100,4,2,1,70,0,1
76615,-100,4,2,2,70,0,1
77095,-100,4,2,1,70,0,1
77575,-100,4,2,2,70,0,1
78055,-100,4,2,1,70,0,1
78535,-100,4,2,2,70,0,1
79015,-100,4,2,1,70,0,1
79495,-100,4,2,2,70,0,1
79975,-100,4,2,1,70,0,1
80455,-100,4,2,2,70,0,1
80935,-100,4,2,1,70,0,1
81415,-100,4,2,2,70,0,1
81895,-100,4,2,1,70,0,1
82375,-100,4,2,2,70,0,1
82855,-100,4,2,1,70,0,1
83335,-100,4,2,2,70,0,1
83815,-100,4,2,1,70,0,1
84295,-100,4,2,2,70,0,1
84775,-100,4,2,1,70,0,1
85255,-100,4,2,2,70,0,1
85735,-100,4,2,1,70,0,1
86215,-100,4,2,2,70,0,1
86695,-100,4,2,1,50,0,0
102055,-100,4,2,1,60,0,0
102535,-100,4,2,2,60,0,0
103015,-100,4,2,1,60,0,0
103495,-100,4,2,2,60,0,0
103975,-100,4,2,1,60,0,0
104455,-100,4,2,2,60,0,0
104935,-100,4,2,1,60,0,0
105415,-100,4,2,2,60,0,0
105895,-100,4,2,1,60,0,0
106375,-100,4,2,2,60,0,0
106855,-100,4,2,1,60,0,0
107335,-100,4,2,2,60,0,0
107815,-100,4,2,1,60,0,0
108295,-100,4,2,2,60,0,0
108775,-100,4,2,1,60,0,0
109255,-100,4,2,2,60,0,0
109735,-100,4,2,1,60,0,0
110215,-100,4,2,2,60,0,0
110695,-100,4,2,1,60,0,0
111175,-100,4,2,2,60,0,0
111655,-100,4,2,1,60,0,0
112135,-100,4,2,2,60,0,0
112615,-100,4,2,1,60,0,0
113095,-100,4,2,2,60,0,0
113575,-100,4,2,1,60,0,0
114055,-100,4,2,2,60,0,0
114535,-100,4,2,1,60,0,0
115015,-100,4,2,2,60,0,0
115495,-100,4,2,1,60,0,0
115975,-100,4,2,2,60,0,0
116455,-100,4,2,1,60,0,0
116935,-100,4,2,2,60,0,0
117415,-100,4,2,99,60,0,0
123655,-100,4,2,1,40,0,0
124135,-100,4,2,1,50,0,0
124615,-100,4,2,1,50,0,0
125095,-100,4,2,1,70,0,1
125575,-100,4,2,2,70,0,1
126055,-100,4,2,1,70,0,1
126535,-100,4,2,2,70,0,1
127015,-100,4,2,1,70,0,1
127495,-100,4,2,2,70,0,1
127975,-100,4,2,1,70,0,1
128455,-100,4,2,2,70,0,1
128935,-100,4,2,1,70,0,1
129415,-100,4,2,2,70,0,1
129895,-100,4,2,1,70,0,1
130375,-100,4,2,2,70,0,1
130855,-100,4,2,1,70,0,1
131335,-100,4,2,2,70,0,1
131815,-100,4,2,1,70,0,1
132295,-100,4,2,2,70,0,1
132775,-100,4,2,1,70,0,1
133255,-100,4,2,2,70,0,1
133735,-100,4,2,1,70,0,1
134215,-100,4,2,2,70,0,1
134695,-100,4,2,1,70,0,1
135175,-100,4,2,2,70,0,1
135655,-100,4,2,1,70,0,1
136135,-100,4,2,2,70,0,1
136615,-100,4,2,1,70,0,1
137095,-100,4,2,2,70,0,1
137575,-100,4,2,1,70,0,1
138055,-100,4,2,2,70,0,1
138535,-100,4,2,1,70,0,1
139015,-100,4,2,2,70,0,1
139495,-100,4,2,1,70,0,0
139975,-100,4,2,2,70,0,0
140455,-100,4,2,1,70,0,1
140935,-100,4,2,2,70,0,1
141415,-100,4,2,1,70,0,1
141895,-100,4,2,2,70,0,1
142375,-100,4,2,1,70,0,1
142855,-100,4,2,2,70,0,1
143335,-100,4,2,1,70,0,1
143815,-100,4,2,2,70,0,1
144295,-100,4,2,1,70,0,1
144775,-100,4,2,2,70,0,1
145255,-100,4,2,1,70,0,1
145735,-100,4,2,2,70,0,1
146215,-100,4,2,1,70,0,1
146695,-100,4,2,2,70,0,1
147175,-100,4,2,1,70,0,1
147655,-100,4,2,2,70,0,1
148135,-100,4,2,1,70,0,1
148615,-100,4,2,2,70,0,1
149095,-100,4,2,1,70,0,1
149575,-100,4,2,2,70,0,1
150055,-100,4,2,1,70,0,1
150535,-100,4,2,2,70,0,1
151015,-100,4,2,1,70,0,1
151495,-100,4,2,2,70,0,1
151975,-100,4,2,1,70,0,1
152455,-100,4,2,2,70,0,1
152935,-100,4,2,1,70,0,1
153415,-100,4,2,2,70,0,1
153895,-100,4,2,1,70,0,1
154375,-100,4,2,2,70,0,1
154855,-100,4,2,1,70,0,1
155335,-100,4,2,2,70,0,1
155815,-100,4,2,2,60,0,0
156295,-100,4,2,1,70,0,0
169255,-100,4,2,1,10,0,0
169735,-100,4,2,1,20,0,0
170215,-100,4,2,1,30,0,0
170695,-100,4,2,1,40,0,0
171175,-100,4,2,1,50,0,0
185575,-100,4,2,1,40,0,0
186055,-100,4,2,1,30,0,0
186535,-100,4,2,2,60,0,0
187495,-100,4,2,1,60,0,0
187975,-100,4,2,2,60,0,0
188455,-100,4,2,1,60,0,0
188935,-100,4,2,2,60,0,0
189415,-100,4,2,1,60,0,0
189895,-100,4,2,2,60,0,0
190375,-100,4,2,1,60,0,0
190855,-100,4,2,2,60,0,0
191335,-100,4,2,1,60,0,0
191815,-100,4,2,2,60,0,0
192295,-100,4,2,1,60,0,0
192775,-100,4,2,2,60,0,0
193255,-100,4,2,1,60,0,0
193735,-100,4,2,2,60,0,0
194215,-100,4,2,1,60,0,0
194695,-100,4,2,2,60,0,0
195175,-100,4,2,1,60,0,0
195655,-100,4,2,2,60,0,0
196135,-100,4,2,1,60,0,0
196615,-100,4,2,2,60,0,0
197095,-100,4,2,1,60,0,0
197575,-100,4,2,2,60,0,0
198055,-100,4,2,1,60,0,0
198535,-100,4,2,2,60,0,0
199015,-100,4,2,1,60,0,0
199495,-100,4,2,2,60,0,0
199975,-100,4,2,1,60,0,0
200455,-100,4,2,2,60,0,0
200935,-100,4,2,1,60,0,0
201415,-100,4,2,2,60,0,0
201895,-100,4,2,1,70,0,1
202375,-100,4,2,2,70,0,1
202855,-100,4,2,1,70,0,1
203335,-100,4,2,2,70,0,1
203815,-100,4,2,1,70,0,1
204295,-100,4,2,2,70,0,1
204775,-100,4,2,1,70,0,1
205255,-100,4,2,2,70,0,1
205735,-100,4,2,1,70,0,1
206215,-100,4,2,2,70,0,1
206695,-100,4,2,1,70,0,1
207175,-100,4,2,2,70,0,1
207655,-100,4,2,1,70,0,1
208135,-100,4,2,2,70,0,1
208615,-100,4,2,1,70,0,1
209095,-100,4,2,2,70,0,1
209575,-100,4,2,1,70,0,1
210055,-100,4,2,2,70,0,1
210535,-100,4,2,1,70,0,1
211015,-100,4,2,2,70,0,1
211495,-100,4,2,1,70,0,1
211975,-100,4,2,2,70,0,1
212455,-100,4,2,1,70,0,1
212935,-100,4,2,2,70,0,1
213415,-100,4,2,1,70,0,1
213895,-100,4,2,2,70,0,1
214375,-100,4,2,1,70,0,1
214855,-100,4,2,2,70,0,1
215335,-100,4,2,1,70,0,1
215815,-100,4,2,2,70,0,1
216295,-100,4,2,1,70,0,0
216775,-100,4,2,2,70,0,0
217255,-100,4,2,1,70,0,1
217735,-100,4,2,2,70,0,1
218215,-100,4,2,1,70,0,1
218695,-100,4,2,2,70,0,1
219175,-100,4,2,1,70,0,1
219655,-100,4,2,2,70,0,1
220135,-100,4,2,1,70,0,1
220615,-100,4,2,2,70,0,1
221095,-100,4,2,1,70,0,1
221575,-100,4,2,2,70,0,1
222055,-100,4,2,1,70,0,1
222535,-100,4,2,2,70,0,1
223015,-100,4,2,1,70,0,1
223495,-100,4,2,2,70,0,1
223975,-100,4,2,1,70,0,1
224455,-100,4,2,2,70,0,1
224935,-100,4,2,1,70,0,1
225415,-100,4,2,2,70,0,1
225895,-100,4,2,1,70,0,1
226375,-100,4,2,2,70,0,1
226855,-100,4,2,1,70,0,1
227335,-100,4,2,2,70,0,1
227815,-100,4,2,1,70,0,1
228295,-100,4,2,2,70,0,1
228775,-100,4,2,1,70,0,1
229255,-100,4,2,2,70,0,1
229735,-100,4,2,1,70,0,1
230215,-100,4,2,2,70,0,1
230695,-100,4,2,1,70,0,1
231175,-100,4,2,2,70,0,0
231655,-100,4,2,1,70,0,0
232135,-100,4,2,2,70,0,0
232615,-100,4,2,1,70,0,1
233095,-100,4,2,2,70,0,1
233575,-100,4,2,1,70,0,1
234055,-100,4,2,2,70,0,1
234535,-100,4,2,1,70,0,1
235015,-100,4,2,2,70,0,1
235495,-100,4,2,1,70,0,1
235975,-100,4,2,2,70,0,1
236455,-100,4,2,1,70,0,1
236935,-100,4,2,2,70,0,1
237415,-100,4,2,1,70,0,1
237895,-100,4,2,2,70,0,1
238375,-100,4,2,1,70,0,1
238855,-100,4,2,2,70,0,1
239335,-100,4,2,1,70,0,1
239815,-100,4,2,2,70,0,1
240295,-100,4,2,99,60,0,0

[Colours]
Combo1 : 185,40,40
Combo2 : 1,177,173
Combo3 : 255,83,83
Combo4 : 1,120,117

[HitObjects]
176,336,1255,6,0,L|188:232,1,80
220,224,1735,2,0,L|208:120,1,80
200,96,2215,5,4,0:0:0:0:
196,100,17575,38,0,B|292:100|292:100|280:76,1,120,8|8,0:0|0:0,0:0:0:0:
192,192,18535,2,0,B|96:192|96:192|108:216,1,120,8|8,0:0|0:0,0:0:0:0:
232,280,19495,6,0,B|284:260|288:200|288:200|236:208,1,120,8|8,0:0|0:0,0:0:0:0:
248,60,20455,2,0,B|196:80|192:140|192:140|207:137,1,120,8|8,0:0|0:0,0:0:0:0:
340,192,21415,38,0,B|396:192|396:192|396:264,1,120,8|8,0:0|0:0,0:0:0:0:
276,336,22375,2,0,B|220:336|220:336|220:264,1,120,8|8,0:0|0:0,0:0:0:0:
148,148,23335,6,0,B|156:128|140:88|140:88|176:96|232:76,1,120,8|8,0:0|0:0,0:0:0:0:
340,88,24295,2,0,B|361:97|397:89|397:89|381:129|389:149,1,120,8|8,0:0|0:0,0:0:0:0:
252,196,25255,38,0,B|200:264|200:264|188:244|164:228,1,120,8|8,0:0|0:0,0:0:0:0:
172,96,26215,2,0,B|224:28|224:28|236:48|260:64,1,120,8|8,0:0|0:0,0:0:0:0:
352,148,27175,6,0,B|336:188|340:216|340:216|356:232|396:228,1,120,8|8,0:0|0:0,0:0:0:0:
268,308,28135,2,0,P|237:287|184:280,1,80,8|0,0:0|0:0,0:0:0:0:
156,304,28615,2,0,P|116:296|83:275,1,80,8|0,0:0|0:0,0:0:0:0:
64,232,29095,38,0,L|56:100,1,120,8|8,0:0|0:0,0:0:0:0:
176,32,30055,2,0,B|160:72|164:100|164:100|180:116|220:112,1,120,8|8,0:0|0:0,0:0:0:0:
356,112,31015,2,0,L|348:231,1,120,8|8,0:0|0:0,0:0:0:0:
256,344,31975,2,0,L|248:264,1,80,8|0,0:0|0:0,0:0:0:0:
220,224,32455,2,0,L|228:144,1,80,8|0,0:0|0:0,0:0:0:0:
256,104,32935,6,0,P|196:124|132:88,1,120,2|8,0:0|0:0,0:0:0:0:
52,76,33735,1,0,0:0:0:0:
52,76,33895,2,0,P|63:138|41:179,1,80,10|0,0:0|0:0,0:0:0:0:
32,192,34375,2,0,P|20:254|42:295,1,80,8|0,0:0|0:0,0:0:0:0:
68,292,34855,38,0,L|188:304,1,120,10|8,0:0|0:0,0:0:0:0:
292,204,35815,2,0,L|400:192,1,80,10|0,0:0|0:0,0:0:0:0:
404,160,36295,2,0,L|483:168,1,80,8|0,0:0|0:0,0:0:0:0:
500,212,36775,6,0,P|508:260|500:340,1,120,10|8,0:0|0:0,0:0:0:0:
408,332,37575,1,0,0:0:0:0:
408,332,37735,2,0,P|368:327|328:330,1,80,10|0,0:0|0:0,0:0:0:0:
284,312,38215,2,0,P|244:315|204:310,1,80,8|0,0:0|0:0,0:0:0:0:
172,276,38695,38,0,B|164:196|164:196|180:152,1,120,10|8,0:0|0:0,0:0:0:0:
272,48,39655,2,0,B|324:44|324:44|360:48,1,80,10|0,0:0|0:0,0:0:0:0:
380,88,40135,2,0,B|432:92|432:92|468:88,1,80,8|0,0:0|0:0,0:0:0:0:
488,52,40615,6,0,P|460:136|460:176,1,120,10|8,0:0|0:0,0:0:0:0:
392,236,41415,1,0,0:0:0:0:
392,236,41575,2,0,P|351:190|303:161,1,80,10|0,0:0|0:0,0:0:0:0:
287,188,42055,2,0,P|255:162|230:131,1,80,8|0,0:0|0:0,0:0:0:0:
241,83,42535,38,0,P|205:128|122:144,1,120,10|8,0:0|0:0,0:0:0:0:
28,68,43495,2,0,P|10:103|9:143,1,80,10|0,0:0|0:0,0:0:0:0:
44,176,43975,2,0,P|43:215|25:251,1,80,8|0,0:0|0:0,0:0:0:0:
32,300,44455,6,0,P|80:284|152:304,1,120,2|8,0:0|0:0,0:0:0:0:
272,228,45415,2,0,P|223:215|173:159,1,120,10|8,0:0|0:0,0:0:0:0:
140,28,46375,38,0,P|101:72|44:89,1,120,10|8,0:0|0:0,0:0:0:0:
124,212,47335,2,0,P|164:255|175:313,1,120,10|8,0:0|0:0,0:0:0:0:
36,356,48295,5,4,0:0:0:0:
36,356,54535,38,0,P|104:340|144:216,1,200
132,184,55495,2,0,P|166:165|206:162,1,80,2|0,0:0|0:0,0:0:0:0:
244,192,55975,38,0,P|278:211|318:214,1,80,4|0,0:0|0:0,0:0:0:0:
360,188,56455,2,0,L|452:184,1,80,8|0,0:0|0:0,0:0:0:0:
488,176,56935,2,0,L|480:272,1,80,10|0,0:0|0:0,0:0:0:0:
484,304,57415,2,0,P|446:291|407:296,1,80,8|0,0:0|0:0,0:0:0:0:
376,332,57895,38,0,L|224:324,1,120,10|8,0:0|0:0,0:0:0:0:
120,272,58855,1,10,0:0:0:0:
244,200,59335,2,0,L|323:207,1,80,8|0,0:0|0:0,0:0:0:0:
368,192,59815,6,0,P|384:148|384:80,1,80,10|0,0:0|0:0,0:0:0:0:
364,72,60295,2,0,L|272:60,1,80,8|0,0:0|0:0,0:0:0:0:
240,52,60775,2,0,L|160:62,1,80,10|0,0:0|0:0,0:0:0:0:
132,100,61255,2,0,P|137:139|151:176,1,80,8|0,0:0|0:0,0:0:0:0:
180,216,61735,38,0,B|184:256|168:292|168:292|204:292|236:312,1,120,10|8,0:0|0:0,0:0:0:0:
324,212,62695,1,10,0:0:0:0:
284,72,63175,2,0,B|244:76|189:51,1,80,10|0,0:0|0:0,0:0:0:0:
160,40,63655,6,0,L|56:52,1,80,10|0,0:0|0:0,0:0:0:0:
48,88,64135,2,0,L|56:168,1,80,8|0,0:0|0:0,0:0:0:0:
92,200,64615,2,0,P|92:248|80:288,1,80,10|0,0:0|0:0,0:0:0:0:
88,328,65095,2,0,P|135:326|176:336,1,80,8|0,0:0|0:0,0:0:0:0:
216,344,65575,38,0,P|261:354|350:341,1,120,10|8,0:0|0:0,0:0:0:0:
360,252,66375,1,0,0:0:0:0:
360,252,66535,2,0,L|356:168,1,80,10|0,0:0|0:0,0:0:0:0:
388,136,67015,2,0,L|392:52,1,80,8|0,0:0|0:0,0:0:0:0:
432,32,67495,6,0,L|280:36,1,120,10|8,0:0|0:0,0:0:0:0:
256,116,68295,1,0,0:0:0:0:
256,116,68455,2,0,L|176:116,1,80,10|0,0:0|0:0,0:0:0:0:
128,104,68935,2,0,L|140:200,1,80,8|0,0:0|0:0,0:0:0:0:
116,224,69415,38,0,P|164:216|256:228,1,120,10|8,0:0|0:0,0:0:0:0:
348,312,70375,2,0,P|300:320|236:312,1,80,10|0,0:0|0:0,0:0:0:0:
224,332,70855,2,0,P|176:324|112:332,1,80,8|0,0:0|0:0,0:0:0:0:
104,352,71335,6,0,L|112:216,1,120,4|8,0:0|0:0,0:0:0:0:
152,92,72295,2,0,L|256:104,1,80,10|0,0:0|0:0,0:0:0:0:
272,76,72775,2,0,L|351:66,1,80,8|0,0:0|0:0,0:0:0:0:
384,32,73255,38,0,P|408:76|400:156,1,120,10|8,0:0|0:0,0:0:0:0:
264,168,74215,2,0,P|240:212|240:272,1,80,10|0,0:0|0:0,0:0:0:0:
264,280,74695,2,0,P|256:319|235:353,1,80,8|0,0:0|0:0,0:0:0:0:
188,344,75175,6,0,B|128:332|128:332|60:348,1,120,10|8,0:0|0:0,0:0:0:0:
40,204,76135,2,0,B|80:202|80:202|130:187,1,80,10|0,0:0|0:0,0:0:0:0:
152,156,76615,2,0,B|190:144|190:144|230:142,1,80,8|0,0:0|0:0,0:0:0:0:
272,164,77095,38,0,B|336:184|336:184|348:148|380:136,1,120,10|8,0:0|0:0,0:0:0:0:
432,272,78055,2,0,L|352:279,1,80,10|0,0:0|0:0,0:0:0:0:
308,264,78535,2,0,L|220:256,1,80,8|0,0:0|0:0,0:0:0:0:
208,300,79015,6,0,L|88:310,1,120,10|8,0:0|0:0,0:0:0:0:
48,172,79975,2,0,P|104:188|136:188,1,80,10|0,0:0|0:0,0:0:0:0:
164,160,80455,2,0,P|220:144|252:144,1,80,8|0,0:0|0:0,0:0:0:0:
280,176,80935,38,0,P|336:192|428:184,1,120,10|8,0:0|0:0,0:0:0:0:
476,312,81895,2,0,L|392:324,1,80,10|0,0:0|0:0,0:0:0:0:
352,304,82375,2,0,L|272:292,1,80,8|0,0:0|0:0,0:0:0:0:
228,308,82855,6,0,L|109:326,1,120,10|8,0:0|0:0,0:0:0:0:
56,192,83815,2,0,L|175:210,1,120,10|8,0:0|0:0,0:0:0:0:
304,144,84775,38,0,P|284:104|324:24,1,120,10|8,0:0|0:0,0:0:0:0:
396,148,85735,2,0,P|406:204|386:244,1,80,10|0,0:0|0:0,0:0:0:0:
356,240,86215,2,0,P|345:296|365:336,1,80,8|0,0:0|0:0,0:0:0:0:
388,344,86695,38,0,B|340:360|304:352|304:352|264:336,1,120,8|8,0:0|0:0,0:0:0:0:
196,216,87655,2,0,B|163:203|163:203|127:195|79:211,1,120,8|8,0:0|0:0,0:0:0:0:
80,68,88615,38,0,B|96:80|140:72|140:72|184:92|212:76,1,120,8|8,0:0|0:0,0:0:0:0:
340,80,89575,2,0,B|352:90|396:70|396:70|440:78|456:66,1,120,8|8,0:0|0:0,0:0:0:0:
364,176,90535,6,0,B|356:216|336:252|336:252|360:272|384:264,1,120,8|8,0:0|0:0,0:0:0:0:
228,248,91495,2,0,B|236:208|256:172|256:172|232:152|208:160,1,120,8|8,0:0|0:0,0:0:0:0:
96,84,92455,38,0,B|80:128|80:128|100:160|104:204,1,120,8|8,0:0|0:0,0:0:0:0:
228,270,93415,2,0,B|244:226|244:226|224:194|220:150,1,120,8|8,0:0|0:0,0:0:0:0:
320,264,94375,6,0,B|320:312|308:320|308:320|248:364,1,120,8|8,0:0|0:0,0:0:0:0:
159,249,95335,2,0,B|159:201|171:193|171:193|231:149,1,120,8|8,0:0|0:0,0:0:0:0:
328,60,96295,38,0,B|342:94|342:94|335:138|335:138|346:176,1,120,8|8,0:0|0:0,0:0:0:0:
276,304,97255,2,0,L|268:220,1,80,8|0,0:0|0:0,0:0:0:0:
232,192,97735,2,0,L|240:108,1,80,8|0,0:0|0:0,0:0:0:0:
212,72,98215,6,0,L|80:80,1,120,8|8,0:0|0:0,0:0:0:0:
36,212,99175,2,0,B|70:224|70:224|114:216|114:216|152:225,1,120,8|8,0:0|0:0,0:0:0:0:
252,328,100135,38,0,L|384:336,1,120,8|8,0:0|0:0,0:0:0:0:
428,200,101095,2,0,L|388:116,1,80,8|0,0:0|0:0,0:0:0:0:
356,96,101575,2,0,L|321:168,1,80,8|0,0:0|0:0,0:0:0:0:
328,216,102055,6,0,P|280:200|208:216,1,120,2|8,0:0|0:0,0:0:0:0:
156,288,102855,1,0,0:0:0:0:
156,288,103015,2,0,P|108:304|48:296,1,80,10|0,0:0|0:0,0:0:0:0:
48,264,103495,2,0,P|50:213|79:160,1,80,8|0,0:0|0:0,0:0:0:0:
96,156,103975,38,0,L|224:128,1,120,10|8,0:0|0:0,0:0:0:0:
256,44,104775,1,0,0:0:0:0:
256,44,104935,2,0,L|333:61,1,80,10|0,0:0|0:0,0:0:0:0:
364,100,105415,2,0,L|340:184,1,80,8|0,0:0|0:0,0:0:0:0:
308,212,105895,6,0,B|312:304|312:304|272:296,1,120,10|8,0:0|0:0,0:0:0:0:
196,264,106695,1,0,0:0:0:0:
196,264,106855,2,0,B|140:252|140:252|108:260,1,80,10|0,0:0|0:0,0:0:0:0:
88,220,107335,2,0,B|98:163|98:163|112:145,1,80,8|0,0:0|0:0,0:0:0:0:
156,124,107815,38,0,B|220:132|220:132|288:128,1,120,10|8,0:0|0:0,0:0:0:0:
348,68,108615,1,0,0:0:0:0:
348,68,108775,2,0,B|388:64|388:64|436:72,1,80,10|0,0:0|0:0,0:0:0:0:
448,112,109255,2,0,B|445:152|445:152|455:199,1,80,8|0,0:0|0:0,0:0:0:0:
496,212,109735,6,0,L|384:284,1,120,10|8,0:0|0:0,0:0:0:0:
252,252,110695,2,0,L|364:180,1,120,10|8,0:0|0:0,0:0:0:0:
453,191,111495,1,0,0:0:0:0:
453,191,111655,38,0,P|469:155|473:115,1,80,10|0,0:0|0:0,0:0:0:0:
464,68,112135,2,0,L|344:32,1,120,8|10,0:0|0:0,0:0:0:0:
260,72,112935,1,0,0:0:0:0:
260,72,113095,2,0,L|182:93,1,80,8|0,0:0|0:0,0:0:0:0:
144,120,113575,6,0,P|136:176|172:232,1,120,10|8,0:0|0:0,0:0:0:0:
296,292,114535,2,0,P|224:300|180:320,1,120,10|8,0:0|0:0,0:0:0:0:
52,255,115495,38,0,P|124:247|168:227,1,120,10|8,0:0|0:0,0:0:0:0:
276,132,116455,2,0,P|204:124|160:104,1,120,10|8,0:0|0:0,0:0:0:0:
36,28,117415,5,4,0:0:0:0:
36,28,123655,38,0,P|104:44|144:168,1,200
132,204,124615,2,0,P|166:223|206:226,1,80,2|0,0:0|0:0,0:0:0:0:
240,192,125095,38,0,P|274:173|314:170,1,80,4|0,0:0|0:0,0:0:0:0:
356,192,125575,2,0,L|448:196,1,80,8|0,0:0|0:0,0:0:0:0:
484,208,126055,2,0,L|476:112,1,80,10|0,0:0|0:0,0:0:0:0:
484,80,126535,2,0,P|446:93|407:88,1,80,8|0,0:0|0:0,0:0:0:0:
376,52,127015,38,0,L|224:60,1,120,10|8,0:0|0:0,0:0:0:0:
120,108,127975,1,10,0:0:0:0:
244,184,128455,2,0,L|323:177,1,80,8|0,0:0|0:0,0:0:0:0:
368,192,128935,6,0,P|384:236|384:304,1,80,10|0,0:0|0:0,0:0:0:0:
364,312,129415,2,0,L|272:324,1,80,8|0,0:0|0:0,0:0:0:0:
240,332,129895,2,0,L|160:322,1,80,10|0,0:0|0:0,0:0:0:0:
132,284,130375,2,0,P|137:245|151:208,1,80,8|0,0:0|0:0,0:0:0:0:
180,168,130855,38,0,B|184:128|168:92|168:92|204:92|236:72,1,120,10|8,0:0|0:0,0:0:0:0:
324,172,131815,1,10,0:0:0:0:
284,312,132295,2,0,B|244:308|189:333,1,80,10|0,0:0|0:0,0:0:0:0:
160,344,132775,6,0,L|56:332,1,80,10|0,0:0|0:0,0:0:0:0:
48,296,133255,2,0,L|56:216,1,80,8|0,0:0|0:0,0:0:0:0:
92,184,133735,2,0,P|92:136|80:96,1,80,10|0,0:0|0:0,0:0:0:0:
88,56,134215,2,0,P|135:58|176:48,1,80,8|0,0:0|0:0,0:0:0:0:
212,40,134695,38,0,P|257:30|346:43,1,120,10|8,0:0|0:0,0:0:0:0:
360,128,135495,1,0,0:0:0:0:
360,128,135655,2,0,L|356:212,1,80,10|0,0:0|0:0,0:0:0:0:
384,248,136135,2,0,L|388:332,1,80,8|0,0:0|0:0,0:0:0:0:
428,352,136615,6,0,L|276:348,1,120,10|8,0:0|0:0,0:0:0:0:
256,268,137415,1,0,0:0:0:0:
256,268,137575,2,0,L|176:268,1,80,10|0,0:0|0:0,0:0:0:0:
128,280,138055,2,0,L|140:184,1,80,8|0,0:0|0:0,0:0:0:0:
116,160,138535,38,0,P|164:168|256:156,1,120,10|8,0:0|0:0,0:0:0:0:
348,72,139495,2,0,P|300:64|236:72,1,80,10|0,0:0|0:0,0:0:0:0:
224,52,139975,2,0,P|176:60|112:52,1,80,8|0,0:0|0:0,0:0:0:0:
96,52,140455,6,0,L|104:144,1,80,4|8,0:0|0:0,0:0:0:0:
132,172,140935,2,0,L|124:264,1,80,8|8,0:0|0:0,0:0:0:0:
152,292,141415,2,0,L|256:280,1,80,10|0,0:0|0:0,0:0:0:0:
272,308,141895,2,0,L|351:318,1,80,8|0,0:0|0:0,0:0:0:0:
384,352,142375,38,0,P|408:308|400:228,1,120,10|8,0:0|0:0,0:0:0:0:
264,216,143335,2,0,P|240:172|240:112,1,80,10|0,0:0|0:0,0:0:0:0:
264,104,143815,2,0,P|256:65|235:31,1,80,8|0,0:0|0:0,0:0:0:0:
192,56,144295,6,0,B|132:68|132:68|100:60,1,80,10|8,0:0|0:0,0:0:0:0:
72,88,144775,2,0,B|90:146|90:146|85:179,1,80,8|8,0:0|0:0,0:0:0:0:
68,208,145255,2,0,B|108:210|108:210|158:225,1,80,10|0,0:0|0:0,0:0:0:0:
180,256,145735,2,0,B|218:268|218:268|258:270,1,80,8|0,0:0|0:0,0:0:0:0:
304,256,146215,37,10,0:0:0:0:
448,276,146695,1,8,0:0:0:0:
432,132,147175,2,0,L|352:124,1,80,10|0,0:0|0:0,0:0:0:0:
308,104,147655,2,0,L|220:112,1,80,8|0,0:0|0:0,0:0:0:0:
184,128,148135,6,0,L|104:124,1,80,10|8,0:0|0:0,0:0:0:0:
56,124,148615,2,0,L|32:204,1,80,8|0,0:0|0:0,0:0:0:0:
56,244,149095,2,0,P|112:228|144:228,1,80,10|0,0:0|0:0,0:0:0:0:
168,260,149575,2,0,P|224:276|256:276,1,80,8|0,0:0|0:0,0:0:0:0:
284,248,150055,38,0,P|340:232|432:240,1,120,10|8,0:0|0:0,0:0:0:0:
464,104,151015,2,0,L|380:92,1,80,10|0,0:0|0:0,0:0:0:0:
340,72,151495,2,0,L|260:84,1,80,8|0,0:0|0:0,0:0:0:0:
212,92,151975,6,0,L|93:74,1,120,10|8,0:0|0:0,0:0:0:0:
52,212,152935,2,0,L|171:194,1,120,10|8,0:0|0:0,0:0:0:0:
280,100,153895,37,0,0:0:0:0:
308,240,154375,1,0,0:0:0:0:
452,224,154855,2,0,P|462:168|442:128,1,80,10|0,0:0|0:0,0:0:0:0:
408,132,155335,2,0,P|397:76|417:36,1,80,8|0,0:0|0:0,0:0:0:0:
368,24,155815,37,4,0:0:0:0:
240,88,156295,2,0,L|104:100,1,120,8|8,0:0|0:0,0:0:0:0:
48,224,157255,2,0,L|64:312,1,80,8|0,0:0|0:0,0:0:0:0:
64,352,157735,38,0,P|112:332|200:340,1,120,8|8,0:0|0:0,0:0:0:0:
308,268,158695,2,0,P|356:288|444:280,1,120,8|8,0:0|0:0,0:0:0:0:
387,147,159655,6,0,B|387:119|359:95|359:95|311:87|291:51,1,120,8|8,0:0|0:0,0:0:0:0:
160,72,160615,2,0,B|155:88|107:96|107:96|79:120|79:148,1,120,8|8,0:0|0:0,0:0:0:0:
116,236,161415,1,0,0:0:0:0:
116,236,161575,38,0,L|204:244,1,80,8|0,0:0|0:0,0:0:0:0:
236,268,162055,2,0,L|315:260,1,80,8|0,0:0|0:0,0:0:0:0:
364,248,162535,2,0,L|499:255,1,120,8|8,0:0|0:0,0:0:0:0:
424,124,163495,6,0,B|340:132|340:132|312:148|296:144,1,120,8|8,0:0|0:0,0:0:0:0:
176,204,164455,2,0,B|260:212|260:212|288:228|304:224,1,120,8|8,0:0|0:0,0:0:0:0:
228,352,165415,38,0,B|200:332|188:292|188:292|156:300|140:328,1,120,8|8,0:0|0:0,0:0:0:0:
244,208,166375,2,0,B|272:228|284:268|284:268|316:260|332:232,1,120,8|8,0:0|0:0,0:0:0:0:
420,236,167175,1,0,0:0:0:0:
420,236,167335,6,0,P|400:304|412:348,1,80,8|0,0:0|0:0,0:0:0:0:
368,344,167815,2,0,P|297:348|260:374,1,80,8|0,0:0|0:0,0:0:0:0:
244,332,168295,2,0,P|205:320|166:324,1,80,8|0,0:0|0:0,0:0:0:0:
136,284,168775,2,0,P|156:216|144:172,1,80,8|0,0:0|0:0,0:0:0:0:
156,160,169255,38,0,P|184:68|276:244,1,480,2|0,0:0|0:0,0:0:0:0:
108,148,185575,6,0,L|164:156,2,40,2|2|2,3:0|3:0|3:0,0:0:0:0:
80,188,186055,2,0,L|17:178,2,40,2|2|2,3:0|3:0|3:0,0:0:0:0:
92,236,186535,38,0,L|196:252,1,80,6|0,0:0|0:0,0:0:0:0:
200,288,187015,2,0,L|279:275,1,80,8|0,0:0|0:0,0:0:0:0:
324,260,187495,2,0,L|442:280,1,120,10|8,0:0|0:0,0:0:0:0:
444,136,188455,6,0,L|340:120,1,80,10|0,0:0|0:0,0:0:0:0:
324,96,188935,2,0,L|245:109,1,80,8|0,0:0|0:0,0:0:0:0:
200,124,189415,2,0,L|82:104,1,120,10|8,0:0|0:0,0:0:0:0:
80,248,190375,38,0,P|120:240|172:240,1,80,10|0,0:0|0:0,0:0:0:0:
200,268,190855,2,0,P|240:276|292:276,1,80,8|0,0:0|0:0,0:0:0:0:
312,240,191335,2,0,P|352:232|448:236,1,120,10|8,0:0|0:0,0:0:0:0:
456,140,192135,1,0,0:0:0:0:
456,140,192295,6,0,P|392:124|372:88,1,80,10|0,0:0|0:0,0:0:0:0:
380,68,192775,2,0,P|347:91|308:92,1,80,8|0,0:0|0:0,0:0:0:0:
268,68,193255,2,0,P|235:91|196:92,1,80,10|0,0:0|0:0,0:0:0:0:
152,68,193735,2,0,P|119:91|80:92,1,80,8|0,0:0|0:0,0:0:0:0:
36,68,194215,38,0,B|32:160|32:160|44:204,1,120,10|8,0:0|0:0,0:0:0:0:
136,292,195175,2,0,B|140:200|140:200|128:156,1,120,10|8,0:0|0:0,0:0:0:0:
164,84,195975,1,0,0:0:0:0:
164,84,196135,6,0,B|224:96|224:76|284:88,1,120,10|8,0:0|0:0,0:0:0:0:
400,172,197095,2,0,B|340:184|340:164|280:176,1,120,10|8,0:0|0:0,0:0:0:0:
200,224,197895,1,0,0:0:0:0:
200,224,198055,38,0,P|184:276|184:308,1,80,10|0,0:0|0:0,0:0:0:0:
196,348,198535,2,0,L|92:348,1,80,8|0,0:0|0:0,0:0:0:0:
68,348,199015,2,0,P|84:296|84:264,1,80,10|0,0:0|0:0,0:0:0:0:
108,228,199495,2,0,L|120:136,1,80,8|0,0:0|0:0,0:0:0:0:
112,100,199975,6,0,P|132:144|196:172,1,120,10|8,0:0|0:0,0:0:0:0:
288,64,200935,2,0,P|328:106|386:112,1,120,10|8,0:0|0:0,0:0:0:0:
268,192,201895,6,0,P|234:173|194:170,1,80,4|0,0:0|0:0,0:0:0:0:
152,196,202375,2,0,L|60:200,1,80,8|0,0:0|0:0,0:0:0:0:
24,208,202855,2,0,L|32:112,1,80,10|0,0:0|0:0,0:0:0:0:
28,80,203335,2,0,P|66:93|105:88,1,80,8|0,0:0|0:0,0:0:0:0:
148,68,203815,5,10,0:0:0:0:
288,40,204295,2,0,P|336:60|376:64,1,80,8|0,0:0|0:0,0:0:0:0:
408,76,204775,2,0,L|400:168,1,80,10|0,0:0|0:0,0:0:0:0:
392,204,205255,2,0,L|308:212,1,80,8|0,0:0|0:0,0:0:0:0:
268,228,205735,38,0,P|252:272|252:340,1,80,10|0,0:0|0:0,0:0:0:0:
272,348,206215,2,0,L|364:360,1,80,8|0,0:0|0:0,0:0:0:0:
376,316,206695,2,0,L|456:306,1,80,10|0,0:0|0:0,0:0:0:0:
472,260,207175,2,0,P|467:221|453:184,1,80,8|0,0:0|0:0,0:0:0:0:
404,172,207655,5,10,0:0:0:0:
364,32,208135,2,0,L|272:28,1,80,10|0,0:0|0:0,0:0:0:0:
252,64,208615,2,0,B|268:100|260:160,1,80,10|0,0:0|0:0,0:0:0:0:
256,192,209095,2,0,B|216:188|161:213,1,80,10|0,0:0|0:0,0:0:0:0:
140,236,209575,38,0,L|36:224,1,80,10|0,0:0|0:0,0:0:0:0:
12,220,210055,2,0,L|20:300,1,80,8|0,0:0|0:0,0:0:0:0:
56,328,210535,2,0,P|103:333|141:350,1,80,10|0,0:0|0:0,0:0:0:0:
180,336,211015,2,0,P|219:343|259:340,1,80,8|0,0:0|0:0,0:0:0:0:
292,304,211495,6,0,P|337:294|426:307,1,120,10|8,0:0|0:0,0:0:0:0:
464,220,212295,1,0,0:0:0:0:
464,220,212455,2,0,L|460:140,1,80,10|0,0:0|0:0,0:0:0:0:
456,92,212935,2,0,L|372:84,1,80,8|0,0:0|0:0,0:0:0:0:
332,104,213415,38,0,L|212:107,1,120,10|8,0:0|0:0,0:0:0:0:
180,196,214215,1,0,0:0:0:0:
180,196,214375,2,0,L|260:196,1,80,10|0,0:0|0:0,0:0:0:0:
308,208,214855,2,0,L|300:304,1,80,8|0,0:0|0:0,0:0:0:0:
288,332,215335,6,0,P|240:340|148:328,1,120,10|8,0:0|0:0,0:0:0:0:
56,244,216295,2,0,P|104:236|168:244,1,80,10|0,0:0|0:0,0:0:0:0:
172,204,216775,2,0,P|220:212|284:204,1,80,8|0,0:0|0:0,0:0:0:0:
292,188,217255,38,0,L|298:108,1,80,4|8,0:0|0:0,0:0:0:0:
304,60,217735,2,0,L|392:76,1,80,8|8,0:0|0:0,0:0:0:0:
412,112,218215,2,0,L|420:196,1,80,10|0,0:0|0:0,0:0:0:0:
400,236,218695,2,0,L|376:328,1,80,8|0,0:0|0:0,0:0:0:0:
356,356,219175,6,0,P|306:360|235:322,1,120,10|8,0:0|0:0,0:0:0:0:
124,248,220135,2,0,P|148:204|148:144,1,80,10|0,0:0|0:0,0:0:0:0:
136,128,220615,2,0,P|144:89|165:55,1,80,8|0,0:0|0:0,0:0:0:0:
212,56,221095,38,0,B|272:68|272:68|304:60,1,80,10|8,0:0|0:0,0:0:0:0:
336,76,221575,2,0,B|317:134|317:134|322:167,1,80,8|0,0:0|0:0,0:0:0:0:
336,200,222055,2,0,B|296:202|296:202|246:217,1,80,10|0,0:0|0:0,0:0:0:0:
228,252,222535,2,0,B|202:282|202:282|170:306,1,80,8|0,0:0|0:0,0:0:0:0:
124,300,223015,5,10,0:0:0:0:
16,204,223495,1,8,0:0:0:0:
96,84,223975,2,0,L|180:72,1,80,10|0,0:0|0:0,0:0:0:0:
220,88,224455,2,0,L|300:100,1,80,8|0,0:0|0:0,0:0:0:0:
344,84,224935,38,0,L|463:66,1,120,10|8,0:0|0:0,0:0:0:0:
464,212,225895,2,0,L|345:194,1,120,10|8,0:0|0:0,0:0:0:0:
208,240,226855,6,0,P|228:280|188:360,1,120,10|8,0:0|0:0,0:0:0:0:
112,236,227815,2,0,P|102:180|122:140,1,80,10|0,0:0|0:0,0:0:0:0:
156,144,228295,2,0,P|167:88|147:48,1,80,8|0,0:0|0:0,0:0:0:0:
184,24,228775,38,0,L|303:6,1,120,10|8,0:0|0:0,0:0:0:0:
396,116,229735,2,0,L|277:98,1,120,10|8,0:0|0:0,0:0:0:0:
280,244,230695,5,10,0:0:0:0:
192,360,231175,1,8,0:0:0:0:
116,236,231655,2,0,P|106:180|126:140,1,80,10|0,0:0|0:0,0:0:0:0:
156,144,232135,2,0,P|167:88|147:48,1,80,8|0,0:0|0:0,0:0:0:0:
124,32,232615,38,0,L|252:40,1,120,4|8,0:0|0:0,0:0:0:0:
360,124,233575,2,0,L|280:128,1,80,10|0,0:0|0:0,0:0:0:0:
244,160,234055,2,0,L|164:156,1,80,8|0,0:0|0:0,0:0:0:0:
128,124,234535,6,0,P|108:200|112:252,1,120,10|8,0:0|0:0,0:0:0:0:
208,344,235495,2,0,P|228:268|228:236,1,80,10|0,0:0|0:0,0:0:0:0:
256,228,235975,2,0,P|262:188|276:151,1,80,8|0,0:0|0:0,0:0:0:0:
320,132,236455,38,0,B|380:140|380:140|420:120|448:128,1,120,10|8,0:0|0:0,0:0:0:0:
480,264,237415,2,0,B|420:256|420:256|380:276|352:268,1,120,10|8,0:0|0:0,0:0:0:0:
220,248,238375,6,0,P|225:292|302:337,1,120,10|8,0:0|0:0,0:0:0:0:
292,192,239335,2,0,P|269:139|231:116,1,80,10|0,0:0|0:0,0:0:0:0:
208,136,239815,2,0,P|168:95|163:50,1,80,8|0,0:0|0:0,0:0:0:0:
164,28,240295,5,4,0:0:0:0:
