osu file format v14

[General]
AudioFilename: audio.mp3
AudioLeadIn: 0
PreviewTime: 48145
Countdown: 0
SampleSet: Soft
StackLeniency: 0.7
Mode: 0
LetterboxInBreaks: 0
WidescreenStoryboard: 0

[Editor]
DistanceSpacing: 1.1
BeatDivisor: 6
GridSize: 4
TimelineZoom: 2.999999

[Metadata]
Title:Tell Me What To Do
TitleUnicode:Tell Me What To Do
Artist:SHINee
ArtistUnicode:샤이니
Creator:Lapis Aoki
Version:Easy
Source:
Tags:SM엔터테인먼트 S.M.Entertainment KT 뮤직 KT MUSIC 1 and 1 - The 5th Album Repackage 온유 ONEW 종현 JONGHYUN 키 KEY 민호 MINHO 태민 TAEMIN K-pop Kpop
BeatmapID:1189701
BeatmapSetID:562758

[Difficulty]
HPDrainRate:2
CircleSize:3
OverallDifficulty:2
ApproachRate:3
SliderMultiplier:0.899999999999999
SliderTickRate:1

[Events]
//Background and Video events
0,0,"TMWTD2.jpg",0,0
Video,313,"taemin ah~.mp4"
//Break Periods
2,2535,16135
2,48495,53095
2,117614,122215
2,171415,184135
//Storyboard Layer 0 (Background)
//Storyboard Layer 1 (Fail)
//Storyboard Layer 2 (Pass)
//Storyboard Layer 3 (Foreground)
//Storyboard Sound Samples

[TimingPoints]
295,480,4,2,1,40,1,0
2215,-100,4,2,99,70,0,0
17575,-100,4,2,1,50,0,0
18055,-100,4,2,4,50,0,0
18535,-100,4,2,1,50,0,0
19975,-100,4,2,4,50,0,0
20455,-100,4,2,1,50,0,0
21895,-100,4,2,4,50,0,0
22375,-100,4,2,1,50,0,0
23815,-100,4,2,4,50,0,0
24295,-100,4,2,1,50,0,0
25735,-100,4,2,4,50,0,0
26215,-100,4,2,1,50,0,0
27655,-100,4,2,4,50,0,0
28135,-100,4,2,1,50,0,0
32935,-100,4,2,1,60,0,0
33415,-100,4,2,2,60,0,0
33895,-100,4,2,1,60,0,0
34375,-100,4,2,2,60,0,0
34855,-100,4,2,1,60,0,0
35335,-100,4,2,2,60,0,0
35815,-100,4,2,1,60,0,0
36295,-100,4,2,2,60,0,0
36775,-100,4,2,1,60,0,0
37255,-100,4,2,2,60,0,0
37735,-100,4,2,1,60,0,0
38215,-100,4,2,2,60,0,0
38695,-100,4,2,1,60,0,0
39175,-100,4,2,2,60,0,0
39655,-100,4,2,1,60,0,0
40135,-100,4,2,2,60,0,0
40615,-100,4,2,1,60,0,0
41095,-100,4,2,2,60,0,0
41575,-100,4,2,1,60,0,0
42055,-100,4,2,2,60,0,0
42535,-100,4,2,1,60,0,0
43015,-100,4,2,2,60,0,0
43495,-100,4,2,1,60,0,0
43975,-100,4,2,2,60,0,0
44455,-100,4,2,1,60,0,0
44935,-100,4,2,3,60,0,0
45415,-100,4,2,1,60,0,0
45895,-100,4,2,2,60,0,0
46375,-100,4,2,1,60,0,0
46855,-100,4,2,2,60,0,0
47335,-100,4,2,1,60,0,0
47815,-100,4,2,3,60,0,0
48295,-100,4,2,99,60,0,0
54535,-100,4,2,1,10,0,0
55015,-100,4,2,1,30,0,0
55495,-100,4,2,1,50,0,0
55975,-100,4,2,1,70,0,1
56455,-100,4,2,2,70,0,1
56935,-100,4,2,1,70,0,1
57415,-100,4,2,2,70,0,1
57895,-100,4,2,1,70,0,1
58375,-100,4,2,2,70,0,1
58855,-100,4,2,1,70,0,1
59335,-100,4,2,2,70,0,1
59815,-100,4,2,1,70,0,1
60295,-100,4,2,2,70,0,1
60775,-100,4,2,1,70,0,1
61255,-100,4,2,2,70,0,1
61735,-100,4,2,1,70,0,1
62215,-100,4,2,2,70,0,1
62695,-100,4,2,1,70,0,1
63175,-100,4,2,2,70,0,1
63655,-100,4,2,1,70,0,1
64135,-100,4,2,2,70,0,1
64615,-100,4,2,1,70,0,1
65095,-100,4,2,2,70,0,1
65575,-100,4,2,1,70,0,1
66055,-100,4,2,2,70,0,1
66535,-100,4,2,1,70,0,1
67015,-100,4,2,2,70,0,1
67495,-100,4,2,1,70,0,1
67975,-100,4,2,2,70,0,1
68455,-100,4,2,1,70,0,1
68935,-100,4,2,2,70,0,1
69415,-100,4,2,1,70,0,1
69895,-100,4,2,2,70,0,1
70375,-100,4,2,1,70,0,0
70855,-100,4,2,2,70,0,0
71335,-100,4,2,1,70,0,1
71815,-100,4,2,2,70,0,1
72295,-100,4,2,1,70,0,1
72775,-100,4,2,2,70,0,1
73255,-100,4,2,1,70,0,1
73735,-100,4,2,2,70,0,1
74215,-100,4,2,1,70,0,1
74695,-100,4,2,2,70,0,1
75175,-100,4,2,1,70,0,1
75655,-100,4,2,2,70,0,1
76135,-100,4,2,1,70,0,1
76615,-100,4,2,2,70,0,1
77095,-100,4,2,1,70,0,1
77575,-100,4,2,2,70,0,1
78055,-100,4,2,1,70,0,1
78535,-100,4,2,2,70,0,1
79015,-100,4,2,1,70,0,1
79495,-100,4,2,2,70,0,1
79975,-100,4,2,1,70,0,1
80455,-100,4,2,2,70,0,1
80935,-100,4,2,1,70,0,1
81415,-100,4,2,2,70,0,1
81895,-100,4,2,1,70,0,1
82375,-100,4,2,2,70,0,1
82855,-100,4,2,1,70,0,1
83335,-100,4,2,2,70,0,1
83815,-100,4,2,1,70,0,1
84295,-100,4,2,2,70,0,1
84775,-100,4,2,1,70,0,1
85255,-100,4,2,2,70,0,1
85735,-100,4,2,1,70,0,1
86215,-100,4,2,2,70,0,1
86695,-100,4,2,1,50,0,0
87175,-100,4,2,4,50,0,0
87655,-100,4,2,1,50,0,0
89095,-100,4,2,4,50,0,0
89575,-100,4,2,1,50,0,0
91015,-100,4,2,4,50,0,0
91495,-100,4,2,1,50,0,0
92935,-100,4,2,4,50,0,0
93415,-100,4,2,1,50,0,0
94855,-100,4,2,4,50,0,0
95335,-100,4,2,1,50,0,0
96775,-100,4,2,4,50,0,0
97255,-100,4,2,1,50,0,0
102055,-100,4,2,1,60,0,0
102535,-100,4,2,2,60,0,0
103015,-100,4,2,1,60,0,0
103495,-100,4,2,2,60,0,0
103975,-100,4,2,1,60,0,0
104455,-100,4,2,2,60,0,0
104935,-100,4,2,1,60,0,0
105415,-100,4,2,2,60,0,0
105895,-100,4,2,1,60,0,0
106375,-100,4,2,2,60,0,0
106855,-100,4,2,1,60,0,0
107335,-100,4,2,2,60,0,0
107815,-100,4,2,1,60,0,0
108295,-100,4,2,2,60,0,0
108775,-100,4,2,1,60,0,0
109255,-100,4,2,2,60,0,0
109735,-100,4,2,1,60,0,0
110215,-100,4,2,2,60,0,0
110695,-100,4,2,1,60,0,0
111175,-100,4,2,2,60,0,0
111655,-100,4,2,1,60,0,0
112135,-100,4,2,2,60,0,0
112615,-100,4,2,1,60,0,0
113095,-100,4,2,2,60,0,0
113575,-100,4,2,1,60,0,0
114055,-100,4,2,2,60,0,0
114535,-100,4,2,1,60,0,0
115015,-100,4,2,2,60,0,0
115495,-100,4,2,1,60,0,0
115975,-100,4,2,2,60,0,0
116455,-100,4,2,1,60,0,0
116935,-100,4,2,3,60,0,0
117415,-100,4,2,99,60,0,0
123655,-100,4,2,1,10,0,0
124135,-100,4,2,1,30,0,0
124615,-100,4,2,1,50,0,0
125095,-100,4,2,1,70,0,1
125575,-100,4,2,2,70,0,1
126055,-100,4,2,1,70,0,1
126535,-100,4,2,2,70,0,1
127015,-100,4,2,1,70,0,1
127495,-100,4,2,2,70,0,1
127975,-100,4,2,1,70,0,1
128455,-100,4,2,2,70,0,1
128935,-100,4,2,1,70,0,1
129415,-100,4,2,2,70,0,1
129895,-100,4,2,1,70,0,1
130375,-100,4,2,2,70,0,1
130855,-100,4,2,1,70,0,1
131335,-100,4,2,2,70,0,1
131815,-100,4,2,1,70,0,1
132295,-100,4,2,2,70,0,1
132775,-100,4,2,1,70,0,1
133255,-100,4,2,2,70,0,1
133735,-100,4,2,1,70,0,1
134215,-100,4,2,2,70,0,1
134695,-100,4,2,1,70,0,1
135175,-100,4,2,2,70,0,1
135655,-100,4,2,1,70,0,1
136135,-100,4,2,2,70,0,1
136615,-100,4,2,1,70,0,1
137095,-100,4,2,2,70,0,1
137575,-100,4,2,1,70,0,1
138055,-100,4,2,2,70,0,1
138535,-100,4,2,1,70,0,1
139015,-100,4,2,2,70,0,1
139495,-100,4,2,1,70,0,0
139975,-100,4,2,2,70,0,0
140455,-100,4,2,1,70,0,1
140935,-100,4,2,2,70,0,1
141415,-100,4,2,1,70,0,1
141895,-100,4,2,2,70,0,1
142375,-100,4,2,1,70,0,1
142855,-100,4,2,2,70,0,1
143335,-100,4,2,1,70,0,1
143815,-100,4,2,2,70,0,1
144295,-100,4,2,1,70,0,1
144775,-100,4,2,2,70,0,1
145255,-100,4,2,1,70,0,1
145735,-100,4,2,2,70,0,1
146215,-100,4,2,1,70,0,1
146695,-100,4,2,2,70,0,1
147175,-100,4,2,1,70,0,1
147655,-100,4,2,2,70,0,1
148135,-100,4,2,1,70,0,1
148615,-100,4,2,2,70,0,1
149095,-100,4,2,1,70,0,1
149575,-100,4,2,2,70,0,1
150055,-100,4,2,1,70,0,1
150535,-100,4,2,2,70,0,1
151015,-100,4,2,1,70,0,1
151495,-100,4,2,2,70,0,1
151975,-100,4,2,1,70,0,1
152455,-100,4,2,2,70,0,1
152935,-100,4,2,1,70,0,1
153415,-100,4,2,2,70,0,1
153895,-100,4,2,1,70,0,1
154375,-100,4,2,2,70,0,1
154855,-100,4,2,1,70,0,1
155335,-100,4,2,2,70,0,1
155815,-100,4,2,2,60,0,0
156295,-100,4,2,1,70,0,0
169255,-100,4,2,1,10,0,0
169735,-100,4,2,1,20,0,0
170215,-100,4,2,1,30,0,0
170695,-100,4,2,1,40,0,0
171175,-100,4,2,1,50,0,0
185575,-100,4,2,1,40,0,0
186055,-100,4,2,1,30,0,0
186535,-100,4,2,2,60,0,0
187495,-100,4,2,1,60,0,0
187975,-100,4,2,2,60,0,0
188455,-100,4,2,1,60,0,0
188935,-100,4,2,2,60,0,0
189415,-100,4,2,1,60,0,0
189895,-100,4,2,2,60,0,0
190375,-100,4,2,1,60,0,0
190855,-100,4,2,2,60,0,0
191335,-100,4,2,1,60,0,0
191815,-100,4,2,2,60,0,0
192295,-100,4,2,1,60,0,0
192775,-100,4,2,2,60,0,0
193255,-100,4,2,1,60,0,0
193735,-100,4,2,2,60,0,0
194215,-100,4,2,1,60,0,0
194695,-100,4,2,2,60,0,0
195175,-100,4,2,1,60,0,0
195655,-100,4,2,2,60,0,0
196135,-100,4,2,1,60,0,0
196615,-100,4,2,2,60,0,0
197095,-100,4,2,1,60,0,0
197575,-100,4,2,2,60,0,0
198055,-100,4,2,1,60,0,0
198535,-100,4,2,2,60,0,0
199015,-100,4,2,1,60,0,0
199495,-100,4,2,2,60,0,0
199975,-100,4,2,1,60,0,0
200455,-100,4,2,2,60,0,0
200935,-100,4,2,1,60,0,0
201415,-100,4,2,2,60,0,0
201895,-100,4,2,1,70,0,1
202375,-100,4,2,2,70,0,1
202855,-100,4,2,1,70,0,1
203335,-100,4,2,2,70,0,1
203815,-100,4,2,1,70,0,1
204295,-100,4,2,2,70,0,1
204775,-100,4,2,1,70,0,1
205255,-100,4,2,2,70,0,1
205735,-100,4,2,1,70,0,1
206215,-100,4,2,2,70,0,1
206695,-100,4,2,1,70,0,1
207175,-100,4,2,2,70,0,1
207655,-100,4,2,1,70,0,1
208135,-100,4,2,2,70,0,1
208615,-100,4,2,1,70,0,1
209095,-100,4,2,2,70,0,1
209575,-100,4,2,1,70,0,1
210055,-100,4,2,2,70,0,1
210535,-100,4,2,1,70,0,1
211015,-100,4,2,2,70,0,1
211495,-100,4,2,1,70,0,1
211975,-100,4,2,2,70,0,1
212455,-100,4,2,1,70,0,1
212935,-100,4,2,2,70,0,1
213415,-100,4,2,1,70,0,1
213895,-100,4,2,2,70,0,1
214375,-100,4,2,1,70,0,1
214855,-100,4,2,2,70,0,1
215335,-100,4,2,1,70,0,1
215815,-100,4,2,2,70,0,1
216295,-100,4,2,1,70,0,0
216775,-100,4,2,2,70,0,0
217255,-100,4,2,1,70,0,1
217735,-100,4,2,2,70,0,1
218215,-100,4,2,1,70,0,1
218695,-100,4,2,2,70,0,1
219175,-100,4,2,1,70,0,1
219655,-100,4,2,2,70,0,1
220135,-100,4,2,1,70,0,1
220615,-100,4,2,2,70,0,1
221095,-100,4,2,1,70,0,1
221575,-100,4,2,2,70,0,1
222055,-100,4,2,1,70,0,1
222535,-100,4,2,2,70,0,1
223015,-100,4,2,1,70,0,1
223495,-100,4,2,2,70,0,1
223975,-100,4,2,1,70,0,1
224455,-100,4,2,2,70,0,1
224935,-100,4,2,1,70,0,1
225415,-100,4,2,2,70,0,1
225895,-100,4,2,1,70,0,1
226375,-100,4,2,2,70,0,1
226855,-100,4,2,1,70,0,1
227335,-100,4,2,2,70,0,1
227815,-100,4,2,1,70,0,1
228295,-100,4,2,2,70,0,1
228775,-100,4,2,1,70,0,1
229255,-100,4,2,2,70,0,1
229735,-100,4,2,1,70,0,1
230215,-100,4,2,2,70,0,1
230695,-100,4,2,1,70,0,1
231175,-100,4,2,2,70,0,0
231655,-100,4,2,1,70,0,0
232135,-100,4,2,2,70,0,0
232615,-100,4,2,1,70,0,1
233095,-100,4,2,2,70,0,1
233575,-100,4,2,1,70,0,1
234055,-100,4,2,2,70,0,1
234535,-100,4,2,1,70,0,1
235015,-100,4,2,2,70,0,1
235495,-100,4,2,1,70,0,1
235975,-100,4,2,2,70,0,1
236455,-100,4,2,1,70,0,1
236935,-100,4,2,2,70,0,1
237415,-100,4,2,1,70,0,1
237895,-100,4,2,2,70,0,1
238375,-100,4,2,1,70,0,1
238855,-100,4,2,2,70,0,1
239335,-100,4,2,1,70,0,1
239815,-100,4,2,2,70,0,1
240295,-100,4,2,99,60,0,0

[Colours]
Combo1 : 185,40,40
Combo2 : 1,177,173
Combo3 : 255,83,83
Combo4 : 1,120,117

[HitObjects]
180,108,1255,6,0,B|220:108|256:152|256:152|292:108|332:108,1,180,0|4,0:0|0:0,0:0:0:0:
332,44,17575,6,0,B|312:72|336:132|336:132|284:100|244:124,1,180,8|8,0:0|0:0,0:0:0:0:
208,208,19015,1,8,0:0:0:0:
164,296,19495,2,0,B|124:276|112:220|112:220|64:212|24:232,1,180,8|8,0:0|0:0,0:0:0:0:
36,132,20935,1,8,0:0:0:0:
63,36,21415,38,0,B|106:49|124:86|124:86|217:38,1,180,8|8,0:0|0:0,0:0:0:0:
256,129,22855,1,8,0:0:0:0:
316,208,23335,2,0,B|336:232|340:272|340:272|272:252|228:272,1,180,8|8,0:0|0:0,0:0:0:0:
156,332,24775,1,8,0:0:0:0:
80,268,25255,6,0,B|64:232|72:200|72:200|44:152|72:88,1,180,8|8,0:0|0:0,0:0:0:0:
152,40,26695,1,8,0:0:0:0:
216,116,27175,2,0,B|268:128|336:112|336:112|300:84|292:68,1,180,8|8,0:0|0:0,0:0:0:0:
212,16,28615,1,8,0:0:0:0:
128,72,29095,38,0,P|120:116|132:168,2,89.9999999999999,8|8|8,0:0|0:0|0:0,0:0:0:0:
216,116,30535,1,8,0:0:0:0:
212,216,31015,2,0,L|328:232,1,89.9999999999999,8|8,0:0|0:0,0:0:0:0:
340,136,31975,2,0,L|429:123,1,89.9999999999999,8|8,0:0|0:0,0:0:0:0:
484,204,32935,6,0,B|491:237|491:237|474:299,1,89.9999999999999,10|8,0:0|0:0,0:0:0:0:
388,336,33895,2,0,B|356:348|356:348|292:340,1,89.9999999999999,10|8,0:0|0:0,0:0:0:0:
249,256,34855,2,0,P|252:211|235:169,1,89.9999999999999,10|8,0:0|0:0,0:0:0:0:
156,228,35815,2,0,P|144:320|152:336,1,89.9999999999999,10|8,0:0|0:0,0:0:0:0:
236,348,36775,38,0,L|332:348,1,89.9999999999999,10|8,0:0|0:0,0:0:0:0:
348,252,37735,2,0,L|258:252,1,89.9999999999999,10|8,0:0|0:0,0:0:0:0:
184,188,38695,2,0,B|168:144|172:132|172:132|192:96,1,89.9999999999999,10|8,0:0|0:0,0:0:0:0:
268,44,39655,2,0,P|348:52|368:44,1,89.9999999999999,10|8,0:0|0:0,0:0:0:0:
407,130,40615,6,0,L|399:226,1,89.9999999999999,10|8,0:0|0:0,0:0:0:0:
300,216,41575,2,0,B|304:240|300:268|300:268|336:292|332:304,1,89.9999999999999,10|8,0:0|0:0,0:0:0:0:
400,220,42535,2,0,B|404:188|400:176|400:176|372:136|352:144,1,89.9999999999999,10|8,0:0|0:0,0:0:0:0:
268,140,43495,2,0,B|264:108|268:96|268:96|296:56|316:64,1,89.9999999999999,10|8,0:0|0:0,0:0:0:0:
367,144,44455,38,0,P|337:216|243:236,1,180,10|10,0:0|0:0,0:0:0:0:
172,304,45895,1,8,0:0:0:0:
256,356,46375,2,0,P|293:331|337:328,1,89.9999999999999,10|8,0:0|0:0,0:0:0:0:
364,232,47335,2,4,P|320:240|230:136,1,180,10|4,0:0|0:0,0:0:0:0:
230,158,54535,6,0,P|186:166|96:62,1,180,0|2,0:0|0:0,0:0:0:0:
192,64,55975,6,0,P|235:56|277:72,1,89.9999999999999,4|8,0:0|0:0,0:0:0:0:
228,160,56935,2,0,P|184:167|142:151,1,89.9999999999999,10|8,0:0|0:0,0:0:0:0:
68,216,57895,2,0,L|76:312,1,89.9999999999999,10|8,0:0|0:0,0:0:0:0:
168,344,58855,2,0,L|175:254,1,89.9999999999999,10|8,0:0|0:0,0:0:0:0:
244,180,59815,6,0,B|276:184|276:184|344:176,1,89.9999999999999,10|8,0:0|0:0,0:0:0:0:
372,88,60775,2,0,B|340:84|340:84|272:92,1,89.9999999999999,10|8,0:0|0:0,0:0:0:0:
244,180,61735,2,0,B|256:220|256:220|256:248|244:276,1,89.9999999999999,10|8,0:0|0:0,0:0:0:0:
156,228,62695,2,0,B|144:188|144:188|144:160|156:132,1,89.9999999999999,10|8,0:0|0:0,0:0:0:0:
220,68,63655,38,0,B|248:72|272:60|272:60|308:57,1,89.9999999999999,10|8,0:0|0:0,0:0:0:0:
336,152,64615,2,0,B|299:154|299:154|275:166|247:162,1,89.9999999999999,10|8,0:0|0:0,0:0:0:0:
152,140,65575,2,0,B|120:136|100:120|100:120|60:152,1,89.9999999999999,10|8,0:0|0:0,0:0:0:0:
104,236,66535,2,0,B|136:240|156:256|156:256|196:224,1,89.9999999999999,10|8,0:0|0:0,0:0:0:0:
247,162,67495,6,0,P|279:220|279:246,1,89.9999999999999,10|8,0:0|0:0,0:0:0:0:
182,235,68455,2,0,P|150:177|150:151,1,89.9999999999999,10|8,0:0|0:0,0:0:0:0:
208,72,69415,2,0,L|312:64,1,89.9999999999999,10|8,0:0|0:0,0:0:0:0:
344,152,70375,2,0,L|433:159,1,89.9999999999999,10|8,0:0|0:0,0:0:0:0:
464,252,71335,38,0,L|375:246,1,89.9999999999999,4|8,0:0|0:0,0:0:0:0:
280,280,72295,2,0,B|220:264|220:264|196:288,1,89.9999999999999,10|8,0:0|0:0,0:0:0:0:
124,220,73255,2,0,P|156:152|156:136,1,89.9999999999999,10|8,0:0|0:0,0:0:0:0:
236,80,74215,2,0,B|292:100|292:100|332:84|336:68,1,89.9999999999999,10|8,0:0|0:0,0:0:0:0:
348,180,75175,6,0,B|320:228|320:228|332:276,1,89.9999999999999,10|8,0:0|0:0,0:0:0:0:
248,316,76135,2,0,L|156:296,1,89.9999999999999,10|8,0:0|0:0,0:0:0:0:
100,220,77095,2,0,L|187:200,1,89.9999999999999,10|8,0:0|0:0,0:0:0:0:
260,132,78055,2,0,B|296:88|296:88|272:48|280:24,1,89.9999999999999,10|8,0:0|0:0,0:0:0:0:
184,60,79015,38,0,B|140:68|140:68|88:52,1,89.9999999999999,10|8,0:0|0:0,0:0:0:0:
52,144,79975,2,0,B|96:136|96:136|148:152,1,89.9999999999999,10|8,0:0|0:0,0:0:0:0:
212,216,80935,2,0,P|204:284|208:312,1,89.9999999999999,10|8,0:0|0:0,0:0:0:0:
304,304,81895,2,0,P|306:260|298:216,1,89.9999999999999,10|8,0:0|0:0,0:0:0:0:
248,128,82855,6,0,P|328:120|352:132,1,89.9999999999999,10|8,0:0|0:0,0:0:0:0:
298,215,83815,2,0,P|355:272|361:298,1,89.9999999999999,10|8,0:0|0:0,0:0:0:0:
444,332,84775,2,0,P|458:290|453:246,1,89.9999999999999,10|8,0:0|0:0,0:0:0:0:
392,168,85735,2,0,P|377:126|382:82,1,89.9999999999999,10|8,0:0|0:0,0:0:0:0:
284,84,86695,6,0,B|280:144|300:196|300:196|272:176|232:172,1,180,8|8,0:0|0:0,0:0:0:0:
184,92,88135,1,8,0:0:0:0:
148,184,88615,2,0,B|176:220|176:256|176:256|136:296|80:268,1,180,8|8,0:0|0:0,0:0:0:0:
56,176,90055,1,8,0:0:0:0:
108,92,90535,6,0,B|156:76|196:96|196:96|256:116|296:92,1,180,8|8,0:0|0:0,0:0:0:0:
364,40,91975,1,8,0:0:0:0:
376,140,92455,2,0,B|412:192|412:192|288:208,1,180,8|8,0:0|0:0,0:0:0:0:
196,220,93895,1,8,0:0:0:0:
100,248,94375,38,0,B|88:204|117:157|117:157|63:134|60:84,1,180,8|8,0:0|0:0,0:0:0:0:
155,64,95815,1,8,0:0:0:0:
238,117,96295,2,0,B|347:123|347:123|306:89|307:62,1,180,8|8,0:0|0:0,0:0:0:0:
402,39,97735,1,8,0:0:0:0:
463,116,98215,6,0,P|468:165|466:212,2,89.9999999999999,8|8|8,0:0|0:0|0:0,0:0:0:0:
376,164,99655,1,8,0:0:0:0:
313,240,100135,2,0,B|308:279|283:302|283:302|295:307|303:327,1,89.9999999999999,8|8,0:0|0:0,0:0:0:0:
232,240,101095,2,0,B|232:199|253:173|253:173|240:170|238:163,1,89.9999999999999,8|8,0:0|0:0,0:0:0:0:
217,66,102055,38,0,P|303:86|315:104,1,89.9999999999999,2|8,0:0|0:0,0:0:0:0:
336,176,103015,2,0,P|339:220|365:256,1,89.9999999999999,10|8,0:0|0:0,0:0:0:0:
304,336,103975,2,0,L|212:336,1,89.9999999999999,10|8,0:0|0:0,0:0:0:0:
172,244,104935,2,0,L|264:244,1,89.9999999999999,10|8,0:0|0:0,0:0:0:0:
308,156,105895,6,0,B|344:168|360:164|360:164|376:132|400:124,1,89.9999999999999,10|8,0:0|0:0,0:0:0:0:
448,208,106855,2,0,B|414:226|407:241|407:241|420:274|410:297,1,89.9999999999999,10|8,0:0|0:0,0:0:0:0:
328,324,107815,2,0,B|280:316|280:316|260:348|224:352,1,89.9999999999999,10|8,0:0|0:0,0:0:0:0:
152,344,108775,2,0,B|142:347|122:315|122:315|74:323,1,89.9999999999999,10|8,0:0|0:0,0:0:0:0:
36,232,109735,38,0,L|133:217,1,89.9999999999999,10|8,0:0|0:0,0:0:0:0:
168,128,110695,2,0,L|256:141,1,89.9999999999999,10|8,0:0|0:0,0:0:0:0:
356,132,111655,2,0,B|336:188|336:188|360:220,1,89.9999999999999,10|8,0:0|0:0,0:0:0:0:
452,204,112615,2,0,B|472:260|472:260|453:284,1,89.9999999999999,10|8,0:0|0:0,0:0:0:0:
360,316,113575,6,0,P|292:292|264:304,1,89.9999999999999,10|8,0:0|0:0,0:0:0:0:
180,296,114535,2,0,P|136:292|98:315,1,89.9999999999999,10|8,0:0|0:0,0:0:0:0:
32,240,115495,2,0,P|64:209|71:165,1,89.9999999999999,10|8,0:0|0:0,0:0:0:0:
168,148,116455,2,0,P|251:166|269:250,1,180,10|4,0:0|0:0,0:0:0:0:
268,252,123655,38,0,P|313:254|345:117,1,180,0|2,0:0|0:0,0:0:0:0:
316,64,125095,38,0,P|273:56|231:72,1,89.9999999999999,4|8,0:0|0:0,0:0:0:0:
282,158,126055,2,0,P|326:165|368:149,1,89.9999999999999,10|8,0:0|0:0,0:0:0:0:
444,216,127015,2,0,L|436:312,1,89.9999999999999,10|8,0:0|0:0,0:0:0:0:
344,344,127975,2,0,L|337:254,1,89.9999999999999,10|8,0:0|0:0,0:0:0:0:
268,180,128935,38,0,B|236:184|236:184|168:176,1,89.9999999999999,10|8,0:0|0:0,0:0:0:0:
140,88,129895,2,0,B|172:84|172:84|240:92,1,89.9999999999999,10|8,0:0|0:0,0:0:0:0:
268,180,130855,2,0,B|256:220|256:220|256:248|268:276,1,89.9999999999999,10|8,0:0|0:0,0:0:0:0:
356,228,131815,2,0,B|368:188|368:188|368:160|356:132,1,89.9999999999999,10|8,0:0|0:0,0:0:0:0:
292,68,132775,6,0,B|264:72|240:60|240:60|184:56,1,89.9999999999999,10|8,0:0|0:0,0:0:0:0:
176,152,133735,2,0,B|213:154|213:154|237:166|265:162,1,89.9999999999999,10|8,0:0|0:0,0:0:0:0:
360,140,134695,2,0,B|392:136|412:120|412:120|452:152,1,89.9999999999999,10|8,0:0|0:0,0:0:0:0:
408,236,135655,2,0,B|376:240|356:256|356:256|316:224,1,89.9999999999999,10|8,0:0|0:0,0:0:0:0:
265,162,136615,38,0,P|233:220|233:246,1,89.9999999999999,10|8,0:0|0:0,0:0:0:0:
330,235,137575,2,0,P|362:177|362:151,1,89.9999999999999,10|8,0:0|0:0,0:0:0:0:
304,72,138535,2,0,L|200:64,1,89.9999999999999,10|8,0:0|0:0,0:0:0:0:
168,152,139495,2,0,L|78:158,1,89.9999999999999,10|8,0:0|0:0,0:0:0:0:
48,252,140455,6,0,L|137:246,1,89.9999999999999,4|8,0:0|0:0,0:0:0:0:
232,280,141415,2,0,B|292:264|292:264|316:288,1,89.9999999999999,10|8,0:0|0:0,0:0:0:0:
388,220,142375,2,0,P|356:152|356:136,1,89.9999999999999,10|8,0:0|0:0,0:0:0:0:
276,80,143335,2,0,B|220:100|220:100|180:84|176:68,1,89.9999999999999,10|8,0:0|0:0,0:0:0:0:
164,180,144295,38,0,B|192:228|192:228|180:276,1,89.9999999999999,10|8,0:0|0:0,0:0:0:0:
264,316,145255,2,0,L|356:296,1,89.9999999999999,10|8,0:0|0:0,0:0:0:0:
412,220,146215,2,0,L|325:200,1,89.9999999999999,10|8,0:0|0:0,0:0:0:0:
252,132,147175,2,0,B|216:88|216:88|240:48|232:24,1,89.9999999999999,10|8,0:0|0:0,0:0:0:0:
328,60,148135,6,0,B|372:68|372:68|424:52,1,89.9999999999999,10|8,0:0|0:0,0:0:0:0:
460,144,149095,2,0,B|416:136|416:136|364:152,1,89.9999999999999,10|8,0:0|0:0,0:0:0:0:
300,216,150055,2,0,P|308:284|304:312,1,89.9999999999999,10|8,0:0|0:0,0:0:0:0:
208,304,151015,2,0,P|205:259|213:215,1,89.9999999999999,10|8,0:0|0:0,0:0:0:0:
264,128,151975,38,0,P|184:120|160:132,1,89.9999999999999,10|8,0:0|0:0,0:0:0:0:
214,215,152935,2,0,P|156:271|150:297,1,89.9999999999999,10|8,0:0|0:0,0:0:0:0:
68,332,153895,2,0,P|53:289|58:245,1,89.9999999999999,10|8,0:0|0:0,0:0:0:0:
120,168,154855,2,0,P|134:125|129:81,1,89.9999999999999,10|8,0:0|0:0,0:0:0:0:
220,40,155815,38,0,L|320:44,1,89.9999999999999,4|8,0:0|0:0,0:0:0:0:
356,132,156775,2,0,L|456:136,1,89.9999999999999,8|8,0:0|0:0,0:0:0:0:
448,236,157735,2,0,L|358:239,1,89.9999999999999,8|8,0:0|0:0,0:0:0:0:
312,328,158695,2,0,L|222:331,1,89.9999999999999,8|8,0:0|0:0,0:0:0:0:
172,244,159655,38,0,L|192:144,1,89.9999999999999,8|8,0:0|0:0,0:0:0:0:
268,96,160615,2,0,L|285:184,1,89.9999999999999,8|8,0:0|0:0,0:0:0:0:
360,248,161575,2,0,L|377:159,1,89.9999999999999,8|8,0:0|0:0,0:0:0:0:
456,219,162535,2,0,L|473:307,1,89.9999999999999,8|8,0:0|0:0,0:0:0:0:
384,348,163495,6,0,P|308:340|288:320,1,89.9999999999999,8|8,0:0|0:0,0:0:0:0:
260,244,164455,2,0,P|220:224|175:229,1,89.9999999999999,8|8,0:0|0:0,0:0:0:0:
192,132,165415,2,0,P|268:124|288:104,1,89.9999999999999,8|8,0:0|0:0,0:0:0:0:
316,28,166375,2,0,P|355:8|400:13,1,89.9999999999999,8|8,0:0|0:0,0:0:0:0:
464,88,167335,38,0,P|479:129|468:173,1,89.9999999999999,8|8,0:0|0:0,0:0:0:0:
372,192,168295,2,0,P|356:233|367:277,1,89.9999999999999,8|8,0:0|0:0,0:0:0:0:
268,296,169255,2,0,P|238:196|140:332,1,360,2|4,0:0|0:0,0:0:0:0:
173,139,185575,6,0,P|129:146|93:172,1,89.9999999999999,2|2,3:0|3:0,0:0:0:0:
168,236,186535,38,0,L|257:210,1,89.9999999999999,6|8,0:0|0:0,0:0:0:0:
260,112,187495,1,10,0:0:0:0:
164,136,187975,1,8,0:0:0:0:
168,236,188455,2,0,L|254:261,1,89.9999999999999,10|8,0:0|0:0,0:0:0:0:
268,360,189415,1,10,0:0:0:0:
172,340,189895,1,8,0:0:0:0:
80,308,190375,6,0,P|56:236|64:204,1,89.9999999999999,10|8,0:0|0:0,0:0:0:0:
152,192,191335,2,0,P|176:120|168:88,1,89.9999999999999,10|8,0:0|0:0,0:0:0:0:
100,44,192295,2,0,P|42:32|15:51,2,89.9999999999999,10|8|10,0:0|0:0|0:0,0:0:0:0:
174,108,193735,1,8,0:0:0:0:
264,148,194215,38,0,L|260:244,1,89.9999999999999,10|8,0:0|0:0,0:0:0:0:
204,320,195175,1,10,0:0:0:0:
140,244,195655,1,8,0:0:0:0:
174,148,196135,2,0,L|266:148,1,89.9999999999999,10|8,0:0|0:0,0:0:0:0:
332,76,197095,1,10,0:0:0:0:
400,148,197575,1,8,0:0:0:0:
348,232,198055,5,10,0:0:0:0:
264,284,198535,2,0,B|216:292|212:292|212:292|180:276|172:268,1,89.9999999999999,8|10,0:0|0:0,0:0:0:0:
152,180,199495,1,10,0:0:0:0:
76,116,199975,2,0,P|51:153|13:176,1,89.9999999999999,10|8,0:0|0:0,0:0:0:0:
56,264,200935,2,0,B|59:301|70:328|70:328|121:338|127:313,1,89.9999999999999,10|8,0:0|0:0,0:0:0:0:
192,320,201895,6,0,P|235:328|277:312,1,89.9999999999999,4|8,0:0|0:0,0:0:0:0:
228,224,202855,2,0,P|184:217|142:233,1,89.9999999999999,10|8,0:0|0:0,0:0:0:0:
68,168,203815,2,0,L|76:72,1,89.9999999999999,10|8,0:0|0:0,0:0:0:0:
168,40,204775,2,0,L|175:130,1,89.9999999999999,10|8,0:0|0:0,0:0:0:0:
244,204,205735,6,0,B|276:200|276:200|344:208,1,89.9999999999999,10|8,0:0|0:0,0:0:0:0:
372,296,206695,2,0,B|340:300|340:300|272:292,1,89.9999999999999,10|8,0:0|0:0,0:0:0:0:
244,204,207655,2,0,B|256:164|256:164|256:136|244:108,1,89.9999999999999,10|8,0:0|0:0,0:0:0:0:
156,156,208615,2,0,B|144:196|144:196|144:224|156:252,1,89.9999999999999,10|8,0:0|0:0,0:0:0:0:
220,316,209575,38,0,B|248:312|272:324|272:324|328:328,1,89.9999999999999,10|8,0:0|0:0,0:0:0:0:
336,232,210535,2,0,B|299:230|299:230|275:218|247:222,1,89.9999999999999,10|8,0:0|0:0,0:0:0:0:
152,244,211495,2,0,B|120:248|100:264|100:264|60:232,1,89.9999999999999,10|8,0:0|0:0,0:0:0:0:
104,148,212455,2,0,B|136:144|156:128|156:128|196:160,1,89.9999999999999,10|8,0:0|0:0,0:0:0:0:
247,222,213415,6,0,P|279:164|279:138,1,89.9999999999999,10|8,0:0|0:0,0:0:0:0:
182,149,214375,2,0,P|150:207|150:233,1,89.9999999999999,10|8,0:0|0:0,0:0:0:0:
208,312,215335,2,0,L|312:320,1,89.9999999999999,10|8,0:0|0:0,0:0:0:0:
344,232,216295,2,0,L|433:225,1,89.9999999999999,10|8,0:0|0:0,0:0:0:0:
464,132,217255,38,0,L|375:138,1,89.9999999999999,4|8,0:0|0:0,0:0:0:0:
280,104,218215,2,0,B|220:120|220:120|196:96,1,89.9999999999999,10|8,0:0|0:0,0:0:0:0:
124,164,219175,2,0,P|156:232|156:248,1,89.9999999999999,10|8,0:0|0:0,0:0:0:0:
236,304,220135,2,0,B|292:284|292:284|332:300|336:316,1,89.9999999999999,10|8,0:0|0:0,0:0:0:0:
348,204,221095,6,0,B|320:156|320:156|332:108,1,89.9999999999999,10|8,0:0|0:0,0:0:0:0:
248,68,222055,2,0,L|156:88,1,89.9999999999999,10|8,0:0|0:0,0:0:0:0:
100,164,223015,2,0,L|187:184,1,89.9999999999999,10|8,0:0|0:0,0:0:0:0:
260,252,223975,2,0,B|296:296|296:296|272:336|280:360,1,89.9999999999999,10|8,0:0|0:0,0:0:0:0:
184,324,224935,38,0,B|140:316|140:316|88:332,1,89.9999999999999,10|8,0:0|0:0,0:0:0:0:
52,240,225895,2,0,B|96:248|96:248|148:232,1,89.9999999999999,10|8,0:0|0:0,0:0:0:0:
212,168,226855,2,0,P|204:100|208:72,1,89.9999999999999,10|8,0:0|0:0,0:0:0:0:
304,80,227815,2,0,P|306:124|298:168,1,89.9999999999999,10|8,0:0|0:0,0:0:0:0:
248,256,228775,6,0,P|328:264|352:252,1,89.9999999999999,10|8,0:0|0:0,0:0:0:0:
298,169,229735,2,0,P|355:112|361:86,1,89.9999999999999,10|8,0:0|0:0,0:0:0:0:
444,52,230695,2,0,P|458:94|453:138,1,89.9999999999999,10|8,0:0|0:0,0:0:0:0:
392,216,231655,2,0,P|377:258|382:302,1,89.9999999999999,10|8,0:0|0:0,0:0:0:0:
288,328,232615,38,0,B|252:316|220:320|220:320|196:280,1,89.9999999999999,4|8,0:0|0:0,0:0:0:0:
144,228,233575,1,10,0:0:0:0:
148,128,234055,1,8,0:0:0:0:
240,92,234535,2,0,B|276:92|300:112|300:112|316:104|336:112,1,89.9999999999999,10|8,0:0|0:0,0:0:0:0:
420,140,235495,2,0,B|408:174|381:190|381:190|383:207|369:224,1,89.9999999999999,10|8,0:0|0:0,0:0:0:0:
320,296,236455,6,0,B|224:312,1,89.9999999999999,10|8,0:0|0:0,0:0:0:0:
136,288,237415,1,10,0:0:0:0:
60,228,237895,1,8,0:0:0:0:
92,136,238375,2,0,P|84:76|92:48,1,89.9999999999999,10|8,0:0|0:0,0:0:0:0:
180,96,239335,2,0,B|220:68|268:80,1,89.9999999999999,10|8,0:0|0:0,0:0:0:0:
348,136,240295,5,4,0:0:0:0:
