osu file format v14

[General]
AudioFilename: audio.mp3
AudioLeadIn: 0
PreviewTime: 66382
Countdown: 0
SampleSet: Soft
StackLeniency: 0.7
Mode: 0
LetterboxInBreaks: 0
WidescreenStoryboard: 0

[Editor]
Bookmarks: 2448,18185,49661
DistanceSpacing: 0.5
BeatDivisor: 8
GridSize: 4
TimelineZoom: 1.6

[Metadata]
Title:Colorful
TitleUnicode:Colorful
Artist:SHINee
ArtistUnicode:샤이니
Creator:Firetruck
Version:Ryo's Special
Source:
Tags:SM entertainment merry christmas song x-mas xmas k-pop kpop short version cut Lee Jin Ki 이진기 Kim Jonghyun 김종현 Kim Kibum 김기범 Choi Minho 최민호 Key Jonghyun Onew Lee Taemin 이태민 RyoKazuka
BeatmapID:1145429
BeatmapSetID:533861

[Difficulty]
HPDrainRate:6
CircleSize:4
OverallDifficulty:7
ApproachRate:8.7
SliderMultiplier:2
SliderTickRate:2

[Events]
//Background and Video events
0,0,"christmasbaby.png",0,0
Video,1025,"h e l p.avi"
//Break Periods
//Storyboard Layer 0 (Background)
//Storyboard Layer 1 (Fail)
//Storyboard Layer 2 (Pass)
//Storyboard Layer 3 (Foreground)
//Storyboard Sound Samples

[TimingPoints]
2448,491.803278688525,4,2,1,90,1,0
2448,-105.263157894737,4,2,1,90,0,0
4661,-166.666666666667,4,2,1,90,0,0
4845,-166.666666666667,4,2,1,5,0,0
4907,-105.263157894737,4,2,1,90,0,0
5644,-166.666666666667,4,2,1,90,0,0
5829,-166.666666666667,4,2,1,5,0,0
5890,-105.263157894737,4,2,1,90,0,0
8595,-166.666666666667,4,2,1,90,0,0
8779,-166.666666666667,4,2,1,5,0,0
8841,-105.263157894737,4,2,1,90,0,0
9579,-166.666666666667,4,2,1,90,0,0
9763,-166.666666666667,4,2,1,5,0,0
9825,-105.263157894737,4,2,1,90,0,0
12529,-166.666666666667,4,2,1,90,0,0
12714,-166.666666666667,4,2,1,5,0,0
12775,-105.263157894737,4,2,1,90,0,0
13513,-166.666666666667,4,2,1,90,0,0
13698,-166.666666666667,4,2,1,5,0,0
13759,-105.263157894737,4,2,1,90,0,0
15234,-117.64705882353,4,2,1,90,0,0
15726,-133.333333333334,4,2,1,90,0,0
16218,-117.64705882353,4,2,1,90,0,0
16464,-105.263157894737,4,2,1,90,0,0
16710,-95.2380952380956,4,2,1,90,0,0
16956,-86.9565217391304,4,2,1,90,0,0
18185,-142.857142857143,4,2,1,90,0,0
18554,-142.857142857143,4,2,1,90,0,0
18677,-105.263157894737,4,2,1,90,0,0
33923,-142.857142857143,4,2,1,90,0,0
34415,-105.263157894737,4,2,1,90,0,0
48923,-86.9565217391306,4,2,1,90,0,0
49169,-74.0740740740741,4,2,1,90,0,0
49415,-64.5161290322581,4,2,1,90,0,0
49661,-125,4,2,1,90,0,0
49907,-80,4,2,1,90,0,0
50644,-120.481927710843,4,2,1,90,0,0
51136,-71.4285714285714,4,2,1,90,0,0
51566,-71.4285714285714,4,2,1,5,0,0
51628,-71.4285714285714,4,2,1,90,0,0
51874,-80,4,2,1,90,0,0
52611,-120.481927710843,4,2,1,90,0,0
53103,-71.4285714285714,4,2,1,90,0,0
53534,-71.4285714285714,4,2,1,5,0,0
53595,-71.4285714285714,4,2,1,90,0,0
53841,-80,4,2,1,90,0,0
55562,-71.4285714285714,4,2,1,90,0,0
57775,-80,4,2,1,90,0,0
58512,-120.481927710843,4,2,1,90,0,0
59004,-71.4285714285714,4,2,1,90,0,0
59435,-71.4285714285714,4,2,1,5,0,0
59497,-71.4285714285714,4,2,1,90,0,0
59743,-80,4,2,1,90,0,0
60480,-120.481927710843,4,2,1,90,0,0
61464,-105.263157894737,4,2,1,90,0,0
63185,-133.333333333333,4,2,1,90,0,0
65275,-133.333333333333,4,2,1,15,0,0
66382,-105.263157894737,4,2,1,90,0,0
67366,-86.9565217391304,4,2,1,90,0,1
75234,-64.5161290322581,4,2,1,90,0,1
77202,-86.9565217391304,4,2,1,90,0,1
83042,-86.9565217391304,4,2,1,90,0,0
83103,-86.9565217391304,4,2,1,90,0,1
90972,-64.5161290322581,4,2,1,90,0,1
92939,-86.9565217391304,4,2,1,90,0,1
98841,-100,4,2,1,90,0,0

[Colours]
Combo1 : 255,255,128
Combo2 : 255,0,0
Combo3 : 255,128,128
Combo4 : 192,192,192
Combo5 : 0,164,0
Combo6 : 245,93,18

[HitObjects]
210,215,2448,6,0,P|295:230|364:145,1,189.999994926453,4|8,1:2|0:2,0:2:0:0:
71,106,3185,2,0,L|76:181,1,47.4999987316132,0|0,0:0|0:0,0:0:0:0:
155,124,3431,1,0,1:0:0:0:
331,48,3677,2,0,L|217:38,1,94.9999974632264,0|8,0:0|0:0,0:0:0:0:
409,150,4169,1,0,0:0:0:0:
414,173,4292,1,0,0:0:0:0:
419,196,4415,5,0,1:0:0:0:
236,213,4661,6,0,L|239:163,1,44.999998626709
241,133,4907,5,8,0:0:0:0:
337,245,5152,1,0,0:0:0:0:
342,268,5275,1,0,0:0:0:0:
347,291,5398,1,0,1:0:0:0:
138,233,5644,6,0,L|141:183,1,44.999998626709
145,152,5890,5,8,0:0:0:0:
33,325,6136,1,0,0:0:0:0:
56,323,6259,1,0,0:0:0:0:
79,321,6382,5,0,1:0:0:0:
236,213,6628,1,0,0:0:0:0:
61,166,6874,1,8,0:0:0:0:
158,362,7120,2,0,L|225:357,1,47.4999987316132,0|0,0:0|0:0,0:0:0:0:
176,277,7366,1,0,1:0:0:0:
339,132,7611,2,0,L|336:230,1,94.9999974632264,0|8,0:0|0:0,0:0:0:0:
139,123,8103,1,0,0:0:0:0:
142,99,8226,1,0,0:0:0:0:
145,75,8349,5,0,1:0:0:0:
220,213,8595,6,0,L|217:264,1,44.999998626709,0|0,0:0|0:0,0:0:0:0:
215,294,8841,5,8,0:0:0:0:
272,114,9087,1,0,0:0:0:0:
275,90,9210,1,0,0:0:0:0:
278,66,9333,1,0,1:0:0:0:
353,204,9579,6,0,L|350:255,1,44.999998626709,0|0,0:0|0:0,0:0:0:0:
348,285,9825,5,8,0:0:0:0:
136,207,10070,1,0,0:0:0:0:
159,205,10193,1,0,0:0:0:0:
113,209,10316,6,0,B|70:126|70:126|108:35,1,189.999994926453,0|8,1:0|0:0,0:0:0:0:
330,91,11054,2,0,L|326:147,1,47.4999987316132,0|0,0:0|0:0,0:0:0:0:
246,109,11300,1,0,1:0:0:0:
362,268,11546,2,0,L|456:258,1,94.9999974632264,0|8,0:0|0:0,0:0:0:0:
239,327,12038,1,0,0:0:0:0:
215,325,12161,1,0,0:0:0:0:
191,323,12284,5,0,1:0:0:0:
26,250,12529,6,0,L|81:247,1,44.999998626709,0|0,0:0|0:0,0:0:0:0:
107,246,12775,5,8,0:0:0:0:
310,200,13021,1,0,0:0:0:0:
286,198,13144,1,0,0:0:0:0:
262,196,13267,1,0,1:0:0:0:
97,123,13513,6,0,L|152:120,1,44.999998626709,0|0,0:0|0:0,0:0:0:0:
178,119,13759,5,8,0:0:0:0:
369,85,14005,1,0,0:0:0:0:
364,61,14128,1,0,0:0:0:0:
359,37,14251,5,0,1:0:0:0:
476,163,14497,1,0,0:0:0:0:
270,234,14743,6,0,L|426:246,1,142.49999619484,8|0,0:0|0:0,0:0:0:0:
367,160,15234,6,0,L|233:150,1,127.50000243187,0|0,1:0|0:0,0:0:0:0:
208,66,15726,6,0,L|321:75,1,112.500004291535,8|0,0:0|0:0,0:0:0:0:
367,160,16218,6,0,L|305:156,1,42.5000008106232,0|0,1:0|0:0,0:0:0:0:
270,234,16464,6,0,L|333:239,1,47.4999987316132,0|0,0:0|0:0,0:0:0:0:
321,75,16710,6,0,L|255:69,1,52.4999983978272,8|0,0:0|0:0,0:0:0:0:
182,145,16956,6,0,L|242:150,1,57.5000010967255,0|0,0:0|0:0,0:0:0:0:
88,52,17202,5,0,1:0:0:0:
39,65,17325,1,0,0:0:0:0:
86,85,17448,5,0,0:0:0:0:
37,98,17571,1,0,0:0:0:0:
84,118,17693,5,8,0:0:0:0:
35,131,17816,1,0,0:0:0:0:
82,151,17939,5,0,0:0:0:0:
33,164,18062,1,0,0:0:0:0:
80,184,18185,6,0,B|121:180|121:180|146:186|146:186|184:183,1,104.999996795654,4|0,0:0|0:0,0:0:0:0:
277,230,18677,6,0,L|270:327,1,94.9999974632264,0|0,1:0|0:0,0:0:0:0:
287,341,19046,1,0,0:0:0:0:
304,356,19169,1,0,1:0:0:0:
434,172,19415,2,0,P|443:118|425:59,1,94.9999974632264,0|8,0:0|0:0,0:0:0:0:
339,12,19907,1,0,0:0:0:0:
228,137,20152,6,0,L|323:126,1,94.9999974632264,0|0,1:0|0:0,0:0:0:0:
137,151,20644,1,8,0:0:0:0:
258,240,20890,2,0,L|352:228,1,94.9999974632264,0|0,0:0|1:0,0:0:0:0:
166,253,21382,1,0,0:0:0:0:
287,342,21628,2,0,L|381:330,1,94.9999974632264,8|0,0:0|0:0,0:0:0:0:
403,321,21997,1,0,0:0:0:0:
424,311,22120,5,0,1:0:0:0:
450,161,22366,1,0,0:0:0:0:
308,214,22611,1,8,0:0:0:0:
397,19,22857,1,0,0:0:0:0:
397,19,22980,1,0,0:0:0:0:
397,19,23103,1,0,1:0:0:0:
255,72,23349,2,0,L|149:62,1,94.9999974632264,0|8,0:0|0:0,0:0:0:0:
41,194,23841,1,0,0:0:0:0:
45,217,23964,1,0,0:0:0:0:
48,239,24087,6,0,P|135:269|205:211,1,189.999994926453,0|8,1:0|0:0,0:0:0:0:
132,82,24825,2,0,L|119:177,1,94.9999974632264,0|0,0:0|1:0,0:0:0:0:
256,297,25316,1,0,0:0:0:0:
393,177,25562,1,8,0:0:0:0:
237,66,25808,1,0,0:0:0:0:
213,68,25931,1,0,0:0:0:0:
261,64,26054,6,0,L|395:72,1,94.9999974632264,0|0,1:0|0:0,0:0:0:0:
416,262,26546,2,0,P|360:259|313:217,1,94.9999974632264,8|0,0:0|0:0,0:0:0:0:
311,221,26915,1,0,0:0:0:0:
296,202,27038,1,0,1:0:0:0:
189,337,27284,2,0,L|174:232,1,94.9999974632264,0|8,0:0|0:0,0:0:0:0:
93,148,27775,1,0,0:0:0:0:
269,68,28021,6,0,B|222:54|222:54|155:65,1,94.9999974632264,0|0,1:0|0:0,0:0:0:0:
296,202,28513,1,8,0:0:0:0:
451,112,28759,2,0,L|436:5,2,94.9999974632264,0|0|0,0:0|1:0|0:0,0:0:0:0:
290,224,29497,1,8,0:0:0:0:
401,344,29743,1,0,0:0:0:0:
424,343,29866,1,0,0:0:0:0:
447,342,29988,6,0,P|443:282|447:208,1,94.9999974632264,0|0,1:0|0:0,0:0:0:0:
342,132,30480,1,8,0:0:0:0:
256,245,30726,2,0,L|256:342,1,94.9999974632264,0|0,0:0|1:0,0:0:0:0:
170,132,31218,2,0,P|100:118|60:129,1,94.9999974632264,0|8,0:0|0:0,0:0:0:0:
114,224,31710,1,0,0:0:0:0:
229,62,31956,5,0,1:0:0:0:
339,182,32202,2,0,L|404:176,1,47.4999987316132
446,312,32448,1,8,0:0:0:0:
422,308,32570,1,0,0:0:0:0:
398,304,32693,1,0,0:0:0:0:
374,300,32816,1,0,0:0:0:0:
350,296,32939,5,0,1:0:0:0:
314,310,33062,1,0,0:0:0:0:
277,318,33185,1,0,0:0:0:0:
239,311,33308,1,0,0:0:0:0:
204,294,33431,5,8,0:0:0:0:
163,269,33554,1,0,0:0:0:0:
117,255,33677,1,0,0:0:0:0:
70,265,33800,1,0,0:0:0:0:
29,290,33923,6,0,P|41:230|27:172,1,104.999996795654,0|0,0:0|0:0,0:0:0:0:
5,88,34415,5,12,0:0:0:0:
143,167,34661,2,0,L|208:167,1,47.4999987316132,0|0,0:0|0:0,0:0:0:0:
167,83,34907,1,0,1:0:0:0:
360,105,35152,2,0,P|350:152|344:199,1,94.9999974632264,0|8,0:0|0:0,0:0:0:0:
402,305,35644,1,0,0:0:0:0:
197,336,35890,5,0,1:0:0:0:
203,169,36136,1,0,0:0:0:0:
56,248,36382,1,8,0:0:0:0:
328,102,36628,6,0,L|314:233,1,94.9999974632264,0|0,0:0|1:0,0:0:0:0:
202,34,37120,1,0,0:0:0:0:
424,104,37366,1,8,0:0:0:0:
171,143,37611,1,0,0:0:0:0:
195,146,37734,1,0,0:0:0:0:
219,149,37857,6,0,P|246:220|248:278,1,94.9999974632264,0|0,1:0|0:0,0:0:0:0:
43,326,38349,2,0,P|52:279|72:236,1,94.9999974632264,8|0,0:0|0:0,0:0:0:0:
87,213,38718,1,0,0:0:0:0:
100,193,38841,1,0,1:0:0:0:
211,316,39087,1,0,0:0:0:0:
313,161,39333,2,0,L|206:147,1,94.9999974632264,8|0,0:0|0:0,0:0:0:0:
432,106,39825,5,0,1:0:0:0:
296,56,40070,2,0,L|189:42,1,94.9999974632264,0|8,0:0|0:0,0:0:0:0:
275,244,40562,2,0,L|382:230,1,94.9999974632264,0|0,0:0|1:0,0:0:0:0:
108,145,41054,1,0,0:0:0:0:
166,298,41300,1,8,0:0:0:0:
248,93,41546,1,0,0:0:0:0:
245,69,41669,1,0,0:0:0:0:
251,117,41792,6,0,P|251:194|246:233,1,94.9999974632264,0|0,1:0|0:0,0:0:0:0:
441,320,42284,1,8,0:0:0:0:
486,156,42529,2,0,L|426:150,1,47.4999987316132,0|0,0:0|0:0,0:0:0:0:
471,71,42775,1,0,1:0:0:0:
300,175,43021,2,0,L|313:273,1,94.9999974632264,0|8,0:0|0:0,0:0:0:0:
171,100,43513,1,0,0:0:0:0:
76,218,43759,5,0,1:0:0:0:
220,175,44005,1,0,0:0:0:0:
185,321,44251,1,8,0:0:0:0:
346,190,44497,6,0,P|336:122|308:88,1,94.9999974632264,0|0,0:0|1:0,0:0:0:0:
222,44,44988,1,0,0:0:0:0:
423,65,45234,1,8,0:0:0:0:
244,170,45480,1,0,0:0:0:0:
220,175,45603,1,0,0:0:0:0:
196,180,45726,6,0,L|101:167,1,94.9999974632264,0|0,1:0|0:0,0:0:0:0:
222,44,46218,1,8,0:0:0:0:
378,150,46464,2,0,L|440:145,1,47.4999987316132,0|0,0:0|0:0,0:0:0:0:
396,65,46710,1,0,1:0:0:0:
308,236,46956,2,0,P|360:259|407:258,1,94.9999974632264,0|8,0:0|0:0,0:0:0:0:
256,132,47448,1,0,0:0:0:0:
185,290,47693,5,0,1:0:0:0:
262,108,47939,2,0,L|259:53,1,47.4999987316132
116,35,48185,1,8,0:0:0:0:
113,58,48308,1,0,0:0:0:0:
110,81,48431,1,0,0:0:0:0:
107,104,48554,1,0,0:0:0:0:
104,128,48677,6,0,L|153:122,1,47.4999987316132,0|0,1:0|0:0,0:0:0:0:
243,258,48923,6,0,L|175:250,1,57.5000010967255,0|0,0:0|0:0,0:0:0:0:
309,85,49169,6,0,P|322:131|323:162,1,67.5000002574921,8|0,0:0|0:0,0:0:0:0:
429,258,49415,6,0,P|432:224|449:179,1,77.5000005912781
487,348,49661,5,4,1:2:0:0:
306,365,49907,6,0,L|162:336,1,125,0|8,1:0|0:0,0:0:0:0:
231,146,50275,2,0,L|277:285,1,125,0|0,1:0|0:0,0:0:0:0:
79,321,50644,6,0,L|176:210,1,125,0|0,1:0|0:0,0:0:0:0:
336,183,51136,6,0,P|362:235|260:207,1,244.999992523194,8|0,0:0|0:0,0:0:0:0:
309,229,51628,1,0,0:0:0:0:
456,116,51874,6,0,L|470:246,1,125,0|8,1:0|0:0,0:0:0:0:
359,94,52243,2,0,L|373:224,1,125,0|0,1:0|0:0,0:0:0:0:
262,72,52611,6,0,L|276:202,1,125,0|0,1:0|0:0,0:0:0:0:
215,297,53103,6,0,P|279:224|290:320,1,244.999992523194,8|0,0:0|0:0,0:0:0:0:
263,275,53595,1,0,1:0:0:0:
141,192,53841,6,0,B|156:120|156:120|197:74,1,125,0|0,1:0|0:0,0:0:0:0:
321,81,54210,2,0,B|356:120|356:120|371:192,1,125,0|0,1:0|0:0,0:0:0:0:
256,240,54579,1,0,1:0:0:0:
390,316,54825,5,0,0:0:0:0:
122,316,55070,1,8,0:0:0:0:
256,209,55316,2,0,L|256:168,2,41.6666666666667
256,89,55562,5,0,1:0:0:0:
400,179,55808,1,0,1:0:0:0:
112,179,56054,1,8,0:0:0:0:
112,179,56177,1,0,1:0:0:0:
112,179,56300,1,0,0:0:0:0:
348,53,56546,1,0,1:0:0:0:
164,53,56792,2,0,L|159:124,1,69.9999978637696,0|0,0:0|1:0,0:0:0:0:
278,253,57038,6,0,L|326:246,2,46.6666652425131,8|0|0,0:0|0:0|0:0,0:0:0:0:
272,183,57284,2,0,L|319:176,2,46.6666652425131
266,113,57529,5,4,1:2:0:0:
121,229,57775,6,0,B|31:211|31:211|73:189,1,125,0|8,1:0|0:0,0:0:0:0:
222,240,58144,2,0,B|251:326|251:326|211:301,1,125,0|0,1:0|0:0,0:0:0:0:
182,148,58513,6,0,B|242:79|242:79|240:126,1,125,0|0,1:0|0:0,0:0:0:0:
97,266,59005,6,0,P|12:216|105:185,1,244.999992523194,8|0,0:0|0:0,0:0:0:0:
65,222,59497,1,0,0:0:0:0:
393,178,59743,6,0,P|387:118|369:42,1,125,0|8,1:0|0:0,0:0:0:0:
273,130,60111,2,0,P|273:192|267:254,1,125,0|0,1:0|0:0,0:0:0:0:
127,302,60480,6,0,P|146:243|159:182,1,125,0|0,1:0|0:0,0:0:0:0:
88,82,60972,5,8,0:0:0:0:
256,47,61218,1,0,0:0:0:0:
424,82,61464,5,0,1:0:0:0:
258,185,61710,2,0,L|216:179,2,31.6666658210755
290,214,61956,1,0,0:0:0:0:
147,113,62202,1,0,1:0:0:0:
161,276,62448,2,0,L|203:270,2,31.6666658210755,0|0|0,0:0|0:0|0:0,0:0:0:0:
129,305,62694,1,0,0:0:0:0:
293,350,62939,2,0,L|251:344,2,31.6666658210755,0|0|0,0:0|0:0|0:0,0:0:0:0:
325,379,63185,5,0,1:0:0:0:
256,192,63247,12,0,65275,0:0:0:0:
389,116,65644,6,0,L|385:161,1,37.5000014305115
287,241,65890,1,0,0:0:0:0:
268,238,66013,1,0,0:0:0:0:
249,235,66136,1,0,0:0:0:0:
230,232,66259,1,0,0:0:0:0:
211,229,66382,5,8,0:0:0:0:
201,182,66505,1,0,0:0:0:0:
191,135,66628,2,0,L|186:93,2,31.6666658210755,0|0|0,0:0|0:0|0:0,0:0:0:0:
305,35,66874,5,0,0:0:0:0:
305,82,66997,1,0,0:0:0:0:
305,129,67120,1,0,0:0:0:0:
305,176,67243,1,0,0:0:0:0:
305,223,67366,6,0,L|431:201,1,115.000002193451,4|0,1:2|0:0,0:0:0:0:
445,213,67734,1,0,0:0:0:0:
471,223,67857,1,8,0:0:0:0:
366,35,68103,2,0,L|362:98,1,57.5000010967255
445,69,68349,1,0,1:0:0:0:
281,58,68595,1,0,0:0:0:0:
436,235,68841,1,8,0:0:0:0:
270,224,69087,6,0,L|150:197,1,115.000002193451,0|0,0:0|1:0,0:0:0:0:
273,41,69579,1,0,0:0:0:0:
398,164,69825,2,0,P|462:165|507:132,1,115.000002193451,8|0,0:0|0:0,0:0:0:0:
265,24,70316,1,0,1:0:0:0:
233,181,70562,2,0,P|244:241|249:314,1,115.000002193451,0|8,0:0|0:0,0:0:0:0:
91,100,71054,1,0,0:0:0:0:
81,127,71177,1,0,0:0:0:0:
71,154,71300,6,0,L|81:308,1,115.000002193451,0|0,1:0|0:0,0:0:0:0:
229,135,71792,1,8,0:0:0:0:
337,254,72038,2,0,L|344:320,1,57.5000010967255
421,274,72284,1,0,1:0:0:0:
205,246,72529,1,0,0:0:0:0:
373,132,72775,2,0,L|502:118,1,115.000002193451,8|0,0:0|0:0,0:0:0:0:
256,46,73267,5,0,1:0:0:0:
139,132,73513,2,0,L|10:118,1,115.000002193451,0|8,0:0|0:0,0:0:0:0:
188,275,74005,1,0,0:0:0:0:
215,266,74128,1,0,0:0:0:0:
242,257,74251,1,0,1:0:0:0:
227,52,74497,1,0,0:0:0:0:
359,209,74743,1,8,0:0:0:0:
350,83,74988,1,0,0:0:0:0:
160,160,75234,6,0,P|84:142|66:68,1,155.000001182556,4|0,1:2|0:0,0:0:0:0:
255,225,75603,2,0,P|277:299|222:352,1,155.000001182556
264,111,75972,2,0,P|317:54|390:75,1,155.000001182556,0|0,0:0|1:0,0:0:0:0:
498,209,76341,2,0,P|406:190|318:188,1,155.000001182556
254,336,76710,2,0,P|331:330|406:313,1,155.000001182556,8|0,0:0|0:0,0:0:0:0:
483,296,77079,1,0,0:0:0:0:
483,296,77202,5,0,1:0:0:0:
252,208,77448,1,0,0:0:0:0:
397,136,77693,1,8,0:0:0:0:
230,220,77939,2,0,L|97:207,1,115.000002193451,0|0,0:0|1:0,0:0:0:0:
256,60,78431,1,0,0:0:0:0:
382,202,78677,6,0,L|389:264,1,57.5000010967255,8|0,0:0|0:0,0:0:0:0:
254,343,78923,2,0,P|257:310|268:271,1,57.5000010967255,0|0,0:0|0:0,0:0:0:0:
128,135,79169,6,0,L|138:252,1,115.000002193451,0|0,1:0|0:0,0:0:0:0:
256,60,79661,1,8,0:0:0:0:
400,190,79907,2,0,P|326:184|259:187,1,115.000002193451,0|0,0:0|1:0,0:0:0:0:
384,313,80398,1,0,0:0:0:0:
229,353,80644,2,0,P|155:359|88:356,1,115.000002193451,8|0,0:0|0:0,0:0:0:0:
36,157,81136,5,0,1:0:0:0:
36,157,81382,1,0,0:0:0:0:
176,250,81628,1,8,0:0:0:0:
187,83,81874,2,0,L|67:60,1,115.000002193451,0|0,0:0|1:0,0:0:0:0:
300,38,82366,1,0,0:0:0:0:
305,213,82611,1,8,0:0:0:0:
460,80,82857,1,0,0:0:0:0:
467,107,82980,1,0,0:0:0:0:
474,134,83103,6,0,L|468:259,1,115.000002193451,0|0,1:0|0:0,0:0:0:0:
455,274,83472,1,0,0:0:0:0:
442,300,83595,1,8,0:0:0:0:
250,156,83841,2,0,L|321:151,1,57.5000010967255,0|0,0:0|0:0,0:0:0:0:
285,235,84087,1,0,1:0:0:0:
140,73,84333,2,0,L|69:68,1,57.5000010967255,0|0,0:0|0:0,0:0:0:0:
105,152,84579,1,8,0:0:0:0:
312,51,84825,6,0,P|324:21|269:31,1,115.000002193451,0|0,0:0|1:0,0:0:0:0:
379,167,85316,5,0,0:0:0:0:
407,165,85439,1,0,0:0:0:0:
435,163,85562,1,8,0:0:0:0:
250,283,85808,2,0,L|239:211,1,57.5000010967255
166,267,86054,1,0,1:0:0:0:
395,350,86300,2,0,L|406:278,1,57.5000010967255,0|0,0:0|0:0,0:0:0:0:
479,335,86546,1,8,0:0:0:0:
318,148,86792,6,0,P|306:118|361:128,1,115.000002193451,0|0,0:0|1:0,0:0:0:0:
171,228,87284,5,0,0:0:0:0:
171,228,87529,1,8,0:0:0:0:
47,97,87775,2,0,L|30:216,1,115.000002193451,0|0,0:0|1:0,0:0:0:0:
152,132,88267,1,0,0:0:0:0:
264,317,88513,2,0,L|247:203,1,115.000002193451,8|0,0:0|0:0,0:0:0:0:
349,126,89005,5,0,1:0:0:0:
228,39,89251,2,0,L|101:29,1,115.000002193451,0|8,0:0|0:0,0:0:0:0:
363,150,89743,1,0,0:0:0:0:
145,234,89988,2,0,P|213:241|269:208,1,115.000002193451,0|0,1:0|0:0,0:0:0:0:
50,167,90480,6,0,L|38:228,1,57.5000010967255,8|0,0:0|0:0,0:0:0:0:
191,154,90726,2,0,P|191:122|171:81,1,57.5000010967255
310,301,90972,6,0,B|342:389|342:389|359:299,1,155.000001182556,4|0,1:2|0:0,0:0:0:0:
191,154,91341,2,0,B|97:137|97:137|167:197,1,155.000001182556
377,125,91710,2,0,B|437:52|437:52|350:82,1,155.000001182556,0|0,0:0|1:0,0:0:0:0:
208,262,92079,2,0,B|147:334|147:334|234:304,1,155.000001182556,0|0,0:0|0:0,0:0:0:0:
276,86,92448,2,0,B|243:-2|243:-2|226:87,1,155.000001182556,8|0,0:0|0:0,0:0:0:0:
212,131,92816,1,0,0:0:0:0:
212,131,92939,5,0,1:0:0:0:
374,238,93185,2,0,L|491:229,1,115.000002193451,0|8,0:0|0:0,0:0:0:0:
404,130,93677,1,0,0:0:0:0:
256,275,93923,2,0,B|198:282|198:282|115:241,1,115.000002193451,0|0,1:0|0:0,0:0:0:0:
217,86,94415,6,0,L|230:164,1,57.5000010967255,8|0,0:0|0:0,0:0:0:0:
62,168,94661,2,0,L|71:111,1,57.5000010967255,0|0,0:0|0:0,0:0:0:0:
147,283,94907,5,0,1:0:0:0:
279,214,95152,1,0,0:0:0:0:
364,339,95398,2,0,L|486:324,1,115.000002193451,8|0,0:0|0:0,0:0:0:0:
492,299,95767,1,0,0:0:0:0:
504,273,95890,1,0,1:0:0:0:
394,108,96136,2,0,L|402:181,1,57.5000010967255,0|0,0:0|0:0,0:0:0:0:
316,146,96382,1,8,0:0:0:0:
446,36,96628,1,0,0:0:0:0:
228,20,96874,5,0,1:0:0:0:
228,20,97120,1,0,0:0:0:0:
128,125,97366,2,0,L|139:248,1,115.000002193451,8|0,0:0|0:0,0:0:0:0:
256,330,97857,1,0,1:0:0:0:
373,239,98103,2,0,L|384:125,1,115.000002193451,0|8,0:0|0:0,0:0:0:0:
256,54,98595,1,0,0:0:0:0:
256,192,98841,5,0,1:0:0:0:
