osu file format v14

[General]
AudioFilename: audio.mp3
AudioLeadIn: 0
PreviewTime: 66382
Countdown: 0
SampleSet: Soft
StackLeniency: 0.7
Mode: 0
LetterboxInBreaks: 0
WidescreenStoryboard: 0

[Editor]
Bookmarks: 18185,49661
DistanceSpacing: 1
BeatDivisor: 4
GridSize: 4
TimelineZoom: 1

[Metadata]
Title:Colorful
TitleUnicode:Colorful
Artist:SHINee
ArtistUnicode:샤이니
Creator:Firetruck
Version:Normal
Source:
Tags:SM entertainment merry christmas song x-mas xmas k-pop kpop short version cut Lee Jin Ki 이진기 Kim Jonghyun 김종현 Kim Kibum 김기범 Choi Minho 최민호 Key Jonghyun Onew Lee Taemin 이태민 RyoKazuka
BeatmapID:1130970
BeatmapSetID:533861

[Difficulty]
HPDrainRate:4
CircleSize:3.5
OverallDifficulty:4
ApproachRate:5
SliderMultiplier:1.2
SliderTickRate:1

[Events]
//Background and Video events
Video,1025,"h e l p.avi"
0,0,"christmasbaby.png",0,0
//Break Periods
//Storyboard Layer 0 (Background)
//Storyboard Layer 1 (Fail)
//Storyboard Layer 2 (Pass)
//Storyboard Layer 3 (Foreground)
//Storyboard Sound Samples

[TimingPoints]
2448,491.803278688525,4,2,1,90,1,0
65275,-100,4,2,1,15,0,0
66382,-100,4,2,1,90,0,0
67366,-100,4,2,1,90,0,1
98841,-100,4,2,1,90,0,0

[Colours]
Combo1 : 255,255,128
Combo2 : 255,0,0
Combo3 : 255,128,128
Combo4 : 192,192,192
Combo5 : 0,164,0
Combo6 : 245,93,18

[HitObjects]
78,128,2448,6,0,P|137:131|194:90,1,120,4|8,1:2|0:0,0:0:0:0:
289,36,3431,2,0,B|304:92|304:92|292:156,1,120,0|8,1:0|0:0,0:0:0:0:
323,204,4169,1,2,0:0:0:0:
360,252,4415,6,0,B|345:308|345:308|357:372,1,120,0|8,1:0|0:0,0:0:0:0:
296,375,5152,1,2,0:0:0:0:
247,340,5398,2,0,P|208:297|148:273,1,120,0|8,1:0|0:0,0:0:0:0:
72,364,6382,6,0,P|38:319|40:240,1,120,0|8,1:0|0:0,0:0:0:0:
120,176,7366,2,0,B|150:135|150:135|149:61,1,120,0|8,1:0|0:0,0:0:0:0:
204,36,8103,1,2,0:0:0:0:
264,36,8349,6,0,B|323:31|323:31|384:49,1,120,0|8,1:0|0:0,0:0:0:0:
438,67,9087,1,2,0:0:0:0:
464,121,9333,2,0,P|450:182|470:239,1,120,0|8,1:0|0:0,0:0:0:0:
395,330,10316,6,0,P|333:322|272:340,1,120,0|8,1:0|0:0,0:0:0:0:
162,303,11300,2,0,B|181:232|181:232|165:184,1,120,0|8,1:0|0:0,0:0:0:0:
150,129,12038,1,0,0:0:0:0:
187,82,12284,6,0,B|246:97|246:97|308:80,1,120,0|8,1:0|0:0,0:0:0:0:
335,132,13021,1,0,0:0:0:0:
319,191,13268,2,0,B|304:235|304:235|323:306,1,120,0|8,1:0|0:0,0:0:0:0:
217,362,14251,6,0,P|151:351|98:365,1,120,0|8,2:0|0:0,0:0:0:0:
41,259,15234,2,0,B|83:223|83:223|93:155,1,120,0|8,1:0|0:0,0:0:0:0:
148,137,15972,1,0,0:0:0:0:
202,112,16218,6,0,P|239:108|273:115,1,60,8|0,0:0|0:0,0:0:0:0:
291,59,16710,2,0,P|328:55|362:62,2,60,8|0|0,0:0|0:0|1:0,0:0:0:0:
174,27,17693,1,8,0:0:0:0:
54,35,18185,5,4,0:0:0:0:
54,35,18677,2,0,P|37:97|54:151,1,120,0|0,1:0|1:0,0:0:0:0:
158,91,19661,1,8,0:0:0:0:
277,87,20152,6,0,L|345:87,2,60,0|0|8,1:0|0:0|0:0,0:0:0:0:
240,134,20890,2,0,P|250:194|234:251,1,120
215,307,21628,1,8,0:0:0:0:
327,347,22120,6,0,P|382:361|442:347,1,120,0|8,1:0|0:0,0:0:0:0:
450,228,23103,2,0,L|516:228,2,60,0|0|8,1:0|0:0|0:0,0:0:0:0:
330,215,24087,6,0,P|314:161|327:93,1,120,0|8,0:0|0:0,0:0:0:0:
280,57,24825,1,0,0:0:0:0:
227,85,25070,2,0,P|159:91|108:69,1,120,0|8,0:0|0:0,0:0:0:0:
33,166,26054,6,0,P|22:227|40:282,1,120,0|8,1:0|0:0,0:0:0:0:
157,258,27038,1,0,1:0:0:0:
262,315,27529,1,8,0:0:0:0:
366,255,28021,6,0,L|448:256,2,60,0|0|8,1:0|0:0|0:0,0:0:0:0:
309,233,28759,2,0,P|294:175|314:117,1,120,0|0,0:0|0:0,0:0:0:0:
347,70,29497,1,8,0:0:0:0:
455,121,29988,5,0,1:0:0:0:
379,214,30480,1,8,0:0:0:0:
259,198,30972,2,0,P|200:183|142:199,1,120,0|8,1:0|0:0,0:0:0:0:
65,288,31956,5,0,1:0:0:0:
27,175,32448,2,0,B|22:133|22:133|28:99|28:99|22:40,2,120,8|0|8,0:0|1:0|0:0,0:0:0:0:
143,196,33923,5,0,0:0:0:0:
160,77,34415,2,0,P|210:54|287:53,1,120,12|0,0:0|1:0,0:0:0:0:
393,38,35398,1,8,0:0:0:0:
406,157,35890,6,0,L|465:156,2,60,0|0|8,1:0|0:0|0:0,0:0:0:0:
376,209,36628,2,0,P|372:270|324:310,1,120,0|0,0:0|0:0,0:0:0:0:
272,321,37366,1,8,0:0:0:0:
165,265,37857,5,0,1:0:0:0:
59,321,38349,2,0,L|3:351,2,60,8|0|0,0:0|0:0|1:0,0:0:0:0:
68,201,39333,1,8,0:0:0:0:
165,265,39825,6,0,P|179:200|166:145,1,120,0|8,1:0|0:0,0:0:0:0:
255,67,40808,1,0,1:0:0:0:
282,183,41300,1,8,0:0:0:0:
167,148,41792,5,0,1:0:0:0:
93,247,42284,2,0,P|79:308|99:367,1,120,8|0,0:0|1:0,0:0:0:0:
208,319,43267,1,8,0:0:0:0:
325,344,43759,6,0,L|394:344,2,60,0|0|8,1:0|0:0|0:0,0:0:0:0:
303,287,44497,2,0,B|312:252|305:230|305:230|296:205|309:165,1,120
312,108,45234,1,8,0:0:0:0:
197,70,45726,5,0,1:0:0:0:
94,135,46218,1,8,0:0:0:0:
167,230,46710,2,0,P|149:288|171:349,1,120,0|8,1:0|0:0,0:0:0:0:
272,286,47693,5,0,0:0:0:0:
364,209,48185,1,8,0:0:0:0:
386,326,48677,2,0,L|449:349,2,60,0|0|8,1:0|0:0|0:0,0:0:0:0:
274,285,49661,6,0,P|213:275|164:201,1,150,4|0,1:2|1:0,0:0:0:0:
143,118,50644,2,0,B|191:84|191:84|258:76,1,120,0|8,1:0|0:0,0:0:0:0:
385,198,51874,2,0,P|434:191|476:199,2,90,0|0|0,1:0|1:0|1:0,0:0:0:0:
293,275,53103,1,8,0:0:0:0:
173,277,53595,6,0,P|168:203|188:122,1,150,0|0,1:0|0:0,0:0:0:0:
252,69,54579,2,0,P|316:77|380:91,1,120,0|8,1:0|0:0,0:0:0:0:
419,197,55562,6,0,P|434:258|415:311,2,120,0|8|0,1:0|0:0|1:0,0:0:0:0:
370,88,57038,1,8,0:0:0:0:
254,54,57529,6,0,P|193:64|144:138,1,150,4|0,1:2|1:0,0:0:0:0:
128,221,58513,2,0,B|175:254|175:254|243:263,1,120,0|8,1:0|0:0,0:0:0:0:
414,233,59743,6,0,P|458:225|508:235,2,90,0|0|0,1:0|1:0|1:0,0:0:0:0:
312,169,60971,1,8,0:0:0:0:
231,258,61464,5,0,1:0:0:0:
256,192,61710,12,0,65275,0:0:0:0:
71,140,66382,6,0,L|143:131,1,60,0|0,1:0|0:0,0:0:0:0:
185,159,66874,2,0,L|257:150,1,60
304,154,67366,6,0,P|328:216|309:284,1,120,4|8,1:2|0:0,0:0:0:0:
281,314,68103,1,0,0:0:0:0:
221,305,68349,2,0,P|166:291|100:304,1,120,0|8,0:0|0:0,0:0:0:0:
4,241,69333,5,0,1:0:0:0:
108,181,69825,1,8,0:0:0:0:
104,302,70316,1,0,1:0:0:0:
4,241,70808,1,8,0:0:0:0:
29,123,71300,6,0,P|81:104|128:58,1,120,0|8,1:0|0:0,0:0:0:0:
185,73,72038,1,0,0:0:0:0:
239,97,72284,2,0,P|294:113|358:92,1,120,0|8,1:0|0:0,0:0:0:0:
452,29,73267,2,0,L|485:82,1,60,0|0,1:0|0:0,0:0:0:0:
492,139,73759,2,0,P|506:200|489:260,1,120,8|0,0:0|1:0,0:0:0:0:
374,227,74743,1,8,0:0:0:0:
290,140,75234,6,0,P|228:127|172:140,1,120,0|8,1:0|0:0,0:0:0:0:
126,177,75972,1,0,0:0:0:0:
110,234,76218,2,0,P|172:247|228:234,1,120,0|8,1:0|0:0,0:0:0:0:
289,135,77202,5,0,1:0:0:0:
372,220,77693,1,8,0:0:0:0:
284,301,78185,1,0,1:0:0:0:
207,208,78677,1,8,0:0:0:0:
293,123,79169,6,0,L|292:55,2,60,0|0|8,1:0|0:0|0:0,0:0:0:0:
366,217,80152,2,0,L|427:217,2,60,0|0|8,1:0|0:0|0:0,0:0:0:0:
274,292,81136,6,0,B|236:286|214:293|214:293|190:300|152:287,1,120,0|8,1:0|0:0,0:0:0:0:
105,178,82120,1,0,1:0:0:0:
39,278,82611,1,8,0:0:0:0:
105,178,83103,6,0,P|166:176|230:166,1,120,4|8,0:0|0:0,0:0:0:0:
275,135,83841,1,0,0:0:0:0:
266,75,84087,2,0,P|205:77|141:87,1,120,0|8,1:0|0:0,0:0:0:0:
57,165,85070,5,0,1:0:0:0:
130,260,85562,2,0,P|115:318|139:385,2,120,8|0|8,0:0|1:0|0:0,0:0:0:0:
238,208,87038,5,0,1:0:0:0:
310,303,87529,2,0,P|370:289|432:298,2,120,8|0|8,0:0|1:0|0:0,0:0:0:0:
254,326,88759,1,0,0:0:0:0:
198,349,89005,6,0,P|139:339|74:350,1,120,0|8,1:0|0:0,0:0:0:0:
25,240,89988,1,0,1:0:0:0:
98,145,90480,1,8,0:0:0:0:
172,239,90972,6,0,P|226:227|289:240,1,120,4|8,1:2|0:0,0:0:0:0:
369,150,91956,1,0,1:0:0:0:
410,262,92448,1,8,0:0:0:0:
288,239,92939,5,0,1:0:0:0:
369,150,93431,2,0,L|425:91,2,60,8|0|0,0:0|0:0|1:0,0:0:0:0:
288,239,94415,1,8,0:0:0:0:
183,180,94907,6,0,P|122:166|65:179,2,120,0|8|0,1:0|0:0|1:0,0:0:0:0:
235,209,96136,1,0,0:0:0:0:
292,227,96382,2,0,P|353:241|410:228,1,120,8|0,0:0|1:0,0:0:0:0:
349,123,97366,5,8,0:0:0:0:
267,35,97857,1,0,1:0:0:0:
189,126,98349,1,8,0:0:0:0:
270,214,98841,1,0,1:0:0:0:
