osu file format v14

[General]
AudioFilename: audio.mp3
AudioLeadIn: 0
PreviewTime: 66382
Countdown: 0
SampleSet: Soft
StackLeniency: 0.7
Mode: 0
LetterboxInBreaks: 0
WidescreenStoryboard: 0

[Editor]
Bookmarks: 18185,49661
DistanceSpacing: 1.2
BeatDivisor: 4
GridSize: 8
TimelineZoom: 1

[Metadata]
Title:Colorful
TitleUnicode:Colorful
Artist:SHINee
ArtistUnicode:샤이니
Creator:Firetruck
Version:Easy
Source:
Tags:SM entertainment merry christmas song x-mas xmas k-pop kpop short version cut Lee Jin Ki 이진기 Kim Jonghyun 김종현 Kim Kibum 김기범 Choi Minho 최민호 Key Jonghyun Onew Lee Taemin 이태민 RyoKazuka
BeatmapID:1130967
BeatmapSetID:533861

[Difficulty]
HPDrainRate:3
CircleSize:3
OverallDifficulty:2
ApproachRate:3
SliderMultiplier:0.8
SliderTickRate:1

[Events]
//Background and Video events
Video,1025,"h e l p.avi"
0,0,"christmasbaby.png",0,0
//Break Periods
//Storyboard Layer 0 (Background)
//Storyboard Layer 1 (Fail)
//Storyboard Layer 2 (Pass)
//Storyboard Layer 3 (Foreground)
//Storyboard Sound Samples

[TimingPoints]
2448,491.803278688525,4,2,1,90,1,0
65275,-100,4,2,1,15,0,0
66382,-100,4,2,1,90,0,0
67366,-100,4,2,1,90,0,1
98841,-100,4,2,1,90,0,0

[Colours]
Combo1 : 255,255,128
Combo2 : 255,0,0
Combo3 : 255,128,128
Combo4 : 192,192,192
Combo5 : 0,164,0
Combo6 : 245,93,18

[HitObjects]
95,204,2448,6,0,P|164:207|201:128,1,160,4|0,1:2|1:0,0:0:0:0:
254,53,3923,1,8,0:0:0:0:
321,120,4415,2,0,L|393:270,1,160,0|0,1:0|1:0,0:0:0:0:
221,355,6382,6,0,P|151:347|111:274,1,160,0|0,1:0|1:0,0:0:0:0:
83,181,7857,1,8,0:0:0:0:
164,129,8349,2,0,B|209:116|245:130|245:130|279:142|322:127,1,160,0|0,1:0|1:0,0:0:0:0:
486,29,10316,6,0,P|465:97|492:182,1,160,0|0,1:0|1:0,0:0:0:0:
474,274,11792,1,8,0:0:0:0:
401,336,12284,2,0,B|353:331|353:331|300:341|300:341|240:330,1,160,0|0,1:0|1:0,0:0:0:0:
64,259,14251,6,0,P|89:183|158:141,1,160,0|0,1:0|1:0,0:0:0:0:
241,101,15726,1,8,0:0:0:0:
327,143,16218,2,0,P|345:217|323:296,1,160,0|0,1:0|1:0,0:0:0:0:
134,330,18185,5,4,0:0:0:0:
64,263,18677,2,0,P|43:187|67:108,1,160,0|8,1:0|0:0,0:0:0:0:
147,62,20152,2,0,P|195:56|231:62,1,80,0|8,1:0|0:0,0:0:0:0:
271,145,21136,2,0,P|223:151|187:145,1,80,0|8,1:0|0:0,0:0:0:0:
147,62,22120,5,0,1:0:0:0:
80,130,22611,2,0,P|52:196|90:275,1,160,8|8,0:0|0:0,0:0:0:0:
155,339,24087,2,0,B|195:326|231:338|231:338|265:351|315:335,1,160,0|0,1:0|1:0,0:0:0:0:
265,252,25562,1,8,0:0:0:0:
352,211,26054,5,0,1:0:0:0:
274,153,26546,2,0,P|195:135|117:153,1,160,8|8,0:0|0:0,0:0:0:0:
38,204,28021,2,0,P|30:244|37:282,1,80,0|8,1:0|0:0,0:0:0:0:
124,321,29005,2,0,P|132:281|125:243,1,80,0|8,1:0|0:0,0:0:0:0:
208,195,29988,6,0,P|276:217|358:179,1,160,0|0,1:0|1:0,0:0:0:0:
425,119,31464,1,8,0:0:0:0:
479,197,31956,1,0,1:0:0:0:
433,281,32448,2,0,B|377:303|377:303|274:297,1,160,8|8,0:0|0:0,0:0:0:0:
182,282,33923,5,0,0:0:0:0:
90,251,34415,2,0,P|68:183|92:101,1,160,12|8,0:0|0:0,0:0:0:0:
180,59,35890,2,0,L|264:53,1,80,0|8,1:0|0:0,0:0:0:0:
319,128,36874,2,0,L|403:122,1,80,0|8,1:0|0:0,0:0:0:0:
459,47,37857,5,0,1:0:0:0:
502,132,38349,2,0,L|486:295,1,160,8|8,0:0|0:0,0:0:0:0:
411,352,39825,2,0,L|321:343,1,80,0|8,1:0|0:0,0:0:0:0:
245,300,40808,2,0,L|155:291,1,80,0|8,1:0|0:0,0:0:0:0:
105,216,41792,6,0,P|97:174|107:136,1,80,0|8,1:0|0:0,0:0:0:0:
193,99,42775,2,0,P|201:141|191:179,1,80,0|8,1:0|0:0,0:0:0:0:
105,216,43759,2,0,P|172:265|248:256,1,160,0|0,1:0|1:0,0:0:0:0:
311,185,45234,1,8,0:0:0:0:
380,252,45726,6,0,P|411:187|376:108,1,160,0|0,1:0|1:0,0:0:0:0:
308,45,47202,1,8,0:0:0:0:
249,122,47693,2,0,P|209:131|167:120,1,80,0|8,1:0|0:0,0:0:0:0:
130,35,48677,2,0,P|170:26|212:37,1,80,0|8,1:0|0:0,0:0:0:0:
249,122,49661,6,0,L|422:116,1,160,4|0,1:2|1:0,0:0:0:0:
476,186,51136,1,8,0:0:0:0:
457,280,51628,2,0,B|408:267|371:280|371:280|333:293|294:273,1,160,0|0,0:0|1:0,0:0:0:0:
210,309,53103,1,8,0:0:0:0:
138,244,53595,6,0,P|109:183|140:99,1,160,0|0,1:0|1:0,0:0:0:0:
204,29,55070,1,8,0:0:0:0:
277,91,55562,2,0,P|318:84|359:90,1,80,0|8,1:0|0:0,0:0:0:0:
397,175,56546,2,0,P|356:182|315:176,1,80,0|8,1:0|0:0,0:0:0:0:
275,91,57529,6,0,P|224:155|243:231,1,160,4|0,1:2|1:0,0:0:0:0:
305,295,59005,1,8,0:0:0:0:
390,250,59497,2,0,L|458:104,1,160,0|0,0:0|1:0,0:0:0:0:
403,25,60972,1,8,0:0:0:0:
256,192,61464,12,0,65275,0:0:0:0:
43,60,67366,6,0,P|20:148|43:219,1,160,4|0,1:2|1:0,0:0:0:0:
124,256,68841,1,8,0:0:0:0:
215,225,69333,2,0,B|243:227|269:211|269:211|292:220|317:234|317:234|341:225|373:225,1,160,0|0,1:0|1:0,0:0:0:0:
437,160,70808,1,8,0:0:0:0:
480,247,71300,6,0,P|486:288|476:331,2,80,0|8|0,1:0|0:0|1:0,0:0:0:0:
437,160,72775,1,8,0:0:0:0:
366,227,73267,2,0,P|318:232|270:136,1,160,0|0,1:0|1:0,0:0:0:0:
245,52,74743,1,8,0:0:0:0:
161,98,75234,6,0,L|82:239,1,160,4|0,1:2|1:0,0:0:0:0:
47,327,76710,1,8,0:0:0:0:
143,327,77202,2,0,P|212:310|299:329,1,160,0|0,1:0|1:0,0:0:0:0:
388,296,78677,1,8,0:0:0:0:
449,221,79169,6,0,P|457:184|448:144,1,80,0|8,1:0|0:0,0:0:0:0:
358,107,80152,2,0,P|350:144|359:184,1,80,0|8,1:0|0:0,0:0:0:0:
449,221,81136,2,0,P|379:277|310:264,1,160,0|0,1:0|1:0,0:0:0:0:
234,212,82611,1,8,0:0:0:0:
151,260,83103,6,0,P|111:266|72:260,1,80,4|8,1:2|0:0,0:0:0:0:
31,172,84087,2,0,P|71:166|110:172,1,80,0|8,1:0|0:0,0:0:0:0:
190,119,85070,1,0,1:0:0:0:
271,170,85562,2,0,P|310:163|351:169,2,80,8|0|8,0:0|1:0|0:0,0:0:0:0:
190,222,87038,5,0,1:0:0:0:
103,179,87529,2,0,P|97:144|108:97,1,80,8|0,0:0|1:0,0:0:0:0:
179,38,88513,1,8,0:0:0:0:
265,80,89005,1,0,1:0:0:0:
350,124,89497,2,0,L|359:283,1,160,8|8,0:0|0:0,0:0:0:0:
275,331,90972,6,0,B|235:322|198:338|198:338|162:353|115:335,1,160,4|0,1:2|1:0,0:0:0:0:
34,289,92448,1,8,0:0:0:0:
73,202,92939,2,0,P|54:139|82:50,1,160,0|0,1:0|1:0,0:0:0:0:
172,82,94415,1,8,0:0:0:0:
259,43,94907,6,0,P|305:38|345:44,1,80,0|8,1:0|0:0,0:0:0:0:
381,128,95890,2,0,P|335:133|295:127,1,80,0|8,1:0|0:0,0:0:0:0:
259,43,96874,1,0,1:0:0:0:
183,102,97366,2,0,P|149:167|175:249,1,160,8|8,0:0|0:0,0:0:0:0:
222,329,98841,1,0,1:0:0:0:
