osu file format v14

[General]
AudioFilename: Obitosong.mp3
AudioLeadIn: 0
PreviewTime: 45701
Countdown: 0
SampleSet: Soft
StackLeniency: 0.4
Mode: 0
LetterboxInBreaks: 0
WidescreenStoryboard: 1

[Editor]
DistanceSpacing: 0.3
BeatDivisor: 4
GridSize: 16
TimelineZoom: 2.2

[Metadata]
Title:Niji (TV Size)
TitleUnicode:虹 (TV Size)
Artist:SHINKU-HOROU
ArtistUnicode:真空ホロウ
Creator:-Lian-
Version:Sweets' Insane
Source:NARUTO-ナルト-疾風伝
Tags:Anime Japanese jrock rock j-rock Naruto Shippuden Ending ed 28 Tobi Obito Shinkuu Shinku Horou Hollow Vacuum Alternator Lian2002 Pepekcz Sweets Umi Sonoda
BeatmapID:2963702
BeatmapSetID:1406240

[Difficulty]
HPDrainRate:4.8
CircleSize:4
OverallDifficulty:7.8
ApproachRate:9
SliderMultiplier:1.54
SliderTickRate:1

[Events]
//Background and Video events
0,0,"tobito.jpg",0,0
Video,380,"obitosad.avi"
//Break Periods
//Storyboard Layer 0 (Background)
//Storyboard Layer 1 (Fail)
//Storyboard Layer 2 (Pass)
//Storyboard Layer 3 (Foreground)
//Storyboard Layer 4 (Overlay)
//Storyboard Sound Samples

[TimingPoints]
-58,434.782608695652,4,2,2,35,1,0
2333,434.782608695652,4,2,2,70,1,1
2333,-50,4,2,2,35,0,0
2550,434.782608695652,4,2,2,70,1,1
2550,-50,4,2,2,70,0,1
9289,-50,4,2,2,70,0,0
11245,-76.9230769230769,4,2,1,60,0,0
16897,413.793103448276,4,2,1,60,1,0
17555,434.782608695652,4,2,1,60,1,0
17766,434.782608695652,4,2,1,60,1,0
18197,434.782608695652,4,2,1,50,1,0
18197,-100,4,2,1,50,0,0
25158,434.782608695652,4,2,1,50,1,0
32114,-125,4,2,1,60,0,0
42114,-100,4,2,1,60,0,0
42549,-100,4,2,1,70,0,0
45810,-100,4,2,1,50,0,0
46028,419.58041958042,4,2,1,50,1,0
47076,472.999605833662,4,2,1,50,1,0
47549,434.782608695652,4,2,2,70,1,1
47549,-50,4,2,2,70,0,1
47766,434.782608695652,4,2,2,70,1,1
47766,-50,4,2,2,70,0,1
59505,-50,4,2,2,70,0,0
59939,-50,4,2,2,70,0,1
69505,-66.6666666666667,4,2,2,70,0,1
70374,-100,4,3,2,60,0,0
84290,1090.90909090909,4,3,2,60,1,0
85380,-100,4,2,1,60,0,0
86471,-100,4,2,0,30,0,0
87562,-100,4,2,0,20,0,0
88653,-100,4,2,0,5,0,0

[Colours]
Combo1 : 128,64,64
Combo2 : 0,128,64
Combo3 : 255,128,0
Combo4 : 128,0,0

[HitObjects]
114,147,2333,6,0,B|87:116|87:116|201:160,1,154,6|0,3:2|0:2,0:0:0:0:
244,229,2658,1,0,0:2:0:0:
254,235,2767,2,0,P|284:208|288:148,1,77,0|0,3:2|0:2,0:0:0:0:
228,36,2984,2,0,P|236:75|286:108,1,77,2|0,1:3|0:2,0:0:0:0:
406,46,3202,6,0,P|366:50|329:97,1,77,0|0,3:2|1:2,0:0:0:0:
369,145,3419,2,0,P|408:140|445:93,1,77,2|0,0:3|1:2,0:0:0:0:
452,264,3636,1,0,3:2:0:0:
443,252,3745,1,0,0:2:0:0:
434,241,3854,6,0,B|381:269|381:269|369:307|369:307|315:344,1,154,2|0,1:3|3:2,0:0:0:0:
239,355,4180,1,0,0:2:0:0:
229,361,4289,2,0,P|207:322|215:274,1,77,6|0,3:3|0:2,0:0:0:0:
128,299,4506,2,0,P|133:255|168:220,1,77,0|0,3:2|0:2,0:0:0:0:
119,129,4723,6,0,L|192:156,1,77,2|0,1:3|0:2,0:0:0:0:
221,19,4941,2,0,B|149:40|149:40|143:38|143:38|68:59,1,154,0|2,3:2|0:3,0:0:0:0:
35,142,5267,1,0,1:2:0:0:
44,149,5376,2,0,L|118:128,1,77,0|0,3:2|0:2,0:0:0:0:
279,170,5593,6,0,P|278:131|258:99,1,77,2|0,1:3|0:2,0:0:0:0:
453,20,5810,2,0,P|375:51|358:120,1,154,0|6,3:2|3:3,0:0:0:0:
411,174,6136,1,0,0:2:0:0:
407,184,6245,2,0,P|452:173|500:165,1,77,0|0,3:2|0:2,0:0:0:0:
392,263,6463,6,0,B|339:235|339:235|327:197|327:197|270:165,1,154,2|0,1:3|3:2,0:0:0:0:
202,209,6789,1,0,3:2:0:0:
211,214,6897,2,0,P|191:245|190:283,1,77,2|0,0:3|1:2,0:0:0:0:
122,325,7115,2,0,P|145:353|181:365,1,77,0|0,3:2|0:2,0:0:0:0:
35,207,7332,5,2,1:3:0:0:
38,225,7441,1,0,0:2:0:0:
43,244,7549,1,0,3:2:0:0:
46,263,7658,1,0,0:2:0:0:
51,278,7767,6,0,L|82:119,1,154,6|0,3:3|3:2,0:0:0:0:
232,54,8093,1,0,0:2:0:0:
240,62,8202,2,0,L|209:221,1,154,2|0,1:3|3:2,0:0:0:0:
262,283,8528,1,0,3:2:0:0:
256,292,8636,6,0,P|294:298|328:277,1,77,2|0,0:3|1:2,0:0:0:0:
395,144,8854,2,0,P|370:173|371:213,1,77,0|0,3:2|0:2,0:0:0:0:
453,338,9071,2,0,P|439:302|404:283,1,77,2|0,1:3|0:2,0:0:0:0:
256,292,9289,6,0,B|202:252|202:252|239:67,1,231,4|0,3:2|0:2,0:0:0:0:
254,16,9723,1,8,2:3:0:0:
162,83,9941,1,8,0:3:0:0:
295,212,10158,1,4,1:2:0:0:
418,27,10810,5,0,1:2:0:0:
442,27,10919,1,8,0:3:0:0:
465,37,11028,1,4,0:3:0:0:
482,55,11136,1,0,1:2:0:0:
486,79,11245,6,0,P|468:101|443:114,1,50.0499977088929,4|0,3:2|0:2,0:0:0:0:
390,161,11463,2,0,P|363:150|343:130,1,50.0499977088929,0|0,3:2|0:2,0:0:0:0:
260,15,11680,6,0,L|277:125,1,100.099995417786,2|0,1:3|2:2,0:0:0:0:
215,163,12006,1,2,3:3:0:0:
220,168,12115,2,0,L|203:278,1,100.099995417786,0|2,0:2|3:3,0:0:0:0:
41,38,12549,5,0,1:2:0:0:
44,62,12658,1,0,0:2:0:0:
48,87,12767,1,0,0:2:0:0:
52,112,12876,1,0,0:2:0:0:
56,136,12984,6,0,L|66:201,1,50.0499977088929,2|0,3:3|0:2,0:0:0:0:
127,231,13202,2,0,L|117:296,1,50.0499977088929,0|0,3:2|0:2,0:0:0:0:
56,356,13419,6,0,L|166:373,1,100.099995417786,0|0,1:3|3:2,0:0:0:0:
204,311,13745,1,2,3:3:0:0:
198,306,13854,2,0,L|308:289,1,100.099995417786,0|2,0:2|3:3,0:0:0:0:
390,341,14180,1,0,0:2:0:0:
396,343,14289,6,0,B|375:224|375:224|402:249,1,150.149993126679,0|0,1:2|0:2,0:0:0:0:
424,169,14723,6,0,P|392:150|363:151,1,50.0499977088929,2|0,3:3|0:2,0:0:0:0:
341,82,14941,2,0,P|313:106|305:134,1,50.0499977088929,0|0,3:2|0:2,0:0:0:0:
172,138,15158,6,0,P|240:159|262:200,1,100.099995417786,0|0,1:3|3:2,0:0:0:0:
202,238,15484,1,2,3:3:0:0:
199,244,15593,2,0,P|131:265|109:306,1,100.099995417786,0|2,0:2|3:3,0:0:0:0:
36,26,16028,6,0,P|70:60|119:68,1,100.099995417786,0|0,1:2|0:2,0:0:0:0:
183,24,16354,1,0,0:2:0:0:
190,26,16463,2,0,P|216:13|247:15,1,50.0499977088929,2|0,3:3|0:2,0:0:0:0:
281,75,16680,2,0,P|301:95|309:125,1,50.0499977088929,0|0,3:2|0:2,0:0:0:0:
276,305,16897,5,0,1:2:0:0:
276,254,17000,1,0,1:2:0:0:
319,279,17103,1,0,1:2:0:0:
288,283,17207,5,4,3:2:0:0:
288,283,17555,5,0,3:2:0:0:
192,221,17766,5,0,1:2:0:0:
198,237,17874,1,0,3:2:0:0:
81,356,18197,6,0,L|96:252,1,77,4|0,3:2|3:2,0:0:0:0:
104,205,18523,1,0,0:2:0:0:
105,197,18631,1,2,1:3:0:0:
30,72,18849,5,0,2:2:0:0:
33,78,18957,1,0,3:2:0:0:
36,84,19066,6,0,P|78:114|116:109,1,77,2|0,0:3|3:2,0:0:0:0:
146,49,19392,2,0,P|188:19|226:24,1,77,0|0,0:2|0:2,0:0:0:0:
261,81,19718,2,0,P|303:111|341:106,1,77,0|6,0:2|3:3,0:0:0:0:
473,68,20153,5,0,3:3:0:0:
388,27,20370,2,0,L|401:102,1,77,0|0,1:3|0:2,0:0:0:0:
462,146,20697,1,0,3:2:0:0:
467,144,20805,6,0,L|458:196,1,38.5,2|0,2:3|0:2,0:0:0:0:
408,240,21023,1,0,3:2:0:0:
446,346,21240,2,0,L|331:319,1,115.5,0|0,1:2|0:2,0:0:0:0:
254,239,21675,6,0,P|274:256|283:275,1,38.5,6|0,3:3|0:2,0:0:0:0:
334,320,21892,2,0,P|324:344|308:358,1,38.5,0|0,3:3|0:2,0:0:0:0:
168,355,22110,6,0,P|178:312|190:277,1,77,0|0,1:2|0:2,0:0:0:0:
147,215,22436,1,0,3:2:0:0:
151,211,22544,6,0,P|146:189|140:172,1,38.5,2|0,0:3|0:2,0:0:0:0:
83,119,22762,1,0,3:2:0:0:
174,48,22979,1,0,1:2:0:0:
4,117,23414,6,0,L|17:167,1,38.5,6|0,3:3|0:2,0:0:0:0:
81,191,23631,2,0,L|68:241,1,38.5,0|0,3:3|0:2,0:0:0:0:
30,338,23849,6,0,P|61:307|116:322,1,77,0|0,1:2|0:2,0:0:0:0:
157,263,24175,1,0,3:2:0:0:
160,258,24283,2,0,P|172:273|193:285,1,38.5,2|0,0:3|0:2,0:0:0:0:
260,254,24501,5,0,3:2:0:0:
313,363,24718,1,0,1:2:0:0:
480,147,25158,6,0,P|438:177|400:172,1,77,6|0,3:3|3:3,0:0:0:0:
370,112,25484,2,0,P|328:82|290:87,1,77,0|0,0:2|0:2,0:0:0:0:
243,131,25810,1,0,0:2:0:0:
240,136,25918,1,0,3:2:0:0:
237,141,26027,2,0,L|251:213,1,38.5,2|0,0:3|0:2,0:0:0:0:
260,254,26244,5,0,3:2:0:0:
165,171,26462,1,0,1:2:0:0:
260,254,26897,6,0,P|297:246|329:236,1,38.5,6|0,3:3|0:2,0:0:0:0:
354,302,27114,2,0,P|391:310|423:320,1,38.5,0|0,3:3|0:2,0:0:0:0:
496,368,27331,6,0,P|471:327|489:275,1,77,0|0,1:2|0:2,0:0:0:0:
421,239,27658,1,0,3:2:0:0:
425,235,27766,2,0,P|434:217|440:197,1,38.5,2|0,0:3|0:2,0:0:0:0:
404,130,27984,5,0,3:2:0:0:
479,38,28201,2,0,L|358:60,1,115.5,0|0,1:2|0:2,0:0:0:0:
211,17,28636,6,0,P|244:69|255:111,1,77,6|0,3:3|3:3,0:0:0:0:
305,138,28962,1,0,0:2:0:0:
305,138,29071,6,0,P|288:157|267:167,1,38.5,0|0,1:2|0:2,0:0:0:0:
222,213,29288,2,0,P|198:202|182:185,1,38.5,0|0,0:2|3:2,0:0:0:0:
125,157,29505,2,0,P|128:130|139:110,1,38.5,2|0,0:3|0:2,0:0:0:0:
94,50,29723,1,0,3:2:0:0:
9,181,29940,6,0,P|59:200|81:276,1,115.5,4|0,1:2|0:2,0:0:0:0:
115,324,30375,2,0,L|157:337,1,38.5,2|0,3:3|0:2,0:0:0:0:
208,281,30592,2,0,L|250:268,1,38.5,0|0,3:2|0:2,0:0:0:0:
339,172,30810,6,0,L|319:301,1,115.5,2|0,1:3|0:2,0:0:0:0:
253,333,31244,5,0,1:2:0:0:
222,309,31353,1,0,1:2:0:0:
208,281,31462,1,8,0:3:0:0:
210,250,31571,1,8,0:3:0:0:
222,230,31679,1,4,3:3:0:0:
240,216,31788,1,4,0:3:0:0:
248,203,31897,1,4,3:3:0:0:
251,188,32005,1,4,0:3:0:0:
239,172,32114,6,0,P|189:177|158:209,1,92.4,4|0,3:2|0:0,0:0:0:0:
95,274,32549,2,0,L|72:147,1,123.2,2|2,1:3|0:3,0:0:0:0:
63,239,33418,2,0,P|83:193|71:150,1,92.4,2|0,1:3|0:3,0:3:0:0:
92,53,33853,6,0,P|121:93|164:104,1,92.4,6|0,3:3|3:0,0:0:0:0:
172,102,34288,2,0,P|199:78|235:73,1,61.6,2|0,1:3|0:0,0:0:0:0:
295,104,34614,1,0,1:0:0:0:
297,113,34723,1,2,3:3:0:0:
338,36,34940,1,0,3:0:0:0:
450,182,35158,6,0,L|349:169,1,92.4,2|0,1:3|0:0,0:0:0:0:
349,176,35592,1,6,3:0:0:0:
413,271,35918,1,0,3:0:0:0:
421,268,36027,1,2,1:3:0:0:
337,354,36244,1,0,2:0:0:0:
240,231,36462,6,0,L|250:315,1,61.6,2|0,3:3|0:0,0:0:0:0:
157,347,36788,1,0,3:0:0:0:
162,355,36897,2,0,L|172:271,1,61.6,2|0,1:3|0:0,0:0:0:0:
112,239,37223,1,0,0:0:0:0:
107,247,37331,2,0,L|97:163,1,61.6,6|0,3:0|0:0,0:0:0:0:
133,30,37766,5,2,1:3:0:0:
51,87,38092,1,0,1:0:0:0:
41,88,38201,1,2,3:3:0:0:
166,140,38418,5,0,3:0:0:0:
237,30,38636,2,0,L|227:114,1,61.6,2|0,1:3|3:0,0:0:0:0:
273,219,39071,6,0,P|323:214|354:182,1,92.4,6|0,3:3|3:0,0:0:0:0:
418,52,39505,2,0,L|434:198,1,123.2,2|2,1:3|0:3,0:0:0:0:
504,205,40157,1,0,3:0:0:0:
473,303,40375,6,0,P|443:262|400:251,1,92.4,2|0,1:3|0:0,0:0:0:0:
401,261,40810,2,0,P|367:282|357:304,1,61.6,6|0,3:3|0:0,0:0:0:0:
265,354,41244,6,0,L|182:340,1,61.6,2|0,1:3|3:0,0:0:0:0:
129,332,41571,1,0,1:0:0:0:
125,323,41679,6,0,L|116:270,1,30.8,2|0,3:3|0:0,0:0:0:0:
64,237,41897,2,0,L|73:184,1,30.8,0|0,3:0|0:0,0:0:0:0:
186,157,42114,6,0,L|172:253,1,77,0|0,1:0|3:0,0:0:0:0:
272,180,42549,5,0,1:2:0:0:
267,157,42657,1,8,0:3:0:0:
263,134,42766,1,0,3:2:0:0:
258,112,42875,1,4,0:3:0:0:
254,89,42984,1,4,1:2:0:0:
70,41,43201,5,8,0:3:0:0:
87,55,43310,1,8,0:3:0:0:
97,75,43418,2,0,P|104:97|100:118,1,38.5,0|4,3:2|0:3,0:0:0:0:
13,181,43636,2,0,P|28:163|48:156,1,38.5,4|0,1:2|0:2,0:0:0:0:
145,220,43853,5,8,0:3:0:0:
140,243,43962,1,0,1:2:0:0:
136,266,44071,1,8,0:3:0:0:
131,288,44179,1,8,0:3:0:0:
127,311,44288,5,4,1:2:0:0:
41,157,44505,1,0,1:2:0:0:
127,311,44723,5,8,0:3:0:0:
154,306,44831,1,8,2:3:0:0:
181,300,44940,1,8,2:3:0:0:
208,295,45049,1,8,0:3:0:0:
236,289,45157,1,4,1:2:0:0:
292,169,45375,5,0,1:2:0:0:
370,258,45592,1,8,0:3:0:0:
343,253,45701,1,4,0:3:0:0:
315,247,45810,1,4,1:2:0:0:
302,33,47549,6,0,B|244:53|244:53|225:80|225:80|147:105,1,154,6|0,3:2|0:2,0:0:0:0:
31,26,47874,5,0,0:2:0:0:
41,21,47983,2,0,P|69:38|93:81,1,77,0|0,3:2|0:1,0:0:0:0:
89,223,48200,2,0,P|89:190|114:147,1,77,2|0,1:3|0:2,0:0:0:0:
220,184,48418,2,0,P|219:216|194:259,1,77,0|0,3:2|1:2,0:0:0:0:
146,368,48635,5,2,0:3:0:0:
152,358,48744,1,0,1:2:0:0:
161,351,48852,2,0,P|189:335|238:335,1,77,0|0,3:2|0:2,0:0:0:0:
302,202,49070,6,0,B|331:174|331:174|297:295,1,154,2|0,1:3|3:2,0:0:0:0:
349,351,49396,1,0,0:2:0:0:
342,360,49505,2,0,P|370:376|419:376,1,77,6|0,3:3|0:2,0:0:0:0:
435,300,49722,2,0,P|458:278|474:231,1,77,0|0,3:2|0:2,0:0:0:0:
468,100,49939,6,0,B|431:45|374:69|374:69|353:103|293:102,1,154,2|0,1:3|3:2,0:0:0:0:
257,127,50266,1,0,3:2:0:0:
246,122,50374,2,0,P|225:90|227:47,1,77,2|0,0:3|1:2,0:0:0:0:
318,26,50592,2,0,P|339:58|337:101,1,77,0|0,3:2|0:2,0:0:0:0:
194,187,50809,6,0,B|89:151|89:151|117:187,1,154,2|0,1:3|3:2,0:0:0:0:
144,269,51135,1,0,0:2:0:0:
155,266,51244,2,0,P|150:303|122:333,1,77,6|0,3:3|0:2,0:0:0:0:
17,284,51461,2,0,P|22:247|50:217,1,77,0|0,3:2|0:2,0:0:0:0:
210,361,51679,6,0,B|254:330|254:330|266:292|266:292|319:264,1,154,2|0,1:3|3:2,0:0:0:0:
341,173,52005,1,0,3:2:0:0:
349,181,52113,2,0,P|388:199|403:227,1,77,2|0,0:3|1:2,0:0:0:0:
457,341,52331,2,0,P|453:298|469:271,1,77,0|0,3:2|0:2,0:0:0:0:
428,136,52548,5,2,1:3:0:0:
446,141,52657,1,0,0:2:0:0:
464,145,52766,1,0,3:2:0:0:
482,149,52874,1,0,0:2:0:0:
500,153,52983,6,0,L|339:181,1,154,6|0,3:2|3:2,0:0:0:0:
227,54,53309,1,0,0:2:0:0:
216,49,53418,2,0,L|367:23,1,154,2|0,1:3|3:2,0:0:0:0:
339,107,53744,5,0,3:2:0:0:
344,116,53852,2,0,P|328:142|280:161,1,77,2|0,0:3|1:2,0:0:0:0:
141,117,54070,2,0,P|171:117|211:149,1,77,0|0,3:2|0:2,0:0:0:0:
244,293,54287,2,0,P|229:266|237:215,1,77,2|0,1:3|0:2,0:0:0:0:
48,190,54505,6,0,P|144:227|144:278,1,154,0|6,3:2|3:3,0:0:0:0:
82,330,54831,1,0,0:2:0:0:
85,319,54939,2,0,P|50:326|15:356,1,77,0|0,3:2|0:2,0:0:0:0:
192,361,55157,6,0,B|224:306|286:330|286:330|307:364|367:363,1,154,2|0,1:3|3:2,0:0:0:0:
391,313,55483,1,0,3:2:0:0:
401,318,55592,2,0,P|421:290|417:245,1,77,2|0,0:3|3:2,0:0:0:0:
467,185,55809,2,0,P|446:157|402:147,1,77,0|0,3:2|2:2,0:0:0:0:
261,191,56026,6,0,B|298:219|298:219|261:101,1,154,2|0,1:3|3:2,0:0:0:0:
309,10,56352,1,0,0:2:0:0:
318,16,56461,2,0,P|338:34|344:90,1,77,6|0,3:3|0:2,0:0:0:0:
265,116,56679,2,0,P|245:98|239:42,1,77,0|0,3:2|0:2,0:0:0:0:
181,156,56896,6,0,B|129:186|129:186|122:208|122:208|58:244,1,154,2|0,1:3|3:2,0:0:0:0:
77,346,57222,1,0,3:2:0:0:
83,355,57331,2,0,P|108:334|121:284,1,77,2|0,2:3|1:2,0:0:0:0:
60,242,57548,2,0,P|47:211|4:183,1,77,0|0,3:2|0:2,0:0:0:0:
135,40,57766,6,0,P|114:66|111:117,1,77,2|0,1:3|0:2,0:0:0:0:
181,156,57983,2,0,P|199:184|246:202,1,77,0|0,3:2|0:2,0:0:0:0:
373,93,58200,6,0,L|357:174,1,77,6|0,3:3|0:2,0:0:0:0:
330,297,58418,1,0,3:2:0:0:
181,156,58635,6,0,L|197:237,1,77,2|0,1:3|0:2,0:0:0:0:
224,360,58852,1,0,3:2:0:0:
212,78,59070,5,2,1:3:0:0:
173,51,59179,1,0,1:2:0:0:
126,56,59287,2,0,P|89:81|77:122,1,77,0|0,1:0|1:0,0:0:0:0:
32,182,59505,5,2,1:3:0:0:
36,204,59613,1,0,1:2:0:0:
40,226,59722,1,0,1:2:0:0:
44,248,59831,1,0,1:2:0:0:
47,271,59939,6,0,B|17:240|17:240|144:273,1,154,6|0,3:2|0:2,0:0:0:0:
182,370,60266,1,0,0:2:0:0:
172,362,60374,2,0,P|229:289|305:309,1,154,2|0,1:3|3:2,0:0:0:0:
312,210,60700,1,0,1:2:0:0:
320,218,60809,2,0,P|339:186|334:144,1,77,0|0,3:2|1:2,0:0:0:0:
193,88,61026,6,0,P|211:120|250:137,1,77,0|0,3:2|0:2,0:0:0:0:
314,63,61244,2,0,P|295:30|256:13,1,77,0|0,1:2|0:2,0:0:0:0:
450,27,61461,6,0,L|422:192,1,154,4|6,3:3|0:3,0:0:0:0:
488,235,61787,1,0,0:2:0:0:
493,245,61896,2,0,P|467:280|418:286,1,77,0|0,3:2|0:2,0:0:0:0:
282,293,62113,6,0,P|325:298|355:337,1,77,2|0,1:3|0:2,0:0:0:0:
206,275,62331,2,0,P|224:235|270:219,1,77,0|0,3:2|1:2,0:0:0:0:
165,354,62548,5,2,0:3:0:0:
156,345,62657,1,0,1:2:0:0:
145,339,62765,2,0,P|107:337|66:373,1,77,0|0,3:2|0:2,0:0:0:0:
13,194,62983,6,0,P|81:260|137:238,1,154,2|0,1:3|3:2,0:0:0:0:
158,164,63309,1,0,0:2:0:0:
167,171,63418,2,0,L|152:88,1,77,6|0,3:2|0:2,0:0:0:0:
73,40,63635,2,0,L|59:115,1,77,0|0,3:2|0:2,0:0:0:0:
245,181,63852,6,0,L|213:11,1,154,2|0,1:3|3:2,0:0:0:0:
310,63,64179,1,0,3:2:0:0:
302,71,64287,2,0,P|321:95|367:112,1,77,2|0,0:3|1:2,0:0:0:0:
402,182,64505,2,0,P|430:171|461:132,1,77,0|0,3:2|0:2,0:0:0:0:
492,256,64722,6,0,P|436:255|397:341,1,154,2|0,1:3|3:2,0:0:0:0:
311,365,65048,1,0,0:2:0:0:
317,355,65157,2,0,P|288:318|245:317,1,77,6|0,3:3|0:2,0:0:0:0:
209,252,65374,2,0,P|164:268|150:308,1,77,0|0,3:2|0:2,0:0:0:0:
49,360,65592,6,0,L|25:203,1,154,2|0,1:3|3:2,0:0:0:0:
67,131,65918,1,0,3:2:0:0:
76,125,66026,2,0,P|122:144|138:181,1,77,2|0,0:3|1:2,0:0:0:0:
222,33,66244,6,0,L|142:53,1,77,0|0,3:2|0:2,0:0:0:0:
297,140,66461,2,0,L|217:120,1,77,2|0,1:3|0:2,0:0:0:0:
409,69,66679,5,0,3:2:0:0:
415,78,66787,1,0,0:2:0:0:
421,87,66896,2,0,P|426:120|396:168,1,77,6|0,3:3|0:2,0:0:0:0:
297,140,67113,2,0,P|292:107|322:59,1,77,0|0,3:2|0:2,0:0:0:0:
402,253,67331,6,0,B|340:210|340:210|249:239,1,154,2|0,1:3|3:3,0:0:0:0:
143,297,67657,1,0,3:2:0:0:
137,307,67766,2,0,P|175:294|196:257,1,77,2|0,0:3|1:2,0:0:0:0:
265,234,67983,2,0,P|264:193|235:162,1,77,0|0,3:2|0:2,0:0:0:0:
104,196,68200,5,2,1:2:0:0:
31,65,68418,6,0,B|82:119|82:119|254:81,1,231,6|0,3:2|0:2,0:0:0:0:
310,68,68852,1,8,0:3:0:0:
242,166,69070,1,8,0:3:0:0:
109,36,69287,1,8,0:3:0:0:
11,164,69505,6,0,B|58:208|58:208|175:181,1,173.250006608963,4|0,1:2|0:2,0:0:0:0:
266,256,69939,2,0,B|219:300|219:300|102:273,1,173.250006608963,8|0,3:3|0:2,0:0:0:0:
23,322,70374,5,6,3:2:0:0:
266,256,70809,5,2,3:0:0:0:
302,328,71026,1,0,3:0:0:0:
401,293,71244,6,0,L|412:214,1,77,2|0,1:3|3:0,0:0:0:0:
414,202,71570,1,0,1:0:0:0:
415,196,71679,1,2,3:0:0:0:
485,86,71896,6,0,L|384:115,1,77,0|6,3:0|3:0,0:0:0:0:
290,26,72331,1,0,3:0:0:0:
336,90,72548,2,0,P|295:112|278:145,1,77,2|0,3:0|3:0,0:0:0:0:
222,188,72874,1,0,2:0:0:0:
224,193,72983,6,0,L|97:169,1,115.5,6|0,1:2|0:0,0:0:0:0:
55,101,73418,2,0,L|168:79,1,115.5,2|0,1:2|0:0,0:0:0:0:
219,20,73852,5,6,3:2:0:0:
110,171,74287,5,2,3:3:0:0:
56,228,74505,1,0,0:0:0:0:
123,309,74722,6,0,L|216:293,1,77,2|0,1:3|0:0,0:0:0:0:
249,233,75048,1,0,1:0:0:0:
254,234,75157,6,0,L|347:250,1,77,2|0,0:3|0:0,0:0:0:0:
428,151,75592,5,6,0:3:0:0:
409,227,75809,1,0,0:0:0:0:
391,304,76026,1,2,0:3:0:0:
322,240,76244,1,0,0:0:0:0:
326,243,76352,1,0,0:0:0:0:
329,247,76461,6,0,L|253:233,1,77,6|0,1:2|0:0,0:0:0:0:
193,122,76896,2,0,L|269:108,1,77,2|0,1:3|0:0,0:0:0:0:
94,18,77331,5,6,0:2:0:0:
114,98,77548,1,0,0:0:0:0:
133,180,77765,1,2,0:3:0:0:
133,180,78200,6,0,P|110:210|93:250,1,77,2|0,1:3|0:0,0:0:0:0:
24,285,78526,2,0,P|47:315|64:355,1,77,0|0,1:0|0:0,0:0:0:0:
140,366,78852,5,0,0:0:0:0:
241,303,79070,6,0,L|229:227,1,77,6|0,0:3|0:0,0:0:0:0:
227,212,79396,1,0,0:0:0:0:
226,206,79505,1,2,0:3:0:0:
280,146,79722,1,0,0:0:0:0:
190,56,79939,6,0,B|223:79|223:79|309:59,1,115.5,6|0,1:2|0:0,0:0:0:0:
357,117,80374,2,0,B|390:93|390:93|476:113,1,115.5,2|0,1:3|0:0,0:0:0:0:
507,183,80809,6,0,P|511:227|490:249,1,77,6|0,0:2|0:0,0:0:0:0:
352,196,81244,5,2,0:3:0:0:
397,260,81461,1,0,0:0:0:0:
327,345,81679,6,0,L|246:328,1,77,2|0,1:3|0:0,0:0:0:0:
238,326,82005,1,0,1:0:0:0:
232,324,82113,1,2,0:3:0:0:
164,365,82331,1,0,0:0:0:0:
128,226,82548,5,6,0:3:0:0:
205,241,82765,1,0,0:0:0:0:
281,257,82983,1,2,0:3:0:0:
455,99,83309,5,0,0:0:0:0:
446,106,83418,2,0,P|413:81|365:83,1,77,6|0,1:2|0:0,0:0:0:0:
262,177,83852,2,0,P|300:160|322:118,1,77,2|0,1:3|0:0,0:0:0:0:
214,21,84287,5,4,3:2:0:0:
256,268,85380,5,4,3:2:0:0:
256,192,85653,12,0,88653,0:0:0:0:
