osu file format v14

[General]
AudioFilename: Obitosong.mp3
AudioLeadIn: 0
PreviewTime: 45701
Countdown: 0
SampleSet: Soft
StackLeniency: 0.4
Mode: 0
LetterboxInBreaks: 0
WidescreenStoryboard: 1

[Editor]
DistanceSpacing: 1
BeatDivisor: 3
GridSize: 32
TimelineZoom: 2.2

[Metadata]
Title:Niji (TV Size)
TitleUnicode:虹 (TV Size)
Artist:SHINKU-HOROU
ArtistUnicode:真空ホロウ
Creator:-Lian-
Version:Pepekcz's Normal
Source:NARUTO-ナルト-疾風伝
Tags:Anime Japanese jrock rock j-rock Naruto Shippuden Ending ed 28 Tobi Obito Shinkuu Shinku Horou Hollow Vacuum Alternator Lian2002 Pepekcz Sweets Umi Sonoda
BeatmapID:2963701
BeatmapSetID:1406240

[Difficulty]
HPDrainRate:4
CircleSize:3.2
OverallDifficulty:4
ApproachRate:5
SliderMultiplier:1.1
SliderTickRate:1

[Events]
//Background and Video events
0,0,"tobito.jpg",0,0
Video,380,"obitosad.avi"
//Break Periods
//Storyboard Layer 0 (Background)
//Storyboard Layer 1 (Fail)
//Storyboard Layer 2 (Pass)
//Storyboard Layer 3 (Foreground)
//Storyboard Layer 4 (Overlay)
//Storyboard Sound Samples

[TimingPoints]
-58,434.782608695652,4,2,0,35,1,0
2333,434.782608695652,4,2,2,70,1,1
2333,-100,4,2,2,70,0,1
2550,434.782608695652,4,2,2,70,1,1
2550,-100,4,2,2,70,0,1
10158,-100,4,2,2,70,0,0
11245,-111.111111111111,4,2,2,70,0,0
16897,413.793103448276,4,2,1,60,1,0
17555,434.782608695652,4,2,1,60,1,0
17766,434.782608695652,4,2,1,60,1,0
18197,434.782608695652,4,2,1,50,1,0
18197,-111.111111111111,4,2,1,50,0,0
25158,434.782608695652,4,2,1,50,1,0
25158,-111.111111111111,4,2,1,50,0,0
32114,-111.111111111111,4,2,1,60,0,0
42549,-111.111111111111,4,2,1,70,0,0
46028,419.58041958042,4,2,1,50,1,0
46028,-111.111111111111,4,2,1,50,0,0
47076,472.999605833662,4,2,1,50,1,0
47549,434.782608695652,4,2,2,70,1,1
47549,-100,4,2,2,70,0,1
47766,434.782608695652,4,2,2,70,1,1
47766,-90.9090909090909,4,2,2,70,0,1
59505,-90.9090909090909,4,2,2,70,0,0
59939,-90.9090909090909,4,2,2,70,0,1
70374,-100,4,2,2,60,0,0
84290,1090.90909090909,4,3,2,60,1,0
84290,-66.6666666666667,4,3,2,60,0,0
85380,-100,4,2,1,60,0,0
86471,-100,4,2,0,30,0,0
87562,-100,4,2,0,20,0,0
88653,-100,4,2,0,5,0,0

[Colours]
Combo1 : 128,64,64
Combo2 : 0,128,64
Combo3 : 255,128,0
Combo4 : 128,0,0

[HitObjects]
86,84,2333,6,0,L|116:196,1,110,6|0,3:2|3:2,0:0:0:0:
136,244,2984,1,2,1:3:0:0:
228,324,3419,2,0,L|296:308,1,55,2|0,0:3|3:2,0:0:0:0:
336,296,3854,1,2,1:3:0:0:
388,184,4289,6,0,L|356:60,1,110,6|2,3:3|1:3,0:0:0:0:
348,24,4941,2,0,P|384:4|460:32,1,110,0|0,3:2|3:2,0:0:0:0:
508,124,5810,2,0,L|484:236,1,110,0|0,3:2|3:2,0:0:0:0:
472,284,6463,1,2,1:3:0:0:
380,216,6897,1,2,0:3:0:0:
380,216,7115,2,0,L|396:140,2,55,0|2|0,3:2|1:3|3:2,0:0:0:0:
336,248,7767,6,0,P|276:260|232:216,1,110,6|2,3:3|1:3,0:0:0:0:
212,188,8419,1,0,3:2:0:0:
116,264,8854,2,0,L|132:328,1,55,0|2,3:2|1:3,0:0:0:0:
152,368,9289,2,0,L|268:336,1,110,4|8,3:2|2:3,0:0:0:0:
312,320,9941,1,8,0:3:0:0:
312,320,10158,2,0,B|268:256|352:240|304:156,1,165,4|0,1:2|1:2,0:0:0:0:
260,64,11245,6,0,L|152:92,1,98.9999969787599,4|2,3:2|1:3,0:0:0:0:
120,112,11897,2,0,L|148:220,1,98.9999969787599,0|2,2:2|3:3,0:0:0:0:
164,252,12549,1,0,1:2:0:0:
252,316,12984,2,0,P|279:317|308:300,1,49.4999984893799,2|0,3:3|3:2,0:0:0:0:
340,280,13419,1,0,1:3:0:0:
408,196,13854,2,0,P|435:195|464:212,1,49.4999984893799,0|2,0:2|3:3,0:0:0:0:
496,232,14289,1,0,1:2:0:0:
512,340,14723,6,0,L|404:364,1,98.9999969787599,2|0,3:3|1:3,0:0:0:0:
368,376,15376,2,0,L|260:352,1,98.9999969787599,0|2,3:2|3:3,0:0:0:0:
224,336,16028,1,0,1:2:0:0:
109,303,16463,2,0,L|45:322,1,49.4999984893799,2|0,3:3|3:2,0:0:0:0:
18,337,16897,2,0,P|0:300|2:258,1,82.5,0|4,1:0|3:2,0:0:0:0:
129,199,17766,1,0,1:0:0:0:
0,156,18197,6,0,P|-4:104|32:60,1,98.9999969787599,4|2,3:2|1:3,0:0:0:0:
72,48,18849,1,0,2:2:0:0:
72,48,19066,2,0,B|120:48|111:87|168:87,1,98.9999969787599,2|0,0:3|1:3,0:0:0:0:
244,16,19936,2,0,L|344:44,1,98.9999969787599,6|0,3:3|1:2,0:0:0:0:
368,84,20588,2,0,L|468:56,1,98.9999969787599,0|0,2:2|3:2,0:0:0:0:
508,40,21240,1,0,1:2:0:0:
512,152,21675,5,6,3:3:0:0:
512,152,21892,2,0,B|480:172|480:172|500:252,1,98.9999969787599,0|0,3:3|0:2,0:0:0:0:
508,280,22544,2,0,P|468:304|412:292,1,98.9999969787599,2|0,0:3|1:2,0:0:0:0:
364,200,23414,2,0,L|304:220,1,49.4999984893799,6|0,3:3|3:3,0:0:0:0:
272,232,23849,1,0,1:2:0:0:
204,316,24283,2,0,L|144:296,1,49.4999984893799,2|0,0:3|3:2,0:0:0:0:
112,280,24718,1,0,1:2:0:0:
32,204,25158,6,0,P|16:251|0:308,1,98.9999969787599,6|0,3:3|1:2,0:0:0:0:
12,352,25810,1,0,0:2:0:0:
12,352,26027,2,0,B|40:340|40:340|108:360,1,98.9999969787599,2|0,0:3|1:2,0:0:0:0:
216,368,26897,2,0,P|264:364|304:316,1,98.9999969787599,6|0,3:3|1:2,0:0:0:0:
324,288,27549,2,0,P|372:292|412:340,1,98.9999969787599,0|0,0:2|3:2,0:0:0:0:
428,372,28201,1,0,1:2:0:0:
500,292,28636,5,6,3:3:0:0:
500,292,28853,2,0,P|489:245|476:188,1,98.9999969787599,0|0,3:3|0:2,0:0:0:0:
456,152,29505,2,0,B|412:148|420:192|368:188,1,98.9999969787599,2|4,0:3|1:2,0:0:0:0:
268,144,30375,2,0,P|232:148|212:168,1,49.4999984893799,2|0,3:3|3:2,0:0:0:0:
196,196,30810,1,2,1:3:0:0:
104,252,31244,2,0,P|68:248|48:228,1,49.4999984893799,0|8,1:2|0:3,0:0:0:0:
20,208,31679,2,0,P|23:171|43:152,1,49.4999984893799,4|4,3:3|3:3,0:0:0:0:
64,128,32114,6,0,P|100:100|160:108,1,98.9999969787599,4|2,3:2|1:3,0:0:0:0:
196,128,32766,2,0,P|272:109|344:96,1,148.49999546814,0|2,0:2|1:3,0:0:0:0:
420,20,33853,2,0,B|452:40|452:40|436:120,1,98.9999969787599,6|2,3:3|1:3,0:0:0:0:
424,148,34505,1,0,3:2:0:0:
424,148,34723,2,0,L|444:252,1,98.9999969787599,2|2,3:3|1:3,0:0:0:0:
388,340,35592,6,0,P|352:312|288:324,1,98.9999969787599,6|2,3:3|1:3,0:0:0:0:
260,344,36244,1,0,3:2:0:0:
260,344,36462,2,0,P|224:372|160:360,1,98.9999969787599,2|2,3:3|1:3,0:0:0:0:
104,284,37331,2,0,B|124:240|96:228|120:188,1,98.9999969787599,6|2,3:3|1:3,0:0:0:0:
160,160,37984,1,0,3:2:0:0:
160,160,38201,2,0,L|132:48,1,98.9999969787599,2|2,3:3|1:3,0:0:0:0:
32,28,39071,6,0,L|7:124,1,98.9999969787599,6|2,3:3|1:3,0:0:0:0:
0,172,39723,2,0,L|24:268,1,98.9999969787599,0|0,3:2|3:2,0:0:0:0:
44,312,40375,1,2,1:3:0:0:
136,368,40810,2,0,B|184:372|172:328|224:332,1,98.9999969787599,6|2,3:3|1:3,0:0:0:0:
276,340,41462,1,0,3:2:0:0:
276,340,41679,2,0,L|372:360,1,98.9999969787599,2|2,3:3|1:3,0:0:0:0:
480,376,42549,6,0,L|492:312,1,49.4999984893799,0|0,1:2|3:2,0:0:0:0:
500,280,42984,1,4,1:2:0:0:
420,212,43418,1,0,3:2:0:0:
420,212,43636,2,0,P|360:204|324:232,1,98.9999969787599,4|8,1:2|0:3,0:0:0:0:
296,260,44288,1,4,1:2:0:0:
296,260,44505,2,0,L|232:248,1,49.4999984893799
172,180,45157,1,4,1:2:0:0:
172,180,45374,2,0,L|64:204,1,98.9999969787599,0|2,0:0|0:0,0:0:0:0:
28,216,46028,5,2,0:0:0:0:
401,140,47549,6,0,B|349:126|357:182|297:174,1,110,4|0,3:2|3:2,0:0:0:0:
248,156,48200,1,2,1:3:0:0:
152,60,48635,2,0,L|84:80,1,60.5000018463135,2|0,0:3|3:2,0:0:0:0:
36,100,49070,1,2,1:3:0:0:
12,232,49505,6,0,P|0:300|36:356,1,121.000003692627,6|2,3:3|1:3,0:0:0:0:
84,364,50157,1,0,3:2:0:0:
84,364,50374,2,0,L|216:312,1,121.000003692627,2|2,0:3|1:3,0:0:0:0:
256,200,51244,2,0,L|332:220,1,60.5000018463135,6|0,3:3|3:2,0:0:0:0:
368,232,51679,1,2,1:3:0:0:
452,340,52113,1,2,0:3:0:0:
452,340,52331,2,0,L|528:320,2,60.5000018463135,0|2|0,3:2|1:3|3:2,0:0:0:0:
400,372,52983,6,0,B|340:380|348:324|288:332,1,121.000003692627,6|2,3:2|1:3,0:0:0:0:
232,348,53635,1,0,3:2:0:0:
104,380,54070,2,0,P|64:372|48:352,1,60.5000018463135,0|2,3:2|1:3,0:0:0:0:
28,300,54505,2,0,L|48:164,1,121.000003692627,0|0,3:2|3:2,0:0:0:0:
60,120,55157,1,2,1:3:0:0:
156,28,55592,2,0,L|172:100,1,60.5000018463135,2|0,0:3|3:2,0:0:0:0:
184,140,56026,1,2,1:3:0:0:
268,244,56461,6,0,L|300:104,1,121.000003692627,6|2,3:3|1:3,0:0:0:0:
312,68,57113,2,0,P|372:56|432:96,1,121.000003692627,0|0,3:2|3:2,0:0:0:0:
500,196,57983,1,0,3:2:0:0:
500,196,58200,2,0,B|472:228|472:228|488:304,1,121.000003692627,6|2,3:3|1:3,0:0:0:0:
492,368,58852,1,0,0:2:0:0:
492,368,59070,2,0,L|424:352,1,60.5000018463135,2|0,1:3|1:2,0:0:0:0:
380,324,59505,2,0,L|312:340,1,60.5000018463135,2|0,1:3|1:2,0:0:0:0:
264,356,59939,5,4,3:2:0:0:
132,368,60374,2,0,P|88:356|56:280,1,121.000003692627,2|2,1:3|3:3,0:0:0:0:
72,236,61026,1,0,3:2:0:0:
172,148,61461,2,0,B|232:140|224:196|284:188,1,121.000003692627,4|0,3:3|3:2,0:0:0:0:
340,184,62113,1,2,1:3:0:0:
468,144,62548,2,0,L|452:72,1,60.5000018463135,2|0,0:3|3:2,0:0:0:0:
436,28,62983,1,2,1:3:0:0:
308,60,63418,6,0,B|260:100|260:100|180:68,1,121.000003692627,6|2,3:2|1:3,0:0:0:0:
160,40,64070,2,0,P|92:48|60:100,1,121.000003692627,0|0,3:2|3:2,0:0:0:0:
124,208,64939,2,0,B|88:232|88:232|108:324,1,121.000003692627,0|0,3:2|3:2,0:0:0:0:
120,368,65592,1,2,1:3:0:0:
216,276,66026,1,2,0:3:0:0:
216,276,66244,2,0,L|228:200,2,60.5000018463135,0|2|0,3:2|1:3|3:2,0:0:0:0:
228,336,66896,6,0,B|288:344|280:288|340:296,1,121.000003692627,6|2,3:3|1:3,0:0:0:0:
396,308,67548,1,0,3:2:0:0:
508,236,67983,2,0,P|504:196|484:168,1,60.5000018463135,0|2,3:2|1:3,0:0:0:0:
440,152,68418,2,0,L|308:184,1,121.000003692627,4|8,3:2|0:3,0:0:0:0:
280,224,69070,2,0,L|208:208,1,60.5000018463135,8|8,0:3|0:3,0:0:0:0:
164,192,69505,1,4,1:2:0:0:
56,116,69939,1,12,3:3:0:0:
144,32,70374,6,0,B|200:24|184:84|260:76,1,110,6|2,3:2|3:0,0:0:0:0:
296,64,71026,1,0,3:0:0:0:
296,64,71244,2,0,P|340:44|400:68,1,110,2|2,1:3|3:0,0:0:0:0:
452,172,72113,2,0,L|516:156,2,55,6|0|2,3:0|3:0|3:0,0:0:0:0:
340,212,72983,2,0,L|224:192,1,110,6|2,1:2|1:2,0:0:0:0:
188,168,73635,5,0,3:0:0:0:
188,168,73852,2,0,L|72:188,1,110,6|2,3:2|3:3,0:0:0:0:
28,188,74505,1,0,0:0:0:0:
28,188,74722,2,0,B|60:216|60:216|40:288,1,110,2|2,1:3|0:3,0:0:0:0:
152,328,75592,2,0,L|168:388,2,55,6|0|2,0:3|0:0|0:3,0:0:0:0:
228,232,76461,2,0,L|248:108,1,110,6|2,1:2|1:3,0:0:0:0:
260,72,77113,5,0,0:0:0:0:
260,72,77331,2,0,B|316:64|300:124|376:116,1,110,6|2,3:2|0:3,0:0:0:0:
412,108,77983,1,0,0:0:0:0:
412,108,78200,2,0,L|398:26,2,82.5,2|0|0,1:3|1:0|0:0,0:0:0:0:
448,148,79070,2,0,L|432:220,1,55,6|0,0:3|0:0,0:0:0:0:
416,252,79505,1,2,0:3:0:0:
348,352,79939,2,0,P|304:320|240:324,1,110,6|2,1:2|1:3,0:0:0:0:
204,352,80592,5,0,0:0:0:0:
204,352,80809,2,0,B|148:360|164:300|88:308,1,110,6|2,0:2|0:3,0:0:0:0:
56,308,81461,1,0,0:0:0:0:
56,308,81679,2,0,B|32:340|32:340|48:384,2,82.5,2|0|0,1:3|1:0|0:0,0:0:0:0:
72,256,82548,2,0,P|80:220|64:180,1,55,6|0,0:3|0:0,0:0:0:0:
52,152,82983,1,2,0:3:0:0:
8,40,83418,1,6,1:2:0:0:
128,16,83852,1,2,1:3:0:0:
160,128,84290,6,0,P|236:149|310:73,1,165.000006294251,6|4,3:2|3:2,0:0:0:0:
256,192,85653,12,0,88653,0:0:0:0:
