osu file format v14

[General]
AudioFilename: Obitosong.mp3
AudioLeadIn: 0
PreviewTime: 45701
Countdown: 0
SampleSet: Soft
StackLeniency: 0.4
Mode: 0
LetterboxInBreaks: 0
WidescreenStoryboard: 1

[Editor]
DistanceSpacing: 1
BeatDivisor: 3
GridSize: 16
TimelineZoom: 2.2

[Metadata]
Title:Niji (TV Size)
TitleUnicode:虹 (TV Size)
Artist:SHINKU-HOROU
ArtistUnicode:真空ホロウ
Creator:-Lian-
Version:Hard
Source:NARUTO-ナルト-疾風伝
Tags:Anime Japanese jrock rock j-rock Naruto Shippuden Ending ed 28 Tobi Obito Shinkuu Shinku Horou Hollow Vacuum Alternator Lian2002 Pepekcz Sweets Umi Sonoda
BeatmapID:2963700
BeatmapSetID:1406240

[Difficulty]
HPDrainRate:4.5
CircleSize:4
OverallDifficulty:6
ApproachRate:7.5
SliderMultiplier:1.5
SliderTickRate:1

[Events]
//Background and Video events
0,0,"tobito.jpg",0,0
Video,380,"obitosad.avi"
//Break Periods
//Storyboard Layer 0 (Background)
//Storyboard Layer 1 (Fail)
//Storyboard Layer 2 (Pass)
//Storyboard Layer 3 (Foreground)
//Storyboard Layer 4 (Overlay)
//Storyboard Sound Samples

[TimingPoints]
-58,434.782608695652,4,2,0,35,1,0
2333,434.782608695652,4,2,2,70,1,1
2333,-90.9090909090909,4,2,2,70,0,0
2550,434.782608695652,4,2,2,70,1,1
2550,-90.9090909090909,4,2,2,70,0,1
10158,-100,4,2,2,70,0,0
11245,-100,4,2,1,60,0,0
16897,413.793103448276,4,2,1,60,1,0
17555,434.782608695652,4,2,1,60,1,0
17766,434.782608695652,4,2,1,60,1,0
18197,434.782608695652,4,2,1,50,1,0
18197,-100,4,2,1,50,0,0
25158,434.782608695652,4,2,1,50,1,0
32114,-95.2380952380952,4,2,1,60,0,0
42549,-100,4,2,1,70,0,0
45810,-100,4,2,1,50,0,0
46028,419.58041958042,4,2,1,50,1,0
47076,472.999605833662,4,2,1,50,1,0
47549,434.782608695652,4,2,2,70,1,1
47549,-90.9090909090909,4,2,2,70,0,1
47766,434.782608695652,4,2,2,70,1,1
47766,-90.9090909090909,4,2,2,70,0,1
59505,-90.9090909090909,4,2,2,70,0,0
59939,-90.9090909090909,4,2,2,70,0,1
70374,-100,4,3,2,60,0,0
84290,1090.90909090909,4,3,2,60,1,0
85380,-100,4,2,1,60,0,0
86471,-100,4,2,0,30,0,0
87562,-100,4,2,0,20,0,0
88653,-100,4,2,0,5,0,0

[Colours]
Combo1 : 128,64,64
Combo2 : 0,128,64
Combo3 : 255,128,0
Combo4 : 128,0,0

[HitObjects]
464,342,594,5,2,0:2:0:0:
464,342,811,1,2,0:2:0:0:
372,208,1246,5,2,0:2:0:0:
179,192,1681,5,2,0:2:0:0:
159,203,1898,1,2,0:2:0:0:
45,318,2333,6,0,P|92:278|147:301,1,123.75000377655,6|0,3:2|0:0,0:0:0:0:
176,335,2767,1,0,3:2:0:0:
234,255,2984,2,0,L|330:239,1,82.5000025177003,2|0,1:3|3:2,0:0:0:0:
351,207,3310,1,0,1:2:0:0:
351,207,3419,2,0,L|447:223,1,82.5000025177003,2|0,0:3|3:2,0:0:0:0:
500,292,3854,2,0,P|500:345|434:345,1,123.75000377655,2|0,1:3|0:2,0:0:0:0:
411,310,4289,5,6,3:3:0:0:
330,366,4506,2,0,L|234:350,1,82.5000025177003,0|2,3:2|1:3,0:0:0:0:
178,282,4941,1,0,3:2:0:0:
178,282,5049,2,0,L|82:298,1,82.5000025177003,0|0,3:2|1:2,0:0:0:0:
49,277,5376,2,0,P|33:239|39:197,1,82.5000025177003,0|2,3:2|1:3,0:0:0:0:
126,155,5810,6,0,L|222:171,1,82.5000025177003,0|6,3:2|3:3,0:0:0:0:
267,89,6245,2,0,L|185:75,1,82.5000025177003,0|2,3:2|1:3,0:0:0:0:
104,18,6680,1,0,3:2:0:0:
104,18,6789,2,0,P|55:18|19:43,1,82.5000025177003,0|0,3:2|1:2,0:0:0:0:
4,78,7115,2,0,L|20:206,1,123.75000377655,0|0,3:2|0:2,0:0:0:0:
61,226,7549,1,0,3:2:0:0:
1,305,7767,6,0,P|65:305|103:356,1,123.75000377655,6|0,3:3|0:2,0:0:0:0:
145,370,8202,1,2,1:3:0:0:
233,326,8419,2,0,L|217:230,1,82.5000025177003,0|2,3:2|0:3,0:0:0:0:
254,209,8745,1,0,1:2:0:0:
254,209,8854,2,0,L|335:195,1,82.5000025177003,0|2,3:2|1:3,0:0:0:0:
391,277,9289,6,0,B|439:210|439:210|508:263,1,165.000005035401,4|8,3:2|0:3,0:0:0:0:
459,371,9941,1,8,0:3:0:0:
459,371,10158,1,4,1:2:0:0:
208,272,10810,6,0,L|216:336,3,37.5,0|8|4|0,1:2|0:3|0:3|1:2,0:0:0:0:
194,350,11245,5,4,3:2:0:0:
119,299,11463,1,0,3:2:0:0:
141,212,11680,2,0,P|179:187|236:187,1,75,2|0,1:3|2:2,0:0:0:0:
240,152,12006,2,0,P|278:177|335:177,1,75,2|0,3:3|2:2,0:0:0:0:
344,157,12332,1,2,3:3:0:0:
416,103,12549,2,0,P|434:158|407:220,1,112.5,0|0,1:2|0:2,0:0:0:0:
384,239,12984,5,2,3:3:0:0:
449,300,13202,1,0,3:2:0:0:
385,363,13419,2,0,L|289:347,1,75,0|0,1:3|3:2,0:0:0:0:
287,312,13745,2,0,L|191:328,1,75,2|0,3:3|3:2,0:0:0:0:
180,293,14071,1,2,3:3:0:0:
107,346,14289,2,0,P|58:360|20:313,1,112.5,0|0,1:2|0:2,0:0:0:0:
52,286,14723,5,2,3:3:0:0:
0,209,14941,1,0,3:2:0:0:
62,144,15158,2,0,L|142:160,1,75,0|0,1:3|3:2,0:0:0:0:
172,132,15484,2,0,L|186:58,1,75,2|0,3:3|3:2,0:0:0:0:
223,32,15810,1,2,3:3:0:0:
278,102,16028,2,0,L|251:234,1,112.5,0|0,1:2|0:2,0:0:0:0:
242,255,16463,5,2,3:3:0:0:
153,237,16680,1,0,3:2:0:0:
103,312,16897,5,0,1:0:0:0:
90,308,17000,1,0,1:0:0:0:
76,305,17103,2,0,L|87:353,1,37.5,0|4,1:0|3:2,0:0:0:0:
241,382,17555,1,0,3:2:0:0:
309,323,17766,1,0,1:2:0:0:
350,339,17874,1,0,3:2:0:0:
466,271,18197,5,4,3:2:0:0:
466,271,18414,1,0,3:2:0:0:
478,182,18631,2,0,P|443:182|391:220,1,75,2|0,1:3|2:2,0:0:0:0:
380,236,18957,1,0,3:2:0:0:
380,236,19066,2,0,P|343:211|276:211,1,112.5,2|0,0:3|0:2,0:0:0:0:
243,240,19501,1,0,1:3:0:0:
181,305,19718,6,0,L|85:321,1,75,0|6,0:2|3:3,0:0:0:0:
43,381,20153,2,0,B|13:341|13:341|31:237,1,150,0|0,3:3|2:2,0:0:0:0:
30,242,20697,1,0,3:2:0:0:
30,242,20805,1,2,2:3:0:0:
111,202,21023,2,0,L|95:106,1,75,0|0,3:2|1:2,0:0:0:0:
44,55,21457,6,0,P|78:40|115:39,1,75,0|6,0:2|3:3,0:0:0:0:
180,101,21892,2,0,B|253:80|253:140|344:118,1,150,0|0,3:3|0:2,0:0:0:0:
324,121,22436,1,0,3:2:0:0:
324,121,22544,1,2,0:3:0:0:
387,56,22762,1,0,3:2:0:0:
465,98,22979,2,0,L|449:258,1,150,0|6,1:2|3:3,0:0:0:0:
421,332,23631,5,0,3:3:0:0:
333,310,23849,2,0,L|317:214,1,75,0|0,1:2|0:2,0:0:0:0:
281,214,24175,1,0,3:2:0:0:
281,214,24283,1,2,0:3:0:0:
215,275,24501,1,0,3:2:0:0:
145,331,24718,2,0,P|70:331|20:279,1,150,0|6,1:2|3:3,0:0:0:0:
105,248,25375,5,0,3:3:0:0:
34,192,25592,2,0,P|85:159|126:159,1,75,0|0,1:2|0:2,0:0:0:0:
142,167,25918,1,0,3:2:0:0:
142,167,26027,2,0,P|116:110|136:56,1,112.5,2|0,0:3|0:2,0:0:0:0:
164,36,26462,1,0,1:2:0:0:
246,71,26679,2,0,L|342:55,1,75,0|6,0:2|3:3,0:0:0:0:
382,124,27114,6,0,B|484:142|484:142|435:190,1,150,0|0,3:3|0:2,0:0:0:0:
422,208,27658,1,0,3:2:0:0:
422,208,27766,1,2,0:3:0:0:
358,271,27984,2,0,L|374:367,1,75,0|0,3:2|1:2,0:0:0:0:
282,323,28418,6,0,B|254:296|254:296|213:303,1,75,0|4,0:2|3:3,0:0:0:0:
128,294,28853,1,0,3:3:0:0:
59,347,29071,2,0,P|-1:299|10:257,1,112.5,0|0,1:2|3:3,0:0:0:0:
21,239,29505,1,2,2:3:0:0:
101,200,29723,1,0,3:2:0:0:
101,200,29940,2,0,B|150:208|150:208|163:217|163:217|230:229,1,112.5,4|0,1:2|0:2,0:0:0:0:
254,230,30375,5,2,3:3:0:0:
312,161,30592,1,0,3:2:0:0:
328,72,30810,2,0,P|277:55|246:105,1,112.5,0|0,1:3|0:2,0:0:0:0:
216,119,31244,2,0,L|166:113,3,37.5,0|8|8|8,1:3|0:3|3:3|0:3,0:0:0:0:
163,79,31679,2,0,L|117:84,3,37.5,4|4|4|4,0:3|0:3|0:3|0:3,0:0:0:0:
91,63,32114,6,0,B|41:42|41:42|65:164,1,157.499995193482,4|2,3:2|1:3,0:0:0:0:
139,187,32766,2,0,P|106:256|148:326,1,157.499995193482,0|0,0:2|0:2,0:0:0:0:
227,362,33418,2,0,P|260:343|303:343,1,78.7499975967408,2|0,1:3|0:2,0:0:0:0:
371,280,33853,6,0,B|414:287|414:287|436:306|436:306|490:316,2,118.124996395111,6|0|0,3:3|3:2|3:2,0:0:0:0:
332,307,34614,1,0,1:2:0:0:
332,307,34723,1,2,3:3:0:0:
270,234,34940,1,0,3:2:0:0:
337,167,35158,1,2,1:3:0:0:
276,93,35375,1,0,3:2:0:0:
344,27,35592,6,0,B|387:34|387:34|409:53|409:53|463:63,2,118.124996395111,6|0|0,3:3|0:2|3:2,0:0:0:0:
276,93,36462,2,0,B|232:100|232:100|210:119|210:119|156:129,2,118.124996395111,2|0|0,3:3|0:2|0:2,0:0:0:0:
356,141,37331,2,0,P|378:201|356:248,1,118.124996395111,6|0,3:3|0:2,0:0:0:0:
323,280,37766,2,0,P|291:264|249:264,1,78.7499975967408,2|0,1:3|3:2,0:0:0:0:
209,290,38092,1,0,1:2:0:0:
209,290,38201,1,2,3:3:0:0:
146,360,38418,1,0,3:2:0:0:
64,313,38636,2,0,P|17:289|32:224,1,118.124996395111,2|0,1:3|0:2,0:0:0:0:
70,226,39071,6,0,P|126:205|107:137,1,118.124996395111,6|0,3:3|0:2,0:0:0:0:
92,119,39505,1,2,1:3:0:0:
5,81,39723,2,0,P|60:28|154:49,1,157.499995193482,0|0,3:2|3:2,0:0:0:0:
212,92,40375,2,0,L|196:236,1,118.124996395111,2|0,1:3|0:2,0:0:0:0:
164,241,40810,6,0,L|180:337,1,78.7499975967408,6|0,3:3|0:2,0:0:0:0:
187,364,41136,1,0,3:2:0:0:
187,364,41244,1,2,1:3:0:0:
258,301,41462,1,0,3:2:0:0:
304,307,41571,1,0,1:2:0:0:
326,348,41679,2,0,L|416:330,1,78.7499975967408,2|0,3:3|3:2,0:0:0:0:
493,304,42114,1,2,1:3:0:0:
422,241,42331,1,0,3:2:0:0:
479,171,42549,5,0,1:2:0:0:
479,171,42657,1,8,0:3:0:0:
479,171,42766,2,0,L|467:116,2,37.5,0|4|4,3:2|0:3|1:2,0:0:0:0:
361,91,43201,5,8,0:3:0:0:
361,91,43310,1,8,0:3:0:0:
361,91,43418,2,0,L|370:44,2,37.5,0|4|4,3:2|0:3|1:2,0:0:0:0:
288,198,43853,5,8,0:3:0:0:
288,198,43962,1,0,1:2:0:0:
288,198,44071,2,0,L|294:235,2,37.5,8|8|4,0:3|0:3|1:2,0:0:0:0:
176,142,44505,5,0,1:2:0:0:
176,142,44614,1,4,0:3:0:0:
176,142,44723,2,0,L|166:199,1,37.5,8|8,0:3|2:3,0:0:0:0:
133,206,44940,2,0,L|143:263,1,37.5,8|8,0:3|2:3,0:0:0:0:
178,264,45157,1,4,1:2:0:0:
98,345,45375,5,0,1:2:0:0:
86,342,45484,1,8,0:3:0:0:
74,340,45592,1,8,0:3:0:0:
32,259,45810,5,6,1:2:0:0:
32,259,46027,1,2,0:2:0:0:
214,344,46447,5,2,0:2:0:0:
343,186,46867,5,2,0:2:0:0:
360,195,47076,1,2,0:2:0:0:
490,363,47549,6,0,B|426:351|426:351|391:364|391:364|315:351,1,165.000005035401,6|0,3:2|3:2,0:0:0:0:
231,337,48200,1,2,1:3:0:0:
187,247,48418,1,0,3:2:0:0:
187,247,48526,1,0,1:2:0:0:
187,247,48635,2,0,L|91:263,1,82.5000025177003,2|0,0:3|3:2,0:0:0:0:
50,342,49070,6,0,B|6:307|6:307|19:191,1,165.000005035401,2|6,1:3|3:3,0:0:0:0:
29,150,49613,1,0,0:2:0:0:
29,150,49722,1,0,3:2:0:0:
108,91,49939,2,0,L|204:107,1,82.5000025177003,2|0,1:3|3:2,0:0:0:0:
223,68,50266,1,0,3:2:0:0:
223,68,50374,2,0,L|272:59,1,41.2500012588501,2|0,0:3|1:2,0:0:0:0:
304,31,50592,2,0,L|317:112,1,82.5000025177003,0|2,3:2|1:3,0:0:0:0:
339,208,51026,1,0,3:2:0:0:
435,185,51244,6,0,B|419:281,1,82.5000025177003,6|0,3:3|3:2,0:0:0:0:
362,346,51679,2,0,P|338:332|275:332,1,82.5000025177003,2|0,1:3|3:2,0:0:0:0:
244,358,52005,1,0,3:2:0:0:
244,358,52113,2,0,L|203:365,1,41.2500012588501,2|0,0:3|1:2,0:0:0:0:
157,345,52331,1,0,3:2:0:0:
60,323,52548,1,2,1:3:0:0:
76,225,52766,1,0,3:2:0:0:
173,242,52983,6,0,P|223:201|287:223,1,123.75000377655,6|0,3:2|0:2,0:0:0:0:
314,244,53418,1,2,1:3:0:0:
388,179,53635,1,0,3:2:0:0:
388,179,53744,2,0,L|446:187,1,41.2500012588501,0|2,3:2|0:3,0:0:0:0:
469,212,53961,1,0,1:2:0:0:
469,212,54070,2,0,L|485:101,1,82.5000025177003,0|2,3:2|1:3,0:0:0:0:
435,42,54505,6,0,B|359:30|359:102|269:73,1,165.000005035401,0|0,3:2|3:2,0:0:0:0:
208,144,55157,2,0,L|224:240,2,82.5000025177003,2|0|2,1:3|3:2|0:3,0:0:0:0:
176,112,55700,1,0,3:2:0:0:
176,112,55809,2,0,L|100:97,1,41.2500012588501,0|0,3:2|2:2,0:0:0:0:
96,73,56026,2,0,P|37:73|45:144,1,123.75000377655,2|0,1:3|0:2,0:0:0:0:
65,160,56461,6,0,P|74:201|58:249,1,82.5000025177003,6|0,3:3|3:2,0:0:0:0:
33,278,56787,1,0,0:2:0:0:
33,278,56896,2,0,B|109:266|109:338|199:309,1,165.000005035401,2|2,1:3|2:3,0:0:0:0:
225,345,57439,1,0,1:2:0:0:
225,345,57548,2,0,P|262:326|307:331,1,82.5000025177003,0|2,3:2|1:3,0:0:0:0:
397,354,57983,5,0,3:2:0:0:
453,273,58200,1,6,3:3:0:0:
396,191,58418,1,0,3:2:0:0:
304,228,58635,2,0,L|319:126,1,82.5000025177003,2|0,1:3|3:0,0:0:0:0:
148,43,59070,5,2,1:3:0:0:
148,43,59179,1,0,1:2:0:0:
148,43,59287,2,0,L|158:91,1,41.2500012588501,0|0,1:2|1:2,0:0:0:0:
199,109,59505,1,2,1:3:0:0:
214,107,59613,1,0,1:2:0:0:
228,105,59722,2,0,L|217:175,1,41.2500012588501,0|0,1:2|1:2,0:0:0:0:
254,186,59939,6,0,P|194:170|141:211,1,123.75000377655,4|0,3:2|0:2,0:0:0:0:
122,246,60374,2,0,P|69:263|46:203,1,123.75000377655,2|0,1:3|1:2,0:0:0:0:
62,165,60809,1,2,3:3:0:0:
122,246,61026,2,0,L|139:332,1,82.5000025177003,0|2,3:2|1:3,0:0:0:0:
224,374,61461,6,0,B|303:400|303:328|379:340,1,165.000005035401,4|0,3:3|3:2,0:0:0:0:
468,381,62113,2,0,L|484:269,1,82.5000025177003,2|0,1:3|3:2,0:0:0:0:
439,269,62439,1,0,1:2:0:0:
439,269,62548,2,0,L|430:215,1,41.2500012588501,2|0,0:3|1:2,0:0:0:0:
423,179,62765,1,0,3:2:0:0:
483,99,62983,2,0,P|401:82|336:129,1,165.000005035401,2|6,1:3|3:2,0:0:0:0:
321,172,63526,5,0,0:2:0:0:
321,172,63635,2,0,L|225:156,1,82.5000025177003,0|2,3:2|1:3,0:0:0:0:
155,210,64070,1,0,3:2:0:0:
155,209,64179,2,0,L|145:277,2,41.2500012588501,0|2|0,3:2|0:3|1:2,0:0:0:0:
124,169,64505,2,0,L|111:76,1,82.5000025177003,0|2,3:2|1:3,0:0:0:0:
17,59,64939,1,0,3:2:0:0:
17,59,65157,6,0,L|28:140,1,82.5000025177003,6|0,3:3|3:2,0:0:0:0:
45,238,65592,1,2,1:3:0:0:
106,315,65809,1,0,3:2:0:0:
106,315,65918,2,0,L|95:363,2,41.2500012588501,0|2|0,3:2|0:3|1:2,0:0:0:0:
146,287,66244,1,0,3:2:0:0:
224,346,66461,1,2,1:3:0:0:
314,305,66679,1,0,3:2:0:0:
314,305,66787,1,0,0:2:0:0:
314,305,66896,6,0,B|346:272|346:272|405:289,1,82.5000025177003,6|0,3:3|3:2,0:0:0:0:
475,306,67331,1,2,1:3:0:0:
510,213,67548,2,0,L|489:70,1,123.75000377655,0|0,3:2|1:2,0:0:0:0:
450,62,67983,2,0,P|412:52|380:91,1,82.5000025177003,0|2,3:2|1:2,0:0:0:0:
303,135,68418,6,0,P|280:62|216:118,1,165.000005035401,4|8,3:2|0:3,0:0:0:0:
222,190,69070,1,8,0:3:0:0:
124,174,69287,1,8,0:3:0:0:
77,261,69505,5,4,1:2:0:0:
250,354,69939,1,12,3:3:0:0:
412,276,70374,6,0,B|452:247|452:247|431:140,1,150,6|2,3:2|3:0,0:0:0:0:
374,78,71026,1,0,3:0:0:0:
304,144,71244,2,0,L|208:128,1,75,2|0,1:3|3:0,0:0:0:0:
197,100,71570,1,0,1:0:0:0:
197,100,71679,2,0,L|101:116,1,75,2|0,3:0|3:0,0:0:0:0:
53,55,72113,5,6,3:0:0:0:
53,55,72331,1,0,3:0:0:0:
9,133,72548,2,0,L|25:229,1,75,2|0,3:3|3:0,0:0:0:0:
64,224,72874,1,0,2:0:0:0:
64,224,72983,2,0,L|48:304,1,75,6|0,1:2|3:0,0:0:0:0:
122,350,73418,2,0,L|144:250,1,75,2|0,1:3|3:0,0:0:0:0:
210,330,73852,6,0,P|270:282|345:308,1,150,6|2,3:2|3:3,0:0:0:0:
417,337,74505,1,0,0:0:0:0:
481,274,74722,2,0,B|495:251|495:251|479:181,1,75,2|0,1:3|0:0,0:0:0:0:
448,176,75048,1,0,1:0:0:0:
448,176,75157,2,0,L|355:193,1,75,2|0,0:3|0:0,0:0:0:0:
337,107,75592,5,2,0:3:0:0:
260,49,75809,1,0,0:0:0:0:
260,49,76026,2,0,L|244:145,1,75,2|0,0:3|0:0,0:0:0:0:
212,151,76352,1,0,0:0:0:0:
212,151,76461,2,0,L|228:247,1,75,6|0,1:2|0:0,0:0:0:0:
309,255,76896,2,0,P|353:254|397:290,1,75,2|0,1:3|0:0,0:0:0:0:
327,342,77331,6,0,B|257:320|257:385|173:355,1,150,6|2,0:2|0:3,0:0:0:0:
118,294,77983,1,0,0:0:0:0:
43,344,78200,2,0,P|25:295|40:249,1,75,2|0,1:3|0:0,0:0:0:0:
51,234,78526,1,0,1:0:0:0:
51,234,78635,2,0,P|85:209|147:209,1,75,2|0,0:3|0:0,0:0:0:0:
209,207,79070,1,2,0:3:0:0:
292,243,79287,5,0,0:0:0:0:
292,243,79505,2,0,L|308:163,1,75,2|0,0:3|0:0,0:0:0:0:
316,125,79831,1,0,0:0:0:0:
316,125,79939,2,0,L|231:107,1,75,6|0,1:2|0:0,0:0:0:0:
180,43,80374,2,0,L|89:60,1,75,2|0,1:3|0:0,0:0:0:0:
43,121,80809,6,0,B|48:174|48:174|79:205|79:205|86:277,1,150,6|2,0:2|0:3,0:0:0:0:
129,336,81461,1,0,0:0:0:0:
210,296,81679,2,0,L|300:306,1,75,2|0,1:3|0:0,0:0:0:0:
309,341,82005,1,0,1:0:0:0:
309,341,82113,2,0,P|344:324|389:331,1,75,2|0,0:3|0:0,0:0:0:0:
451,273,82548,5,2,0:3:0:0:
505,198,82765,1,0,0:0:0:0:
491,108,82983,1,2,0:3:0:0:
412,63,83200,1,0,0:0:0:0:
412,63,83309,1,0,0:0:0:0:
412,63,83418,2,0,P|339:84|322:95,1,75,6|0,1:2|0:0,0:0:0:0:
260,41,83852,2,0,P|252:82|262:122,1,75,2|0,1:3|0:0,0:0:0:0:
323,174,84287,5,6,3:2:0:0:
74,233,85380,1,4,3:2:0:0:
256,192,85653,12,0,88653,0:0:0:0:
