osu file format v14

[General]
AudioFilename: Obitosong.mp3
AudioLeadIn: 0
PreviewTime: 45701
Countdown: 0
SampleSet: Soft
StackLeniency: 0.4
Mode: 0
LetterboxInBreaks: 0
WidescreenStoryboard: 1

[Editor]
DistanceSpacing: 1
BeatDivisor: 4
GridSize: 16
TimelineZoom: 2.2

[Metadata]
Title:Niji (TV Size)
TitleUnicode:虹 (TV Size)
Artist:SHINKU-HOROU
ArtistUnicode:真空ホロウ
Creator:-Lian-
Version:Easy
Source:NARUTO-ナルト-疾風伝
Tags:Anime Japanese jrock rock j-rock Naruto Shippuden Ending ed 28 Tobi Obito Shinkuu Shinku Horou Hollow Vacuum Alternator Lian2002 Pepekcz Sweets Umi Sonoda
BeatmapID:2963699
BeatmapSetID:1406240

[Difficulty]
HPDrainRate:2
CircleSize:2
OverallDifficulty:2
ApproachRate:2
SliderMultiplier:1
SliderTickRate:1

[Events]
//Background and Video events
0,0,"tobito.jpg",0,0
Video,380,"obitosad.avi"
//Break Periods
//Storyboard Layer 0 (Background)
//Storyboard Layer 1 (Fail)
//Storyboard Layer 2 (Pass)
//Storyboard Layer 3 (Foreground)
//Storyboard Layer 4 (Overlay)
//Storyboard Sound Samples

[TimingPoints]
-58,434.782608695652,4,2,0,35,1,0
2333,434.782608695652,4,2,2,70,1,1
2333,-100,4,2,2,70,0,1
2550,434.782608695652,4,2,2,70,1,1
2550,-100,4,2,2,70,0,1
10158,-100,4,2,2,70,0,0
11245,-100,4,2,1,60,0,0
16897,413.793103448276,4,2,1,60,1,0
17555,434.782608695652,4,2,1,60,1,0
17766,434.782608695652,4,2,1,60,1,0
18197,434.782608695652,4,2,1,50,1,0
18202,-100,4,2,1,50,0,0
25158,434.782608695652,4,2,1,50,1,0
32118,-100,4,2,1,60,0,0
42549,-100,4,2,1,70,0,0
45810,-100,4,2,1,50,0,0
46028,419.58041958042,4,2,1,50,1,0
47076,472.999605833662,4,2,1,50,1,0
47549,434.782608695652,4,2,2,70,1,1
47549,-100,4,2,2,70,0,1
47766,434.782608695652,4,2,2,70,1,1
47766,-100,4,2,2,70,0,1
59505,-100,4,2,2,70,0,0
59939,-100,4,2,2,70,0,1
70374,-100,4,3,2,60,0,0
84290,1090.90909090909,4,3,2,60,1,0
84290,-100,4,3,2,60,0,0
85380,-100,4,2,1,60,0,0
86471,-100,4,2,0,20,0,0
87562,-100,4,2,0,10,0,0
88653,-100,4,2,0,5,0,0

[Colours]
Combo1 : 128,64,64
Combo2 : 0,128,64
Combo3 : 255,128,0
Combo4 : 128,0,0

[HitObjects]
74,323,2333,6,0,L|49:153,1,150,6|0,3:2|1:0,0:0:0:0:
122,104,3419,1,2,0:3:0:0:
192,176,3854,2,0,L|176:256,2,75,2|0|0,1:3|0:2|3:2,0:0:0:0:
267,110,4941,6,0,L|368:130,1,100,0|0,3:2|3:2,0:0:0:0:
460,99,5810,2,0,P|462:149|441:194,1,100,0|0,3:2|3:2,0:0:0:0:
347,229,6680,1,0,3:2:0:0:
324,326,7115,2,0,L|212:342,1,100,0|0,3:2|3:2,0:0:0:0:
184,310,7767,6,0,L|101:294,2,75,6|0|0,3:3|0:2|3:2,0:0:0:0:
235,224,8854,1,0,3:2:0:0:
175,143,9289,2,0,P|72:160|35:81,1,200,4|4,3:2|1:2,0:0:0:0:
158,2,10810,1,0,1:2:0:0:
243,54,11245,6,0,L|355:38,1,100,4|2,3:2|1:3,0:0:0:0:
435,75,12115,1,0,0:2:0:0:
416,176,12549,2,0,L|304:160,1,100,0|2,1:2|3:3,0:0:0:0:
232,215,13419,2,0,L|120:231,1,100,0|0,1:3|0:2,0:0:0:0:
76,311,14289,1,0,1:2:0:0:
152,374,14723,6,0,L|250:359,1,100,2|0,3:3|1:3,0:0:0:0:
313,281,15593,2,0,L|431:297,1,100,0|0,0:2|1:2,0:0:0:0:
482,223,16463,1,2,3:3:0:0:
507,126,16897,2,0,P|457:125|419:143,1,75,0|4,1:2|3:2,0:0:0:0:
345,40,17766,1,0,1:2:0:0:
252,81,18197,6,0,B|216:57|216:57|146:66,1,100,4|2,3:2|1:3,0:0:0:0:
64,34,19066,2,0,P|58:83|87:141,1,100,2|0,0:3|1:3,0:0:0:0:
167,171,19936,1,6,3:3:0:0:
112,254,20370,1,0,1:2:0:0:
167,336,20805,2,0,L|279:320,1,100,2|0,2:3|1:2,0:0:0:0:
360,289,21675,5,6,3:3:0:0:
428,361,22110,2,0,B|465:309|465:309|443:172,2,200,0|0|0,1:2|1:2|1:2,0:0:0:0:
360,289,24283,1,2,0:3:0:0:
270,332,24718,1,0,1:2:0:0:
188,273,25158,6,0,L|79:289,1,100,6|0,3:3|1:2,0:0:0:0:
6,230,26027,1,2,0:3:0:0:
45,137,26462,1,0,1:2:0:0:
144,133,26897,2,0,P|127:84|144:26,1,100,6|0,3:3|1:2,0:0:0:0:
229,0,27766,2,0,L|341:14,1,100,2|0,0:3|1:2,0:0:0:0:
426,30,28636,5,6,3:3:0:0:
437,129,29071,2,0,B|412:224|482:224|451:332,2,200,0|4|2,1:2|1:2|1:3,0:0:0:0:
345,89,31244,1,0,1:2:0:0:
264,147,31679,1,4,3:3:0:0:
189,79,32114,6,0,P|122:39|42:59,1,150,4|0,3:2|0:2,0:0:0:0:
100,198,33418,1,2,1:3:0:0:
182,255,33853,2,0,L|273:236,1,75,6|0,3:3|3:2,0:0:0:0:
328,171,34505,2,0,L|398:183,1,50,0|2,3:2|3:3,0:0:0:0:
475,196,35158,1,2,1:3:0:0:
412,274,35592,6,0,L|425:368,1,75,6|0,3:3|0:2,0:0:0:0:
322,354,36244,2,0,L|315:298,1,50,0|2,3:2|3:3,0:0:0:0:
241,237,36897,1,2,1:3:0:0:
165,302,37331,2,0,B|45:316,1,100,6|2,3:3|1:3,0:0:0:0:
0,237,38201,1,2,3:3:0:0:
63,160,38636,1,2,1:3:0:0:
158,191,39071,6,0,B|234:170|232:222|311:202,1,150,6|0,3:3|3:2,0:0:0:0:
448,163,40375,2,0,P|462:113|446:61,1,100,2|6,1:3|3:3,0:0:0:0:
360,23,41244,1,2,1:3:0:0:
276,78,41679,2,0,P|230:52|177:52,1,100,2|2,3:3|1:3,0:0:0:0:
116,124,42549,5,0,1:2:0:0:
25,80,42984,1,4,1:2:0:0:
0,245,43636,1,4,1:2:0:0:
116,340,44288,1,4,1:2:0:0:
301,265,45157,1,4,1:2:0:0:
350,123,45810,6,0,L|403:131,1,50,4|2,1:2|0:2,0:0:0:0:
470,200,46447,1,2,0:2:0:0:
402,273,46867,2,0,L|408:328,1,50,2|2,0:2|0:2,0:0:0:0:
320,366,47549,6,0,P|258:319|177:345,1,150,4|2,3:2|1:3,0:0:0:0:
95,359,48635,1,2,0:3:0:0:
44,272,49070,1,2,1:3:0:0:
109,196,49505,6,0,P|152:169|213:169,1,100,6|2,3:3|1:3,0:0:0:0:
250,79,50374,2,0,B|349:60|348:120|455:90,1,200,2|6,0:3|3:3,0:0:0:0:
506,171,51679,2,0,L|494:281,1,100,2|2,1:3|0:3,0:0:0:0:
425,342,52548,1,2,1:3:0:0:
345,281,52983,5,6,3:2:0:0:
257,330,53418,2,0,L|107:353,1,150,2|0,1:3|3:2,0:0:0:0:
46,274,54505,1,0,3:2:0:0:
92,185,54939,2,0,L|247:209,1,150,0|2,3:2|0:3,0:0:0:0:
334,174,56026,1,2,1:3:0:0:
348,75,56461,5,6,3:3:0:0:
253,42,56896,2,0,L|38:67,1,200,2|2,1:3|1:3,0:0:0:0:
12,156,58200,1,6,3:3:0:0:
75,232,58635,2,0,L|60:342,2,100,2|2|2,1:3|1:3|1:3,0:0:0:0:
156,172,59939,5,4,3:2:0:0:
249,207,60374,1,2,1:3:0:0:
324,141,60809,2,0,B|401:127|401:127|472:171,1,150,2|4,3:3|3:3,0:0:0:0:
421,309,62113,2,0,P|373:293|321:310,1,100,2|2,1:3|0:3,0:0:0:0:
238,352,62983,1,2,1:3:0:0:
146,310,63418,6,0,P|111:245|136:176,1,150,6|2,3:2|3:3,0:0:0:0:
221,127,64505,2,0,L|339:147,1,100,0|2,3:2|3:3,0:0:0:0:
397,206,65374,1,0,3:2:0:0:
377,303,65809,1,2,3:3:0:0:
277,298,66244,2,0,L|117:322,1,150,2|6,3:3|3:3,0:0:0:0:
46,262,67331,6,0,L|35:197,1,50,2|0,1:2|3:2,0:0:0:0:
21,114,67983,1,0,3:2:0:0:
99,52,68418,2,0,B|167:31|168:76|262:65,1,150,4|8,3:2|0:3,0:0:0:0:
338,28,69505,1,4,1:2:0:0:
404,103,69939,1,12,3:3:0:0:
320,158,70374,6,0,P|295:246|352:351,2,200,6|2|2,3:2|1:3|0:3,0:0:0:0:
154,45,72983,1,6,1:2:0:0:
82,114,73418,1,2,1:3:0:0:
145,191,73852,2,0,B|248:154|248:230|349:199,2,200,6|2|6,3:2|1:3|0:3,0:0:0:0:
301,65,76461,1,6,1:2:0:0:
398,85,76896,1,2,1:3:0:0:
462,161,77331,6,0,L|441:277,1,100,6|2,0:2|0:3,0:0:0:0:
384,340,78200,2,0,P|315:272|215:299,1,200,2|6,1:3|0:3,0:0:0:0:
33,360,79939,1,6,1:2:0:0:
9,262,80374,1,2,1:3:0:0:
60,176,80809,6,0,L|42:65,1,100,6|2,0:2|0:3,0:0:0:0:
139,45,81679,2,0,B|163:184|163:184|218:139,1,200,2|6,1:3|0:3,0:0:0:0:
376,38,83418,1,6,1:2:0:0:
464,85,83852,1,2,1:3:0:0:
472,186,84287,5,4,3:2:0:0:
358,343,85380,5,4,3:2:0:0:
256,192,85653,12,0,88653,0:0:0:0:
