osu file format v14

[General]
AudioFilename: audio.mp3
AudioLeadIn: 0
PreviewTime: 15
Countdown: 0
SampleSet: None
StackLeniency: 0.7
Mode: 0
LetterboxInBreaks: 0
WidescreenStoryboard: 1

[Editor]
DistanceSpacing: 1.1
BeatDivisor: 4
GridSize: 16
TimelineZoom: 1

[Metadata]
Title:O! PAPAI CHAGOU
TitleUnicode:O! PAPAI CHAGOU
Artist:SHINARI, ZXLXN
ArtistUnicode:SHINARI, ZXLXN
Creator:M796
Version:Normal
Source:
Tags:
BeatmapID:4559694
BeatmapSetID:2157975

[Difficulty]
HPDrainRate:5
CircleSize:5
OverallDifficulty:5
ApproachRate:5
SliderMultiplier:1.4
SliderTickRate:1

[Events]
//Background and Video events
//Break Periods
2,11770,14304
//Storyboard Layer 0 (Background)
//Storyboard Layer 1 (Fail)
//Storyboard Layer 2 (Pass)
//Storyboard Layer 3 (Foreground)
//Storyboard Layer 4 (Overlay)
//Storyboard Sound Samples

[TimingPoints]
13.1298701298701,983.606557377042,4,1,0,100,1,0

[HitObjects]
390,202,13,5,0,0:0:0:0:
327,160,504,2,0,L|176:90,1,140
145,84,1734,1,0,0:0:0:0:
117,110,1980,2,0,L|196:313,1,210
268,292,3947,5,0,0:0:0:0:
241,219,4439,1,0,0:0:0:0:
298,167,4931,1,0,0:0:0:0:
265,187,5422,2,0,L|156:212,3,105
256,192,8373,12,0,11570,0:0:0:0:
255,182,15504,5,0,0:0:0:0:
255,182,15750,1,0,0:0:0:0:
331,185,16242,1,0,0:0:0:0:
331,185,16488,1,0,0:0:0:0:
201,187,17226,1,0,0:0:0:0:
201,187,17472,1,0,0:0:0:0:
353,165,18455,1,0,0:0:0:0:
314,168,18701,1,0,0:0:0:0:
259,190,19193,2,0,L|109:190,1,140
127,152,20422,1,0,0:0:0:0:
279,133,21406,5,8,0:0:0:0:
279,133,21652,1,8,0:0:0:0:
345,171,22144,1,0,0:0:0:0:
345,171,22390,1,0,0:0:0:0:
405,231,22881,2,0,L|306:232,2,70
480,248,24357,1,0,0:0:0:0:
442,239,24603,1,0,0:0:0:0:
427,179,27062,2,0,P|436:146|279:61,1,245
266,80,29029,1,0,0:0:0:0:
269,267,30996,1,0,0:0:0:0:
269,267,31242,1,0,0:0:0:0:
323,212,31734,1,0,0:0:0:0:
323,212,31980,1,0,0:0:0:0:
253,177,32472,1,0,0:0:0:0:
253,177,32718,1,0,0:0:0:0:
295,158,33209,1,0,0:0:0:0:
295,158,33455,1,0,0:0:0:0:
368,181,33947,2,0,L|242:157,1,105
226,154,34931,2,0,L|161:276,1,105
202,275,35914,1,0,0:0:0:0:
225,305,36160,1,0,0:0:0:0:
244,271,36406,1,0,0:0:0:0:
299,217,36652,1,0,0:0:0:0:
339,151,36898,1,0,0:0:0:0:
360,118,37144,1,0,0:0:0:0:
381,86,37390,1,0,0:0:0:0:
319,149,38619,5,0,0:0:0:0:
319,149,38865,5,0,0:0:0:0:
319,149,39111,5,0,0:0:0:0:
319,149,39357,5,0,0:0:0:0:
319,149,39603,5,0,0:0:0:0:
319,149,39849,5,0,0:0:0:0:
319,149,40095,5,0,0:0:0:0:
181,219,41078,5,0,0:0:0:0:
181,219,41324,5,0,0:0:0:0:
181,219,41570,5,0,0:0:0:0:
181,219,41816,5,0,0:0:0:0:
181,219,42062,5,0,0:0:0:0:
