osu file format v14

[General]
AudioFilename: audio.mp3
AudioLeadIn: 0
PreviewTime: 44196
Countdown: 0
SampleSet: Normal
StackLeniency: 0.7
Mode: 3
LetterboxInBreaks: 0
SpecialStyle: 0
WidescreenStoryboard: 1

[Editor]
Bookmarks: 12548,23097,33647,44196,54745,66614,77163,87712,92987,98262,108811,119361
DistanceSpacing: 0.8
BeatDivisor: 4
GridSize: 32
TimelineZoom: 2.8

[Metadata]
Title:Xecus
TitleUnicode:Xecus
Artist:SHIKI
ArtistUnicode:SHIKI
Creator:-NoName-
Version:Extreme
Source:BGA BATTLE
Tags:shizehao surfchu85 BMS fity tomoru video game electronic instrumental osu!mania 7K World Cup 2023 MWC 7K 2023 mwc23 sf semifinals
BeatmapID:4001268
BeatmapSetID:1901099

[Difficulty]
HPDrainRate:8.5
CircleSize:7
OverallDifficulty:8.5
ApproachRate:5
SliderMultiplier:1.4
SliderTickRate:1

[Events]
//Background and Video events
0,0,"bg.jpg",0,0
//Break Periods
//Storyboard Layer 0 (Background)
//Storyboard Layer 1 (Fail)
//Storyboard Layer 2 (Pass)
//Storyboard Layer 3 (Foreground)
//Storyboard Layer 4 (Overlay)
//Storyboard Sound Samples

[TimingPoints]
680,329.67032967033,4,1,1,30,1,0
44196,-100,4,1,1,30,0,1
54745,-100,4,1,1,30,0,0
66614,-100,4,1,1,30,0,1
87712,-100,4,1,1,30,0,0
92987,-100,4,1,1,30,0,1
108811,-100,4,1,1,30,0,0

[HitObjects]
36,192,680,5,0,0:0:0:0:
402,192,680,1,0,0:0:0:0:
329,192,1504,1,0,0:0:0:0:
109,192,1833,1,0,0:0:0:0:
182,192,1998,1,0,0:0:0:0:
182,192,2822,1,0,0:0:0:0:
329,192,2987,1,0,0:0:0:0:
402,192,3152,1,0,0:0:0:0:
475,192,3317,1,0,0:0:0:0:
36,192,3317,1,0,0:0:0:0:
182,192,4141,1,0,0:0:0:0:
402,192,4471,1,0,0:0:0:0:
256,192,4636,1,0,0:0:0:0:
36,192,5295,1,0,0:0:0:0:
182,192,5954,1,0,0:0:0:0:
329,192,5954,1,0,0:0:0:0:
109,192,6778,1,0,0:0:0:0:
475,192,7108,1,0,0:0:0:0:
329,192,7273,1,0,0:0:0:0:
109,192,7932,1,0,0:0:0:0:
182,192,8262,1,0,0:0:0:0:
36,192,8592,1,0,0:0:0:0:
329,192,8592,1,0,0:0:0:0:
329,192,9416,1,0,0:0:0:0:
475,192,9745,1,0,0:0:0:0:
109,192,9910,1,0,0:0:0:0:
329,192,9910,1,0,0:0:0:0:
256,192,10405,1,0,0:0:0:0:
36,192,10899,1,0,0:0:0:0:
402,192,11229,1,0,0:0:0:0:
475,192,11229,1,0,0:0:0:0:
256,192,11229,1,0,0:0:0:0:
36,192,11311,1,0,0:0:0:0:
109,192,11311,1,0,0:0:0:0:
182,192,11311,1,0,0:0:0:0:
475,192,11394,1,0,0:0:0:0:
402,192,11394,1,0,0:0:0:0:
329,192,11394,1,0,0:0:0:0:
109,192,11476,1,0,0:0:0:0:
36,192,11476,1,0,0:0:0:0:
256,192,11476,1,0,0:0:0:0:
402,192,11559,1,0,0:0:0:0:
475,192,11559,1,0,0:0:0:0:
182,192,11559,1,0,0:0:0:0:
36,192,11641,1,0,0:0:0:0:
109,192,11641,1,0,0:0:0:0:
256,192,11641,1,0,0:0:0:0:
402,192,11723,1,0,0:0:0:0:
475,192,11723,1,0,0:0:0:0:
329,192,11723,1,0,0:0:0:0:
36,192,11806,1,0,0:0:0:0:
109,192,11806,1,0,0:0:0:0:
182,192,11806,1,0,0:0:0:0:
475,192,11888,1,0,0:0:0:0:
402,192,11888,1,0,0:0:0:0:
256,192,11888,1,0,0:0:0:0:
36,192,11971,1,0,0:0:0:0:
109,192,11971,1,0,0:0:0:0:
329,192,11971,1,0,0:0:0:0:
475,192,12053,1,0,0:0:0:0:
402,192,12053,1,0,0:0:0:0:
256,192,12053,1,0,0:0:0:0:
109,192,12136,1,0,0:0:0:0:
36,192,12136,1,0,0:0:0:0:
182,192,12136,1,0,0:0:0:0:
402,192,12218,1,0,0:0:0:0:
475,192,12218,1,0,0:0:0:0:
329,192,12218,1,0,0:0:0:0:
109,192,12300,1,0,0:0:0:0:
36,192,12300,1,0,0:0:0:0:
182,192,12300,1,0,0:0:0:0:
402,192,12383,1,0,0:0:0:0:
475,192,12383,1,0,0:0:0:0:
256,192,12383,1,0,0:0:0:0:
329,192,12465,1,0,0:0:0:0:
182,192,12465,1,0,0:0:0:0:
36,192,12548,1,0,0:0:0:0:
256,192,12548,1,0,0:0:0:0:
402,192,12548,1,0,0:0:0:0:
475,192,12548,1,0,0:0:0:0:
109,192,12548,1,0,0:0:0:0:
329,192,12712,1,0,0:0:0:0:
36,192,12877,1,0,0:0:0:0:
182,192,12877,1,0,0:0:0:0:
256,192,12960,1,0,0:0:0:0:
329,192,13042,1,0,0:0:0:0:
256,192,13207,1,0,0:0:0:0:
109,192,13207,1,0,0:0:0:0:
36,192,13207,1,0,0:0:0:0:
182,192,13289,1,0,0:0:0:0:
329,192,13372,1,0,0:0:0:0:
402,192,13372,1,0,0:0:0:0:
475,192,13372,1,0,0:0:0:0:
36,192,13537,1,0,0:0:0:0:
182,192,13537,1,0,0:0:0:0:
256,192,13619,1,0,0:0:0:0:
329,192,13701,1,0,0:0:0:0:
475,192,13701,1,0,0:0:0:0:
109,192,13701,1,0,0:0:0:0:
182,192,13866,1,0,0:0:0:0:
402,192,13866,1,0,0:0:0:0:
36,192,13866,1,0,0:0:0:0:
256,192,13949,1,0,0:0:0:0:
329,192,14031,1,0,0:0:0:0:
475,192,14196,1,0,0:0:0:0:
36,192,14196,1,0,0:0:0:0:
402,192,14196,1,0,0:0:0:0:
182,192,14278,1,0,0:0:0:0:
329,192,14361,1,0,0:0:0:0:
109,192,14361,1,0,0:0:0:0:
256,192,14361,1,0,0:0:0:0:
182,192,14526,1,0,0:0:0:0:
402,192,14526,1,0,0:0:0:0:
36,192,14526,1,0,0:0:0:0:
475,192,14608,1,0,0:0:0:0:
329,192,14690,1,0,0:0:0:0:
109,192,14690,1,0,0:0:0:0:
256,192,14690,1,0,0:0:0:0:
36,192,14855,1,0,0:0:0:0:
402,192,14855,1,0,0:0:0:0:
109,192,14938,1,0,0:0:0:0:
329,192,15020,1,0,0:0:0:0:
256,192,15020,1,0,0:0:0:0:
475,192,15020,1,0,0:0:0:0:
182,192,15185,1,0,0:0:0:0:
109,192,15185,1,0,0:0:0:0:
402,192,15185,1,0,0:0:0:0:
256,192,15267,1,0,0:0:0:0:
475,192,15350,1,0,0:0:0:0:
36,192,15515,1,0,0:0:0:0:
182,192,15515,1,0,0:0:0:0:
329,192,15597,1,0,0:0:0:0:
402,192,15680,1,0,0:0:0:0:
182,192,15844,1,0,0:0:0:0:
329,192,15844,1,0,0:0:0:0:
36,192,15844,1,0,0:0:0:0:
256,192,15927,1,0,0:0:0:0:
402,192,16009,1,0,0:0:0:0:
109,192,16009,1,0,0:0:0:0:
475,192,16009,1,0,0:0:0:0:
36,192,16174,1,0,0:0:0:0:
182,192,16174,1,0,0:0:0:0:
256,192,16256,1,0,0:0:0:0:
402,192,16339,1,0,0:0:0:0:
109,192,16504,1,0,0:0:0:0:
475,192,16504,1,0,0:0:0:0:
182,192,16504,1,0,0:0:0:0:
329,192,16586,1,0,0:0:0:0:
402,192,16669,1,0,0:0:0:0:
36,192,16833,1,0,0:0:0:0:
182,192,16833,1,0,0:0:0:0:
256,192,16916,1,0,0:0:0:0:
402,192,16998,1,0,0:0:0:0:
109,192,16998,1,0,0:0:0:0:
329,192,16998,1,0,0:0:0:0:
256,192,17163,1,0,0:0:0:0:
182,192,17163,1,0,0:0:0:0:
109,192,17245,1,0,0:0:0:0:
402,192,17328,1,0,0:0:0:0:
475,192,17328,1,0,0:0:0:0:
329,192,17328,1,0,0:0:0:0:
36,192,17493,1,0,0:0:0:0:
109,192,17493,1,0,0:0:0:0:
182,192,17493,1,0,0:0:0:0:
256,192,17575,1,0,0:0:0:0:
402,192,17658,1,0,0:0:0:0:
329,192,17822,1,0,0:0:0:0:
182,192,17822,1,0,0:0:0:0:
109,192,17822,1,0,0:0:0:0:
402,192,17905,1,0,0:0:0:0:
475,192,17987,1,0,0:0:0:0:
36,192,18152,1,0,0:0:0:0:
182,192,18152,1,0,0:0:0:0:
256,192,18234,1,0,0:0:0:0:
475,192,18317,1,0,0:0:0:0:
329,192,18482,1,0,0:0:0:0:
36,192,18482,1,0,0:0:0:0:
109,192,18482,1,0,0:0:0:0:
182,192,18564,1,0,0:0:0:0:
475,192,18647,1,0,0:0:0:0:
256,192,18647,1,0,0:0:0:0:
402,192,18647,1,0,0:0:0:0:
36,192,18811,1,0,0:0:0:0:
182,192,18811,1,0,0:0:0:0:
329,192,18894,1,0,0:0:0:0:
475,192,18976,1,0,0:0:0:0:
256,192,18976,1,0,0:0:0:0:
402,192,18976,1,0,0:0:0:0:
109,192,19141,1,0,0:0:0:0:
329,192,19141,1,0,0:0:0:0:
182,192,19141,1,0,0:0:0:0:
256,192,19223,1,0,0:0:0:0:
475,192,19306,1,0,0:0:0:0:
36,192,19471,1,0,0:0:0:0:
182,192,19471,1,0,0:0:0:0:
109,192,19471,1,0,0:0:0:0:
329,192,19553,1,0,0:0:0:0:
475,192,19636,1,0,0:0:0:0:
256,192,19636,1,0,0:0:0:0:
402,192,19636,1,0,0:0:0:0:
182,192,19800,1,0,0:0:0:0:
329,192,19800,1,0,0:0:0:0:
36,192,19800,1,0,0:0:0:0:
256,192,19883,1,0,0:0:0:0:
475,192,19965,1,0,0:0:0:0:
109,192,19965,1,0,0:0:0:0:
402,192,19965,1,0,0:0:0:0:
36,192,20130,1,0,0:0:0:0:
329,192,20130,1,0,0:0:0:0:
182,192,20212,1,0,0:0:0:0:
475,192,20295,1,0,0:0:0:0:
109,192,20460,1,0,0:0:0:0:
256,192,20460,1,0,0:0:0:0:
402,192,20460,1,0,0:0:0:0:
182,192,20542,1,0,0:0:0:0:
329,192,20625,1,0,0:0:0:0:
36,192,20789,1,0,0:0:0:0:
182,192,20789,1,0,0:0:0:0:
256,192,20872,1,0,0:0:0:0:
329,192,20954,1,0,0:0:0:0:
182,192,21119,1,0,0:0:0:0:
256,192,21201,1,0,0:0:0:0:
475,192,21284,1,0,0:0:0:0:
109,192,21284,1,0,0:0:0:0:
402,192,21284,1,0,0:0:0:0:
36,192,21449,1,0,0:0:0:0:
329,192,21449,1,0,0:0:0:0:
182,192,21531,1,0,0:0:0:0:
475,192,21614,1,0,0:0:0:0:
256,192,21614,1,0,0:0:0:0:
402,192,21614,1,0,0:0:0:0:
36,192,21778,1,0,0:0:0:0:
475,192,21778,1,0,0:0:0:0:
329,192,21778,1,0,0:0:0:0:
109,192,21778,1,0,0:0:0:0:
256,192,21861,1,0,0:0:0:0:
329,192,21943,1,0,0:0:0:0:
182,192,21943,1,0,0:0:0:0:
36,192,22108,1,0,0:0:0:0:
475,192,22108,1,0,0:0:0:0:
182,192,22108,1,0,0:0:0:0:
402,192,22108,1,0,0:0:0:0:
256,192,22190,1,0,0:0:0:0:
329,192,22273,1,0,0:0:0:0:
182,192,22273,1,0,0:0:0:0:
329,192,22438,1,0,0:0:0:0:
475,192,22438,1,0,0:0:0:0:
36,192,22438,1,0,0:0:0:0:
109,192,22438,1,0,0:0:0:0:
109,192,22603,1,0,0:0:0:0:
402,192,22603,1,0,0:0:0:0:
256,192,22603,1,0,0:0:0:0:
329,192,22685,1,0,0:0:0:0:
182,192,22685,1,0,0:0:0:0:
36,192,22767,1,0,0:0:0:0:
256,192,22767,1,0,0:0:0:0:
475,192,22767,1,0,0:0:0:0:
109,192,22850,1,0,0:0:0:0:
329,192,22850,1,0,0:0:0:0:
402,192,22932,1,0,0:0:0:0:
182,192,22932,1,0,0:0:0:0:
36,192,22932,1,0,0:0:0:0:
475,192,23015,1,0,0:0:0:0:
256,192,23015,1,0,0:0:0:0:
109,192,23097,1,0,0:0:0:0:
36,192,23097,1,0,0:0:0:0:
182,192,23097,1,0,0:0:0:0:
329,192,23097,1,0,0:0:0:0:
402,192,23097,1,0,0:0:0:0:
475,192,23262,1,0,0:0:0:0:
329,192,23262,1,0,0:0:0:0:
182,192,23262,1,0,0:0:0:0:
109,192,23427,1,0,0:0:0:0:
402,192,23427,1,0,0:0:0:0:
256,192,23427,1,0,0:0:0:0:
475,192,23427,1,0,0:0:0:0:
182,192,23509,1,0,0:0:0:0:
256,192,23592,1,0,0:0:0:0:
329,192,23592,1,0,0:0:0:0:
36,192,23592,1,0,0:0:0:0:
109,192,23756,1,0,0:0:0:0:
402,192,23756,1,0,0:0:0:0:
475,192,23756,1,0,0:0:0:0:
329,192,23756,1,0,0:0:0:0:
256,192,23839,1,0,0:0:0:0:
36,192,23921,1,0,0:0:0:0:
402,192,23921,1,0,0:0:0:0:
475,192,23921,1,0,0:0:0:0:
182,192,23921,1,0,0:0:0:0:
109,192,24086,1,0,0:0:0:0:
36,192,24086,1,0,0:0:0:0:
329,192,24086,1,0,0:0:0:0:
256,192,24086,1,0,0:0:0:0:
182,192,24169,1,0,0:0:0:0:
256,192,24251,1,0,0:0:0:0:
402,192,24251,1,0,0:0:0:0:
329,192,24251,1,0,0:0:0:0:
109,192,24251,1,0,0:0:0:0:
182,192,24416,1,0,0:0:0:0:
475,192,24416,1,0,0:0:0:0:
36,192,24416,1,0,0:0:0:0:
256,192,24498,1,0,0:0:0:0:
402,192,24581,1,0,0:0:0:0:
329,192,24581,1,0,0:0:0:0:
109,192,24581,1,0,0:0:0:0:
475,192,24745,1,0,0:0:0:0:
36,192,24745,1,0,0:0:0:0:
329,192,24745,1,0,0:0:0:0:
182,192,24745,1,0,0:0:0:0:
256,192,24828,1,0,0:0:0:0:
402,192,24910,1,0,0:0:0:0:
182,192,24910,1,0,0:0:0:0:
475,192,24910,1,0,0:0:0:0:
109,192,25075,1,0,0:0:0:0:
36,192,25075,1,0,0:0:0:0:
329,192,25075,1,0,0:0:0:0:
402,192,25075,1,0,0:0:0:0:
256,192,25158,1,0,0:0:0:0:
182,192,25240,1,0,0:0:0:0:
475,192,25240,1,0,0:0:0:0:
36,192,25240,1,0,0:0:0:0:
329,192,25240,1,0,0:0:0:0:
109,192,25405,1,0,0:0:0:0:
402,192,25405,1,0,0:0:0:0:
182,192,25405,1,0,0:0:0:0:
475,192,25405,1,0,0:0:0:0:
256,192,25487,1,0,0:0:0:0:
402,192,25570,1,0,0:0:0:0:
109,192,25570,1,0,0:0:0:0:
329,192,25570,1,0,0:0:0:0:
36,192,25570,1,0,0:0:0:0:
36,192,25734,1,0,0:0:0:0:
256,192,25734,1,0,0:0:0:0:
475,192,25734,1,0,0:0:0:0:
182,192,25817,1,0,0:0:0:0:
329,192,25899,1,0,0:0:0:0:
109,192,25899,1,0,0:0:0:0:
402,192,25899,1,0,0:0:0:0:
36,192,26064,1,0,0:0:0:0:
109,192,26064,1,0,0:0:0:0:
256,192,26064,1,0,0:0:0:0:
402,192,26064,1,0,0:0:0:0:
182,192,26147,1,0,0:0:0:0:
329,192,26229,1,0,0:0:0:0:
475,192,26229,1,0,0:0:0:0:
256,192,26229,1,0,0:0:0:0:
36,192,26394,1,0,0:0:0:0:
109,192,26394,1,0,0:0:0:0:
402,192,26394,1,0,0:0:0:0:
329,192,26394,1,0,0:0:0:0:
182,192,26476,1,0,0:0:0:0:
256,192,26559,1,0,0:0:0:0:
475,192,26559,1,0,0:0:0:0:
109,192,26559,1,0,0:0:0:0:
36,192,26723,1,0,0:0:0:0:
475,192,26723,1,0,0:0:0:0:
256,192,26723,1,0,0:0:0:0:
402,192,26723,1,0,0:0:0:0:
182,192,26806,1,0,0:0:0:0:
329,192,26888,1,0,0:0:0:0:
109,192,26888,1,0,0:0:0:0:
402,192,26888,1,0,0:0:0:0:
36,192,27053,1,0,0:0:0:0:
182,192,27053,1,0,0:0:0:0:
475,192,27053,1,0,0:0:0:0:
109,192,27053,1,0,0:0:0:0:
256,192,27136,1,0,0:0:0:0:
475,192,27218,1,0,0:0:0:0:
182,192,27218,1,0,0:0:0:0:
402,192,27218,1,0,0:0:0:0:
36,192,27383,1,0,0:0:0:0:
109,192,27383,1,0,0:0:0:0:
402,192,27383,1,0,0:0:0:0:
329,192,27383,1,0,0:0:0:0:
256,192,27465,1,0,0:0:0:0:
475,192,27548,1,0,0:0:0:0:
109,192,27548,1,0,0:0:0:0:
329,192,27548,1,0,0:0:0:0:
182,192,27548,1,0,0:0:0:0:
36,192,27712,1,0,0:0:0:0:
402,192,27712,1,0,0:0:0:0:
182,192,27712,1,0,0:0:0:0:
256,192,27795,1,0,0:0:0:0:
475,192,27877,1,0,0:0:0:0:
109,192,27877,1,0,0:0:0:0:
329,192,27877,1,0,0:0:0:0:
36,192,28042,1,0,0:0:0:0:
182,192,28042,1,0,0:0:0:0:
402,192,28042,1,0,0:0:0:0:
109,192,28042,1,0,0:0:0:0:
256,192,28125,1,0,0:0:0:0:
475,192,28207,1,0,0:0:0:0:
182,192,28207,1,0,0:0:0:0:
329,192,28207,1,0,0:0:0:0:
36,192,28372,1,0,0:0:0:0:
402,192,28372,1,0,0:0:0:0:
475,192,28372,1,0,0:0:0:0:
109,192,28372,1,0,0:0:0:0:
182,192,28454,1,0,0:0:0:0:
256,192,28537,1,0,0:0:0:0:
329,192,28537,1,0,0:0:0:0:
402,192,28537,1,0,0:0:0:0:
36,192,28701,1,0,0:0:0:0:
256,192,28701,1,0,0:0:0:0:
475,192,28701,1,0,0:0:0:0:
109,192,28701,1,0,0:0:0:0:
182,192,28784,1,0,0:0:0:0:
402,192,28866,1,0,0:0:0:0:
109,192,28866,1,0,0:0:0:0:
475,192,28866,1,0,0:0:0:0:
36,192,29031,1,0,0:0:0:0:
329,192,29031,1,0,0:0:0:0:
402,192,29031,1,0,0:0:0:0:
256,192,29031,1,0,0:0:0:0:
182,192,29114,1,0,0:0:0:0:
256,192,29196,1,0,0:0:0:0:
475,192,29196,1,0,0:0:0:0:
109,192,29196,1,0,0:0:0:0:
36,192,29196,1,0,0:0:0:0:
36,192,29361,1,0,0:0:0:0:
329,192,29361,1,0,0:0:0:0:
475,192,29361,1,0,0:0:0:0:
402,192,29361,1,0,0:0:0:0:
182,192,29443,1,0,0:0:0:0:
256,192,29526,1,0,0:0:0:0:
329,192,29526,1,0,0:0:0:0:
402,192,29526,1,0,0:0:0:0:
109,192,29526,1,0,0:0:0:0:
36,192,29690,1,0,0:0:0:0:
475,192,29690,1,0,0:0:0:0:
256,192,29690,1,0,0:0:0:0:
182,192,29773,1,0,0:0:0:0:
402,192,29855,1,0,0:0:0:0:
109,192,29855,1,0,0:0:0:0:
329,192,29855,1,0,0:0:0:0:
256,192,30020,1,0,0:0:0:0:
109,192,30020,1,0,0:0:0:0:
329,192,30020,1,0,0:0:0:0:
36,192,30020,1,0,0:0:0:0:
182,192,30103,1,0,0:0:0:0:
402,192,30185,1,0,0:0:0:0:
256,192,30185,1,0,0:0:0:0:
475,192,30185,1,0,0:0:0:0:
36,192,30350,1,0,0:0:0:0:
109,192,30350,1,0,0:0:0:0:
329,192,30350,1,0,0:0:0:0:
402,192,30350,1,0,0:0:0:0:
182,192,30432,1,0,0:0:0:0:
109,192,30515,1,0,0:0:0:0:
256,192,30515,1,0,0:0:0:0:
475,192,30515,1,0,0:0:0:0:
329,192,30515,1,0,0:0:0:0:
36,192,30680,1,0,0:0:0:0:
402,192,30680,1,0,0:0:0:0:
256,192,30680,1,0,0:0:0:0:
475,192,30680,1,0,0:0:0:0:
182,192,30762,1,0,0:0:0:0:
402,192,30844,1,0,0:0:0:0:
109,192,30844,1,0,0:0:0:0:
329,192,30844,1,0,0:0:0:0:
109,192,31009,1,0,0:0:0:0:
36,192,31009,1,0,0:0:0:0:
329,192,31009,1,0,0:0:0:0:
256,192,31009,1,0,0:0:0:0:
182,192,31092,1,0,0:0:0:0:
256,192,31174,1,0,0:0:0:0:
402,192,31174,1,0,0:0:0:0:
475,192,31174,1,0,0:0:0:0:
109,192,31339,1,0,0:0:0:0:
329,192,31339,1,0,0:0:0:0:
475,192,31339,1,0,0:0:0:0:
402,192,31339,1,0,0:0:0:0:
182,192,31421,1,0,0:0:0:0:
256,192,31504,1,0,0:0:0:0:
329,192,31504,1,0,0:0:0:0:
36,192,31504,1,0,0:0:0:0:
109,192,31669,1,0,0:0:0:0:
402,192,31669,1,0,0:0:0:0:
475,192,31669,1,0,0:0:0:0:
182,192,31751,1,0,0:0:0:0:
256,192,31833,1,0,0:0:0:0:
36,192,31833,1,0,0:0:0:0:
329,192,31833,1,0,0:0:0:0:
402,192,31833,1,0,0:0:0:0:
109,192,31998,1,0,0:0:0:0:
329,192,31998,1,0,0:0:0:0:
36,192,31998,1,0,0:0:0:0:
256,192,31998,1,0,0:0:0:0:
182,192,32081,1,0,0:0:0:0:
402,192,32163,1,0,0:0:0:0:
109,192,32163,1,0,0:0:0:0:
475,192,32163,1,0,0:0:0:0:
329,192,32163,1,0,0:0:0:0:
36,192,32328,1,0,0:0:0:0:
475,192,32328,1,0,0:0:0:0:
182,192,32328,1,0,0:0:0:0:
402,192,32410,1,0,0:0:0:0:
109,192,32410,1,0,0:0:0:0:
182,192,32493,1,0,0:0:0:0:
329,192,32493,1,0,0:0:0:0:
256,192,32493,1,0,0:0:0:0:
109,192,32575,1,0,0:0:0:0:
475,192,32575,1,0,0:0:0:0:
36,192,32658,1,0,0:0:0:0:
256,192,32658,1,0,0:0:0:0:
402,192,32658,1,0,0:0:0:0:
182,192,32740,1,0,0:0:0:0:
329,192,32740,1,0,0:0:0:0:
475,192,32822,1,0,0:0:0:0:
109,192,32822,1,0,0:0:0:0:
402,192,32822,1,0,0:0:0:0:
256,192,32905,1,0,0:0:0:0:
36,192,32905,1,0,0:0:0:0:
475,192,32987,1,0,0:0:0:0:
329,192,32987,1,0,0:0:0:0:
182,192,32987,1,0,0:0:0:0:
36,192,33070,1,0,0:0:0:0:
402,192,33070,1,0,0:0:0:0:
329,192,33152,1,0,0:0:0:0:
256,192,33152,1,0,0:0:0:0:
109,192,33152,1,0,0:0:0:0:
182,192,33234,1,0,0:0:0:0:
36,192,33234,1,0,0:0:0:0:
256,192,33317,1,0,0:0:0:0:
402,192,33317,1,0,0:0:0:0:
475,192,33317,1,0,0:0:0:0:
329,192,33399,1,0,0:0:0:0:
109,192,33399,1,0,0:0:0:0:
182,192,33482,1,0,0:0:0:0:
36,192,33482,1,0,0:0:0:0:
402,192,33482,1,0,0:0:0:0:
475,192,33564,1,0,0:0:0:0:
256,192,33564,1,0,0:0:0:0:
36,192,33647,1,0,0:0:0:0:
329,192,33647,1,0,0:0:0:0:
109,192,33647,1,0,0:0:0:0:
182,192,33647,1,0,0:0:0:0:
402,192,33811,1,0,0:0:0:0:
36,192,33811,1,0,0:0:0:0:
256,192,33894,1,0,0:0:0:0:
402,192,33976,1,0,0:0:0:0:
329,192,33976,1,0,0:0:0:0:
109,192,33976,1,0,0:0:0:0:
475,192,34141,1,0,0:0:0:0:
36,192,34141,1,0,0:0:0:0:
329,192,34223,1,0,0:0:0:0:
182,192,34306,1,0,0:0:0:0:
109,192,34306,1,0,0:0:0:0:
329,192,34388,1,0,0:0:0:0:
256,192,34471,1,0,0:0:0:0:
36,192,34471,1,0,0:0:0:0:
475,192,34471,1,0,0:0:0:0:
182,192,34471,1,0,0:0:0:0:
109,192,34636,1,0,0:0:0:0:
402,192,34636,1,0,0:0:0:0:
329,192,34636,1,0,0:0:0:0:
36,192,34800,1,0,0:0:0:0:
256,192,34800,1,0,0:0:0:0:
402,192,34800,1,0,0:0:0:0:
475,192,34800,1,0,0:0:0:0:
182,192,34883,1,0,0:0:0:0:
475,192,34965,1,0,0:0:0:0:
329,192,34965,1,0,0:0:0:0:
109,192,34965,1,0,0:0:0:0:
36,192,34965,1,0,0:0:0:0:
256,192,35130,1,0,0:0:0:0:
182,192,35130,1,0,0:0:0:0:
329,192,35212,1,0,0:0:0:0:
109,192,35295,1,0,0:0:0:0:
182,192,35295,1,0,0:0:0:0:
402,192,35295,1,0,0:0:0:0:
36,192,35460,1,0,0:0:0:0:
475,192,35460,1,0,0:0:0:0:
182,192,35542,1,0,0:0:0:0:
329,192,35625,1,0,0:0:0:0:
402,192,35625,1,0,0:0:0:0:
182,192,35707,1,0,0:0:0:0:
256,192,35789,1,0,0:0:0:0:
475,192,35789,1,0,0:0:0:0:
36,192,35789,1,0,0:0:0:0:
329,192,35789,1,0,0:0:0:0:
402,192,35954,1,0,0:0:0:0:
109,192,35954,1,0,0:0:0:0:
182,192,35954,1,0,0:0:0:0:
36,192,35954,1,0,0:0:0:0:
475,192,36119,1,0,0:0:0:0:
256,192,36119,1,0,0:0:0:0:
109,192,36119,1,0,0:0:0:0:
402,192,36119,1,0,0:0:0:0:
36,192,36284,1,0,0:0:0:0:
182,192,36284,1,0,0:0:0:0:
329,192,36284,1,0,0:0:0:0:
256,192,36284,1,0,0:0:0:0:
475,192,36449,1,0,0:0:0:0:
402,192,36449,1,0,0:0:0:0:
256,192,36531,1,0,0:0:0:0:
109,192,36614,1,0,0:0:0:0:
36,192,36614,1,0,0:0:0:0:
329,192,36614,1,0,0:0:0:0:
182,192,36778,1,0,0:0:0:0:
475,192,36778,1,0,0:0:0:0:
402,192,36861,1,0,0:0:0:0:
109,192,36943,1,0,0:0:0:0:
256,192,36943,1,0,0:0:0:0:
402,192,37026,1,0,0:0:0:0:
182,192,37108,1,0,0:0:0:0:
36,192,37108,1,0,0:0:0:0:
475,192,37108,1,0,0:0:0:0:
109,192,37108,1,0,0:0:0:0:
182,192,37273,1,0,0:0:0:0:
329,192,37273,1,0,0:0:0:0:
402,192,37273,1,0,0:0:0:0:
256,192,37438,1,0,0:0:0:0:
109,192,37438,1,0,0:0:0:0:
475,192,37438,1,0,0:0:0:0:
36,192,37438,1,0,0:0:0:0:
402,192,37520,1,0,0:0:0:0:
36,192,37603,1,0,0:0:0:0:
329,192,37603,1,0,0:0:0:0:
182,192,37603,1,0,0:0:0:0:
256,192,37603,1,0,0:0:0:0:
109,192,37767,1,0,0:0:0:0:
402,192,37767,1,0,0:0:0:0:
329,192,37850,1,0,0:0:0:0:
182,192,37932,1,0,0:0:0:0:
475,192,37932,1,0,0:0:0:0:
256,192,37932,1,0,0:0:0:0:
329,192,38097,1,0,0:0:0:0:
36,192,38097,1,0,0:0:0:0:
109,192,38180,1,0,0:0:0:0:
402,192,38262,1,0,0:0:0:0:
256,192,38262,1,0,0:0:0:0:
182,192,38262,1,0,0:0:0:0:
475,192,38262,1,0,0:0:0:0:
109,192,38344,1,0,0:0:0:0:
329,192,38427,1,0,0:0:0:0:
475,192,38427,1,0,0:0:0:0:
36,192,38427,1,0,0:0:0:0:
329,192,38592,1,0,0:0:0:0:
182,192,38592,1,0,0:0:0:0:
109,192,38592,1,0,0:0:0:0:
256,192,38756,1,0,0:0:0:0:
475,192,38756,1,0,0:0:0:0:
36,192,38756,1,0,0:0:0:0:
402,192,38839,1,0,0:0:0:0:
182,192,38921,1,0,0:0:0:0:
329,192,38921,1,0,0:0:0:0:
109,192,38921,1,0,0:0:0:0:
256,192,38921,1,0,0:0:0:0:
329,192,39086,1,0,0:0:0:0:
36,192,39086,1,0,0:0:0:0:
256,192,39169,1,0,0:0:0:0:
402,192,39251,1,0,0:0:0:0:
475,192,39251,1,0,0:0:0:0:
109,192,39251,1,0,0:0:0:0:
329,192,39416,1,0,0:0:0:0:
182,192,39416,1,0,0:0:0:0:
475,192,39498,1,0,0:0:0:0:
36,192,39581,1,0,0:0:0:0:
109,192,39581,1,0,0:0:0:0:
475,192,39663,1,0,0:0:0:0:
256,192,39745,1,0,0:0:0:0:
182,192,39745,1,0,0:0:0:0:
329,192,39745,1,0,0:0:0:0:
36,192,39745,1,0,0:0:0:0:
109,192,39910,1,0,0:0:0:0:
402,192,39910,1,0,0:0:0:0:
475,192,39910,1,0,0:0:0:0:
182,192,40075,1,0,0:0:0:0:
256,192,40075,1,0,0:0:0:0:
402,192,40075,1,0,0:0:0:0:
329,192,40075,1,0,0:0:0:0:
36,192,40158,1,0,0:0:0:0:
329,192,40240,1,0,0:0:0:0:
475,192,40240,1,0,0:0:0:0:
109,192,40240,1,0,0:0:0:0:
182,192,40405,1,0,0:0:0:0:
256,192,40405,1,0,0:0:0:0:
475,192,40487,1,0,0:0:0:0:
109,192,40570,1,0,0:0:0:0:
36,192,40570,1,0,0:0:0:0:
402,192,40570,1,0,0:0:0:0:
182,192,40734,1,0,0:0:0:0:
329,192,40734,1,0,0:0:0:0:
36,192,40817,1,0,0:0:0:0:
475,192,40899,1,0,0:0:0:0:
402,192,40899,1,0,0:0:0:0:
256,192,40899,1,0,0:0:0:0:
109,192,40899,1,0,0:0:0:0:
36,192,40982,1,0,0:0:0:0:
329,192,41064,1,0,0:0:0:0:
475,192,41064,1,0,0:0:0:0:
182,192,41064,1,0,0:0:0:0:
402,192,41229,1,0,0:0:0:0:
109,192,41229,1,0,0:0:0:0:
36,192,41229,1,0,0:0:0:0:
256,192,41229,1,0,0:0:0:0:
329,192,41394,1,0,0:0:0:0:
109,192,41394,1,0,0:0:0:0:
182,192,41394,1,0,0:0:0:0:
402,192,41476,1,0,0:0:0:0:
36,192,41559,1,0,0:0:0:0:
475,192,41559,1,0,0:0:0:0:
256,192,41559,1,0,0:0:0:0:
182,192,41559,1,0,0:0:0:0:
329,192,41723,1,0,0:0:0:0:
109,192,41723,1,0,0:0:0:0:
256,192,41806,1,0,0:0:0:0:
182,192,41888,1,0,0:0:0:0:
402,192,41888,1,0,0:0:0:0:
475,192,41888,1,0,0:0:0:0:
109,192,42053,1,0,0:0:0:0:
256,192,42053,1,0,0:0:0:0:
329,192,42136,1,0,0:0:0:0:
182,192,42218,1,0,0:0:0:0:
36,192,42218,1,0,0:0:0:0:
329,192,42300,1,0,0:0:0:0:
256,192,42383,1,0,0:0:0:0:
402,192,42383,1,0,0:0:0:0:
475,192,42383,1,0,0:0:0:0:
182,192,42383,1,0,0:0:0:0:
109,192,42548,1,0,0:0:0:0:
36,192,42548,1,0,0:0:0:0:
329,192,42548,1,0,0:0:0:0:
182,192,42712,1,0,0:0:0:0:
329,192,42712,1,0,0:0:0:0:
475,192,42712,1,0,0:0:0:0:
402,192,42712,1,0,0:0:0:0:
256,192,42795,1,0,0:0:0:0:
109,192,42877,1,0,0:0:0:0:
36,192,42877,1,0,0:0:0:0:
402,192,43207,1,0,0:0:0:0:
475,192,43207,1,0,0:0:0:0:
36,192,43454,1,0,0:0:0:0:
182,192,43454,1,0,0:0:0:0:
329,192,43537,1,0,0:0:0:0:
475,192,43537,1,0,0:0:0:0:
402,192,43701,1,0,0:0:0:0:
109,192,43701,1,0,0:0:0:0:
329,192,43866,1,0,0:0:0:0:
182,192,43949,1,0,0:0:0:0:
329,192,44031,1,0,0:0:0:0:
182,192,44114,1,0,0:0:0:0:
36,192,44196,1,0,0:0:0:0:
109,192,44196,1,0,0:0:0:0:
256,192,44196,1,0,0:0:0:0:
402,192,44196,1,0,0:0:0:0:
475,192,44196,1,0,0:0:0:0:
329,192,44278,1,0,0:0:0:0:
182,192,44278,1,0,0:0:0:0:
402,192,44361,1,0,0:0:0:0:
109,192,44361,1,0,0:0:0:0:
475,192,44361,1,0,0:0:0:0:
256,192,44443,1,0,0:0:0:0:
36,192,44526,1,0,0:0:0:0:
182,192,44526,1,0,0:0:0:0:
475,192,44526,1,0,0:0:0:0:
109,192,44608,1,0,0:0:0:0:
329,192,44608,1,0,0:0:0:0:
182,192,44690,1,0,0:0:0:0:
256,192,44690,1,0,0:0:0:0:
402,192,44690,1,0,0:0:0:0:
475,192,44773,1,0,0:0:0:0:
36,192,44855,1,0,0:0:0:0:
329,192,44855,1,0,0:0:0:0:
182,192,44855,1,0,0:0:0:0:
256,192,44938,1,0,0:0:0:0:
402,192,44938,1,0,0:0:0:0:
475,192,45020,1,0,0:0:0:0:
329,192,45020,1,0,0:0:0:0:
36,192,45020,1,0,0:0:0:0:
109,192,45020,1,0,0:0:0:0:
256,192,45103,1,0,0:0:0:0:
182,192,45103,1,0,0:0:0:0:
402,192,45185,1,0,0:0:0:0:
109,192,45185,1,0,0:0:0:0:
475,192,45185,1,0,0:0:0:0:
329,192,45267,1,0,0:0:0:0:
182,192,45267,1,0,0:0:0:0:
475,192,45350,1,0,0:0:0:0:
402,192,45350,1,0,0:0:0:0:
256,192,45350,1,0,0:0:0:0:
36,192,45350,1,0,0:0:0:0:
329,192,45432,1,0,0:0:0:0:
182,192,45432,1,0,0:0:0:0:
256,192,45515,1,0,0:0:0:0:
475,192,45515,1,0,0:0:0:0:
36,192,45515,1,0,0:0:0:0:
109,192,45515,1,0,0:0:0:0:
402,192,45597,1,0,0:0:0:0:
329,192,45597,1,0,0:0:0:0:
256,192,45680,1,0,0:0:0:0:
109,192,45680,1,0,0:0:0:0:
182,192,45680,1,0,0:0:0:0:
402,192,45762,1,0,0:0:0:0:
109,192,45844,1,0,0:0:0:0:
329,192,45844,1,0,0:0:0:0:
36,192,45844,1,0,0:0:0:0:
182,192,45927,1,0,0:0:0:0:
256,192,45927,1,0,0:0:0:0:
402,192,46009,1,0,0:0:0:0:
475,192,46009,1,0,0:0:0:0:
36,192,46009,1,0,0:0:0:0:
109,192,46092,1,0,0:0:0:0:
329,192,46174,1,0,0:0:0:0:
182,192,46174,1,0,0:0:0:0:
475,192,46174,1,0,0:0:0:0:
109,192,46256,1,0,0:0:0:0:
256,192,46256,1,0,0:0:0:0:
475,192,46339,1,0,0:0:0:0:
36,192,46339,1,0,0:0:0:0:
402,192,46339,1,0,0:0:0:0:
329,192,46421,1,0,0:0:0:0:
182,192,46421,1,0,0:0:0:0:
36,192,46504,1,0,0:0:0:0:
109,192,46504,1,0,0:0:0:0:
475,192,46504,1,0,0:0:0:0:
256,192,46504,1,0,0:0:0:0:
182,192,46586,1,0,0:0:0:0:
329,192,46586,1,0,0:0:0:0:
475,192,46669,1,0,0:0:0:0:
402,192,46669,1,0,0:0:0:0:
256,192,46669,1,0,0:0:0:0:
36,192,46751,1,0,0:0:0:0:
109,192,46751,1,0,0:0:0:0:
402,192,46833,1,0,0:0:0:0:
475,192,46833,1,0,0:0:0:0:
329,192,46833,1,0,0:0:0:0:
182,192,46833,1,0,0:0:0:0:
109,192,46916,1,0,0:0:0:0:
256,192,46916,1,0,0:0:0:0:
475,192,46998,1,0,0:0:0:0:
36,192,46998,1,0,0:0:0:0:
329,192,46998,1,0,0:0:0:0:
182,192,47081,1,0,0:0:0:0:
109,192,47163,1,0,0:0:0:0:
256,192,47163,1,0,0:0:0:0:
402,192,47163,1,0,0:0:0:0:
475,192,47245,1,0,0:0:0:0:
329,192,47245,1,0,0:0:0:0:
36,192,47328,1,0,0:0:0:0:
109,192,47328,1,0,0:0:0:0:
402,192,47328,1,0,0:0:0:0:
182,192,47410,1,0,0:0:0:0:
475,192,47493,1,0,0:0:0:0:
402,192,47493,1,0,0:0:0:0:
256,192,47493,1,0,0:0:0:0:
329,192,47575,1,0,0:0:0:0:
182,192,47575,1,0,0:0:0:0:
475,192,47658,1,0,0:0:0:0:
36,192,47658,1,0,0:0:0:0:
109,192,47658,1,0,0:0:0:0:
256,192,47658,1,0,0:0:0:0:
402,192,47740,1,0,0:0:0:0:
182,192,47740,1,0,0:0:0:0:
109,192,47822,1,0,0:0:0:0:
329,192,47822,1,0,0:0:0:0:
36,192,47822,1,0,0:0:0:0:
402,192,47905,1,0,0:0:0:0:
256,192,47905,1,0,0:0:0:0:
475,192,47987,1,0,0:0:0:0:
182,192,47987,1,0,0:0:0:0:
329,192,47987,1,0,0:0:0:0:
36,192,47987,1,0,0:0:0:0:
256,192,48070,1,0,0:0:0:0:
109,192,48070,1,0,0:0:0:0:
402,192,48152,1,0,0:0:0:0:
475,192,48152,1,0,0:0:0:0:
182,192,48152,1,0,0:0:0:0:
329,192,48152,1,0,0:0:0:0:
109,192,48234,1,0,0:0:0:0:
36,192,48234,1,0,0:0:0:0:
329,192,48317,1,0,0:0:0:0:
402,192,48317,1,0,0:0:0:0:
256,192,48317,1,0,0:0:0:0:
182,192,48399,1,0,0:0:0:0:
475,192,48482,1,0,0:0:0:0:
109,192,48482,1,0,0:0:0:0:
36,192,48482,1,0,0:0:0:0:
402,192,48564,1,0,0:0:0:0:
256,192,48564,1,0,0:0:0:0:
329,192,48647,1,0,0:0:0:0:
36,192,48647,1,0,0:0:0:0:
182,192,48647,1,0,0:0:0:0:
402,192,48729,1,0,0:0:0:0:
256,192,48811,1,0,0:0:0:0:
475,192,48811,1,0,0:0:0:0:
109,192,48811,1,0,0:0:0:0:
36,192,48811,1,0,0:0:0:0:
329,192,48894,1,0,0:0:0:0:
182,192,48894,1,0,0:0:0:0:
256,192,48976,1,0,0:0:0:0:
402,192,48976,1,0,0:0:0:0:
475,192,48976,1,0,0:0:0:0:
109,192,49059,1,0,0:0:0:0:
475,192,49141,1,0,0:0:0:0:
182,192,49141,1,0,0:0:0:0:
329,192,49141,1,0,0:0:0:0:
109,192,49223,1,0,0:0:0:0:
256,192,49223,1,0,0:0:0:0:
182,192,49306,1,0,0:0:0:0:
36,192,49306,1,0,0:0:0:0:
402,192,49306,1,0,0:0:0:0:
329,192,49388,1,0,0:0:0:0:
109,192,49471,1,0,0:0:0:0:
256,192,49471,1,0,0:0:0:0:
475,192,49471,1,0,0:0:0:0:
36,192,49471,1,0,0:0:0:0:
182,192,49553,1,0,0:0:0:0:
402,192,49553,1,0,0:0:0:0:
109,192,49636,1,0,0:0:0:0:
329,192,49636,1,0,0:0:0:0:
36,192,49636,1,0,0:0:0:0:
402,192,49718,1,0,0:0:0:0:
475,192,49800,1,0,0:0:0:0:
256,192,49800,1,0,0:0:0:0:
36,192,49800,1,0,0:0:0:0:
329,192,49883,1,0,0:0:0:0:
109,192,49883,1,0,0:0:0:0:
402,192,49965,1,0,0:0:0:0:
256,192,49965,1,0,0:0:0:0:
182,192,49965,1,0,0:0:0:0:
109,192,50048,1,0,0:0:0:0:
475,192,50130,1,0,0:0:0:0:
36,192,50130,1,0,0:0:0:0:
329,192,50130,1,0,0:0:0:0:
256,192,50212,1,0,0:0:0:0:
402,192,50212,1,0,0:0:0:0:
109,192,50295,1,0,0:0:0:0:
36,192,50295,1,0,0:0:0:0:
329,192,50295,1,0,0:0:0:0:
182,192,50295,1,0,0:0:0:0:
256,192,50377,1,0,0:0:0:0:
402,192,50377,1,0,0:0:0:0:
109,192,50460,1,0,0:0:0:0:
475,192,50460,1,0,0:0:0:0:
329,192,50460,1,0,0:0:0:0:
182,192,50542,1,0,0:0:0:0:
36,192,50542,1,0,0:0:0:0:
256,192,50625,1,0,0:0:0:0:
475,192,50625,1,0,0:0:0:0:
402,192,50625,1,0,0:0:0:0:
109,192,50625,1,0,0:0:0:0:
329,192,50707,1,0,0:0:0:0:
182,192,50707,1,0,0:0:0:0:
36,192,50789,1,0,0:0:0:0:
475,192,50789,1,0,0:0:0:0:
402,192,50789,1,0,0:0:0:0:
256,192,50789,1,0,0:0:0:0:
109,192,50872,1,0,0:0:0:0:
329,192,50872,1,0,0:0:0:0:
182,192,50954,1,0,0:0:0:0:
256,192,50954,1,0,0:0:0:0:
36,192,50954,1,0,0:0:0:0:
475,192,51037,1,0,0:0:0:0:
109,192,51119,1,0,0:0:0:0:
182,192,51119,1,0,0:0:0:0:
402,192,51119,1,0,0:0:0:0:
329,192,51201,1,0,0:0:0:0:
256,192,51201,1,0,0:0:0:0:
109,192,51284,1,0,0:0:0:0:
402,192,51284,1,0,0:0:0:0:
36,192,51284,1,0,0:0:0:0:
256,192,51366,1,0,0:0:0:0:
329,192,51449,1,0,0:0:0:0:
475,192,51449,1,0,0:0:0:0:
36,192,51449,1,0,0:0:0:0:
182,192,51449,1,0,0:0:0:0:
402,192,51531,1,0,0:0:0:0:
109,192,51531,1,0,0:0:0:0:
329,192,51614,1,0,0:0:0:0:
256,192,51614,1,0,0:0:0:0:
182,192,51614,1,0,0:0:0:0:
402,192,51696,1,0,0:0:0:0:
475,192,51778,1,0,0:0:0:0:
109,192,51778,1,0,0:0:0:0:
36,192,51778,1,0,0:0:0:0:
256,192,51778,1,0,0:0:0:0:
329,192,51861,1,0,0:0:0:0:
182,192,51861,1,0,0:0:0:0:
36,192,51943,1,0,0:0:0:0:
109,192,51943,1,0,0:0:0:0:
402,192,51943,1,0,0:0:0:0:
256,192,52026,1,0,0:0:0:0:
402,192,52108,1,0,0:0:0:0:
36,192,52108,1,0,0:0:0:0:
475,192,52108,1,0,0:0:0:0:
182,192,52108,1,0,0:0:0:0:
109,192,52190,1,0,0:0:0:0:
329,192,52190,1,0,0:0:0:0:
182,192,52273,1,0,0:0:0:0:
256,192,52273,1,0,0:0:0:0:
475,192,52273,1,0,0:0:0:0:
36,192,52355,1,0,0:0:0:0:
182,192,52438,1,0,0:0:0:0:
329,192,52438,1,0,0:0:0:0:
402,192,52438,1,0,0:0:0:0:
256,192,52520,1,0,0:0:0:0:
109,192,52520,1,0,0:0:0:0:
36,192,52603,1,0,0:0:0:0:
329,192,52603,1,0,0:0:0:0:
475,192,52603,1,0,0:0:0:0:
109,192,52685,1,0,0:0:0:0:
475,192,52767,1,0,0:0:0:0:
402,192,52767,1,0,0:0:0:0:
256,192,52767,1,0,0:0:0:0:
329,192,52850,1,0,0:0:0:0:
182,192,52850,1,0,0:0:0:0:
36,192,52932,1,0,0:0:0:0:
109,192,52932,1,0,0:0:0:0:
256,192,52932,1,0,0:0:0:0:
475,192,52932,1,0,0:0:0:0:
402,192,53015,1,0,0:0:0:0:
329,192,53097,1,0,0:0:0:0:
36,192,53097,1,0,0:0:0:0:
182,192,53097,1,0,0:0:0:0:
402,192,53180,1,0,0:0:0:0:
109,192,53180,1,0,0:0:0:0:
256,192,53262,1,0,0:0:0:0:
475,192,53262,1,0,0:0:0:0:
329,192,53262,1,0,0:0:0:0:
36,192,53262,1,0,0:0:0:0:
182,192,53344,1,0,0:0:0:0:
475,192,53427,1,0,0:0:0:0:
402,192,53427,1,0,0:0:0:0:
329,192,53427,1,0,0:0:0:0:
109,192,53509,1,0,0:0:0:0:
36,192,53509,1,0,0:0:0:0:
256,192,53509,1,0,0:0:0:0:
475,192,53592,1,0,0:0:0:0:
402,192,53592,1,0,0:0:0:0:
182,192,53592,1,0,0:0:0:0:
109,192,53674,1,0,0:0:0:0:
36,192,53674,1,0,0:0:0:0:
329,192,53674,1,0,0:0:0:0:
475,192,53756,1,0,0:0:0:0:
402,192,53756,1,0,0:0:0:0:
256,192,53756,1,0,0:0:0:0:
109,192,53839,1,0,0:0:0:0:
36,192,53839,1,0,0:0:0:0:
182,192,53839,1,0,0:0:0:0:
475,192,53921,1,0,0:0:0:0:
402,192,53921,1,0,0:0:0:0:
329,192,53921,1,0,0:0:0:0:
36,192,54004,1,0,0:0:0:0:
109,192,54004,1,0,0:0:0:0:
256,192,54004,1,0,0:0:0:0:
475,192,54086,1,0,0:0:0:0:
182,192,54086,1,0,0:0:0:0:
329,192,54086,1,0,0:0:0:0:
36,192,54169,1,0,0:0:0:0:
109,192,54169,1,0,0:0:0:0:
256,192,54169,1,0,0:0:0:0:
475,192,54251,1,0,0:0:0:0:
182,192,54251,1,0,0:0:0:0:
402,192,54251,1,0,0:0:0:0:
36,192,54333,1,0,0:0:0:0:
109,192,54333,1,0,0:0:0:0:
329,192,54333,1,0,0:0:0:0:
475,192,54416,1,0,0:0:0:0:
402,192,54416,1,0,0:0:0:0:
256,192,54416,1,0,0:0:0:0:
182,192,54498,1,0,0:0:0:0:
329,192,54498,1,0,0:0:0:0:
36,192,54498,1,0,0:0:0:0:
475,192,54581,1,0,0:0:0:0:
256,192,54581,1,0,0:0:0:0:
109,192,54581,1,0,0:0:0:0:
329,192,54663,1,0,0:0:0:0:
182,192,54663,1,0,0:0:0:0:
402,192,54663,1,0,0:0:0:0:
475,192,54745,1,0,0:0:0:0:
109,192,54745,1,0,0:0:0:0:
36,192,54745,1,0,0:0:0:0:
256,192,54745,1,0,0:0:0:0:
36,192,54910,1,0,0:0:0:0:
182,192,55075,1,0,0:0:0:0:
329,192,55240,1,0,0:0:0:0:
109,192,55405,1,0,0:0:0:0:
402,192,55570,1,0,0:0:0:0:
402,192,55734,1,0,0:0:0:0:
402,192,55899,1,0,0:0:0:0:
402,192,56064,1,0,0:0:0:0:
182,192,56064,1,0,0:0:0:0:
109,192,56229,1,0,0:0:0:0:
475,192,56394,1,0,0:0:0:0:
109,192,56723,1,0,0:0:0:0:
402,192,56723,1,0,0:0:0:0:
256,192,56888,1,0,0:0:0:0:
329,192,57383,1,0,0:0:0:0:
36,192,57383,1,0,0:0:0:0:
402,192,57383,1,0,0:0:0:0:
109,192,57548,1,0,0:0:0:0:
182,192,57712,1,0,0:0:0:0:
475,192,57712,1,0,0:0:0:0:
256,192,57877,1,0,0:0:0:0:
475,192,57877,1,0,0:0:0:0:
109,192,58042,1,0,0:0:0:0:
329,192,58207,1,0,0:0:0:0:
36,192,58207,1,0,0:0:0:0:
329,192,58372,1,0,0:0:0:0:
329,192,58537,1,0,0:0:0:0:
109,192,58537,1,0,0:0:0:0:
329,192,58701,1,0,0:0:0:0:
182,192,58701,1,0,0:0:0:0:
109,192,58866,1,0,0:0:0:0:
182,192,59031,1,0,0:0:0:0:
475,192,59031,1,0,0:0:0:0:
109,192,59361,1,0,0:0:0:0:
329,192,59361,1,0,0:0:0:0:
256,192,59526,1,0,0:0:0:0:
109,192,59690,1,0,0:0:0:0:
109,192,59855,1,0,0:0:0:0:
36,192,60020,1,0,0:0:0:0:
182,192,60020,1,0,0:0:0:0:
256,192,60020,1,0,0:0:0:0:
329,192,60185,1,0,0:0:0:0:
402,192,60350,1,0,0:0:0:0:
475,192,60515,1,0,0:0:0:0:
182,192,60515,1,0,0:0:0:0:
109,192,60680,1,0,0:0:0:0:
256,192,60844,1,0,0:0:0:0:
256,192,61009,1,0,0:0:0:0:
256,192,61174,1,0,0:0:0:0:
256,192,61339,1,0,0:0:0:0:
182,192,61339,1,0,0:0:0:0:
109,192,61504,1,0,0:0:0:0:
182,192,61669,1,0,0:0:0:0:
329,192,61669,1,0,0:0:0:0:
109,192,61998,1,0,0:0:0:0:
402,192,61998,1,0,0:0:0:0:
109,192,62328,1,0,0:0:0:0:
475,192,62328,1,0,0:0:0:0:
109,192,62493,1,0,0:0:0:0:
36,192,62658,1,0,0:0:0:0:
329,192,62658,1,0,0:0:0:0:
402,192,62658,1,0,0:0:0:0:
109,192,62822,1,0,0:0:0:0:
256,192,62987,1,0,0:0:0:0:
475,192,62987,1,0,0:0:0:0:
329,192,63152,1,0,0:0:0:0:
36,192,63152,1,0,0:0:0:0:
329,192,63317,1,0,0:0:0:0:
109,192,63317,1,0,0:0:0:0:
36,192,63482,1,0,0:0:0:0:
256,192,63647,1,0,0:0:0:0:
256,192,63811,1,0,0:0:0:0:
109,192,63811,1,0,0:0:0:0:
36,192,63976,1,0,0:0:0:0:
402,192,63976,1,0,0:0:0:0:
475,192,63976,1,0,0:0:0:0:
182,192,64141,1,0,0:0:0:0:
109,192,64141,1,0,0:0:0:0:
329,192,64306,1,0,0:0:0:0:
256,192,64306,1,0,0:0:0:0:
402,192,64471,1,0,0:0:0:0:
36,192,64471,1,0,0:0:0:0:
402,192,64636,1,0,0:0:0:0:
109,192,64636,1,0,0:0:0:0:
475,192,64800,1,0,0:0:0:0:
256,192,64965,1,0,0:0:0:0:
36,192,65130,1,0,0:0:0:0:
475,192,65295,1,0,0:0:0:0:
182,192,65295,1,0,0:0:0:0:
402,192,65295,1,0,0:0:0:0:
402,192,65625,1,0,0:0:0:0:
402,192,65954,1,0,0:0:0:0:
109,192,66119,1,0,0:0:0:0:
182,192,66284,1,0,0:0:0:0:
402,192,66284,1,0,0:0:0:0:
329,192,66449,1,0,0:0:0:0:
36,192,66614,1,0,0:0:0:0:
109,192,66614,1,0,0:0:0:0:
402,192,66614,1,0,0:0:0:0:
475,192,66614,1,0,0:0:0:0:
256,192,66614,1,0,0:0:0:0:
329,192,66696,1,0,0:0:0:0:
182,192,66778,1,0,0:0:0:0:
402,192,66778,1,0,0:0:0:0:
475,192,66778,1,0,0:0:0:0:
36,192,66861,1,0,0:0:0:0:
109,192,66861,1,0,0:0:0:0:
402,192,66943,1,0,0:0:0:0:
182,192,66943,1,0,0:0:0:0:
256,192,66943,1,0,0:0:0:0:
329,192,67026,1,0,0:0:0:0:
109,192,67026,1,0,0:0:0:0:
36,192,67108,1,0,0:0:0:0:
182,192,67108,1,0,0:0:0:0:
256,192,67108,1,0,0:0:0:0:
475,192,67190,1,0,0:0:0:0:
329,192,67190,1,0,0:0:0:0:
109,192,67273,1,0,0:0:0:0:
182,192,67273,1,0,0:0:0:0:
402,192,67273,1,0,0:0:0:0:
36,192,67355,1,0,0:0:0:0:
256,192,67355,1,0,0:0:0:0:
109,192,67438,1,0,0:0:0:0:
402,192,67438,1,0,0:0:0:0:
475,192,67438,1,0,0:0:0:0:
182,192,67520,1,0,0:0:0:0:
329,192,67520,1,0,0:0:0:0:
256,192,67603,1,0,0:0:0:0:
475,192,67603,1,0,0:0:0:0:
402,192,67603,1,0,0:0:0:0:
36,192,67603,1,0,0:0:0:0:
182,192,67685,1,0,0:0:0:0:
109,192,67767,1,0,0:0:0:0:
36,192,67767,1,0,0:0:0:0:
256,192,67767,1,0,0:0:0:0:
402,192,67850,1,0,0:0:0:0:
475,192,67850,1,0,0:0:0:0:
36,192,67932,1,0,0:0:0:0:
109,192,67932,1,0,0:0:0:0:
182,192,67932,1,0,0:0:0:0:
256,192,67932,1,0,0:0:0:0:
329,192,67932,1,0,0:0:0:0:
475,192,68015,1,0,0:0:0:0:
109,192,68097,1,0,0:0:0:0:
402,192,68097,1,0,0:0:0:0:
182,192,68097,1,0,0:0:0:0:
329,192,68180,1,0,0:0:0:0:
36,192,68180,1,0,0:0:0:0:
109,192,68262,1,0,0:0:0:0:
475,192,68262,1,0,0:0:0:0:
256,192,68262,1,0,0:0:0:0:
182,192,68344,1,0,0:0:0:0:
402,192,68344,1,0,0:0:0:0:
256,192,68427,1,0,0:0:0:0:
36,192,68427,1,0,0:0:0:0:
329,192,68427,1,0,0:0:0:0:
475,192,68427,1,0,0:0:0:0:
109,192,68509,1,0,0:0:0:0:
36,192,68592,1,0,0:0:0:0:
182,192,68592,1,0,0:0:0:0:
329,192,68592,1,0,0:0:0:0:
402,192,68674,1,0,0:0:0:0:
475,192,68674,1,0,0:0:0:0:
329,192,68756,1,0,0:0:0:0:
109,192,68756,1,0,0:0:0:0:
256,192,68756,1,0,0:0:0:0:
182,192,68839,1,0,0:0:0:0:
36,192,68839,1,0,0:0:0:0:
402,192,68921,1,0,0:0:0:0:
475,192,68921,1,0,0:0:0:0:
109,192,68921,1,0,0:0:0:0:
256,192,68921,1,0,0:0:0:0:
329,192,69004,1,0,0:0:0:0:
402,192,69086,1,0,0:0:0:0:
475,192,69086,1,0,0:0:0:0:
182,192,69086,1,0,0:0:0:0:
36,192,69169,1,0,0:0:0:0:
109,192,69169,1,0,0:0:0:0:
182,192,69251,1,0,0:0:0:0:
256,192,69251,1,0,0:0:0:0:
329,192,69251,1,0,0:0:0:0:
475,192,69251,1,0,0:0:0:0:
402,192,69251,1,0,0:0:0:0:
36,192,69333,1,0,0:0:0:0:
329,192,69416,1,0,0:0:0:0:
475,192,69416,1,0,0:0:0:0:
109,192,69416,1,0,0:0:0:0:
402,192,69498,1,0,0:0:0:0:
182,192,69498,1,0,0:0:0:0:
36,192,69581,1,0,0:0:0:0:
329,192,69581,1,0,0:0:0:0:
256,192,69581,1,0,0:0:0:0:
182,192,69663,1,0,0:0:0:0:
402,192,69663,1,0,0:0:0:0:
475,192,69745,1,0,0:0:0:0:
256,192,69745,1,0,0:0:0:0:
109,192,69745,1,0,0:0:0:0:
329,192,69745,1,0,0:0:0:0:
36,192,69828,1,0,0:0:0:0:
109,192,69910,1,0,0:0:0:0:
402,192,69910,1,0,0:0:0:0:
329,192,69910,1,0,0:0:0:0:
256,192,69993,1,0,0:0:0:0:
475,192,69993,1,0,0:0:0:0:
182,192,70075,1,0,0:0:0:0:
36,192,70075,1,0,0:0:0:0:
329,192,70075,1,0,0:0:0:0:
109,192,70158,1,0,0:0:0:0:
402,192,70158,1,0,0:0:0:0:
256,192,70240,1,0,0:0:0:0:
475,192,70240,1,0,0:0:0:0:
182,192,70240,1,0,0:0:0:0:
329,192,70240,1,0,0:0:0:0:
109,192,70322,1,0,0:0:0:0:
402,192,70405,1,0,0:0:0:0:
475,192,70405,1,0,0:0:0:0:
36,192,70405,1,0,0:0:0:0:
182,192,70487,1,0,0:0:0:0:
329,192,70487,1,0,0:0:0:0:
36,192,70570,1,0,0:0:0:0:
109,192,70570,1,0,0:0:0:0:
256,192,70570,1,0,0:0:0:0:
475,192,70570,1,0,0:0:0:0:
402,192,70570,1,0,0:0:0:0:
329,192,70652,1,0,0:0:0:0:
256,192,70734,1,0,0:0:0:0:
182,192,70734,1,0,0:0:0:0:
109,192,70734,1,0,0:0:0:0:
475,192,70817,1,0,0:0:0:0:
402,192,70817,1,0,0:0:0:0:
329,192,70899,1,0,0:0:0:0:
36,192,70899,1,0,0:0:0:0:
109,192,70899,1,0,0:0:0:0:
402,192,70982,1,0,0:0:0:0:
182,192,70982,1,0,0:0:0:0:
475,192,71064,1,0,0:0:0:0:
256,192,71064,1,0,0:0:0:0:
329,192,71064,1,0,0:0:0:0:
36,192,71064,1,0,0:0:0:0:
109,192,71147,1,0,0:0:0:0:
402,192,71229,1,0,0:0:0:0:
475,192,71229,1,0,0:0:0:0:
182,192,71229,1,0,0:0:0:0:
36,192,71229,1,0,0:0:0:0:
256,192,71229,1,0,0:0:0:0:
329,192,71311,1,0,0:0:0:0:
475,192,71394,1,0,0:0:0:0:
182,192,71394,1,0,0:0:0:0:
109,192,71394,1,0,0:0:0:0:
36,192,71394,1,0,0:0:0:0:
402,192,71476,1,0,0:0:0:0:
256,192,71476,1,0,0:0:0:0:
182,192,71559,1,0,0:0:0:0:
109,192,71559,1,0,0:0:0:0:
329,192,71559,1,0,0:0:0:0:
475,192,71641,1,0,0:0:0:0:
402,192,71641,1,0,0:0:0:0:
36,192,71723,1,0,0:0:0:0:
109,192,71723,1,0,0:0:0:0:
256,192,71723,1,0,0:0:0:0:
182,192,71806,1,0,0:0:0:0:
329,192,71806,1,0,0:0:0:0:
36,192,71888,1,0,0:0:0:0:
109,192,71888,1,0,0:0:0:0:
402,192,71888,1,0,0:0:0:0:
475,192,71888,1,0,0:0:0:0:
256,192,71888,1,0,0:0:0:0:
182,192,71971,1,0,0:0:0:0:
36,192,72053,1,0,0:0:0:0:
402,192,72053,1,0,0:0:0:0:
329,192,72053,1,0,0:0:0:0:
109,192,72136,1,0,0:0:0:0:
256,192,72136,1,0,0:0:0:0:
182,192,72218,1,0,0:0:0:0:
329,192,72218,1,0,0:0:0:0:
475,192,72218,1,0,0:0:0:0:
109,192,72300,1,0,0:0:0:0:
402,192,72300,1,0,0:0:0:0:
36,192,72383,1,0,0:0:0:0:
182,192,72383,1,0,0:0:0:0:
329,192,72383,1,0,0:0:0:0:
256,192,72383,1,0,0:0:0:0:
402,192,72465,1,0,0:0:0:0:
109,192,72548,1,0,0:0:0:0:
256,192,72548,1,0,0:0:0:0:
475,192,72548,1,0,0:0:0:0:
36,192,72630,1,0,0:0:0:0:
182,192,72630,1,0,0:0:0:0:
256,192,72712,1,0,0:0:0:0:
475,192,72712,1,0,0:0:0:0:
402,192,72712,1,0,0:0:0:0:
182,192,72795,1,0,0:0:0:0:
329,192,72795,1,0,0:0:0:0:
36,192,72877,1,0,0:0:0:0:
475,192,72877,1,0,0:0:0:0:
256,192,72877,1,0,0:0:0:0:
109,192,72877,1,0,0:0:0:0:
402,192,72960,1,0,0:0:0:0:
36,192,73042,1,0,0:0:0:0:
109,192,73042,1,0,0:0:0:0:
329,192,73042,1,0,0:0:0:0:
402,192,73125,1,0,0:0:0:0:
182,192,73125,1,0,0:0:0:0:
256,192,73207,1,0,0:0:0:0:
109,192,73207,1,0,0:0:0:0:
36,192,73207,1,0,0:0:0:0:
475,192,73207,1,0,0:0:0:0:
329,192,73207,1,0,0:0:0:0:
182,192,73289,1,0,0:0:0:0:
256,192,73372,1,0,0:0:0:0:
36,192,73372,1,0,0:0:0:0:
402,192,73372,1,0,0:0:0:0:
329,192,73454,1,0,0:0:0:0:
109,192,73454,1,0,0:0:0:0:
182,192,73537,1,0,0:0:0:0:
402,192,73537,1,0,0:0:0:0:
475,192,73537,1,0,0:0:0:0:
109,192,73619,1,0,0:0:0:0:
329,192,73619,1,0,0:0:0:0:
36,192,73701,1,0,0:0:0:0:
256,192,73701,1,0,0:0:0:0:
475,192,73701,1,0,0:0:0:0:
182,192,73701,1,0,0:0:0:0:
402,192,73784,1,0,0:0:0:0:
109,192,73866,1,0,0:0:0:0:
36,192,73866,1,0,0:0:0:0:
329,192,73866,1,0,0:0:0:0:
182,192,73949,1,0,0:0:0:0:
256,192,73949,1,0,0:0:0:0:
402,192,74031,1,0,0:0:0:0:
475,192,74031,1,0,0:0:0:0:
36,192,74031,1,0,0:0:0:0:
256,192,74114,1,0,0:0:0:0:
329,192,74114,1,0,0:0:0:0:
402,192,74196,1,0,0:0:0:0:
109,192,74196,1,0,0:0:0:0:
182,192,74196,1,0,0:0:0:0:
475,192,74196,1,0,0:0:0:0:
36,192,74278,1,0,0:0:0:0:
109,192,74361,1,0,0:0:0:0:
402,192,74361,1,0,0:0:0:0:
256,192,74361,1,0,0:0:0:0:
182,192,74443,1,0,0:0:0:0:
329,192,74443,1,0,0:0:0:0:
36,192,74526,1,0,0:0:0:0:
109,192,74526,1,0,0:0:0:0:
256,192,74526,1,0,0:0:0:0:
475,192,74526,1,0,0:0:0:0:
402,192,74526,1,0,0:0:0:0:
329,192,74608,1,0,0:0:0:0:
36,192,74690,1,0,0:0:0:0:
256,192,74690,1,0,0:0:0:0:
475,192,74690,1,0,0:0:0:0:
109,192,74773,1,0,0:0:0:0:
402,192,74773,1,0,0:0:0:0:
182,192,74855,1,0,0:0:0:0:
329,192,74855,1,0,0:0:0:0:
475,192,74855,1,0,0:0:0:0:
36,192,74938,1,0,0:0:0:0:
109,192,74938,1,0,0:0:0:0:
329,192,75020,1,0,0:0:0:0:
402,192,75020,1,0,0:0:0:0:
182,192,75020,1,0,0:0:0:0:
256,192,75103,1,0,0:0:0:0:
36,192,75103,1,0,0:0:0:0:
475,192,75185,1,0,0:0:0:0:
109,192,75185,1,0,0:0:0:0:
402,192,75185,1,0,0:0:0:0:
329,192,75267,1,0,0:0:0:0:
256,192,75267,1,0,0:0:0:0:
36,192,75350,1,0,0:0:0:0:
109,192,75350,1,0,0:0:0:0:
182,192,75350,1,0,0:0:0:0:
329,192,75432,1,0,0:0:0:0:
475,192,75432,1,0,0:0:0:0:
402,192,75515,1,0,0:0:0:0:
36,192,75515,1,0,0:0:0:0:
256,192,75515,1,0,0:0:0:0:
109,192,75515,1,0,0:0:0:0:
329,192,75597,1,0,0:0:0:0:
402,192,75680,1,0,0:0:0:0:
475,192,75680,1,0,0:0:0:0:
182,192,75680,1,0,0:0:0:0:
36,192,75762,1,0,0:0:0:0:
256,192,75762,1,0,0:0:0:0:
329,192,75844,1,0,0:0:0:0:
402,192,75844,1,0,0:0:0:0:
475,192,75844,1,0,0:0:0:0:
109,192,75844,1,0,0:0:0:0:
182,192,75844,1,0,0:0:0:0:
256,192,75927,1,0,0:0:0:0:
475,192,76009,1,0,0:0:0:0:
36,192,76009,1,0,0:0:0:0:
109,192,76009,1,0,0:0:0:0:
329,192,76092,1,0,0:0:0:0:
182,192,76092,1,0,0:0:0:0:
256,192,76174,1,0,0:0:0:0:
402,192,76174,1,0,0:0:0:0:
109,192,76174,1,0,0:0:0:0:
36,192,76174,1,0,0:0:0:0:
475,192,76256,1,0,0:0:0:0:
182,192,76339,1,0,0:0:0:0:
329,192,76339,1,0,0:0:0:0:
36,192,76339,1,0,0:0:0:0:
256,192,76339,1,0,0:0:0:0:
475,192,76421,1,0,0:0:0:0:
256,192,76504,1,0,0:0:0:0:
402,192,76504,1,0,0:0:0:0:
109,192,76504,1,0,0:0:0:0:
329,192,76586,1,0,0:0:0:0:
36,192,76586,1,0,0:0:0:0:
475,192,76669,1,0,0:0:0:0:
182,192,76669,1,0,0:0:0:0:
402,192,76669,1,0,0:0:0:0:
109,192,76751,1,0,0:0:0:0:
36,192,76751,1,0,0:0:0:0:
256,192,76751,1,0,0:0:0:0:
475,192,76833,1,0,0:0:0:0:
182,192,76833,1,0,0:0:0:0:
329,192,76833,1,0,0:0:0:0:
402,192,76833,1,0,0:0:0:0:
256,192,76916,1,0,0:0:0:0:
475,192,76998,1,0,0:0:0:0:
36,192,76998,1,0,0:0:0:0:
109,192,76998,1,0,0:0:0:0:
182,192,77081,1,0,0:0:0:0:
329,192,77081,1,0,0:0:0:0:
36,192,77163,1,0,0:0:0:0:
109,192,77163,1,0,0:0:0:0:
256,192,77163,1,0,0:0:0:0:
402,192,77163,1,0,0:0:0:0:
475,192,77163,1,0,0:0:0:0:
182,192,77245,1,0,0:0:0:0:
329,192,77328,1,0,0:0:0:0:
109,192,77328,1,0,0:0:0:0:
256,192,77410,1,0,0:0:0:0:
402,192,77410,1,0,0:0:0:0:
329,192,77493,1,0,0:0:0:0:
475,192,77493,1,0,0:0:0:0:
36,192,77493,1,0,0:0:0:0:
402,192,77575,1,0,0:0:0:0:
109,192,77575,1,0,0:0:0:0:
475,192,77658,1,0,0:0:0:0:
182,192,77658,1,0,0:0:0:0:
256,192,77658,1,0,0:0:0:0:
109,192,77740,1,0,0:0:0:0:
329,192,77740,1,0,0:0:0:0:
36,192,77822,1,0,0:0:0:0:
402,192,77822,1,0,0:0:0:0:
256,192,77822,1,0,0:0:0:0:
182,192,77905,1,0,0:0:0:0:
329,192,77905,1,0,0:0:0:0:
109,192,77987,1,0,0:0:0:0:
256,192,77987,1,0,0:0:0:0:
402,192,78070,1,0,0:0:0:0:
475,192,78070,1,0,0:0:0:0:
36,192,78152,1,0,0:0:0:0:
109,192,78152,1,0,0:0:0:0:
182,192,78152,1,0,0:0:0:0:
329,192,78152,1,0,0:0:0:0:
256,192,78234,1,0,0:0:0:0:
475,192,78317,1,0,0:0:0:0:
182,192,78317,1,0,0:0:0:0:
402,192,78317,1,0,0:0:0:0:
329,192,78399,1,0,0:0:0:0:
109,192,78399,1,0,0:0:0:0:
475,192,78482,1,0,0:0:0:0:
36,192,78482,1,0,0:0:0:0:
182,192,78482,1,0,0:0:0:0:
256,192,78482,1,0,0:0:0:0:
402,192,78482,1,0,0:0:0:0:
329,192,78564,1,0,0:0:0:0:
256,192,78647,1,0,0:0:0:0:
109,192,78647,1,0,0:0:0:0:
182,192,78647,1,0,0:0:0:0:
329,192,78729,1,0,0:0:0:0:
36,192,78729,1,0,0:0:0:0:
182,192,78811,1,0,0:0:0:0:
402,192,78811,1,0,0:0:0:0:
109,192,78811,1,0,0:0:0:0:
256,192,78894,1,0,0:0:0:0:
475,192,78894,1,0,0:0:0:0:
182,192,78976,1,0,0:0:0:0:
329,192,78976,1,0,0:0:0:0:
36,192,78976,1,0,0:0:0:0:
402,192,78976,1,0,0:0:0:0:
256,192,79059,1,0,0:0:0:0:
182,192,79141,1,0,0:0:0:0:
475,192,79141,1,0,0:0:0:0:
402,192,79141,1,0,0:0:0:0:
109,192,79223,1,0,0:0:0:0:
329,192,79223,1,0,0:0:0:0:
36,192,79306,1,0,0:0:0:0:
475,192,79306,1,0,0:0:0:0:
256,192,79306,1,0,0:0:0:0:
182,192,79388,1,0,0:0:0:0:
329,192,79388,1,0,0:0:0:0:
475,192,79471,1,0,0:0:0:0:
109,192,79471,1,0,0:0:0:0:
36,192,79471,1,0,0:0:0:0:
402,192,79471,1,0,0:0:0:0:
256,192,79553,1,0,0:0:0:0:
109,192,79636,1,0,0:0:0:0:
182,192,79636,1,0,0:0:0:0:
402,192,79636,1,0,0:0:0:0:
256,192,79718,1,0,0:0:0:0:
329,192,79718,1,0,0:0:0:0:
36,192,79800,1,0,0:0:0:0:
109,192,79800,1,0,0:0:0:0:
182,192,79800,1,0,0:0:0:0:
475,192,79800,1,0,0:0:0:0:
402,192,79800,1,0,0:0:0:0:
329,192,79883,1,0,0:0:0:0:
36,192,79965,1,0,0:0:0:0:
182,192,79965,1,0,0:0:0:0:
256,192,79965,1,0,0:0:0:0:
109,192,80048,1,0,0:0:0:0:
402,192,80048,1,0,0:0:0:0:
182,192,80130,1,0,0:0:0:0:
329,192,80130,1,0,0:0:0:0:
475,192,80130,1,0,0:0:0:0:
109,192,80212,1,0,0:0:0:0:
402,192,80212,1,0,0:0:0:0:
36,192,80295,1,0,0:0:0:0:
256,192,80295,1,0,0:0:0:0:
475,192,80295,1,0,0:0:0:0:
182,192,80295,1,0,0:0:0:0:
329,192,80377,1,0,0:0:0:0:
109,192,80460,1,0,0:0:0:0:
182,192,80460,1,0,0:0:0:0:
402,192,80460,1,0,0:0:0:0:
475,192,80542,1,0,0:0:0:0:
329,192,80542,1,0,0:0:0:0:
36,192,80625,1,0,0:0:0:0:
109,192,80625,1,0,0:0:0:0:
256,192,80625,1,0,0:0:0:0:
182,192,80707,1,0,0:0:0:0:
402,192,80707,1,0,0:0:0:0:
475,192,80789,1,0,0:0:0:0:
256,192,80789,1,0,0:0:0:0:
36,192,80789,1,0,0:0:0:0:
329,192,80789,1,0,0:0:0:0:
109,192,80872,1,0,0:0:0:0:
256,192,80954,1,0,0:0:0:0:
182,192,80954,1,0,0:0:0:0:
402,192,80954,1,0,0:0:0:0:
329,192,81037,1,0,0:0:0:0:
109,192,81037,1,0,0:0:0:0:
36,192,81119,1,0,0:0:0:0:
475,192,81119,1,0,0:0:0:0:
256,192,81119,1,0,0:0:0:0:
402,192,81119,1,0,0:0:0:0:
182,192,81119,1,0,0:0:0:0:
329,192,81201,1,0,0:0:0:0:
36,192,81284,1,0,0:0:0:0:
109,192,81284,1,0,0:0:0:0:
475,192,81284,1,0,0:0:0:0:
402,192,81366,1,0,0:0:0:0:
256,192,81366,1,0,0:0:0:0:
329,192,81449,1,0,0:0:0:0:
36,192,81449,1,0,0:0:0:0:
182,192,81449,1,0,0:0:0:0:
256,192,81531,1,0,0:0:0:0:
402,192,81531,1,0,0:0:0:0:
109,192,81614,1,0,0:0:0:0:
329,192,81614,1,0,0:0:0:0:
36,192,81614,1,0,0:0:0:0:
475,192,81614,1,0,0:0:0:0:
182,192,81696,1,0,0:0:0:0:
402,192,81778,1,0,0:0:0:0:
475,192,81778,1,0,0:0:0:0:
109,192,81778,1,0,0:0:0:0:
256,192,81778,1,0,0:0:0:0:
36,192,81861,1,0,0:0:0:0:
475,192,81943,1,0,0:0:0:0:
329,192,81943,1,0,0:0:0:0:
182,192,81943,1,0,0:0:0:0:
402,192,82026,1,0,0:0:0:0:
109,192,82026,1,0,0:0:0:0:
36,192,82108,1,0,0:0:0:0:
475,192,82108,1,0,0:0:0:0:
256,192,82108,1,0,0:0:0:0:
182,192,82108,1,0,0:0:0:0:
329,192,82190,1,0,0:0:0:0:
402,192,82273,1,0,0:0:0:0:
109,192,82273,1,0,0:0:0:0:
36,192,82273,1,0,0:0:0:0:
182,192,82355,1,0,0:0:0:0:
329,192,82355,1,0,0:0:0:0:
36,192,82438,1,0,0:0:0:0:
475,192,82438,1,0,0:0:0:0:
109,192,82438,1,0,0:0:0:0:
256,192,82438,1,0,0:0:0:0:
402,192,82438,1,0,0:0:0:0:
182,192,82520,1,0,0:0:0:0:
329,192,82603,1,0,0:0:0:0:
475,192,82603,1,0,0:0:0:0:
109,192,82603,1,0,0:0:0:0:
256,192,82685,1,0,0:0:0:0:
402,192,82685,1,0,0:0:0:0:
329,192,82767,1,0,0:0:0:0:
36,192,82767,1,0,0:0:0:0:
182,192,82767,1,0,0:0:0:0:
256,192,82850,1,0,0:0:0:0:
109,192,82850,1,0,0:0:0:0:
402,192,82932,1,0,0:0:0:0:
475,192,82932,1,0,0:0:0:0:
182,192,82932,1,0,0:0:0:0:
36,192,83015,1,0,0:0:0:0:
329,192,83015,1,0,0:0:0:0:
109,192,83097,1,0,0:0:0:0:
475,192,83097,1,0,0:0:0:0:
256,192,83097,1,0,0:0:0:0:
182,192,83180,1,0,0:0:0:0:
329,192,83180,1,0,0:0:0:0:
36,192,83262,1,0,0:0:0:0:
109,192,83262,1,0,0:0:0:0:
402,192,83262,1,0,0:0:0:0:
182,192,83344,1,0,0:0:0:0:
329,192,83344,1,0,0:0:0:0:
475,192,83427,1,0,0:0:0:0:
256,192,83427,1,0,0:0:0:0:
36,192,83427,1,0,0:0:0:0:
402,192,83427,1,0,0:0:0:0:
109,192,83509,1,0,0:0:0:0:
475,192,83592,1,0,0:0:0:0:
256,192,83592,1,0,0:0:0:0:
329,192,83592,1,0,0:0:0:0:
36,192,83592,1,0,0:0:0:0:
182,192,83674,1,0,0:0:0:0:
475,192,83756,1,0,0:0:0:0:
402,192,83756,1,0,0:0:0:0:
256,192,83756,1,0,0:0:0:0:
109,192,83756,1,0,0:0:0:0:
36,192,83756,1,0,0:0:0:0:
329,192,83839,1,0,0:0:0:0:
182,192,83839,1,0,0:0:0:0:
475,192,83921,1,0,0:0:0:0:
256,192,83921,1,0,0:0:0:0:
402,192,83921,1,0,0:0:0:0:
109,192,84004,1,0,0:0:0:0:
329,192,84004,1,0,0:0:0:0:
36,192,84086,1,0,0:0:0:0:
182,192,84086,1,0,0:0:0:0:
402,192,84086,1,0,0:0:0:0:
256,192,84169,1,0,0:0:0:0:
475,192,84169,1,0,0:0:0:0:
109,192,84251,1,0,0:0:0:0:
36,192,84251,1,0,0:0:0:0:
329,192,84251,1,0,0:0:0:0:
402,192,84333,1,0,0:0:0:0:
182,192,84333,1,0,0:0:0:0:
329,192,84416,1,0,0:0:0:0:
256,192,84416,1,0,0:0:0:0:
109,192,84416,1,0,0:0:0:0:
402,192,84498,1,0,0:0:0:0:
475,192,84498,1,0,0:0:0:0:
36,192,84581,1,0,0:0:0:0:
182,192,84581,1,0,0:0:0:0:
256,192,84581,1,0,0:0:0:0:
109,192,84663,1,0,0:0:0:0:
329,192,84663,1,0,0:0:0:0:
182,192,84745,1,0,0:0:0:0:
475,192,84745,1,0,0:0:0:0:
402,192,84745,1,0,0:0:0:0:
256,192,84745,1,0,0:0:0:0:
109,192,84828,1,0,0:0:0:0:
475,192,84910,1,0,0:0:0:0:
36,192,84910,1,0,0:0:0:0:
329,192,84910,1,0,0:0:0:0:
182,192,84993,1,0,0:0:0:0:
256,192,84993,1,0,0:0:0:0:
36,192,85075,1,0,0:0:0:0:
109,192,85075,1,0,0:0:0:0:
329,192,85075,1,0,0:0:0:0:
402,192,85075,1,0,0:0:0:0:
475,192,85075,1,0,0:0:0:0:
182,192,85158,1,0,0:0:0:0:
36,192,85240,1,0,0:0:0:0:
109,192,85240,1,0,0:0:0:0:
256,192,85240,1,0,0:0:0:0:
402,192,85322,1,0,0:0:0:0:
475,192,85322,1,0,0:0:0:0:
182,192,85405,1,0,0:0:0:0:
329,192,85405,1,0,0:0:0:0:
36,192,85405,1,0,0:0:0:0:
109,192,85487,1,0,0:0:0:0:
256,192,85487,1,0,0:0:0:0:
475,192,85570,1,0,0:0:0:0:
182,192,85570,1,0,0:0:0:0:
329,192,85570,1,0,0:0:0:0:
402,192,85570,1,0,0:0:0:0:
256,192,85652,1,0,0:0:0:0:
109,192,85734,1,0,0:0:0:0:
36,192,85734,1,0,0:0:0:0:
475,192,85734,1,0,0:0:0:0:
182,192,85817,1,0,0:0:0:0:
402,192,85817,1,0,0:0:0:0:
36,192,85899,1,0,0:0:0:0:
329,192,85899,1,0,0:0:0:0:
256,192,85899,1,0,0:0:0:0:
182,192,85982,1,0,0:0:0:0:
402,192,85982,1,0,0:0:0:0:
109,192,86064,1,0,0:0:0:0:
256,192,86064,1,0,0:0:0:0:
36,192,86064,1,0,0:0:0:0:
475,192,86064,1,0,0:0:0:0:
329,192,86147,1,0,0:0:0:0:
109,192,86229,1,0,0:0:0:0:
182,192,86229,1,0,0:0:0:0:
402,192,86229,1,0,0:0:0:0:
36,192,86311,1,0,0:0:0:0:
256,192,86311,1,0,0:0:0:0:
329,192,86394,1,0,0:0:0:0:
402,192,86394,1,0,0:0:0:0:
475,192,86394,1,0,0:0:0:0:
109,192,86476,1,0,0:0:0:0:
36,192,86476,1,0,0:0:0:0:
182,192,86476,1,0,0:0:0:0:
256,192,86559,1,0,0:0:0:0:
402,192,86559,1,0,0:0:0:0:
475,192,86559,1,0,0:0:0:0:
36,192,86641,1,0,0:0:0:0:
109,192,86641,1,0,0:0:0:0:
329,192,86641,1,0,0:0:0:0:
402,192,86723,1,0,0:0:0:0:
475,192,86723,1,0,0:0:0:0:
182,192,86723,1,0,0:0:0:0:
36,192,86806,1,0,0:0:0:0:
109,192,86806,1,0,0:0:0:0:
256,192,86806,1,0,0:0:0:0:
402,192,86888,1,0,0:0:0:0:
475,192,86888,1,0,0:0:0:0:
329,192,86888,1,0,0:0:0:0:
182,192,86971,1,0,0:0:0:0:
109,192,87053,1,0,0:0:0:0:
475,192,87053,1,0,0:0:0:0:
36,192,87053,1,0,0:0:0:0:
402,192,87053,1,0,0:0:0:0:
256,192,87053,1,0,0:0:0:0:
329,192,87136,1,0,0:0:0:0:
36,192,87218,1,0,0:0:0:0:
402,192,87218,1,0,0:0:0:0:
109,192,87218,1,0,0:0:0:0:
475,192,87218,1,0,0:0:0:0:
182,192,87218,1,0,0:0:0:0:
256,192,87300,1,0,0:0:0:0:
402,192,87383,1,0,0:0:0:0:
475,192,87383,1,0,0:0:0:0:
109,192,87383,1,0,0:0:0:0:
36,192,87383,1,0,0:0:0:0:
329,192,87383,1,0,0:0:0:0:
256,192,87465,1,0,0:0:0:0:
36,192,87548,1,0,0:0:0:0:
109,192,87548,1,0,0:0:0:0:
402,192,87548,1,0,0:0:0:0:
475,192,87548,1,0,0:0:0:0:
182,192,87548,1,0,0:0:0:0:
329,192,87630,1,0,0:0:0:0:
475,192,87712,1,0,0:0:0:0:
402,192,87712,1,0,0:0:0:0:
36,192,87712,1,0,0:0:0:0:
109,192,87712,1,0,0:0:0:0:
256,192,87712,1,0,0:0:0:0:
329,192,87877,5,0,0:0:0:0:
109,192,87877,1,0,0:0:0:0:
402,192,87960,1,0,0:0:0:0:
36,192,88042,1,0,0:0:0:0:
256,192,88042,1,0,0:0:0:0:
182,192,88125,1,0,0:0:0:0:
329,192,88207,1,0,0:0:0:0:
109,192,88207,1,0,0:0:0:0:
402,192,88289,1,0,0:0:0:0:
36,192,88372,1,0,0:0:0:0:
256,192,88372,1,0,0:0:0:0:
109,192,88454,1,0,0:0:0:0:
402,192,88537,1,0,0:0:0:0:
475,192,88537,1,0,0:0:0:0:
329,192,88619,1,0,0:0:0:0:
36,192,88701,1,0,0:0:0:0:
109,192,88701,1,0,0:0:0:0:
182,192,88701,1,0,0:0:0:0:
402,192,88701,1,0,0:0:0:0:
256,192,88784,1,0,0:0:0:0:
329,192,88866,1,0,0:0:0:0:
109,192,88866,1,0,0:0:0:0:
475,192,89031,1,0,0:0:0:0:
402,192,89031,1,0,0:0:0:0:
182,192,89031,1,0,0:0:0:0:
256,192,89031,1,0,0:0:0:0:
109,192,89114,1,0,0:0:0:0:
329,192,89196,1,0,0:0:0:0:
36,192,89196,1,0,0:0:0:0:
402,192,89278,1,0,0:0:0:0:
256,192,89361,1,0,0:0:0:0:
109,192,89361,1,0,0:0:0:0:
182,192,89443,1,0,0:0:0:0:
402,192,89526,1,0,0:0:0:0:
475,192,89526,1,0,0:0:0:0:
329,192,89526,1,0,0:0:0:0:
36,192,89526,1,0,0:0:0:0:
256,192,89608,1,0,0:0:0:0:
109,192,89690,1,0,0:0:0:0:
475,192,89690,1,0,0:0:0:0:
36,192,89773,1,0,0:0:0:0:
402,192,89855,1,0,0:0:0:0:
182,192,89855,1,0,0:0:0:0:
329,192,89938,1,0,0:0:0:0:
256,192,90020,1,0,0:0:0:0:
109,192,90020,1,0,0:0:0:0:
475,192,90020,1,0,0:0:0:0:
36,192,90020,1,0,0:0:0:0:
182,192,90103,1,0,0:0:0:0:
402,192,90185,1,0,0:0:0:0:
329,192,90185,1,0,0:0:0:0:
36,192,90350,1,0,0:0:0:0:
109,192,90350,1,0,0:0:0:0:
256,192,90350,1,0,0:0:0:0:
402,192,90350,1,0,0:0:0:0:
182,192,90432,1,0,0:0:0:0:
475,192,90515,1,0,0:0:0:0:
329,192,90515,1,0,0:0:0:0:
402,192,90597,1,0,0:0:0:0:
256,192,90680,1,0,0:0:0:0:
182,192,90680,1,0,0:0:0:0:
329,192,90762,1,0,0:0:0:0:
402,192,90844,1,0,0:0:0:0:
475,192,90844,1,0,0:0:0:0:
36,192,90844,1,0,0:0:0:0:
109,192,90844,1,0,0:0:0:0:
182,192,90927,1,0,0:0:0:0:
256,192,91009,1,0,0:0:0:0:
109,192,91009,1,0,0:0:0:0:
402,192,91092,1,0,0:0:0:0:
475,192,91174,1,0,0:0:0:0:
182,192,91174,1,0,0:0:0:0:
329,192,91256,1,0,0:0:0:0:
256,192,91339,1,0,0:0:0:0:
109,192,91339,1,0,0:0:0:0:
36,192,91339,1,0,0:0:0:0:
402,192,91339,1,0,0:0:0:0:
182,192,91421,1,0,0:0:0:0:
329,192,91504,1,0,0:0:0:0:
475,192,91504,1,0,0:0:0:0:
402,192,91669,1,0,0:0:0:0:
329,192,91669,1,0,0:0:0:0:
256,192,91669,1,0,0:0:0:0:
36,192,91751,1,0,0:0:0:0:
109,192,91751,1,0,0:0:0:0:
182,192,91751,1,0,0:0:0:0:
329,192,91833,1,0,0:0:0:0:
475,192,91833,1,0,0:0:0:0:
402,192,91833,1,0,0:0:0:0:
109,192,91916,1,0,0:0:0:0:
256,192,91916,1,0,0:0:0:0:
36,192,91916,1,0,0:0:0:0:
329,192,91998,1,0,0:0:0:0:
402,192,91998,1,0,0:0:0:0:
475,192,91998,1,0,0:0:0:0:
182,192,91998,1,0,0:0:0:0:
256,192,92081,1,0,0:0:0:0:
109,192,92081,1,0,0:0:0:0:
36,192,92081,1,0,0:0:0:0:
475,192,92163,1,0,0:0:0:0:
402,192,92163,1,0,0:0:0:0:
182,192,92163,1,0,0:0:0:0:
329,192,92245,1,0,0:0:0:0:
36,192,92245,1,0,0:0:0:0:
256,192,92328,1,0,0:0:0:0:
475,192,92328,1,0,0:0:0:0:
182,192,92328,1,0,0:0:0:0:
109,192,92328,1,0,0:0:0:0:
402,192,92383,1,0,0:0:0:0:
329,192,92438,1,0,0:0:0:0:
109,192,92493,1,0,0:0:0:0:
36,192,92493,1,0,0:0:0:0:
475,192,92575,1,0,0:0:0:0:
402,192,92575,1,0,0:0:0:0:
329,192,92658,1,0,0:0:0:0:
36,192,92658,1,0,0:0:0:0:
109,192,92658,1,0,0:0:0:0:
182,192,92712,1,0,0:0:0:0:
256,192,92767,1,0,0:0:0:0:
402,192,92822,1,0,0:0:0:0:
475,192,92822,1,0,0:0:0:0:
329,192,92905,1,0,0:0:0:0:
182,192,92905,1,0,0:0:0:0:
36,192,92987,1,0,0:0:0:0:
109,192,92987,1,0,0:0:0:0:
402,192,92987,1,0,0:0:0:0:
475,192,92987,1,0,0:0:0:0:
256,192,92987,1,0,0:0:0:0:
182,192,93070,5,0,0:0:0:0:
329,192,93070,1,0,0:0:0:0:
36,192,93152,1,0,0:0:0:0:
109,192,93152,1,0,0:0:0:0:
256,192,93234,1,0,0:0:0:0:
475,192,93234,1,0,0:0:0:0:
182,192,93317,1,0,0:0:0:0:
109,192,93317,1,0,0:0:0:0:
402,192,93317,1,0,0:0:0:0:
256,192,93399,1,0,0:0:0:0:
329,192,93399,1,0,0:0:0:0:
475,192,93482,1,0,0:0:0:0:
36,192,93482,1,0,0:0:0:0:
182,192,93482,1,0,0:0:0:0:
402,192,93482,1,0,0:0:0:0:
256,192,93564,1,0,0:0:0:0:
109,192,93564,1,0,0:0:0:0:
475,192,93647,1,0,0:0:0:0:
182,192,93647,1,0,0:0:0:0:
329,192,93647,1,0,0:0:0:0:
36,192,93729,1,0,0:0:0:0:
109,192,93729,1,0,0:0:0:0:
402,192,93811,1,0,0:0:0:0:
475,192,93811,1,0,0:0:0:0:
256,192,93811,1,0,0:0:0:0:
329,192,93894,1,0,0:0:0:0:
182,192,93894,1,0,0:0:0:0:
256,192,93976,1,0,0:0:0:0:
109,192,93976,1,0,0:0:0:0:
36,192,93976,1,0,0:0:0:0:
475,192,93976,1,0,0:0:0:0:
402,192,94059,1,0,0:0:0:0:
329,192,94059,1,0,0:0:0:0:
109,192,94141,1,0,0:0:0:0:
36,192,94141,1,0,0:0:0:0:
182,192,94141,1,0,0:0:0:0:
475,192,94223,1,0,0:0:0:0:
402,192,94223,1,0,0:0:0:0:
109,192,94306,1,0,0:0:0:0:
36,192,94306,1,0,0:0:0:0:
182,192,94306,1,0,0:0:0:0:
329,192,94306,1,0,0:0:0:0:
256,192,94306,1,0,0:0:0:0:
475,192,94388,1,0,0:0:0:0:
402,192,94388,1,0,0:0:0:0:
182,192,94471,1,0,0:0:0:0:
36,192,94471,1,0,0:0:0:0:
256,192,94471,1,0,0:0:0:0:
109,192,94553,1,0,0:0:0:0:
329,192,94553,1,0,0:0:0:0:
475,192,94636,1,0,0:0:0:0:
402,192,94636,1,0,0:0:0:0:
182,192,94636,1,0,0:0:0:0:
329,192,94718,1,0,0:0:0:0:
109,192,94718,1,0,0:0:0:0:
475,192,94800,1,0,0:0:0:0:
182,192,94800,1,0,0:0:0:0:
36,192,94800,1,0,0:0:0:0:
256,192,94800,1,0,0:0:0:0:
402,192,94883,1,0,0:0:0:0:
329,192,94883,1,0,0:0:0:0:
36,192,94965,1,0,0:0:0:0:
109,192,94965,1,0,0:0:0:0:
256,192,94965,1,0,0:0:0:0:
475,192,95048,1,0,0:0:0:0:
182,192,95048,1,0,0:0:0:0:
36,192,95130,1,0,0:0:0:0:
329,192,95130,1,0,0:0:0:0:
109,192,95130,1,0,0:0:0:0:
402,192,95212,1,0,0:0:0:0:
256,192,95212,1,0,0:0:0:0:
182,192,95295,1,0,0:0:0:0:
475,192,95295,1,0,0:0:0:0:
329,192,95295,1,0,0:0:0:0:
109,192,95295,1,0,0:0:0:0:
256,192,95377,1,0,0:0:0:0:
36,192,95377,1,0,0:0:0:0:
402,192,95460,1,0,0:0:0:0:
475,192,95460,1,0,0:0:0:0:
109,192,95460,1,0,0:0:0:0:
329,192,95542,1,0,0:0:0:0:
182,192,95542,1,0,0:0:0:0:
475,192,95625,1,0,0:0:0:0:
402,192,95625,1,0,0:0:0:0:
256,192,95625,1,0,0:0:0:0:
36,192,95625,1,0,0:0:0:0:
109,192,95625,1,0,0:0:0:0:
329,192,95707,1,0,0:0:0:0:
182,192,95707,1,0,0:0:0:0:
475,192,95789,1,0,0:0:0:0:
256,192,95789,1,0,0:0:0:0:
36,192,95789,1,0,0:0:0:0:
402,192,95872,1,0,0:0:0:0:
109,192,95872,1,0,0:0:0:0:
475,192,95954,1,0,0:0:0:0:
329,192,95954,1,0,0:0:0:0:
182,192,95954,1,0,0:0:0:0:
109,192,96037,1,0,0:0:0:0:
36,192,96037,1,0,0:0:0:0:
182,192,96119,1,0,0:0:0:0:
402,192,96119,1,0,0:0:0:0:
329,192,96119,1,0,0:0:0:0:
36,192,96201,1,0,0:0:0:0:
256,192,96201,1,0,0:0:0:0:
402,192,96284,1,0,0:0:0:0:
109,192,96284,1,0,0:0:0:0:
475,192,96284,1,0,0:0:0:0:
256,192,96366,1,0,0:0:0:0:
329,192,96366,1,0,0:0:0:0:
182,192,96449,1,0,0:0:0:0:
109,192,96449,1,0,0:0:0:0:
36,192,96449,1,0,0:0:0:0:
475,192,96531,1,0,0:0:0:0:
329,192,96531,1,0,0:0:0:0:
256,192,96614,1,0,0:0:0:0:
109,192,96614,1,0,0:0:0:0:
402,192,96614,1,0,0:0:0:0:
36,192,96614,1,0,0:0:0:0:
329,192,96696,1,0,0:0:0:0:
182,192,96696,1,0,0:0:0:0:
256,192,96778,1,0,0:0:0:0:
475,192,96778,1,0,0:0:0:0:
402,192,96778,1,0,0:0:0:0:
109,192,96861,1,0,0:0:0:0:
36,192,96861,1,0,0:0:0:0:
256,192,96943,1,0,0:0:0:0:
182,192,96943,1,0,0:0:0:0:
475,192,96943,1,0,0:0:0:0:
329,192,96943,1,0,0:0:0:0:
402,192,96943,1,0,0:0:0:0:
109,192,97026,1,0,0:0:0:0:
36,192,97026,1,0,0:0:0:0:
329,192,97108,1,0,0:0:0:0:
475,192,97108,1,0,0:0:0:0:
182,192,97108,1,0,0:0:0:0:
256,192,97190,1,0,0:0:0:0:
402,192,97190,1,0,0:0:0:0:
109,192,97273,1,0,0:0:0:0:
36,192,97273,1,0,0:0:0:0:
329,192,97273,1,0,0:0:0:0:
182,192,97273,1,0,0:0:0:0:
475,192,97355,1,0,0:0:0:0:
402,192,97355,1,0,0:0:0:0:
36,192,97438,1,0,0:0:0:0:
256,192,97438,1,0,0:0:0:0:
109,192,97438,1,0,0:0:0:0:
329,192,97438,1,0,0:0:0:0:
475,192,97520,1,0,0:0:0:0:
182,192,97520,1,0,0:0:0:0:
402,192,97603,1,0,0:0:0:0:
256,192,97603,1,0,0:0:0:0:
36,192,97603,1,0,0:0:0:0:
329,192,97685,1,0,0:0:0:0:
109,192,97685,1,0,0:0:0:0:
475,192,97767,1,0,0:0:0:0:
256,192,97767,1,0,0:0:0:0:
182,192,97767,1,0,0:0:0:0:
402,192,97850,1,0,0:0:0:0:
329,192,97850,1,0,0:0:0:0:
109,192,97850,1,0,0:0:0:0:
182,192,97932,1,0,0:0:0:0:
475,192,97932,1,0,0:0:0:0:
36,192,97932,1,0,0:0:0:0:
329,192,98015,1,0,0:0:0:0:
402,192,98015,1,0,0:0:0:0:
182,192,98097,1,0,0:0:0:0:
256,192,98097,1,0,0:0:0:0:
109,192,98097,1,0,0:0:0:0:
475,192,98180,1,0,0:0:0:0:
402,192,98180,1,0,0:0:0:0:
256,192,98262,1,0,0:0:0:0:
182,192,98262,1,0,0:0:0:0:
329,192,98262,1,0,0:0:0:0:
36,192,98262,1,0,0:0:0:0:
109,192,98262,1,0,0:0:0:0:
475,192,98344,1,0,0:0:0:0:
402,192,98344,1,0,0:0:0:0:
109,192,98427,1,0,0:0:0:0:
329,192,98427,1,0,0:0:0:0:
36,192,98427,1,0,0:0:0:0:
256,192,98509,1,0,0:0:0:0:
182,192,98509,1,0,0:0:0:0:
36,192,98592,1,0,0:0:0:0:
475,192,98592,1,0,0:0:0:0:
329,192,98592,1,0,0:0:0:0:
109,192,98674,1,0,0:0:0:0:
402,192,98674,1,0,0:0:0:0:
256,192,98756,1,0,0:0:0:0:
182,192,98756,1,0,0:0:0:0:
475,192,98756,1,0,0:0:0:0:
329,192,98839,1,0,0:0:0:0:
109,192,98839,1,0,0:0:0:0:
256,192,98921,1,0,0:0:0:0:
402,192,98921,1,0,0:0:0:0:
36,192,98921,1,0,0:0:0:0:
329,192,99004,1,0,0:0:0:0:
182,192,99004,1,0,0:0:0:0:
256,192,99086,1,0,0:0:0:0:
109,192,99086,1,0,0:0:0:0:
475,192,99169,1,0,0:0:0:0:
402,192,99169,1,0,0:0:0:0:
182,192,99251,1,0,0:0:0:0:
329,192,99251,1,0,0:0:0:0:
36,192,99251,1,0,0:0:0:0:
109,192,99251,1,0,0:0:0:0:
402,192,99333,1,0,0:0:0:0:
256,192,99333,1,0,0:0:0:0:
329,192,99416,1,0,0:0:0:0:
475,192,99416,1,0,0:0:0:0:
109,192,99498,1,0,0:0:0:0:
182,192,99498,1,0,0:0:0:0:
402,192,99581,1,0,0:0:0:0:
475,192,99581,1,0,0:0:0:0:
329,192,99581,1,0,0:0:0:0:
36,192,99581,1,0,0:0:0:0:
256,192,99581,1,0,0:0:0:0:
182,192,99663,1,0,0:0:0:0:
109,192,99663,1,0,0:0:0:0:
475,192,99745,1,0,0:0:0:0:
256,192,99745,1,0,0:0:0:0:
402,192,99745,1,0,0:0:0:0:
36,192,99828,1,0,0:0:0:0:
329,192,99828,1,0,0:0:0:0:
109,192,99910,1,0,0:0:0:0:
402,192,99910,1,0,0:0:0:0:
182,192,99910,1,0,0:0:0:0:
475,192,99993,1,0,0:0:0:0:
256,192,99993,1,0,0:0:0:0:
36,192,100075,1,0,0:0:0:0:
402,192,100075,1,0,0:0:0:0:
182,192,100075,1,0,0:0:0:0:
329,192,100075,1,0,0:0:0:0:
256,192,100158,1,0,0:0:0:0:
109,192,100158,1,0,0:0:0:0:
402,192,100240,1,0,0:0:0:0:
475,192,100240,1,0,0:0:0:0:
182,192,100240,1,0,0:0:0:0:
329,192,100322,1,0,0:0:0:0:
109,192,100322,1,0,0:0:0:0:
256,192,100405,1,0,0:0:0:0:
475,192,100405,1,0,0:0:0:0:
36,192,100405,1,0,0:0:0:0:
329,192,100487,1,0,0:0:0:0:
182,192,100487,1,0,0:0:0:0:
36,192,100570,1,0,0:0:0:0:
402,192,100570,1,0,0:0:0:0:
475,192,100570,1,0,0:0:0:0:
109,192,100570,1,0,0:0:0:0:
182,192,100652,1,0,0:0:0:0:
256,192,100652,1,0,0:0:0:0:
475,192,100734,1,0,0:0:0:0:
109,192,100734,1,0,0:0:0:0:
402,192,100817,1,0,0:0:0:0:
329,192,100817,1,0,0:0:0:0:
182,192,100899,1,0,0:0:0:0:
256,192,100899,1,0,0:0:0:0:
109,192,100899,1,0,0:0:0:0:
475,192,100899,1,0,0:0:0:0:
36,192,100899,1,0,0:0:0:0:
402,192,100982,1,0,0:0:0:0:
329,192,100982,1,0,0:0:0:0:
256,192,101064,1,0,0:0:0:0:
182,192,101064,1,0,0:0:0:0:
36,192,101064,1,0,0:0:0:0:
402,192,101147,1,0,0:0:0:0:
109,192,101147,1,0,0:0:0:0:
475,192,101229,1,0,0:0:0:0:
329,192,101229,1,0,0:0:0:0:
182,192,101229,1,0,0:0:0:0:
402,192,101311,1,0,0:0:0:0:
109,192,101311,1,0,0:0:0:0:
475,192,101394,1,0,0:0:0:0:
182,192,101394,1,0,0:0:0:0:
36,192,101394,1,0,0:0:0:0:
256,192,101394,1,0,0:0:0:0:
402,192,101476,1,0,0:0:0:0:
329,192,101476,1,0,0:0:0:0:
256,192,101559,1,0,0:0:0:0:
182,192,101559,1,0,0:0:0:0:
109,192,101559,1,0,0:0:0:0:
475,192,101641,1,0,0:0:0:0:
402,192,101641,1,0,0:0:0:0:
109,192,101723,1,0,0:0:0:0:
329,192,101723,1,0,0:0:0:0:
36,192,101723,1,0,0:0:0:0:
256,192,101806,1,0,0:0:0:0:
182,192,101806,1,0,0:0:0:0:
402,192,101888,1,0,0:0:0:0:
475,192,101888,1,0,0:0:0:0:
109,192,101888,1,0,0:0:0:0:
329,192,101888,1,0,0:0:0:0:
36,192,101971,1,0,0:0:0:0:
182,192,101971,1,0,0:0:0:0:
402,192,102053,1,0,0:0:0:0:
475,192,102053,1,0,0:0:0:0:
256,192,102053,1,0,0:0:0:0:
329,192,102136,1,0,0:0:0:0:
182,192,102136,1,0,0:0:0:0:
256,192,102218,1,0,0:0:0:0:
402,192,102218,1,0,0:0:0:0:
475,192,102218,1,0,0:0:0:0:
36,192,102218,1,0,0:0:0:0:
109,192,102218,1,0,0:0:0:0:
329,192,102300,1,0,0:0:0:0:
182,192,102300,1,0,0:0:0:0:
475,192,102383,1,0,0:0:0:0:
109,192,102383,1,0,0:0:0:0:
36,192,102383,1,0,0:0:0:0:
256,192,102465,1,0,0:0:0:0:
402,192,102465,1,0,0:0:0:0:
182,192,102548,1,0,0:0:0:0:
36,192,102548,1,0,0:0:0:0:
329,192,102548,1,0,0:0:0:0:
402,192,102630,1,0,0:0:0:0:
256,192,102630,1,0,0:0:0:0:
36,192,102712,1,0,0:0:0:0:
475,192,102712,1,0,0:0:0:0:
109,192,102712,1,0,0:0:0:0:
329,192,102712,1,0,0:0:0:0:
182,192,102795,1,0,0:0:0:0:
256,192,102795,1,0,0:0:0:0:
475,192,102877,1,0,0:0:0:0:
109,192,102877,1,0,0:0:0:0:
329,192,102877,1,0,0:0:0:0:
402,192,102877,1,0,0:0:0:0:
256,192,102960,1,0,0:0:0:0:
36,192,102960,1,0,0:0:0:0:
475,192,103042,1,0,0:0:0:0:
109,192,103042,1,0,0:0:0:0:
402,192,103042,1,0,0:0:0:0:
182,192,103125,1,0,0:0:0:0:
329,192,103125,1,0,0:0:0:0:
256,192,103207,1,0,0:0:0:0:
109,192,103207,1,0,0:0:0:0:
36,192,103207,1,0,0:0:0:0:
475,192,103207,1,0,0:0:0:0:
329,192,103289,1,0,0:0:0:0:
182,192,103289,1,0,0:0:0:0:
256,192,103372,1,0,0:0:0:0:
402,192,103372,1,0,0:0:0:0:
109,192,103372,1,0,0:0:0:0:
182,192,103454,1,0,0:0:0:0:
329,192,103454,1,0,0:0:0:0:
402,192,103537,1,0,0:0:0:0:
475,192,103537,1,0,0:0:0:0:
256,192,103537,1,0,0:0:0:0:
36,192,103537,1,0,0:0:0:0:
109,192,103537,1,0,0:0:0:0:
329,192,103619,1,0,0:0:0:0:
182,192,103619,1,0,0:0:0:0:
475,192,103701,1,0,0:0:0:0:
402,192,103701,1,0,0:0:0:0:
256,192,103701,1,0,0:0:0:0:
36,192,103784,1,0,0:0:0:0:
109,192,103784,1,0,0:0:0:0:
182,192,103866,1,0,0:0:0:0:
402,192,103866,1,0,0:0:0:0:
329,192,103866,1,0,0:0:0:0:
109,192,103949,1,0,0:0:0:0:
256,192,103949,1,0,0:0:0:0:
475,192,104031,1,0,0:0:0:0:
329,192,104031,1,0,0:0:0:0:
402,192,104031,1,0,0:0:0:0:
256,192,104114,1,0,0:0:0:0:
36,192,104114,1,0,0:0:0:0:
402,192,104196,1,0,0:0:0:0:
475,192,104196,1,0,0:0:0:0:
109,192,104196,1,0,0:0:0:0:
329,192,104278,1,0,0:0:0:0:
182,192,104278,1,0,0:0:0:0:
109,192,104361,1,0,0:0:0:0:
475,192,104361,1,0,0:0:0:0:
256,192,104361,1,0,0:0:0:0:
402,192,104443,1,0,0:0:0:0:
182,192,104443,1,0,0:0:0:0:
475,192,104526,1,0,0:0:0:0:
256,192,104526,1,0,0:0:0:0:
329,192,104526,1,0,0:0:0:0:
36,192,104526,1,0,0:0:0:0:
109,192,104608,1,0,0:0:0:0:
182,192,104608,1,0,0:0:0:0:
36,192,104690,1,0,0:0:0:0:
475,192,104690,1,0,0:0:0:0:
402,192,104690,1,0,0:0:0:0:
329,192,104690,1,0,0:0:0:0:
182,192,104773,1,0,0:0:0:0:
256,192,104773,1,0,0:0:0:0:
329,192,104855,1,0,0:0:0:0:
109,192,104855,1,0,0:0:0:0:
402,192,104855,1,0,0:0:0:0:
36,192,104855,1,0,0:0:0:0:
475,192,104855,1,0,0:0:0:0:
256,192,104938,1,0,0:0:0:0:
475,192,105020,5,0,0:0:0:0:
402,192,105020,1,0,0:0:0:0:
182,192,105020,1,0,0:0:0:0:
329,192,105103,1,0,0:0:0:0:
109,192,105103,1,0,0:0:0:0:
256,192,105185,1,0,0:0:0:0:
182,192,105185,1,0,0:0:0:0:
36,192,105185,1,0,0:0:0:0:
329,192,105267,1,0,0:0:0:0:
402,192,105267,1,0,0:0:0:0:
36,192,105350,1,0,0:0:0:0:
109,192,105350,1,0,0:0:0:0:
475,192,105350,1,0,0:0:0:0:
182,192,105432,1,0,0:0:0:0:
402,192,105432,1,0,0:0:0:0:
109,192,105515,1,0,0:0:0:0:
256,192,105515,1,0,0:0:0:0:
329,192,105515,1,0,0:0:0:0:
475,192,105597,1,0,0:0:0:0:
402,192,105597,1,0,0:0:0:0:
256,192,105680,1,0,0:0:0:0:
182,192,105680,1,0,0:0:0:0:
36,192,105680,1,0,0:0:0:0:
329,192,105762,1,0,0:0:0:0:
109,192,105762,1,0,0:0:0:0:
402,192,105844,1,0,0:0:0:0:
256,192,105844,1,0,0:0:0:0:
182,192,105844,1,0,0:0:0:0:
475,192,105844,1,0,0:0:0:0:
109,192,105927,1,0,0:0:0:0:
36,192,105927,1,0,0:0:0:0:
329,192,106009,1,0,0:0:0:0:
402,192,106009,1,0,0:0:0:0:
475,192,106009,1,0,0:0:0:0:
256,192,106092,1,0,0:0:0:0:
109,192,106092,1,0,0:0:0:0:
329,192,106174,5,0,0:0:0:0:
402,192,106174,1,0,0:0:0:0:
475,192,106174,1,0,0:0:0:0:
182,192,106174,1,0,0:0:0:0:
36,192,106256,1,0,0:0:0:0:
109,192,106256,1,0,0:0:0:0:
256,192,106256,1,0,0:0:0:0:
329,192,106339,1,0,0:0:0:0:
402,192,106339,1,0,0:0:0:0:
475,192,106339,1,0,0:0:0:0:
182,192,106421,1,0,0:0:0:0:
36,192,106421,1,0,0:0:0:0:
109,192,106421,1,0,0:0:0:0:
256,192,106504,1,0,0:0:0:0:
402,192,106504,1,0,0:0:0:0:
475,192,106504,1,0,0:0:0:0:
329,192,106586,1,0,0:0:0:0:
36,192,106586,1,0,0:0:0:0:
109,192,106586,1,0,0:0:0:0:
402,192,106669,1,0,0:0:0:0:
475,192,106669,1,0,0:0:0:0:
182,192,106669,1,0,0:0:0:0:
36,192,106751,1,0,0:0:0:0:
109,192,106751,1,0,0:0:0:0:
256,192,106751,1,0,0:0:0:0:
475,192,106833,1,0,0:0:0:0:
402,192,106833,1,0,0:0:0:0:
329,192,106833,1,0,0:0:0:0:
36,192,106916,1,0,0:0:0:0:
109,192,106916,1,0,0:0:0:0:
256,192,106916,1,0,0:0:0:0:
402,192,106998,1,0,0:0:0:0:
475,192,106998,1,0,0:0:0:0:
182,192,106998,1,0,0:0:0:0:
36,192,107081,1,0,0:0:0:0:
109,192,107081,1,0,0:0:0:0:
329,192,107081,1,0,0:0:0:0:
402,192,107163,1,0,0:0:0:0:
475,192,107163,1,0,0:0:0:0:
256,192,107163,1,0,0:0:0:0:
36,192,107245,1,0,0:0:0:0:
109,192,107245,1,0,0:0:0:0:
182,192,107245,1,0,0:0:0:0:
402,192,107328,1,0,0:0:0:0:
475,192,107328,1,0,0:0:0:0:
329,192,107328,1,0,0:0:0:0:
36,192,107410,1,0,0:0:0:0:
109,192,107410,1,0,0:0:0:0:
256,192,107410,1,0,0:0:0:0:
475,192,107493,1,0,0:0:0:0:
182,192,107493,1,0,0:0:0:0:
402,192,107493,1,0,0:0:0:0:
36,192,107575,1,0,0:0:0:0:
109,192,107575,1,0,0:0:0:0:
256,192,107575,1,0,0:0:0:0:
182,192,107658,1,0,0:0:0:0:
402,192,107658,1,0,0:0:0:0:
475,192,107658,1,0,0:0:0:0:
329,192,107740,1,0,0:0:0:0:
256,192,107740,1,0,0:0:0:0:
36,192,107740,1,0,0:0:0:0:
109,192,107822,1,0,0:0:0:0:
182,192,107822,1,0,0:0:0:0:
475,192,107822,1,0,0:0:0:0:
329,192,107905,1,0,0:0:0:0:
402,192,107905,1,0,0:0:0:0:
36,192,107905,1,0,0:0:0:0:
182,192,107987,1,0,0:0:0:0:
256,192,107987,1,0,0:0:0:0:
475,192,107987,1,0,0:0:0:0:
36,192,108070,1,0,0:0:0:0:
109,192,108070,1,0,0:0:0:0:
475,192,108152,1,0,0:0:0:0:
402,192,108152,1,0,0:0:0:0:
329,192,108207,1,0,0:0:0:0:
36,192,108234,1,0,0:0:0:0:
256,192,108262,1,0,0:0:0:0:
182,192,108317,1,0,0:0:0:0:
475,192,108317,1,0,0:0:0:0:
109,192,108372,1,0,0:0:0:0:
402,192,108399,1,0,0:0:0:0:
36,192,108427,1,0,0:0:0:0:
329,192,108482,1,0,0:0:0:0:
256,192,108482,1,0,0:0:0:0:
182,192,108482,1,0,0:0:0:0:
475,192,108537,1,0,0:0:0:0:
36,192,108564,1,0,0:0:0:0:
402,192,108592,1,0,0:0:0:0:
329,192,108647,1,0,0:0:0:0:
109,192,108647,1,0,0:0:0:0:
182,192,108701,1,0,0:0:0:0:
475,192,108729,1,0,0:0:0:0:
256,192,108756,1,0,0:0:0:0:
36,192,108811,1,0,0:0:0:0:
109,192,108811,1,0,0:0:0:0:
329,192,108811,1,0,0:0:0:0:
402,192,108811,1,0,0:0:0:0:
329,192,108976,1,0,0:0:0:0:
475,192,108976,1,0,0:0:0:0:
36,192,108976,1,0,0:0:0:0:
109,192,109141,1,0,0:0:0:0:
402,192,109141,1,0,0:0:0:0:
256,192,109141,1,0,0:0:0:0:
329,192,109141,1,0,0:0:0:0:
182,192,109223,1,0,0:0:0:0:
256,192,109306,1,0,0:0:0:0:
475,192,109306,1,0,0:0:0:0:
36,192,109306,1,0,0:0:0:0:
109,192,109471,1,0,0:0:0:0:
402,192,109471,1,0,0:0:0:0:
329,192,109471,1,0,0:0:0:0:
475,192,109471,1,0,0:0:0:0:
182,192,109553,1,0,0:0:0:0:
256,192,109636,1,0,0:0:0:0:
402,192,109636,1,0,0:0:0:0:
329,192,109636,1,0,0:0:0:0:
36,192,109636,1,0,0:0:0:0:
36,192,109800,1,0,0:0:0:0:
109,192,109800,1,0,0:0:0:0:
475,192,109800,1,0,0:0:0:0:
256,192,109800,1,0,0:0:0:0:
182,192,109883,1,0,0:0:0:0:
329,192,109965,1,0,0:0:0:0:
402,192,109965,1,0,0:0:0:0:
475,192,109965,1,0,0:0:0:0:
109,192,109965,1,0,0:0:0:0:
36,192,110130,1,0,0:0:0:0:
329,192,110130,1,0,0:0:0:0:
182,192,110130,1,0,0:0:0:0:
256,192,110212,1,0,0:0:0:0:
402,192,110295,1,0,0:0:0:0:
475,192,110295,1,0,0:0:0:0:
109,192,110295,1,0,0:0:0:0:
329,192,110460,1,0,0:0:0:0:
182,192,110460,1,0,0:0:0:0:
475,192,110460,1,0,0:0:0:0:
36,192,110460,1,0,0:0:0:0:
256,192,110542,1,0,0:0:0:0:
402,192,110625,1,0,0:0:0:0:
36,192,110625,1,0,0:0:0:0:
329,192,110625,1,0,0:0:0:0:
109,192,110789,1,0,0:0:0:0:
182,192,110789,1,0,0:0:0:0:
475,192,110789,1,0,0:0:0:0:
402,192,110789,1,0,0:0:0:0:
256,192,110872,1,0,0:0:0:0:
36,192,110954,1,0,0:0:0:0:
329,192,110954,1,0,0:0:0:0:
182,192,110954,1,0,0:0:0:0:
475,192,110954,1,0,0:0:0:0:
109,192,111119,1,0,0:0:0:0:
402,192,111119,1,0,0:0:0:0:
36,192,111119,1,0,0:0:0:0:
329,192,111119,1,0,0:0:0:0:
256,192,111201,1,0,0:0:0:0:
402,192,111284,1,0,0:0:0:0:
109,192,111284,1,0,0:0:0:0:
475,192,111284,1,0,0:0:0:0:
182,192,111284,1,0,0:0:0:0:
182,192,111449,1,0,0:0:0:0:
256,192,111449,1,0,0:0:0:0:
329,192,111449,1,0,0:0:0:0:
109,192,111531,1,0,0:0:0:0:
475,192,111614,1,0,0:0:0:0:
36,192,111614,1,0,0:0:0:0:
402,192,111614,1,0,0:0:0:0:
182,192,111778,1,0,0:0:0:0:
329,192,111778,1,0,0:0:0:0:
256,192,111778,1,0,0:0:0:0:
402,192,111778,1,0,0:0:0:0:
109,192,111861,1,0,0:0:0:0:
475,192,111943,1,0,0:0:0:0:
329,192,111943,1,0,0:0:0:0:
36,192,111943,1,0,0:0:0:0:
182,192,112108,1,0,0:0:0:0:
256,192,112108,1,0,0:0:0:0:
402,192,112108,1,0,0:0:0:0:
475,192,112108,1,0,0:0:0:0:
109,192,112190,1,0,0:0:0:0:
256,192,112273,1,0,0:0:0:0:
329,192,112273,1,0,0:0:0:0:
36,192,112273,1,0,0:0:0:0:
182,192,112438,1,0,0:0:0:0:
329,192,112438,1,0,0:0:0:0:
475,192,112438,1,0,0:0:0:0:
402,192,112438,1,0,0:0:0:0:
109,192,112520,1,0,0:0:0:0:
475,192,112603,1,0,0:0:0:0:
36,192,112603,1,0,0:0:0:0:
402,192,112603,1,0,0:0:0:0:
182,192,112767,1,0,0:0:0:0:
36,192,112767,1,0,0:0:0:0:
256,192,112767,1,0,0:0:0:0:
109,192,112767,1,0,0:0:0:0:
329,192,112850,1,0,0:0:0:0:
256,192,112932,1,0,0:0:0:0:
109,192,112932,1,0,0:0:0:0:
402,192,112932,1,0,0:0:0:0:
182,192,113097,1,0,0:0:0:0:
36,192,113097,1,0,0:0:0:0:
402,192,113097,1,0,0:0:0:0:
475,192,113097,1,0,0:0:0:0:
329,192,113180,1,0,0:0:0:0:
256,192,113262,1,0,0:0:0:0:
109,192,113262,1,0,0:0:0:0:
475,192,113262,1,0,0:0:0:0:
36,192,113262,1,0,0:0:0:0:
182,192,113427,1,0,0:0:0:0:
402,192,113427,1,0,0:0:0:0:
36,192,113427,1,0,0:0:0:0:
329,192,113509,1,0,0:0:0:0:
256,192,113592,1,0,0:0:0:0:
109,192,113592,1,0,0:0:0:0:
475,192,113592,1,0,0:0:0:0:
182,192,113756,1,0,0:0:0:0:
36,192,113756,1,0,0:0:0:0:
402,192,113756,1,0,0:0:0:0:
109,192,113756,1,0,0:0:0:0:
329,192,113839,1,0,0:0:0:0:
256,192,113921,1,0,0:0:0:0:
182,192,113921,1,0,0:0:0:0:
475,192,113921,1,0,0:0:0:0:
36,192,114086,1,0,0:0:0:0:
402,192,114086,1,0,0:0:0:0:
329,192,114086,1,0,0:0:0:0:
109,192,114086,1,0,0:0:0:0:
182,192,114169,1,0,0:0:0:0:
256,192,114251,1,0,0:0:0:0:
475,192,114251,1,0,0:0:0:0:
402,192,114251,1,0,0:0:0:0:
36,192,114416,1,0,0:0:0:0:
256,192,114416,1,0,0:0:0:0:
329,192,114416,1,0,0:0:0:0:
109,192,114416,1,0,0:0:0:0:
182,192,114498,1,0,0:0:0:0:
402,192,114581,1,0,0:0:0:0:
109,192,114581,1,0,0:0:0:0:
329,192,114581,1,0,0:0:0:0:
36,192,114745,1,0,0:0:0:0:
475,192,114745,1,0,0:0:0:0:
402,192,114745,1,0,0:0:0:0:
256,192,114745,1,0,0:0:0:0:
182,192,114828,1,0,0:0:0:0:
256,192,114910,1,0,0:0:0:0:
329,192,114910,1,0,0:0:0:0:
109,192,114910,1,0,0:0:0:0:
36,192,114910,1,0,0:0:0:0:
36,192,115075,1,0,0:0:0:0:
475,192,115075,1,0,0:0:0:0:
329,192,115075,1,0,0:0:0:0:
402,192,115075,1,0,0:0:0:0:
182,192,115158,1,0,0:0:0:0:
256,192,115240,1,0,0:0:0:0:
475,192,115240,1,0,0:0:0:0:
402,192,115240,1,0,0:0:0:0:
109,192,115240,1,0,0:0:0:0:
329,192,115405,1,0,0:0:0:0:
182,192,115405,1,0,0:0:0:0:
256,192,115405,1,0,0:0:0:0:
402,192,115487,1,0,0:0:0:0:
109,192,115570,1,0,0:0:0:0:
475,192,115570,1,0,0:0:0:0:
36,192,115570,1,0,0:0:0:0:
256,192,115734,1,0,0:0:0:0:
182,192,115734,1,0,0:0:0:0:
36,192,115734,1,0,0:0:0:0:
329,192,115734,1,0,0:0:0:0:
402,192,115817,1,0,0:0:0:0:
109,192,115899,1,0,0:0:0:0:
475,192,115899,1,0,0:0:0:0:
182,192,115899,1,0,0:0:0:0:
329,192,116064,1,0,0:0:0:0:
256,192,116064,1,0,0:0:0:0:
36,192,116064,1,0,0:0:0:0:
109,192,116064,1,0,0:0:0:0:
402,192,116147,1,0,0:0:0:0:
475,192,116229,1,0,0:0:0:0:
256,192,116229,1,0,0:0:0:0:
182,192,116229,1,0,0:0:0:0:
36,192,116229,1,0,0:0:0:0:
329,192,116394,1,0,0:0:0:0:
109,192,116394,1,0,0:0:0:0:
256,192,116394,1,0,0:0:0:0:
182,192,116394,1,0,0:0:0:0:
402,192,116476,1,0,0:0:0:0:
109,192,116559,1,0,0:0:0:0:
475,192,116559,1,0,0:0:0:0:
36,192,116559,1,0,0:0:0:0:
402,192,116723,1,0,0:0:0:0:
329,192,116723,1,0,0:0:0:0:
36,192,116723,1,0,0:0:0:0:
182,192,116723,1,0,0:0:0:0:
256,192,116806,1,0,0:0:0:0:
475,192,116888,1,0,0:0:0:0:
109,192,116888,1,0,0:0:0:0:
182,192,116888,1,0,0:0:0:0:
109,192,117053,1,0,0:0:0:0:
475,192,117053,1,0,0:0:0:0:
329,192,117053,1,0,0:0:0:0:
402,192,117053,1,0,0:0:0:0:
256,192,117136,1,0,0:0:0:0:
36,192,117218,1,0,0:0:0:0:
475,192,117218,1,0,0:0:0:0:
182,192,117218,1,0,0:0:0:0:
109,192,117383,1,0,0:0:0:0:
402,192,117383,1,0,0:0:0:0:
329,192,117383,1,0,0:0:0:0:
256,192,117465,1,0,0:0:0:0:
36,192,117548,1,0,0:0:0:0:
182,192,117548,1,0,0:0:0:0:
475,192,117548,1,0,0:0:0:0:
402,192,117548,1,0,0:0:0:0:
109,192,117712,1,0,0:0:0:0:
475,192,117712,1,0,0:0:0:0:
182,192,117712,1,0,0:0:0:0:
329,192,117712,1,0,0:0:0:0:
256,192,117795,1,0,0:0:0:0:
402,192,117877,1,0,0:0:0:0:
36,192,117877,1,0,0:0:0:0:
182,192,117877,1,0,0:0:0:0:
475,192,117877,1,0,0:0:0:0:
109,192,118042,1,0,0:0:0:0:
329,192,118042,1,0,0:0:0:0:
256,192,118042,1,0,0:0:0:0:
36,192,118042,1,0,0:0:0:0:
402,192,118125,1,0,0:0:0:0:
475,192,118207,1,0,0:0:0:0:
109,192,118207,1,0,0:0:0:0:
182,192,118372,5,0,0:0:0:0:
36,192,118372,1,0,0:0:0:0:
256,192,118372,1,0,0:0:0:0:
402,192,118372,1,0,0:0:0:0:
329,192,118454,1,0,0:0:0:0:
475,192,118537,1,0,0:0:0:0:
256,192,118537,1,0,0:0:0:0:
36,192,118537,1,0,0:0:0:0:
109,192,118537,1,0,0:0:0:0:
109,192,118701,1,0,0:0:0:0:
182,192,118701,1,0,0:0:0:0:
402,192,118701,1,0,0:0:0:0:
475,192,118701,1,0,0:0:0:0:
256,192,118784,1,0,0:0:0:0:
329,192,118866,1,0,0:0:0:0:
402,192,118866,1,0,0:0:0:0:
36,192,118949,1,0,0:0:0:0:
109,192,118949,1,0,0:0:0:0:
256,192,118949,1,0,0:0:0:0:
475,192,119031,1,0,0:0:0:0:
182,192,119031,1,0,0:0:0:0:
402,192,119031,1,0,0:0:0:0:
329,192,119114,1,0,0:0:0:0:
109,192,119196,1,0,0:0:0:0:
36,192,119196,1,0,0:0:0:0:
256,192,119196,1,0,0:0:0:0:
329,192,119278,1,0,0:0:0:0:
182,192,119278,1,0,0:0:0:0:
109,192,119361,1,0,0:0:0:0:
402,192,119361,1,0,0:0:0:0:
475,192,119361,1,0,0:0:0:0:
36,192,119361,1,0,0:0:0:0:
256,192,119361,1,0,0:0:0:0:
475,192,119526,1,0,0:0:0:0:
329,192,119526,1,0,0:0:0:0:
182,192,119526,1,0,0:0:0:0:
109,192,119690,1,0,0:0:0:0:
402,192,119690,1,0,0:0:0:0:
256,192,119690,1,0,0:0:0:0:
475,192,119690,1,0,0:0:0:0:
182,192,119773,1,0,0:0:0:0:
256,192,119855,1,0,0:0:0:0:
329,192,119855,1,0,0:0:0:0:
36,192,119855,1,0,0:0:0:0:
109,192,120020,1,0,0:0:0:0:
402,192,120020,1,0,0:0:0:0:
475,192,120020,1,0,0:0:0:0:
329,192,120020,1,0,0:0:0:0:
256,192,120103,1,0,0:0:0:0:
36,192,120185,1,0,0:0:0:0:
402,192,120185,1,0,0:0:0:0:
475,192,120185,1,0,0:0:0:0:
182,192,120185,1,0,0:0:0:0:
109,192,120350,1,0,0:0:0:0:
36,192,120350,1,0,0:0:0:0:
329,192,120350,1,0,0:0:0:0:
256,192,120350,1,0,0:0:0:0:
182,192,120432,1,0,0:0:0:0:
256,192,120515,1,0,0:0:0:0:
402,192,120515,1,0,0:0:0:0:
329,192,120515,1,0,0:0:0:0:
109,192,120515,1,0,0:0:0:0:
182,192,120680,1,0,0:0:0:0:
475,192,120680,1,0,0:0:0:0:
36,192,120680,1,0,0:0:0:0:
256,192,120762,1,0,0:0:0:0:
402,192,120844,1,0,0:0:0:0:
329,192,120844,1,0,0:0:0:0:
109,192,120844,1,0,0:0:0:0:
475,192,121009,1,0,0:0:0:0:
36,192,121009,1,0,0:0:0:0:
329,192,121009,1,0,0:0:0:0:
182,192,121009,1,0,0:0:0:0:
256,192,121092,1,0,0:0:0:0:
402,192,121174,1,0,0:0:0:0:
182,192,121174,1,0,0:0:0:0:
475,192,121174,1,0,0:0:0:0:
109,192,121339,1,0,0:0:0:0:
36,192,121339,1,0,0:0:0:0:
329,192,121339,1,0,0:0:0:0:
402,192,121339,1,0,0:0:0:0:
256,192,121421,1,0,0:0:0:0:
182,192,121504,1,0,0:0:0:0:
475,192,121504,1,0,0:0:0:0:
36,192,121504,1,0,0:0:0:0:
329,192,121504,1,0,0:0:0:0:
109,192,121669,1,0,0:0:0:0:
402,192,121669,1,0,0:0:0:0:
182,192,121669,1,0,0:0:0:0:
475,192,121669,1,0,0:0:0:0:
256,192,121751,1,0,0:0:0:0:
402,192,121833,1,0,0:0:0:0:
109,192,121833,1,0,0:0:0:0:
329,192,121833,1,0,0:0:0:0:
36,192,121833,1,0,0:0:0:0:
36,192,121998,1,0,0:0:0:0:
256,192,121998,1,0,0:0:0:0:
475,192,121998,1,0,0:0:0:0:
182,192,122081,1,0,0:0:0:0:
329,192,122163,1,0,0:0:0:0:
109,192,122163,1,0,0:0:0:0:
402,192,122163,1,0,0:0:0:0:
36,192,122328,1,0,0:0:0:0:
109,192,122328,1,0,0:0:0:0:
256,192,122328,1,0,0:0:0:0:
402,192,122328,1,0,0:0:0:0:
182,192,122410,1,0,0:0:0:0:
329,192,122493,1,0,0:0:0:0:
475,192,122493,1,0,0:0:0:0:
256,192,122493,1,0,0:0:0:0:
36,192,122658,1,0,0:0:0:0:
109,192,122658,1,0,0:0:0:0:
402,192,122658,1,0,0:0:0:0:
329,192,122658,1,0,0:0:0:0:
182,192,122740,1,0,0:0:0:0:
256,192,122822,1,0,0:0:0:0:
475,192,122822,1,0,0:0:0:0:
109,192,122822,1,0,0:0:0:0:
36,192,122987,1,0,0:0:0:0:
475,192,122987,1,0,0:0:0:0:
256,192,122987,1,0,0:0:0:0:
402,192,122987,1,0,0:0:0:0:
182,192,123070,1,0,0:0:0:0:
329,192,123152,1,0,0:0:0:0:
109,192,123152,1,0,0:0:0:0:
402,192,123152,1,0,0:0:0:0:
36,192,123317,1,0,0:0:0:0:
182,192,123317,1,0,0:0:0:0:
475,192,123317,1,0,0:0:0:0:
109,192,123317,1,0,0:0:0:0:
256,192,123399,1,0,0:0:0:0:
475,192,123482,1,0,0:0:0:0:
182,192,123482,1,0,0:0:0:0:
402,192,123482,1,0,0:0:0:0:
36,192,123647,1,0,0:0:0:0:
109,192,123647,1,0,0:0:0:0:
402,192,123647,1,0,0:0:0:0:
329,192,123647,1,0,0:0:0:0:
256,192,123729,1,0,0:0:0:0:
475,192,123811,1,0,0:0:0:0:
109,192,123811,1,0,0:0:0:0:
329,192,123811,1,0,0:0:0:0:
182,192,123811,1,0,0:0:0:0:
36,192,123976,1,0,0:0:0:0:
402,192,123976,1,0,0:0:0:0:
182,192,123976,1,0,0:0:0:0:
256,192,124059,1,0,0:0:0:0:
475,192,124141,1,0,0:0:0:0:
109,192,124141,1,0,0:0:0:0:
329,192,124141,1,0,0:0:0:0:
36,192,124306,1,0,0:0:0:0:
182,192,124306,1,0,0:0:0:0:
402,192,124306,1,0,0:0:0:0:
109,192,124306,1,0,0:0:0:0:
256,192,124388,1,0,0:0:0:0:
475,192,124471,1,0,0:0:0:0:
182,192,124471,1,0,0:0:0:0:
329,192,124471,1,0,0:0:0:0:
256,192,124636,1,0,0:0:0:0:
36,192,124636,1,0,0:0:0:0:
475,192,124636,1,0,0:0:0:0:
402,192,124636,1,0,0:0:0:0:
109,192,124718,1,0,0:0:0:0:
182,192,124800,1,0,0:0:0:0:
329,192,124800,1,0,0:0:0:0:
402,192,124883,1,0,0:0:0:0:
475,192,124965,1,0,0:0:0:0:
256,192,124965,1,0,0:0:0:0:
182,192,124965,1,0,0:0:0:0:
329,192,125048,1,0,0:0:0:0:
109,192,125130,1,0,0:0:0:0:
402,192,125130,1,0,0:0:0:0:
182,192,125212,1,0,0:0:0:0:
256,192,125295,1,0,0:0:0:0:
36,192,125295,1,0,0:0:0:0:
329,192,125295,1,0,0:0:0:0:
402,192,125295,1,0,0:0:0:0:
182,192,125377,1,0,0:0:0:0:
109,192,125460,1,0,0:0:0:0:
329,192,125460,1,0,0:0:0:0:
36,192,125460,1,0,0:0:0:0:
475,192,125460,1,0,0:0:0:0:
182,192,125625,1,0,0:0:0:0:
475,192,125625,1,0,0:0:0:0:
402,192,125625,1,0,0:0:0:0:
256,192,125707,1,0,0:0:0:0:
329,192,125789,1,0,0:0:0:0:
109,192,125789,1,0,0:0:0:0:
402,192,125789,1,0,0:0:0:0:
36,192,125789,1,0,0:0:0:0:
182,192,125872,1,0,0:0:0:0:
256,192,125954,1,0,0:0:0:0:
475,192,125954,1,0,0:0:0:0:
109,192,125954,1,0,0:0:0:0:
402,192,126037,1,0,0:0:0:0:
329,192,126119,1,0,0:0:0:0:
182,192,126119,1,0,0:0:0:0:
109,192,126201,1,0,0:0:0:0:
36,192,126284,1,0,0:0:0:0:
256,192,126284,1,0,0:0:0:0:
475,192,126284,1,0,0:0:0:0:
329,192,126284,1,0,0:0:0:0:
182,192,126366,1,0,0:0:0:0:
402,192,126449,1,0,0:0:0:0:
109,192,126449,1,0,0:0:0:0:
475,192,126449,1,0,0:0:0:0:
329,192,126531,1,0,0:0:0:0:
256,192,126614,1,0,0:0:0:0:
36,192,126614,1,0,0:0:0:0:
182,192,126614,1,0,0:0:0:0:
109,192,126614,1,0,0:0:0:0:
402,192,126696,1,0,0:0:0:0:
475,192,126778,1,0,0:0:0:0:
329,192,126778,1,0,0:0:0:0:
182,192,126778,1,0,0:0:0:0:
256,192,126778,1,0,0:0:0:0:
36,192,126943,1,0,0:0:0:0:
329,192,126943,1,0,0:0:0:0:
109,192,126943,1,0,0:0:0:0:
256,192,127026,1,0,0:0:0:0:
182,192,127108,1,0,0:0:0:0:
402,192,127108,1,0,0:0:0:0:
329,192,127273,1,0,0:0:0:0:
475,192,127273,1,0,0:0:0:0:
36,192,127273,1,0,0:0:0:0:
256,192,127273,1,0,0:0:0:0:
109,192,127355,1,0,0:0:0:0:
182,192,127438,1,0,0:0:0:0:
402,192,127438,1,0,0:0:0:0:
329,192,127520,1,0,0:0:0:0:
256,192,127603,1,0,0:0:0:0:
475,192,127603,1,0,0:0:0:0:
36,192,127603,1,0,0:0:0:0:
402,192,127685,1,0,0:0:0:0:
109,192,127767,1,0,0:0:0:0:
329,192,127767,1,0,0:0:0:0:
182,192,127850,1,0,0:0:0:0:
256,192,127932,1,0,0:0:0:0:
475,192,127932,1,0,0:0:0:0:
182,192,128015,1,0,0:0:0:0:
109,192,128097,1,0,0:0:0:0:
402,192,128097,1,0,0:0:0:0:
36,192,128097,1,0,0:0:0:0:
329,192,128097,1,0,0:0:0:0:
182,192,128262,1,0,0:0:0:0:
256,192,128262,1,0,0:0:0:0:
109,192,128262,1,0,0:0:0:0:
402,192,128344,1,0,0:0:0:0:
475,192,128427,1,0,0:0:0:0:
36,192,128427,1,0,0:0:0:0:
256,192,128427,1,0,0:0:0:0:
329,192,128427,1,0,0:0:0:0:
109,192,128509,1,0,0:0:0:0:
329,192,128592,1,0,0:0:0:0:
402,192,128592,1,0,0:0:0:0:
475,192,128592,1,0,0:0:0:0:
182,192,128592,1,0,0:0:0:0:
256,192,128674,1,0,0:0:0:0:
36,192,128674,1,0,0:0:0:0:
109,192,128674,1,0,0:0:0:0:
182,192,128756,1,0,0:0:0:0:
329,192,128756,1,0,0:0:0:0:
402,192,128756,1,0,0:0:0:0:
256,192,128839,1,0,0:0:0:0:
36,192,128839,1,0,0:0:0:0:
109,192,128839,1,0,0:0:0:0:
475,192,128921,1,0,0:0:0:0:
402,192,128921,1,0,0:0:0:0:
329,192,128921,1,0,0:0:0:0:
109,192,129004,1,0,0:0:0:0:
182,192,129004,1,0,0:0:0:0:
36,192,129004,1,0,0:0:0:0:
402,192,129086,1,0,0:0:0:0:
475,192,129086,1,0,0:0:0:0:
256,192,129086,1,0,0:0:0:0:
329,192,129086,1,0,0:0:0:0:
109,192,129169,1,0,0:0:0:0:
182,192,129169,1,0,0:0:0:0:
36,192,129169,1,0,0:0:0:0:
402,192,129251,1,0,0:0:0:0:
475,192,129251,1,0,0:0:0:0:
256,192,129251,1,0,0:0:0:0:
182,192,129333,1,0,0:0:0:0:
329,192,129333,1,0,0:0:0:0:
109,192,129333,1,0,0:0:0:0:
256,192,129416,1,0,0:0:0:0:
475,192,129416,1,0,0:0:0:0:
402,192,129416,1,0,0:0:0:0:
36,192,129416,1,0,0:0:0:0:
182,192,129498,1,0,0:0:0:0:
329,192,129498,1,0,0:0:0:0:
109,192,129498,1,0,0:0:0:0:
256,192,129581,1,0,0:0:0:0:
402,192,129581,1,0,0:0:0:0:
475,192,129581,1,0,0:0:0:0:
36,192,129663,1,0,0:0:0:0:
109,192,129663,1,0,0:0:0:0:
182,192,129663,1,0,0:0:0:0:
329,192,129745,1,0,0:0:0:0:
402,192,129745,1,0,0:0:0:0:
475,192,129745,1,0,0:0:0:0:
256,192,129828,1,0,0:0:0:0:
182,192,129828,1,0,0:0:0:0:
109,192,129828,1,0,0:0:0:0:
