osu file format v14

[General]
AudioFilename: d.mp3
AudioLeadIn: 0
PreviewTime: -1
Countdown: 1
SampleSet: None
StackLeniency: 0.7
Mode: 3
LetterboxInBreaks: 0
SpecialStyle: 0
WidescreenStoryboard: 0

[Editor]
DistanceSpacing: 0.8
BeatDivisor: 4
GridSize: 16
TimelineZoom: 1.1

[Metadata]
Title:Pure Ruby
TitleUnicode:Pure Ruby
Artist:SHIKI
ArtistUnicode:SHIKI
Creator:Lazer
Version:LV. 11
Source:
Tags:
BeatmapID:1765390
BeatmapSetID:843845

[Difficulty]
HPDrainRate:7
CircleSize:7
OverallDifficulty:6
ApproachRate:5
SliderMultiplier:1.4
SliderTickRate:1

[Events]
//Background and Video events
0,0,"pureruby.png",0,0
//Break Periods
//Storyboard Layer 0 (Background)
//Storyboard Layer 1 (Fail)
//Storyboard Layer 2 (Pass)
//Storyboard Layer 3 (Foreground)
//Storyboard Sound Samples
Sample,1348,0,"bassin.wav",70
Sample,1348,0,"rex1.wav",70
Sample,1516,0,"rex2.wav",70
Sample,1516,0,"bassin.wav",70
Sample,1685,0,"bassin.wav",70
Sample,1685,0,"rex3.wav",70
Sample,1853,0,"rex4.wav",70
Sample,1853,0,"bassin.wav",70
Sample,1938,0,"rex5.wav",70
Sample,2022,0,"rex6.wav",70
Sample,2022,0,"bassin.wav",70
Sample,2106,0,"rex7.wav",70
Sample,2191,0,"rex8.wav",70
Sample,2191,0,"bassin.wav",70
Sample,2359,0,"bassin.wav",70
Sample,2359,0,"rex9.wav",70
Sample,2528,0,"rex10.wav",70
Sample,2528,0,"bassin.wav",70
Sample,2696,0,"bassin.wav",70
Sample,2696,0,"rex1.wav",70
Sample,2865,0,"rex2.wav",70
Sample,2865,0,"bassin.wav",70
Sample,3033,0,"bassin.wav",70
Sample,3033,0,"rex3.wav",70
Sample,3202,0,"rex4.wav",70
Sample,3202,0,"bassin.wav",70
Sample,3286,0,"rex5.wav",70
Sample,3370,0,"rex6.wav",70
Sample,3370,0,"bassin.wav",70
Sample,3455,0,"rex7.wav",70
Sample,3539,0,"rex8.wav",70
Sample,3539,0,"bassin.wav",70
Sample,3707,0,"bassin.wav",70
Sample,3707,0,"rex9.wav",70
Sample,3876,0,"rex10.wav",70
Sample,3876,0,"bassin.wav",70
Sample,4044,0,"bassin.wav",70
Sample,4044,0,"rex1.wav",70
Sample,4213,0,"rex2.wav",70
Sample,4213,0,"bassin.wav",70
Sample,4382,0,"bassin.wav",70
Sample,4382,0,"rex3.wav",70
Sample,4550,0,"rex4.wav",70
Sample,4550,0,"bassin.wav",70
Sample,4634,0,"rex5.wav",70
Sample,4719,0,"rex6.wav",70
Sample,4719,0,"bassin.wav",70
Sample,4803,0,"rex7.wav",70
Sample,4887,0,"rex8.wav",70
Sample,4887,0,"bassin.wav",70
Sample,5056,0,"bassin.wav",70
Sample,5056,0,"rex9.wav",70
Sample,5224,0,"rex10.wav",70
Sample,5224,0,"bassin.wav",70
Sample,6741,0,"inseq1.wav",70
Sample,6741,0,"kick1.wav",70
Sample,6741,0,"inpad.wav",70
Sample,6741,0,"hat.wav",70
Sample,6741,0,"pi2a.wav",70
Sample,6741,0,"rex.wav",70
Sample,6741,0,"bassd.wav",70
Sample,6741,0,"pi3d.wav",70
Sample,6910,0,"sn.wav",70
Sample,7078,0,"kick1.wav",70
Sample,7078,0,"bassd.wav",70
Sample,7078,0,"inseq1.wav",70
Sample,7078,0,"hat.wav",70
Sample,7247,0,"sn.wav",70
Sample,7415,0,"hat.wav",70
Sample,7415,0,"bassd.wav",70
Sample,7415,0,"kick1.wav",70
Sample,7415,0,"inseq1.wav",70
Sample,7584,0,"sn.wav",70
Sample,7752,0,"kick1.wav",70
Sample,7752,0,"bassd.wav",70
Sample,7752,0,"hat.wav",70
Sample,7752,0,"inseq1.wav",70
Sample,7921,0,"sn.wav",70
Sample,8089,0,"bassd.wav",70
Sample,8089,0,"rex.wav",70
Sample,8089,0,"kick1.wav",70
Sample,8089,0,"hat.wav",70
Sample,8089,0,"inseq1.wav",70
Sample,8258,0,"sn.wav",70
Sample,8426,0,"hat.wav",70
Sample,8426,0,"inseq1.wav",70
Sample,8426,0,"bassd.wav",70
Sample,8426,0,"kick1.wav",70
Sample,8595,0,"sn.wav",70
Sample,8764,0,"bassd.wav",70
Sample,8764,0,"kick1.wav",70
Sample,8764,0,"hat.wav",70
Sample,8764,0,"inseq1.wav",70
Sample,8932,0,"sn.wav",70
Sample,9101,0,"kick1.wav",70
Sample,9101,0,"inseq1.wav",70
Sample,9101,0,"hat.wav",70
Sample,9101,0,"bassd.wav",70
Sample,9269,0,"sn.wav",70
Sample,9438,0,"hat.wav",70
Sample,9438,0,"inseq2.wav",70
Sample,9438,0,"kick1.wav",70
Sample,9438,0,"bass#a.wav",70
Sample,9438,0,"rex.wav",70
Sample,9438,0,"pi2a.wav",70
Sample,9438,0,"pi3d.wav",70
Sample,9606,0,"sn.wav",70
Sample,9775,0,"kick1.wav",70
Sample,9775,0,"inseq2.wav",70
Sample,9775,0,"bass#a.wav",70
Sample,9775,0,"hat.wav",70
Sample,9943,0,"sn.wav",70
Sample,10112,0,"inseq2.wav",70
Sample,10112,0,"bass#a.wav",70
Sample,10112,0,"kick1.wav",70
Sample,10112,0,"hat.wav",70
Sample,10280,0,"sn.wav",70
Sample,10449,0,"kick1.wav",70
Sample,10449,0,"bass#a.wav",70
Sample,10449,0,"hat.wav",70
Sample,10449,0,"inseq2.wav",70
Sample,10617,0,"sn.wav",70
Sample,10786,0,"bass#a.wav",70
Sample,10786,0,"rex.wav",70
Sample,10786,0,"kick1.wav",70
Sample,10786,0,"hat.wav",70
Sample,10786,0,"inseq2.wav",70
Sample,10955,0,"sn.wav",70
Sample,11123,0,"bass#a.wav",70
Sample,11123,0,"inseq2.wav",70
Sample,11123,0,"hat.wav",70
Sample,11123,0,"kick1.wav",70
Sample,11292,0,"sn.wav",70
Sample,11460,0,"bass#a.wav",70
Sample,11460,0,"kick1.wav",70
Sample,11460,0,"hat.wav",70
Sample,11460,0,"inseq2.wav",70
Sample,11629,0,"sn.wav",70
Sample,11797,0,"kick1.wav",70
Sample,11797,0,"inseq2.wav",70
Sample,11797,0,"hat.wav",70
Sample,11797,0,"bass#a.wav",70
Sample,11966,0,"sn.wav",70
Sample,12134,0,"hat.wav",70
Sample,12134,0,"inseq3.wav",70
Sample,12134,0,"kick1.wav",70
Sample,12134,0,"bassc.wav",70
Sample,12134,0,"rex.wav",70
Sample,12134,0,"pi3c.wav",70
Sample,12134,0,"pi2g.wav",70
Sample,12303,0,"sn.wav",70
Sample,12471,0,"hat.wav",70
Sample,12471,0,"kick1.wav",70
Sample,12471,0,"inseq3.wav",70
Sample,12471,0,"bassc.wav",70
Sample,12640,0,"sn.wav",70
Sample,12808,0,"inseq3.wav",70
Sample,12808,0,"bassc.wav",70
Sample,12808,0,"hat.wav",70
Sample,12808,0,"kick1.wav",70
Sample,12977,0,"sn.wav",70
Sample,13146,0,"bassc.wav",70
Sample,13146,0,"hat.wav",70
Sample,13146,0,"kick1.wav",70
Sample,13146,0,"inseq3.wav",70
Sample,13314,0,"sn.wav",70
Sample,13483,0,"kick1.wav",70
Sample,13483,0,"pi3g.wav",70
Sample,13483,0,"inseq3.wav",70
Sample,13483,0,"hat.wav",70
Sample,13483,0,"pi3e.wav",70
Sample,13483,0,"rex.wav",70
Sample,13483,0,"bassc.wav",70
Sample,13651,0,"sn.wav",70
Sample,13820,0,"inseq3.wav",70
Sample,13820,0,"bassc.wav",70
Sample,13820,0,"kick1.wav",70
Sample,13820,0,"hat.wav",70
Sample,13988,0,"pi3e.wav",70
Sample,13988,0,"sn.wav",70
Sample,13988,0,"pi3g.wav",70
Sample,14157,0,"bassc.wav",70
Sample,14157,0,"kick1.wav",70
Sample,14157,0,"hat.wav",70
Sample,14157,0,"inseq3.wav",70
Sample,14325,0,"sn.wav",70
Sample,14494,0,"inseq3.wav",70
Sample,14494,0,"hat.wav",70
Sample,14494,0,"pi3e.wav",70
Sample,14494,0,"kick1.wav",70
Sample,14494,0,"bassc.wav",70
Sample,14494,0,"pi3c.wav",70
Sample,14662,0,"sn.wav",70
Sample,14831,0,"hat.wav",70
Sample,14831,0,"inseq4.wav",70
Sample,14831,0,"kick1.wav",70
Sample,14831,0,"bassf.wav",70
Sample,14831,0,"rex.wav",70
Sample,14831,0,"pif.wav",70
Sample,14831,0,"pi3c.wav",70
Sample,15000,0,"sn.wav",70
Sample,15168,0,"bassf.wav",70
Sample,15168,0,"hat.wav",70
Sample,15168,0,"kick1.wav",70
Sample,15168,0,"inseq4.wav",70
Sample,15337,0,"sn.wav",70
Sample,15505,0,"inseq4.wav",70
Sample,15505,0,"bassf.wav",70
Sample,15505,0,"kick1.wav",70
Sample,15505,0,"hat.wav",70
Sample,15674,0,"sn.wav",70
Sample,15842,0,"kick1.wav",70
Sample,15842,0,"bassf.wav",70
Sample,15842,0,"hat.wav",70
Sample,15842,0,"inseq4.wav",70
Sample,16011,0,"sn.wav",70
Sample,16179,0,"kick1.wav",70
Sample,16179,0,"pia.wav",70
Sample,16179,0,"inseq5.wav",70
Sample,16179,0,"hat.wav",70
Sample,16179,0,"pi3#c.wav",70
Sample,16179,0,"rex.wav",70
Sample,16179,0,"bassa.wav",70
Sample,16179,0,"pi3e.wav",70
Sample,16348,0,"sn.wav",70
Sample,16516,0,"hat.wav",70
Sample,16516,0,"kick1.wav",70
Sample,16516,0,"inseq5.wav",70
Sample,16516,0,"bassa.wav",70
Sample,16685,0,"sn.wav",70
Sample,16853,0,"kick1.wav",70
Sample,16853,0,"inseq5.wav",70
Sample,16853,0,"bassa.wav",70
Sample,16853,0,"hat.wav",70
Sample,17022,0,"sn.wav",70
Sample,17191,0,"hat.wav",70
Sample,17191,0,"kick1.wav",70
Sample,17191,0,"bassa.wav",70
Sample,17191,0,"inseq5.wav",70
Sample,17359,0,"sn.wav",70
Sample,17528,0,"se2.wav",70
Sample,20224,0,"bass#a.wav",70
Sample,20224,0,"se1.wav",70
Sample,20224,0,"rrex.wav",70
Sample,20224,0,"hat.wav",70
Sample,20224,0,"main1.wav",70
Sample,20393,0,"sn.wav",70
Sample,20561,0,"hat.wav",70
Sample,20561,0,"bass#a.wav",70
Sample,20561,0,"clap.wav",70
Sample,20730,0,"sn.wav",70
Sample,20898,0,"hat.wav",70
Sample,20898,0,"bass#a.wav",70
Sample,21067,0,"sn.wav",70
Sample,21235,0,"hat.wav",70
Sample,21235,0,"bass#a.wav",70
Sample,21235,0,"clap.wav",70
Sample,21404,0,"sn.wav",70
Sample,21573,0,"bass#a.wav",70
Sample,21573,0,"hat.wav",70
Sample,21573,0,"rrex.wav",70
Sample,21741,0,"sn.wav",70
Sample,21910,0,"hat.wav",70
Sample,21910,0,"clap.wav",70
Sample,21910,0,"bass#a.wav",70
Sample,22078,0,"sn.wav",70
Sample,22247,0,"bass#a.wav",70
Sample,22247,0,"hat.wav",70
Sample,22415,0,"sn.wav",70
Sample,22584,0,"hat.wav",70
Sample,22584,0,"clap.wav",70
Sample,22584,0,"bass#a.wav",70
Sample,22752,0,"sn.wav",70
Sample,22921,0,"hat.wav",70
Sample,22921,0,"bassc.wav",70
Sample,22921,0,"rrex.wav",70
Sample,23089,0,"sn.wav",70
Sample,23258,0,"clap.wav",70
Sample,23258,0,"hat.wav",70
Sample,23258,0,"bassc.wav",70
Sample,23426,0,"sn.wav",70
Sample,23595,0,"hat.wav",70
Sample,23595,0,"bassc.wav",70
Sample,23764,0,"sn.wav",70
Sample,23932,0,"clap.wav",70
Sample,23932,0,"hat.wav",70
Sample,23932,0,"bassc.wav",70
Sample,24101,0,"sn.wav",70
Sample,24269,0,"rrex.wav",70
Sample,24269,0,"hat.wav",70
Sample,24269,0,"bass#a.wav",70
Sample,24438,0,"sn.wav",70
Sample,24606,0,"bass#a.wav",70
Sample,24606,0,"clap.wav",70
Sample,24606,0,"hat.wav",70
Sample,24775,0,"sn.wav",70
Sample,24943,0,"hat.wav",70
Sample,24943,0,"bass#a.wav",70
Sample,25112,0,"sn.wav",70
Sample,25280,0,"hat.wav",70
Sample,25280,0,"bass#a.wav",70
Sample,25280,0,"clap.wav",70
Sample,25449,0,"sn.wav",70
Sample,25617,0,"hat.wav",70
Sample,25617,0,"bassa.wav",70
Sample,25617,0,"rrex.wav",70
Sample,25786,0,"sn.wav",70
Sample,25955,0,"clap.wav",70
Sample,25955,0,"hat.wav",70
Sample,25955,0,"bassa.wav",70
Sample,26123,0,"sn.wav",70
Sample,26292,0,"hat.wav",70
Sample,26292,0,"bassa.wav",70
Sample,26460,0,"sn.wav",70
Sample,26629,0,"clap.wav",70
Sample,26629,0,"hat.wav",70
Sample,26629,0,"bassa.wav",70
Sample,26797,0,"sn.wav",70
Sample,26966,0,"rrex.wav",70
Sample,26966,0,"hat.wav",70
Sample,26966,0,"bass#c.wav",70
Sample,27134,0,"sn.wav",70
Sample,27303,0,"bass#c.wav",70
Sample,27303,0,"clap.wav",70
Sample,27303,0,"hat.wav",70
Sample,27471,0,"sn.wav",70
Sample,27640,0,"hat.wav",70
Sample,27640,0,"bass#c.wav",70
Sample,27808,0,"sn.wav",70
Sample,27977,0,"hat.wav",70
Sample,27977,0,"bass#c.wav",70
Sample,27977,0,"clap.wav",70
Sample,28146,0,"sn.wav",70
Sample,28314,0,"hat.wav",70
Sample,28314,0,"bassd.wav",70
Sample,28314,0,"rrex.wav",70
Sample,28483,0,"sn.wav",70
Sample,28651,0,"clap.wav",70
Sample,28651,0,"hat.wav",70
Sample,28651,0,"bassd.wav",70
Sample,28820,0,"sn.wav",70
Sample,28988,0,"hat.wav",70
Sample,28988,0,"bassd.wav",70
Sample,29157,0,"sn.wav",70
Sample,29325,0,"clap.wav",70
Sample,29325,0,"hat.wav",70
Sample,29325,0,"bassd.wav",70
Sample,29494,0,"sn.wav",70
Sample,29662,0,"rrex.wav",70
Sample,29662,0,"hat.wav",70
Sample,29662,0,"bassc2.wav",70
Sample,29831,0,"sn.wav",70
Sample,30000,0,"bassc2.wav",70
Sample,30000,0,"clap.wav",70
Sample,30000,0,"hat.wav",70
Sample,30168,0,"sn.wav",70
Sample,30337,0,"hat.wav",70
Sample,30337,0,"bassc2.wav",70
Sample,30505,0,"sn.wav",70
Sample,30674,0,"clap.wav",70
Sample,30674,0,"bassc2.wav",70
Sample,30674,0,"hat.wav",70
Sample,30842,0,"sn.wav",70
Sample,31011,0,"bass#a.wav",70
Sample,31011,0,"main1.wav",70
Sample,31011,0,"rrex.wav",70
Sample,31011,0,"hat.wav",70
Sample,31179,0,"sn.wav",70
Sample,31348,0,"bass#a.wav",70
Sample,31348,0,"hat.wav",70
Sample,31348,0,"clap.wav",70
Sample,31516,0,"sn.wav",70
Sample,31685,0,"hat.wav",70
Sample,31685,0,"bass#a.wav",70
Sample,31853,0,"sn.wav",70
Sample,32022,0,"hat.wav",70
Sample,32022,0,"clap.wav",70
Sample,32022,0,"bass#a.wav",70
Sample,32191,0,"sn.wav",70
Sample,32359,0,"hat.wav",70
Sample,32359,0,"rrex.wav",70
Sample,32359,0,"bass#a.wav",70
Sample,32528,0,"sn.wav",70
Sample,32696,0,"hat.wav",70
Sample,32696,0,"bass#a.wav",70
Sample,32696,0,"clap.wav",70
Sample,32865,0,"sn.wav",70
Sample,33033,0,"bass#a.wav",70
Sample,33033,0,"hat.wav",70
Sample,33202,0,"sn.wav",70
Sample,33370,0,"bass#a.wav",70
Sample,33370,0,"hat.wav",70
Sample,33539,0,"sn.wav",70
Sample,33707,0,"hat.wav",70
Sample,33707,0,"bassc.wav",70
Sample,33707,0,"rrex.wav",70
Sample,33876,0,"sn.wav",70
Sample,34044,0,"clap.wav",70
Sample,34044,0,"hat.wav",70
Sample,34044,0,"bassc.wav",70
Sample,34213,0,"sn.wav",70
Sample,34382,0,"hat.wav",70
Sample,34382,0,"bassc.wav",70
Sample,34550,0,"sn.wav",70
Sample,34719,0,"clap.wav",70
Sample,34719,0,"hat.wav",70
Sample,34719,0,"bassc.wav",70
Sample,34887,0,"sn.wav",70
Sample,35056,0,"rrex.wav",70
Sample,35056,0,"hat.wav",70
Sample,35056,0,"bass#a.wav",70
Sample,35224,0,"sn.wav",70
Sample,35393,0,"bass#a.wav",70
Sample,35393,0,"hat.wav",70
Sample,35393,0,"clap.wav",70
Sample,35561,0,"sn.wav",70
Sample,35730,0,"hat.wav",70
Sample,35730,0,"bass#a.wav",70
Sample,35898,0,"sn.wav",70
Sample,36067,0,"clap.wav",70
Sample,36067,0,"bass#a.wav",70
Sample,36067,0,"hat.wav",70
Sample,36235,0,"sn.wav",70
Sample,36404,0,"hat.wav",70
Sample,36404,0,"bassa.wav",70
Sample,36404,0,"rrex.wav",70
Sample,36573,0,"sn.wav",70
Sample,36741,0,"hat.wav",70
Sample,36741,0,"clap.wav",70
Sample,36741,0,"bassa.wav",70
Sample,36910,0,"sn.wav",70
Sample,37078,0,"hat.wav",70
Sample,37078,0,"bassa.wav",70
Sample,37247,0,"sn.wav",70
Sample,37415,0,"hat.wav",70
Sample,37415,0,"clap.wav",70
Sample,37415,0,"bassa.wav",70
Sample,37584,0,"sn.wav",70
Sample,37752,0,"rrex.wav",70
Sample,37752,0,"hat.wav",70
Sample,37752,0,"bass#c.wav",70
Sample,37921,0,"sn.wav",70
Sample,38089,0,"bass#c.wav",70
Sample,38089,0,"hat.wav",70
Sample,38089,0,"clap.wav",70
Sample,38258,0,"sn.wav",70
Sample,38426,0,"hat.wav",70
Sample,38426,0,"bass#c.wav",70
Sample,38595,0,"sn.wav",70
Sample,38764,0,"clap.wav",70
Sample,38764,0,"bass#c.wav",70
Sample,38764,0,"hat.wav",70
Sample,38932,0,"sn.wav",70
Sample,39101,0,"hat.wav",70
Sample,39101,0,"bassd.wav",70
Sample,39101,0,"rrex.wav",70
Sample,39269,0,"sn.wav",70
Sample,39438,0,"hat.wav",70
Sample,39438,0,"clap.wav",70
Sample,39438,0,"bassd.wav",70
Sample,39606,0,"sn.wav",70
Sample,39775,0,"hat.wav",70
Sample,39775,0,"bassd.wav",70
Sample,39943,0,"sn.wav",70
Sample,40112,0,"hat.wav",70
Sample,40112,0,"clap.wav",70
Sample,40112,0,"bassd.wav",70
Sample,40280,0,"sn.wav",70
Sample,40449,0,"rrex.wav",70
Sample,40449,0,"hat.wav",70
Sample,40449,0,"bassc2.wav",70
Sample,40617,0,"sn.wav",70
Sample,40786,0,"bassc2.wav",70
Sample,40786,0,"hat.wav",70
Sample,40786,0,"clap.wav",70
Sample,40955,0,"sn.wav",70
Sample,41123,0,"hat.wav",70
Sample,41123,0,"bassc2.wav",70
Sample,41292,0,"sn.wav",70
Sample,41460,0,"hat.wav",70
Sample,41460,0,"bassc2.wav",70
Sample,41460,0,"clap.wav",70
Sample,41629,0,"sn.wav",70
Sample,41797,0,"bass#a.wav",70
Sample,41797,0,"main1.wav",70
Sample,41797,0,"rrex.wav",70
Sample,41797,0,"hat.wav",70
Sample,41966,0,"sn.wav",70
Sample,42134,0,"clap.wav",70
Sample,42134,0,"bass#a.wav",70
Sample,42134,0,"hat.wav",70
Sample,42303,0,"sn.wav",70
Sample,42471,0,"bass#a.wav",70
Sample,42471,0,"hat.wav",70
Sample,42640,0,"sn.wav",70
Sample,42808,0,"bass#a.wav",70
Sample,42808,0,"hat.wav",70
Sample,42808,0,"clap.wav",70
Sample,42977,0,"sn.wav",70
Sample,43146,0,"hat.wav",70
Sample,43146,0,"bass#a.wav",70
Sample,43146,0,"rrex.wav",70
Sample,43314,0,"sn.wav",70
Sample,43483,0,"hat.wav",70
Sample,43483,0,"clap.wav",70
Sample,43483,0,"bass#a.wav",70
Sample,43651,0,"sn.wav",70
Sample,43820,0,"bass#a.wav",70
Sample,43820,0,"hat.wav",70
Sample,43988,0,"sn.wav",70
Sample,44157,0,"bass#a.wav",70
Sample,44157,0,"hat.wav",70
Sample,44157,0,"clap.wav",70
Sample,44325,0,"sn.wav",70
Sample,44494,0,"rrex.wav",70
Sample,44494,0,"hat.wav",70
Sample,44494,0,"bassc.wav",70
Sample,44662,0,"sn.wav",70
Sample,44831,0,"bassc.wav",70
Sample,44831,0,"hat.wav",70
Sample,44831,0,"clap.wav",70
Sample,45000,0,"sn.wav",70
Sample,45168,0,"bassc.wav",70
Sample,45168,0,"hat.wav",70
Sample,45337,0,"sn.wav",70
Sample,45505,0,"hat.wav",70
Sample,45505,0,"clap.wav",70
Sample,45505,0,"bassc.wav",70
Sample,45674,0,"sn.wav",70
Sample,45842,0,"hat.wav",70
Sample,45842,0,"bass#a.wav",70
Sample,45842,0,"rrex.wav",70
Sample,46011,0,"sn.wav",70
Sample,46179,0,"hat.wav",70
Sample,46179,0,"clap.wav",70
Sample,46179,0,"bass#a.wav",70
Sample,46348,0,"sn.wav",70
Sample,46516,0,"bass#a.wav",70
Sample,46516,0,"hat.wav",70
Sample,46685,0,"sn.wav",70
Sample,46853,0,"bass#a.wav",70
Sample,46853,0,"hat.wav",70
Sample,46853,0,"clap.wav",70
Sample,47022,0,"sn.wav",70
Sample,47191,0,"rrex.wav",70
Sample,47191,0,"hat.wav",70
Sample,47191,0,"bassa.wav",70
Sample,47359,0,"sn.wav",70
Sample,47528,0,"bassa.wav",70
Sample,47528,0,"hat.wav",70
Sample,47528,0,"clap.wav",70
Sample,47696,0,"sn.wav",70
Sample,47865,0,"bassa.wav",70
Sample,47865,0,"hat.wav",70
Sample,48033,0,"sn.wav",70
Sample,48202,0,"hat.wav",70
Sample,48202,0,"clap.wav",70
Sample,48202,0,"bassa.wav",70
Sample,48370,0,"sn.wav",70
Sample,48539,0,"hat.wav",70
Sample,48539,0,"bass#c.wav",70
Sample,48539,0,"rrex.wav",70
Sample,48707,0,"sn.wav",70
Sample,48876,0,"hat.wav",70
Sample,48876,0,"clap.wav",70
Sample,48876,0,"bass#c.wav",70
Sample,49044,0,"sn.wav",70
Sample,49213,0,"bass#c.wav",70
Sample,49213,0,"hat.wav",70
Sample,49382,0,"sn.wav",70
Sample,49550,0,"bass#c.wav",70
Sample,49550,0,"hat.wav",70
Sample,49550,0,"clap.wav",70
Sample,49719,0,"sn.wav",70
Sample,49887,0,"rrex.wav",70
Sample,49887,0,"kick1.wav",70
Sample,49887,0,"hat.wav",70
Sample,49887,0,"bassd.wav",70
Sample,50056,0,"sn.wav",70
Sample,50224,0,"bassd.wav",70
Sample,50224,0,"kick1.wav",70
Sample,50224,0,"hat.wav",70
Sample,50224,0,"clap.wav",70
Sample,50393,0,"sn.wav",70
Sample,50561,0,"hat.wav",70
Sample,50561,0,"bassd.wav",70
Sample,50561,0,"kick1.wav",70
Sample,50730,0,"sn.wav",70
Sample,50898,0,"kick1.wav",70
Sample,50898,0,"clap.wav",70
Sample,50898,0,"bassd.wav",70
Sample,50898,0,"hat.wav",70
Sample,51067,0,"sn.wav",70
Sample,51235,0,"rrex.wav",70
Sample,51235,0,"kick1.wav",70
Sample,51235,0,"hat.wav",70
Sample,51235,0,"bassc2.wav",70
Sample,51404,0,"sn.wav",70
Sample,51488,0,"sn.wav",70
Sample,51573,0,"bassc2.wav",70
Sample,51573,0,"hat.wav",70
Sample,51573,0,"kick1.wav",70
Sample,51573,0,"clap.wav",70
Sample,51741,0,"sn.wav",70
Sample,51825,0,"sn.wav",70
Sample,51910,0,"bassc2.wav",70
Sample,51910,0,"hat.wav",70
Sample,51910,0,"kick1.wav",70
Sample,52078,0,"sn.wav",70
Sample,52162,0,"sn.wav",70
Sample,52247,0,"bassc2.wav",70
Sample,52247,0,"clap.wav",70
Sample,52247,0,"hat.wav",70
Sample,52247,0,"sn.wav",70
Sample,52247,0,"kick2.wav",70
Sample,52289,0,"kick2.wav",70
Sample,52331,0,"kick2.wav",70
Sample,52331,0,"sn.wav",70
Sample,52373,0,"kick2.wav",70
Sample,52415,0,"sn.wav",70
Sample,52415,0,"kick2.wav",70
Sample,52457,0,"kick2.wav",70
Sample,52500,0,"kick2.wav",70
Sample,52500,0,"sn.wav",70
Sample,52542,0,"kick2.wav",70
Sample,52584,0,"bass#a.wav",70
Sample,52584,0,"main1.wav",70
Sample,52584,0,"hat.wav",70
Sample,52584,0,"rrex.wav",70
Sample,52584,0,"kick1.wav",70
Sample,52752,0,"sn.wav",70
Sample,52921,0,"clap.wav",70
Sample,52921,0,"hat.wav",70
Sample,52921,0,"bass#a.wav",70
Sample,52921,0,"kick1.wav",70
Sample,53089,0,"sn.wav",70
Sample,53258,0,"bass#a.wav",70
Sample,53258,0,"hat.wav",70
Sample,53258,0,"kick1.wav",70
Sample,53426,0,"sn.wav",70
Sample,53595,0,"kick1.wav",70
Sample,53595,0,"clap.wav",70
Sample,53595,0,"hat.wav",70
Sample,53595,0,"bass#a.wav",70
Sample,53764,0,"sn.wav",70
Sample,53932,0,"hat.wav",70
Sample,53932,0,"bass#a.wav",70
Sample,53932,0,"rrex.wav",70
Sample,53932,0,"kick1.wav",70
Sample,54101,0,"sn.wav",70
Sample,54269,0,"hat.wav",70
Sample,54269,0,"clap.wav",70
Sample,54269,0,"bass#a.wav",70
Sample,54269,0,"kick1.wav",70
Sample,54438,0,"sn.wav",70
Sample,54606,0,"bass#a.wav",70
Sample,54606,0,"hat.wav",70
Sample,54606,0,"kick1.wav",70
Sample,54775,0,"sn.wav",70
Sample,54943,0,"bass#a.wav",70
Sample,54943,0,"kick1.wav",70
Sample,54943,0,"hat.wav",70
Sample,54943,0,"clap.wav",70
Sample,55112,0,"sn.wav",70
Sample,55280,0,"rrex.wav",70
Sample,55280,0,"kick1.wav",70
Sample,55280,0,"hat.wav",70
Sample,55280,0,"bassc.wav",70
Sample,55449,0,"sn.wav",70
Sample,55617,0,"bassc.wav",70
Sample,55617,0,"kick1.wav",70
Sample,55617,0,"hat.wav",70
Sample,55617,0,"clap.wav",70
Sample,55786,0,"sn.wav",70
Sample,55955,0,"kick1.wav",70
Sample,55955,0,"bassc.wav",70
Sample,55955,0,"hat.wav",70
Sample,56123,0,"sn.wav",70
Sample,56292,0,"hat.wav",70
Sample,56292,0,"clap.wav",70
Sample,56292,0,"bassc.wav",70
Sample,56292,0,"kick1.wav",70
Sample,56460,0,"sn.wav",70
Sample,56629,0,"hat.wav",70
Sample,56629,0,"bass#a.wav",70
Sample,56629,0,"rrex.wav",70
Sample,56629,0,"kick1.wav",70
Sample,56797,0,"sn.wav",70
Sample,56966,0,"hat.wav",70
Sample,56966,0,"clap.wav",70
Sample,56966,0,"bass#a.wav",70
Sample,56966,0,"kick1.wav",70
Sample,57134,0,"sn.wav",70
Sample,57303,0,"bass#a.wav",70
Sample,57303,0,"hat.wav",70
Sample,57303,0,"kick1.wav",70
Sample,57471,0,"sn.wav",70
Sample,57640,0,"bass#a.wav",70
Sample,57640,0,"kick1.wav",70
Sample,57640,0,"hat.wav",70
Sample,57640,0,"clap.wav",70
Sample,57808,0,"sn.wav",70
Sample,57977,0,"kick1.wav",70
Sample,57977,0,"pi4e.wav",70
Sample,57977,0,"hat.wav",70
Sample,57977,0,"pi4c.wav",70
Sample,57977,0,"pi4g.wav",70
Sample,57977,0,"rrex.wav",70
Sample,57977,0,"bassa.wav",70
Sample,58146,0,"sn.wav",70
Sample,58314,0,"bassa.wav",70
Sample,58314,0,"kick1.wav",70
Sample,58314,0,"hat.wav",70
Sample,58314,0,"clap.wav",70
Sample,58483,0,"sn.wav",70
Sample,58651,0,"kick1.wav",70
Sample,58651,0,"hat.wav",70
Sample,58651,0,"bassa.wav",70
Sample,58820,0,"sn.wav",70
Sample,58988,0,"clap.wav",70
Sample,58988,0,"hat.wav",70
Sample,58988,0,"kick1.wav",70
Sample,58988,0,"bassa.wav",70
Sample,59157,0,"sn.wav",70
Sample,59325,0,"rrex.wav",70
Sample,59325,0,"kick1.wav",70
Sample,59325,0,"hat.wav",70
Sample,59325,0,"bass#c.wav",70
Sample,59325,0,"pi4#c.wav",70
Sample,59494,0,"sn.wav",70
Sample,59662,0,"bass#c.wav",70
Sample,59662,0,"kick1.wav",70
Sample,59662,0,"clap.wav",70
Sample,59662,0,"hat.wav",70
Sample,59831,0,"sn.wav",70
Sample,60000,0,"hat.wav",70
Sample,60000,0,"pi4g.wav",70
Sample,60000,0,"bass#c.wav",70
Sample,60000,0,"kick1.wav",70
Sample,60168,0,"sn.wav",70
Sample,60337,0,"hat.wav",70
Sample,60337,0,"bass#c.wav",70
Sample,60337,0,"kick1.wav",70
Sample,60337,0,"clap.wav",70
Sample,60337,0,"pi4e.wav",70
Sample,60505,0,"sn.wav",70
Sample,60674,0,"rrex.wav",70
Sample,60674,0,"kick1.wav",70
Sample,60674,0,"hat.wav",70
Sample,60674,0,"bassd.wav",70
Sample,60674,0,"pi4f.wav",70
Sample,60842,0,"sn.wav",70
Sample,61011,0,"bassd.wav",70
Sample,61011,0,"hat.wav",70
Sample,61011,0,"clap.wav",70
Sample,61011,0,"kick1.wav",70
Sample,61179,0,"sn.wav",70
Sample,61348,0,"kick1.wav",70
Sample,61348,0,"hat.wav",70
Sample,61348,0,"bassd.wav",70
Sample,61516,0,"sn.wav",70
Sample,61685,0,"clap.wav",70
Sample,61685,0,"kick1.wav",70
Sample,61685,0,"hat.wav",70
Sample,61685,0,"bassd.wav",70
Sample,61853,0,"sn.wav",70
Sample,62022,0,"rrex.wav",70
Sample,62022,0,"kick1.wav",70
Sample,62022,0,"hat.wav",70
Sample,62022,0,"bassc2.wav",70
Sample,62022,0,"pi4a.wav",70
Sample,62191,0,"sn.wav",70
Sample,62359,0,"bassc2.wav",70
Sample,62359,0,"hat.wav",70
Sample,62359,0,"clap.wav",70
Sample,62359,0,"kick1.wav",70
Sample,62528,0,"sn.wav",70
Sample,62696,0,"hat.wav",70
Sample,62696,0,"pi4c.wav",70
Sample,62696,0,"bassc2.wav",70
Sample,62696,0,"kick1.wav",70
Sample,62865,0,"sn.wav",70
Sample,63033,0,"kick1.wav",70
Sample,63033,0,"bassc2.wav",70
Sample,63033,0,"hat.wav",70
Sample,63033,0,"clap.wav",70
Sample,63202,0,"sn.wav",70
Sample,63370,0,"bass#a.wav",70
Sample,63370,0,"main1.wav",70
Sample,63370,0,"hat.wav",70
Sample,63370,0,"rrex.wav",70
Sample,63370,0,"kick1.wav",70
Sample,63539,0,"sn.wav",70
Sample,63707,0,"kick1.wav",70
Sample,63707,0,"clap.wav",70
Sample,63707,0,"bass#a.wav",70
Sample,63707,0,"hat.wav",70
Sample,63876,0,"sn.wav",70
Sample,64044,0,"kick1.wav",70
Sample,64044,0,"bass#a.wav",70
Sample,64044,0,"hat.wav",70
Sample,64213,0,"sn.wav",70
Sample,64382,0,"hat.wav",70
Sample,64382,0,"kick1.wav",70
Sample,64382,0,"clap.wav",70
Sample,64382,0,"bass#a.wav",70
Sample,64550,0,"sn.wav",70
Sample,64719,0,"hat.wav",70
Sample,64719,0,"bass#a.wav",70
Sample,64719,0,"rrex.wav",70
Sample,64719,0,"kick1.wav",70
Sample,64887,0,"sn.wav",70
Sample,65056,0,"kick1.wav",70
Sample,65056,0,"clap.wav",70
Sample,65056,0,"bass#a.wav",70
Sample,65056,0,"hat.wav",70
Sample,65224,0,"sn.wav",70
Sample,65393,0,"bass#a.wav",70
Sample,65393,0,"kick1.wav",70
Sample,65393,0,"hat.wav",70
Sample,65561,0,"sn.wav",70
Sample,65730,0,"bass#a.wav",70
Sample,65730,0,"hat.wav",70
Sample,65730,0,"kick1.wav",70
Sample,65730,0,"clap.wav",70
Sample,65898,0,"sn.wav",70
Sample,66067,0,"rrex.wav",70
Sample,66067,0,"kick1.wav",70
Sample,66067,0,"hat.wav",70
Sample,66067,0,"bassc.wav",70
Sample,66235,0,"sn.wav",70
Sample,66404,0,"bassc.wav",70
Sample,66404,0,"hat.wav",70
Sample,66404,0,"kick1.wav",70
Sample,66404,0,"clap.wav",70
Sample,66573,0,"sn.wav",70
Sample,66741,0,"hat.wav",70
Sample,66741,0,"kick1.wav",70
Sample,66741,0,"bassc.wav",70
Sample,66910,0,"sn.wav",70
Sample,67078,0,"bassc.wav",70
Sample,67078,0,"clap.wav",70
Sample,67078,0,"kick1.wav",70
Sample,67078,0,"hat.wav",70
Sample,67247,0,"sn.wav",70
Sample,67415,0,"hat.wav",70
Sample,67415,0,"bass#a.wav",70
Sample,67415,0,"rrex.wav",70
Sample,67415,0,"kick1.wav",70
Sample,67584,0,"sn.wav",70
Sample,67752,0,"kick1.wav",70
Sample,67752,0,"clap.wav",70
Sample,67752,0,"bass#a.wav",70
Sample,67752,0,"hat.wav",70
Sample,67921,0,"sn.wav",70
Sample,68089,0,"kick1.wav",70
Sample,68089,0,"bass#a.wav",70
Sample,68089,0,"hat.wav",70
Sample,68258,0,"sn.wav",70
Sample,68426,0,"kick1.wav",70
Sample,68426,0,"hat.wav",70
Sample,68426,0,"bass#a.wav",70
Sample,68426,0,"clap.wav",70
Sample,68595,0,"sn.wav",70
Sample,68764,0,"rrex.wav",70
Sample,68764,0,"kick1.wav",70
Sample,68764,0,"hat.wav",70
Sample,68764,0,"bassa.wav",70
Sample,68764,0,"pi4e.wav",70
Sample,68932,0,"sn.wav",70
Sample,69101,0,"bassa.wav",70
Sample,69101,0,"kick1.wav",70
Sample,69101,0,"clap.wav",70
Sample,69101,0,"hat.wav",70
Sample,69269,0,"sn.wav",70
Sample,69438,0,"bassa.wav",70
Sample,69438,0,"hat.wav",70
Sample,69438,0,"kick1.wav",70
Sample,69606,0,"sn.wav",70
Sample,69775,0,"clap.wav",70
Sample,69775,0,"bassa.wav",70
Sample,69775,0,"hat.wav",70
Sample,69775,0,"kick1.wav",70
Sample,69943,0,"sn.wav",70
Sample,70112,0,"rrex.wav",70
Sample,70112,0,"kick1.wav",70
Sample,70112,0,"hat.wav",70
Sample,70112,0,"bass#c.wav",70
Sample,70112,0,"pi4#c.wav",70
Sample,70280,0,"sn.wav",70
Sample,70449,0,"bass#c.wav",70
Sample,70449,0,"hat.wav",70
Sample,70449,0,"clap.wav",70
Sample,70449,0,"kick1.wav",70
Sample,70617,0,"sn.wav",70
Sample,70786,0,"hat.wav",70
Sample,70786,0,"pi4g.wav",70
Sample,70786,0,"kick1.wav",70
Sample,70786,0,"bass#c.wav",70
Sample,70955,0,"sn.wav",70
Sample,71123,0,"bass#c.wav",70
Sample,71123,0,"hat.wav",70
Sample,71123,0,"kick1.wav",70
Sample,71123,0,"clap.wav",70
Sample,71123,0,"pi4e.wav",70
Sample,71292,0,"sn.wav",70
Sample,71460,0,"rrex.wav",70
Sample,71460,0,"kick1.wav",70
Sample,71460,0,"hat.wav",70
Sample,71460,0,"bassd.wav",70
Sample,71460,0,"pi4f.wav",70
Sample,71629,0,"sn.wav",70
Sample,71797,0,"kick1.wav",70
Sample,71797,0,"hat.wav",70
Sample,71797,0,"clap.wav",70
Sample,71797,0,"bassd.wav",70
Sample,71966,0,"sn.wav",70
Sample,72134,0,"bassd.wav",70
Sample,72134,0,"hat.wav",70
Sample,72134,0,"kick1.wav",70
Sample,72303,0,"sn.wav",70
Sample,72471,0,"clap.wav",70
Sample,72471,0,"bassd.wav",70
Sample,72471,0,"kick1.wav",70
Sample,72471,0,"hat.wav",70
Sample,72640,0,"sn.wav",70
Sample,72808,0,"rrex.wav",70
Sample,72808,0,"kick1.wav",70
Sample,72808,0,"hat.wav",70
Sample,72808,0,"bassc2.wav",70
Sample,72808,0,"pi4a.wav",70
Sample,72977,0,"sn.wav",70
Sample,73146,0,"hat.wav",70
Sample,73146,0,"bassc2.wav",70
Sample,73146,0,"clap.wav",70
Sample,73146,0,"kick1.wav",70
Sample,73314,0,"sn.wav",70
Sample,73483,0,"kick1.wav",70
Sample,73483,0,"pi4c.wav",70
Sample,73483,0,"bassc2.wav",70
Sample,73483,0,"hat.wav",70
Sample,73651,0,"kick1.wav",70
Sample,73651,0,"sn.wav",70
Sample,73820,0,"hat.wav",70
Sample,73820,0,"clap.wav",70
Sample,73820,0,"bassc2.wav",70
Sample,73820,0,"kick2.wav",70
Sample,73862,0,"kick2.wav",70
Sample,73904,0,"kick2.wav",70
Sample,73946,0,"kick2.wav",70
Sample,73988,0,"kick2.wav",70
Sample,73988,0,"sn.wav",70
Sample,74030,0,"kick2.wav",70
Sample,74073,0,"kick2.wav",70
Sample,74115,0,"kick2.wav",70
Sample,74157,0,"se1.wav",70
Sample,74157,0,"bass#a2.wav",70
Sample,74157,0,"rex.wav",70
Sample,74157,0,"hat.wav",70
Sample,74157,0,"main2.wav",70
Sample,74494,0,"hat.wav",70
Sample,74494,0,"clap.wav",70
Sample,74494,0,"bass#a2.wav",70
Sample,74831,0,"hat.wav",70
Sample,74831,0,"bass#a2.wav",70
Sample,75168,0,"clap.wav",70
Sample,75168,0,"hat.wav",70
Sample,75168,0,"bass#a2.wav",70
Sample,75505,0,"rex.wav",70
Sample,75505,0,"hat.wav",70
Sample,75505,0,"bass#a2.wav",70
Sample,75842,0,"clap.wav",70
Sample,75842,0,"bass#a2.wav",70
Sample,75842,0,"hat.wav",70
Sample,76179,0,"hat.wav",70
Sample,76179,0,"bass#a2.wav",70
Sample,76516,0,"bass#a2.wav",70
Sample,76516,0,"clap.wav",70
Sample,76516,0,"hat.wav",70
Sample,76853,0,"hat.wav",70
Sample,76853,0,"bassc2.wav",70
Sample,76853,0,"rex.wav",70
Sample,77191,0,"hat.wav",70
Sample,77191,0,"clap.wav",70
Sample,77191,0,"bassc2.wav",70
Sample,77528,0,"hat.wav",70
Sample,77528,0,"bassc2.wav",70
Sample,77865,0,"clap.wav",70
Sample,77865,0,"hat.wav",70
Sample,77949,0,"bassc2.wav",70
Sample,78202,0,"rex.wav",70
Sample,78202,0,"hat.wav",70
Sample,78202,0,"bassc2.wav",70
Sample,78539,0,"clap.wav",70
Sample,78539,0,"bassc2.wav",70
Sample,78539,0,"hat.wav",70
Sample,78876,0,"hat.wav",70
Sample,78876,0,"bassc2.wav",70
Sample,79213,0,"bassc2.wav",70
Sample,79213,0,"clap.wav",70
Sample,79213,0,"hat.wav",70
Sample,79550,0,"hat.wav",70
Sample,79550,0,"bassa.wav",70
Sample,79550,0,"rex.wav",70
Sample,79887,0,"hat.wav",70
Sample,79887,0,"clap.wav",70
Sample,79887,0,"bassa.wav",70
Sample,80224,0,"hat.wav",70
Sample,80224,0,"bassa.wav",70
Sample,80561,0,"clap.wav",70
Sample,80561,0,"hat.wav",70
Sample,80561,0,"bassa.wav",70
Sample,80898,0,"rex.wav",70
Sample,80898,0,"hat.wav",70
Sample,80898,0,"bassa.wav",70
Sample,81235,0,"hat.wav",70
Sample,81235,0,"bassa.wav",70
Sample,81235,0,"clap.wav",70
Sample,81573,0,"hat.wav",70
Sample,81573,0,"bassa.wav",70
Sample,81910,0,"bassa.wav",70
Sample,81910,0,"clap.wav",70
Sample,81910,0,"hat.wav",70
Sample,82247,0,"main3.wav",70
Sample,82247,0,"hat.wav",70
Sample,82247,0,"rex.wav",70
Sample,82247,0,"bass#a2.wav",70
Sample,82584,0,"clap.wav",70
Sample,82584,0,"bass#a2.wav",70
Sample,82584,0,"hat.wav",70
Sample,82921,0,"hat.wav",70
Sample,82921,0,"bass#a2.wav",70
Sample,83258,0,"bass#a2.wav",70
Sample,83258,0,"clap.wav",70
Sample,83258,0,"hat.wav",70
Sample,83595,0,"hat.wav",70
Sample,83595,0,"bass#a2.wav",70
Sample,83595,0,"rex.wav",70
Sample,83932,0,"hat.wav",70
Sample,83932,0,"clap.wav",70
Sample,83932,0,"bass#a2.wav",70
Sample,84269,0,"hat.wav",70
Sample,84269,0,"bass#a2.wav",70
Sample,84606,0,"sn.wav",70
Sample,84606,0,"clap.wav",70
Sample,84606,0,"hat.wav",70
Sample,84606,0,"bass#a2.wav",70
Sample,84648,0,"kick2.wav",70
Sample,84691,0,"sn.wav",70
Sample,84733,0,"kick2.wav",70
Sample,84775,0,"sn.wav",70
Sample,84817,0,"kick2.wav",70
Sample,84859,0,"sn.wav",70
Sample,84901,0,"kick2.wav",70
Sample,84943,0,"rex.wav",70
Sample,84943,0,"bass#a2.wav",70
Sample,84943,0,"main2.wav",70
Sample,84943,0,"hat.wav",70
Sample,85280,0,"hat.wav",70
Sample,85280,0,"bass#a2.wav",70
Sample,85617,0,"bass#a2.wav",70
Sample,85617,0,"hat.wav",70
Sample,85955,0,"hat.wav",70
Sample,85955,0,"bass#a2.wav",70
Sample,86292,0,"rex.wav",70
Sample,86292,0,"hat.wav",70
Sample,86292,0,"bass#a2.wav",70
Sample,86629,0,"hat.wav",70
Sample,86629,0,"bass#a2.wav",70
Sample,86966,0,"bass#a2.wav",70
Sample,86966,0,"hat.wav",70
Sample,87303,0,"hat.wav",70
Sample,87303,0,"bass#a2.wav",70
Sample,87640,0,"hat.wav",70
Sample,87640,0,"bassc2.wav",70
Sample,87640,0,"rex.wav",70
Sample,87977,0,"hat.wav",70
Sample,87977,0,"bassc2.wav",70
Sample,88314,0,"bassc2.wav",70
Sample,88314,0,"hat.wav",70
Sample,88651,0,"hat.wav",70
Sample,88735,0,"bassc2.wav",70
Sample,88988,0,"bassc2.wav",70
Sample,88988,0,"rex.wav",70
Sample,88988,0,"hat.wav",70
Sample,89325,0,"bassc2.wav",70
Sample,89325,0,"hat.wav",70
Sample,89662,0,"hat.wav",70
Sample,89662,0,"bassc2.wav",70
Sample,90000,0,"clap.wav",70
Sample,90000,0,"bpi5.wav",70
Sample,90000,0,"bassc2.wav",70
Sample,90000,0,"hat.wav",70
Sample,90337,0,"bassa.wav",70
Sample,90337,0,"bpi2.wav",70
Sample,90337,0,"rex.wav",70
Sample,90337,0,"hat.wav",70
Sample,90674,0,"bassa.wav",70
Sample,90674,0,"hat.wav",70
Sample,91011,0,"bassa.wav",70
Sample,91011,0,"hat.wav",70
Sample,91348,0,"hat.wav",70
Sample,91348,0,"bassa.wav",70
Sample,91685,0,"rex.wav",70
Sample,91685,0,"hat.wav",70
Sample,91685,0,"bassa.wav",70
Sample,92022,0,"bassa.wav",70
Sample,92022,0,"hat.wav",70
Sample,92359,0,"hat.wav",70
Sample,92359,0,"bassa.wav",70
Sample,92696,0,"bassa.wav",70
Sample,92696,0,"hat.wav",70
Sample,92696,0,"clap.wav",70
Sample,93033,0,"rex.wav",70
Sample,93033,0,"bassd2.wav",70
Sample,93033,0,"main4.wav",70
Sample,93033,0,"hat.wav",70
Sample,93370,0,"bassd2.wav",70
Sample,93370,0,"hat.wav",70
Sample,93707,0,"hat.wav",70
Sample,93707,0,"bassd2.wav",70
Sample,94044,0,"rev.wav",70
Sample,94044,0,"hat.wav",70
Sample,94044,0,"bassd2.wav",70
Sample,94382,0,"rex.wav",70
Sample,94382,0,"hat.wav",70
Sample,94382,0,"bassa.wav",70
Sample,94719,0,"hat.wav",70
Sample,94719,0,"bassa.wav",70
Sample,94719,0,"clap.wav",70
Sample,95056,0,"hat.wav",70
Sample,95056,0,"bassa.wav",70
Sample,95224,0,"kick1.wav",70
Sample,95224,0,"sn.wav",70
Sample,95393,0,"kick2.wav",70
Sample,95393,0,"bassa.wav",70
Sample,95393,0,"clap.wav",70
Sample,95393,0,"sn.wav",70
Sample,95393,0,"hat.wav",70
Sample,95435,0,"kick2.wav",70
Sample,95477,0,"sn.wav",70
Sample,95477,0,"kick2.wav",70
Sample,95519,0,"kick2.wav",70
Sample,95561,0,"kick2.wav",70
Sample,95561,0,"sn.wav",70
Sample,95603,0,"kick2.wav",70
Sample,95646,0,"kick2.wav",70
Sample,95646,0,"sn.wav",70
Sample,95688,0,"kick2.wav",70
Sample,95730,0,"se1.wav",70
Sample,95730,0,"hat.wav",70
Sample,95730,0,"kick1.wav",70
Sample,95730,0,"bass#a.wav",70
Sample,95730,0,"rrex.wav",70
Sample,95730,0,"seq1.wav",70
Sample,95730,0,"main1.wav",70
Sample,95814,0,"seq1.wav",70
Sample,95898,0,"seq1.wav",70
Sample,95898,0,"sn.wav",70
Sample,95983,0,"seq1.wav",70
Sample,96067,0,"bass#a.wav",70
Sample,96067,0,"seq1.wav",70
Sample,96067,0,"kick1.wav",70
Sample,96067,0,"clap.wav",70
Sample,96067,0,"hat.wav",70
Sample,96235,0,"seq1.wav",70
Sample,96235,0,"sn.wav",70
Sample,96320,0,"seq1.wav",70
Sample,96404,0,"bass#a.wav",70
Sample,96404,0,"seq1.wav",70
Sample,96404,0,"hat.wav",70
Sample,96404,0,"kick1.wav",70
Sample,96488,0,"seq1.wav",70
Sample,96573,0,"seq1.wav",70
Sample,96573,0,"sn.wav",70
Sample,96741,0,"clap.wav",70
Sample,96741,0,"hat.wav",70
Sample,96741,0,"bass#a.wav",70
Sample,96741,0,"seq2.wav",70
Sample,96741,0,"kick1.wav",70
Sample,96825,0,"seq2.wav",70
Sample,96910,0,"sn.wav",70
Sample,96910,0,"seq2.wav",70
Sample,96994,0,"seq2.wav",70
Sample,97078,0,"rrex.wav",70
Sample,97078,0,"kick1.wav",70
Sample,97078,0,"hat.wav",70
Sample,97078,0,"bass#a.wav",70
Sample,97078,0,"seq3.wav",70
Sample,97162,0,"seq3.wav",70
Sample,97247,0,"sn.wav",70
Sample,97247,0,"seq3.wav",70
Sample,97331,0,"seq3.wav",70
Sample,97415,0,"clap.wav",70
Sample,97415,0,"hat.wav",70
Sample,97415,0,"kick1.wav",70
Sample,97415,0,"seq3.wav",70
Sample,97415,0,"bass#a.wav",70
Sample,97584,0,"seq3.wav",70
Sample,97584,0,"sn.wav",70
Sample,97668,0,"seq3.wav",70
Sample,97752,0,"bass#a.wav",70
Sample,97752,0,"kick1.wav",70
Sample,97752,0,"seq3.wav",70
Sample,97752,0,"hat.wav",70
Sample,97837,0,"seq3.wav",70
Sample,97921,0,"seq3.wav",70
Sample,97921,0,"sn.wav",70
Sample,98089,0,"hat.wav",70
Sample,98089,0,"clap.wav",70
Sample,98089,0,"kick1.wav",70
Sample,98089,0,"bass#a.wav",70
Sample,98089,0,"seq4.wav",70
Sample,98174,0,"seq4.wav",70
Sample,98258,0,"seq4.wav",70
Sample,98258,0,"sn.wav",70
Sample,98342,0,"seq4.wav",70
Sample,98426,0,"hat.wav",70
Sample,98426,0,"bassc.wav",70
Sample,98426,0,"rrex.wav",70
Sample,98426,0,"kick1.wav",70
Sample,98426,0,"seq5.wav",70
Sample,98511,0,"seq5.wav",70
Sample,98595,0,"sn.wav",70
Sample,98595,0,"seq5.wav",70
Sample,98679,0,"seq5.wav",70
Sample,98764,0,"kick1.wav",70
Sample,98764,0,"clap.wav",70
Sample,98764,0,"hat.wav",70
Sample,98764,0,"bassc.wav",70
Sample,98764,0,"seq5.wav",70
Sample,98932,0,"sn.wav",70
Sample,98932,0,"seq5.wav",70
Sample,99016,0,"seq5.wav",70
Sample,99101,0,"hat.wav",70
Sample,99101,0,"kick1.wav",70
Sample,99101,0,"bassc.wav",70
Sample,99101,0,"seq5.wav",70
Sample,99185,0,"seq5.wav",70
Sample,99269,0,"sn.wav",70
Sample,99269,0,"seq5.wav",70
Sample,99438,0,"hat.wav",70
Sample,99438,0,"bassc.wav",70
Sample,99438,0,"kick1.wav",70
Sample,99438,0,"clap.wav",70
Sample,99438,0,"seq6.wav",70
Sample,99522,0,"seq6.wav",70
Sample,99606,0,"seq7.wav",70
Sample,99606,0,"sn.wav",70
Sample,99691,0,"seq7.wav",70
Sample,99775,0,"rrex.wav",70
Sample,99775,0,"kick1.wav",70
Sample,99775,0,"hat.wav",70
Sample,99775,0,"bass#a.wav",70
Sample,99775,0,"seq2.wav",70
Sample,99859,0,"seq2.wav",70
Sample,99943,0,"seq2.wav",70
Sample,99943,0,"sn.wav",70
Sample,100028,0,"seq2.wav",70
Sample,100112,0,"hat.wav",70
Sample,100112,0,"clap.wav",70
Sample,100112,0,"kick1.wav",70
Sample,100112,0,"bass#a.wav",70
Sample,100112,0,"seq2.wav",70
Sample,100280,0,"sn.wav",70
Sample,100280,0,"seq2.wav",70
Sample,100365,0,"seq2.wav",70
Sample,100449,0,"seq2.wav",70
Sample,100449,0,"bass#a.wav",70
Sample,100449,0,"hat.wav",70
Sample,100449,0,"kick1.wav",70
Sample,100533,0,"seq2.wav",70
Sample,100617,0,"seq2.wav",70
Sample,100617,0,"sn.wav",70
Sample,100786,0,"bass#a.wav",70
Sample,100786,0,"kick1.wav",70
Sample,100786,0,"seq2.wav",70
Sample,100786,0,"hat.wav",70
Sample,100786,0,"clap.wav",70
Sample,100870,0,"seq2.wav",70
Sample,100955,0,"sn.wav",70
Sample,100955,0,"seq2.wav",70
Sample,101039,0,"seq2.wav",70
Sample,101123,0,"hat.wav",70
Sample,101123,0,"bassa.wav",70
Sample,101123,0,"rrex.wav",70
Sample,101123,0,"kick1.wav",70
Sample,101123,0,"seq8.wav",70
Sample,101207,0,"seq8.wav",70
Sample,101292,0,"seq8.wav",70
Sample,101292,0,"sn.wav",70
Sample,101376,0,"seq8.wav",70
Sample,101460,0,"kick1.wav",70
Sample,101460,0,"clap.wav",70
Sample,101460,0,"hat.wav",70
Sample,101460,0,"bassa.wav",70
Sample,101460,0,"seq8.wav",70
Sample,101629,0,"seq8.wav",70
Sample,101629,0,"sn.wav",70
Sample,101713,0,"seq8.wav",70
Sample,101797,0,"bassa.wav",70
Sample,101797,0,"hat.wav",70
Sample,101797,0,"seq8.wav",70
Sample,101797,0,"kick1.wav",70
Sample,101882,0,"seq8.wav",70
Sample,101966,0,"seq8.wav",70
Sample,101966,0,"sn.wav",70
Sample,102134,0,"bassa.wav",70
Sample,102134,0,"kick1.wav",70
Sample,102134,0,"seq9.wav",70
Sample,102134,0,"clap.wav",70
Sample,102134,0,"hat.wav",70
Sample,102219,0,"seq9.wav",70
Sample,102303,0,"sn.wav",70
Sample,102303,0,"seq9.wav",70
Sample,102387,0,"seq9.wav",70
Sample,102471,0,"rrex.wav",70
Sample,102471,0,"kick1.wav",70
Sample,102471,0,"hat.wav",70
Sample,102471,0,"bass#c.wav",70
Sample,102471,0,"seq10.wav",70
Sample,102556,0,"seq10.wav",70
Sample,102640,0,"sn.wav",70
Sample,102640,0,"seq10.wav",70
Sample,102724,0,"seq10.wav",70
Sample,102808,0,"bass#c.wav",70
Sample,102808,0,"seq10.wav",70
Sample,102808,0,"hat.wav",70
Sample,102808,0,"kick1.wav",70
Sample,102808,0,"clap.wav",70
Sample,102977,0,"sn.wav",70
Sample,102977,0,"seq10.wav",70
Sample,103061,0,"seq10.wav",70
Sample,103146,0,"seq10.wav",70
Sample,103146,0,"bass#c.wav",70
Sample,103146,0,"kick1.wav",70
Sample,103146,0,"hat.wav",70
Sample,103230,0,"seq10.wav",70
Sample,103314,0,"seq10.wav",70
Sample,103314,0,"sn.wav",70
Sample,103483,0,"hat.wav",70
Sample,103483,0,"clap.wav",70
Sample,103483,0,"kick1.wav",70
Sample,103483,0,"seq11.wav",70
Sample,103483,0,"bass#c.wav",70
Sample,103567,0,"seq11.wav",70
Sample,103651,0,"sn.wav",70
Sample,103651,0,"seq11.wav",70
Sample,103735,0,"seq11.wav",70
Sample,103820,0,"bassd.wav",70
Sample,103820,0,"seq12.wav",70
Sample,103820,0,"hat.wav",70
Sample,103820,0,"rrex.wav",70
Sample,103820,0,"kick1.wav",70
Sample,103904,0,"seq12.wav",70
Sample,103988,0,"sn.wav",70
Sample,103988,0,"seq12.wav",70
Sample,104073,0,"seq12.wav",70
Sample,104157,0,"clap.wav",70
Sample,104157,0,"seq12.wav",70
Sample,104157,0,"kick1.wav",70
Sample,104157,0,"hat.wav",70
Sample,104157,0,"bassd.wav",70
Sample,104325,0,"sn.wav",70
Sample,104325,0,"seq12.wav",70
Sample,104410,0,"seq12.wav",70
Sample,104494,0,"hat.wav",70
Sample,104494,0,"seq12.wav",70
Sample,104494,0,"kick1.wav",70
Sample,104494,0,"bassd.wav",70
Sample,104578,0,"seq12.wav",70
Sample,104662,0,"seq12.wav",70
Sample,104662,0,"sn.wav",70
Sample,104831,0,"bassd.wav",70
Sample,104831,0,"clap.wav",70
Sample,104831,0,"seq12.wav",70
Sample,104831,0,"hat.wav",70
Sample,104831,0,"kick1.wav",70
Sample,104915,0,"seq12.wav",70
Sample,105000,0,"sn.wav",70
Sample,105000,0,"seq12.wav",70
Sample,105084,0,"seq12.wav",70
Sample,105168,0,"hat.wav",70
Sample,105168,0,"bassc2.wav",70
Sample,105168,0,"rrex.wav",70
Sample,105168,0,"kick1.wav",70
Sample,105252,0,"seqq13.wav",70
Sample,105337,0,"sn.wav",70
Sample,105337,0,"kick2.wav",70
Sample,105379,0,"kick2.wav",70
Sample,105421,0,"kick2.wav",70
Sample,105421,0,"seqq13.wav",70
Sample,105463,0,"kick2.wav",70
Sample,105505,0,"clap.wav",70
Sample,105505,0,"hat.wav",70
Sample,105505,0,"kick1.wav",70
Sample,105505,0,"bassc2.wav",70
Sample,105674,0,"kick2.wav",70
Sample,105674,0,"sn.wav",70
Sample,105716,0,"kick2.wav",70
Sample,105758,0,"seqq13.wav",70
Sample,105758,0,"kick2.wav",70
Sample,105800,0,"kick2.wav",70
Sample,105842,0,"hat.wav",70
Sample,105842,0,"bassc2.wav",70
Sample,105842,0,"kick1.wav",70
Sample,105926,0,"seqq13.wav",70
Sample,106011,0,"kick2.wav",70
Sample,106011,0,"sn.wav",70
Sample,106053,0,"kick2.wav",70
Sample,106095,0,"kick2.wav",70
Sample,106137,0,"kick2.wav",70
Sample,106179,0,"kick2.wav",70
Sample,106179,0,"bassc2.wav",70
Sample,106179,0,"hat.wav",70
Sample,106179,0,"clap.wav",70
Sample,106221,0,"kick2.wav",70
Sample,106264,0,"kick2.wav",70
Sample,106264,0,"seqq13.wav",70
Sample,106306,0,"kick2.wav",70
Sample,106348,0,"kick2.wav",70
Sample,106348,0,"sn.wav",70
Sample,106390,0,"kick2.wav",70
Sample,106432,0,"seqq13.wav",70
Sample,106432,0,"kick2.wav",70
Sample,106474,0,"kick2.wav",70
Sample,106516,0,"rrex.wav",70
Sample,106516,0,"kick1.wav",70
Sample,106516,0,"seq1.wav",70
Sample,106516,0,"bass#a.wav",70
Sample,106516,0,"main1.wav",70
Sample,106516,0,"hat.wav",70
Sample,106601,0,"seq1.wav",70
Sample,106685,0,"sn.wav",70
Sample,106685,0,"seq1.wav",70
Sample,106769,0,"seq1.wav",70
Sample,106853,0,"kick1.wav",70
Sample,106853,0,"seq1.wav",70
Sample,106853,0,"hat.wav",70
Sample,106853,0,"clap.wav",70
Sample,106853,0,"bass#a.wav",70
Sample,107022,0,"seq1.wav",70
Sample,107022,0,"sn.wav",70
Sample,107106,0,"seq1.wav",70
Sample,107191,0,"kick1.wav",70
Sample,107191,0,"hat.wav",70
Sample,107191,0,"bass#a.wav",70
Sample,107191,0,"seq1.wav",70
Sample,107275,0,"seq1.wav",70
Sample,107359,0,"seq1.wav",70
Sample,107359,0,"sn.wav",70
Sample,107528,0,"hat.wav",70
Sample,107528,0,"seq2.wav",70
Sample,107528,0,"kick1.wav",70
Sample,107528,0,"clap.wav",70
Sample,107528,0,"bass#a.wav",70
Sample,107612,0,"seq2.wav",70
Sample,107696,0,"sn.wav",70
Sample,107696,0,"seq2.wav",70
Sample,107780,0,"seq2.wav",70
Sample,107865,0,"rrex.wav",70
Sample,107865,0,"kick1.wav",70
Sample,107865,0,"hat.wav",70
Sample,107865,0,"bass#a.wav",70
Sample,107865,0,"seq3.wav",70
Sample,107949,0,"seq3.wav",70
Sample,108033,0,"sn.wav",70
Sample,108033,0,"seq3.wav",70
Sample,108117,0,"seq3.wav",70
Sample,108202,0,"bass#a.wav",70
Sample,108202,0,"clap.wav",70
Sample,108202,0,"hat.wav",70
Sample,108202,0,"kick1.wav",70
Sample,108202,0,"seq3.wav",70
Sample,108370,0,"seq3.wav",70
Sample,108370,0,"sn.wav",70
Sample,108455,0,"seq3.wav",70
Sample,108539,0,"hat.wav",70
Sample,108539,0,"seq3.wav",70
Sample,108539,0,"bass#a.wav",70
Sample,108539,0,"kick1.wav",70
Sample,108623,0,"seq3.wav",70
Sample,108707,0,"seq3.wav",70
Sample,108707,0,"sn.wav",70
Sample,108876,0,"kick1.wav",70
Sample,108876,0,"hat.wav",70
Sample,108876,0,"bass#a.wav",70
Sample,108876,0,"clap.wav",70
Sample,108876,0,"seq4.wav",70
Sample,108960,0,"seq4.wav",70
Sample,109044,0,"sn.wav",70
Sample,109044,0,"seq4.wav",70
Sample,109129,0,"seq4.wav",70
Sample,109213,0,"bassc.wav",70
Sample,109213,0,"seq5.wav",70
Sample,109213,0,"hat.wav",70
Sample,109213,0,"rrex.wav",70
Sample,109213,0,"kick1.wav",70
Sample,109297,0,"seq5.wav",70
Sample,109382,0,"sn.wav",70
Sample,109382,0,"seq5.wav",70
Sample,109466,0,"seq5.wav",70
Sample,109550,0,"clap.wav",70
Sample,109550,0,"seq5.wav",70
Sample,109550,0,"hat.wav",70
Sample,109550,0,"bassc.wav",70
Sample,109550,0,"kick1.wav",70
Sample,109719,0,"seq5.wav",70
Sample,109719,0,"sn.wav",70
Sample,109803,0,"seq5.wav",70
Sample,109887,0,"kick1.wav",70
Sample,109887,0,"hat.wav",70
Sample,109887,0,"bassc.wav",70
Sample,109887,0,"seq5.wav",70
Sample,109971,0,"seq5.wav",70
Sample,110056,0,"seq5.wav",70
Sample,110056,0,"sn.wav",70
Sample,110224,0,"bassc.wav",70
Sample,110224,0,"seq6.wav",70
Sample,110224,0,"clap.wav",70
Sample,110224,0,"hat.wav",70
Sample,110224,0,"kick1.wav",70
Sample,110308,0,"seq6.wav",70
Sample,110393,0,"seq7.wav",70
Sample,110393,0,"sn.wav",70
Sample,110477,0,"seq7.wav",70
Sample,110561,0,"rrex.wav",70
Sample,110561,0,"kick1.wav",70
Sample,110561,0,"hat.wav",70
Sample,110561,0,"bass#a.wav",70
Sample,110561,0,"seq2.wav",70
Sample,110646,0,"seq2.wav",70
Sample,110730,0,"sn.wav",70
Sample,110730,0,"seq2.wav",70
Sample,110814,0,"seq2.wav",70
Sample,110898,0,"clap.wav",70
Sample,110898,0,"kick1.wav",70
Sample,110898,0,"hat.wav",70
Sample,110898,0,"bass#a.wav",70
Sample,110898,0,"seq2.wav",70
Sample,111067,0,"seq2.wav",70
Sample,111067,0,"sn.wav",70
Sample,111151,0,"seq2.wav",70
Sample,111235,0,"bass#a.wav",70
Sample,111235,0,"seq2.wav",70
Sample,111235,0,"kick1.wav",70
Sample,111235,0,"hat.wav",70
Sample,111320,0,"seq2.wav",70
Sample,111404,0,"seq2.wav",70
Sample,111404,0,"sn.wav",70
Sample,111573,0,"bass#a.wav",70
Sample,111573,0,"clap.wav",70
Sample,111573,0,"kick1.wav",70
Sample,111573,0,"hat.wav",70
Sample,111573,0,"seq2.wav",70
Sample,111657,0,"seq2.wav",70
Sample,111741,0,"sn.wav",70
Sample,111741,0,"seq2.wav",70
Sample,111825,0,"seq2.wav",70
Sample,111910,0,"bassa.wav",70
Sample,111910,0,"seq8.wav",70
Sample,111910,0,"hat.wav",70
Sample,111910,0,"rrex.wav",70
Sample,111910,0,"kick1.wav",70
Sample,111994,0,"seq8.wav",70
Sample,112078,0,"sn.wav",70
Sample,112078,0,"seq8.wav",70
Sample,112162,0,"seq8.wav",70
Sample,112247,0,"clap.wav",70
Sample,112247,0,"seq8.wav",70
Sample,112247,0,"bassa.wav",70
Sample,112247,0,"hat.wav",70
Sample,112247,0,"kick1.wav",70
Sample,112415,0,"seq8.wav",70
Sample,112415,0,"sn.wav",70
Sample,112500,0,"seq8.wav",70
Sample,112584,0,"kick1.wav",70
Sample,112584,0,"hat.wav",70
Sample,112584,0,"bassa.wav",70
Sample,112584,0,"seq8.wav",70
Sample,112668,0,"seq8.wav",70
Sample,112752,0,"seq8.wav",70
Sample,112752,0,"sn.wav",70
Sample,112921,0,"hat.wav",70
Sample,112921,0,"seq9.wav",70
Sample,112921,0,"kick1.wav",70
Sample,112921,0,"bassa.wav",70
Sample,112921,0,"clap.wav",70
Sample,113005,0,"seq9.wav",70
Sample,113089,0,"sn.wav",70
Sample,113089,0,"seq9.wav",70
Sample,113174,0,"seq9.wav",70
Sample,113258,0,"rrex.wav",70
Sample,113258,0,"kick1.wav",70
Sample,113258,0,"hat.wav",70
Sample,113258,0,"bass#c.wav",70
Sample,113258,0,"seq10.wav",70
Sample,113342,0,"seq10.wav",70
Sample,113426,0,"sn.wav",70
Sample,113426,0,"seq10.wav",70
Sample,113511,0,"seq10.wav",70
Sample,113595,0,"clap.wav",70
Sample,113595,0,"hat.wav",70
Sample,113595,0,"kick1.wav",70
Sample,113595,0,"bass#c.wav",70
Sample,113595,0,"seq10.wav",70
Sample,113764,0,"seq10.wav",70
Sample,113764,0,"sn.wav",70
Sample,113848,0,"seq10.wav",70
Sample,113932,0,"bass#c.wav",70
Sample,113932,0,"seq10.wav",70
Sample,113932,0,"hat.wav",70
Sample,113932,0,"kick1.wav",70
Sample,114016,0,"seq10.wav",70
Sample,114101,0,"seq10.wav",70
Sample,114101,0,"sn.wav",70
Sample,114269,0,"bass#c.wav",70
Sample,114269,0,"kick1.wav",70
Sample,114269,0,"hat.wav",70
Sample,114269,0,"clap.wav",70
Sample,114269,0,"seq11.wav",70
Sample,114353,0,"seq11.wav",70
Sample,114438,0,"sn.wav",70
Sample,114438,0,"seq11.wav",70
Sample,114522,0,"seq11.wav",70
Sample,114606,0,"bassd.wav",70
Sample,114606,0,"seq12.wav",70
Sample,114606,0,"hat.wav",70
Sample,114606,0,"rrex.wav",70
Sample,114606,0,"kick1.wav",70
Sample,114691,0,"seq12.wav",70
Sample,114775,0,"sn.wav",70
Sample,114775,0,"seq12.wav",70
Sample,114859,0,"seq12.wav",70
Sample,114943,0,"hat.wav",70
Sample,114943,0,"seq12.wav",70
Sample,114943,0,"bassd.wav",70
Sample,114943,0,"clap.wav",70
Sample,114943,0,"kick1.wav",70
Sample,115112,0,"seq12.wav",70
Sample,115112,0,"sn.wav",70
Sample,115196,0,"seq12.wav",70
Sample,115280,0,"hat.wav",70
Sample,115280,0,"kick1.wav",70
Sample,115280,0,"bassd.wav",70
Sample,115280,0,"seq12.wav",70
Sample,115365,0,"seq12.wav",70
Sample,115449,0,"seq12.wav",70
Sample,115449,0,"sn.wav",70
Sample,115617,0,"clap.wav",70
Sample,115617,0,"seq12.wav",70
Sample,115617,0,"hat.wav",70
Sample,115617,0,"bassd.wav",70
Sample,115617,0,"kick1.wav",70
Sample,115702,0,"seq12.wav",70
Sample,115786,0,"sn.wav",70
Sample,115786,0,"seq12.wav",70
Sample,115870,0,"seq12.wav",70
Sample,115955,0,"bassc2.wav",70
Sample,115955,0,"seq13.wav",70
Sample,115955,0,"hat.wav",70
Sample,115955,0,"rrex.wav",70
Sample,115955,0,"kick1.wav",70
Sample,116039,0,"seq13.wav",70
Sample,116123,0,"seq13.wav",70
Sample,116123,0,"kick2.wav",70
Sample,116123,0,"sn.wav",70
Sample,116165,0,"kick2.wav",70
Sample,116207,0,"kick2.wav",70
Sample,116207,0,"seq13.wav",70
Sample,116250,0,"kick2.wav",70
Sample,116292,0,"clap.wav",70
Sample,116292,0,"seq13.wav",70
Sample,116292,0,"kick1.wav",70
Sample,116292,0,"bassc2.wav",70
Sample,116292,0,"hat.wav",70
Sample,116460,0,"sn.wav",70
Sample,116460,0,"kick2.wav",70
Sample,116460,0,"seq13.wav",70
Sample,116502,0,"kick2.wav",70
Sample,116544,0,"seq13.wav",70
Sample,116544,0,"kick2.wav",70
Sample,116587,0,"kick2.wav",70
Sample,116629,0,"hat.wav",70
Sample,116629,0,"kick1.wav",70
Sample,116629,0,"bassc2.wav",70
Sample,116629,0,"seq13.wav",70
Sample,116713,0,"seq13.wav",70
Sample,116797,0,"kick2.wav",70
Sample,116797,0,"sn.wav",70
Sample,116797,0,"seq13.wav",70
Sample,116839,0,"kick2.wav",70
Sample,116882,0,"kick2.wav",70
Sample,116924,0,"kick2.wav",70
Sample,116966,0,"clap.wav",70
Sample,116966,0,"seq13.wav",70
Sample,116966,0,"bassc2.wav",70
Sample,116966,0,"kick2.wav",70
Sample,116966,0,"hat.wav",70
Sample,117008,0,"kick2.wav",70
Sample,117050,0,"kick2.wav",70
Sample,117050,0,"seq13.wav",70
Sample,117092,0,"kick2.wav",70
Sample,117134,0,"kick2.wav",70
Sample,117134,0,"seq13.wav",70
Sample,117134,0,"sn.wav",70
Sample,117176,0,"kick2.wav",70
Sample,117219,0,"seq13.wav",70
Sample,117219,0,"kick2.wav",70
Sample,117261,0,"kick2.wav",70
Sample,117303,0,"pureend.wav",70

[TimingPoints]
0,337.078651685393,4,2,0,70,1,0

[HitObjects]
213,192,1516,5,0,0:0:0:0:insynd.wav
128,192,1685,1,0,0:0:0:0:insyna.wav
298,192,2022,1,0,0:0:0:0:insynf.wav
213,192,2191,1,0,0:0:0:0:insynd.wav
469,192,2528,1,0,0:0:0:0:insyng.wav
469,192,2865,1,0,0:0:0:0:insyng.wav
256,192,3033,1,0,0:0:0:0:insynf.wav
128,192,3202,1,0,0:0:0:0:insyne.wav
213,192,3539,1,0,0:0:0:0:insync.wav
298,192,3876,1,0,0:0:0:0:insyne.wav
213,192,4213,1,0,0:0:0:0:insynd.wav
128,192,4382,1,0,0:0:0:0:insyna.wav
298,192,4719,1,0,0:0:0:0:insynf.wav
213,192,4887,1,0,0:0:0:0:insynd.wav
384,192,5224,1,0,0:0:0:0:insyng2.wav
469,192,5393,1,0,0:0:0:0:in1.wav
128,192,5730,1,0,0:0:0:0:in2.wav
469,192,6067,1,0,0:0:0:0:in3.wav
128,192,6404,1,0,0:0:0:0:in4.wav
469,192,6488,1,0,0:0:0:0:in5.wav
128,192,6573,1,0,0:0:0:0:in6.wav
469,192,6657,1,0,0:0:0:0:in7.wav
256,192,6741,1,0,0:0:0:0:pid.wav
384,192,6741,1,0,0:0:0:0:pi3f.wav
42,192,6741,1,0,0:0:0:0:cc.wav
128,192,7415,1,0,0:0:0:0:pi2d.wav
298,192,7500,1,0,0:0:0:0:pi2f.wav
213,192,7584,1,0,0:0:0:0:pi2a.wav
384,192,7668,1,0,0:0:0:0:pi3d.wav
469,192,7752,1,0,0:0:0:0:pi3f.wav
128,192,7837,1,0,0:0:0:0:pi3d.wav
298,192,7921,1,0,0:0:0:0:pi3f.wav
384,192,8005,1,0,0:0:0:0:pi3a.wav
256,192,8089,1,0,0:0:0:0:pi3g.wav
469,192,8089,1,0,0:0:0:0:pi4g.wav
298,192,8426,1,0,0:0:0:0:pi3g.wav
469,192,8426,1,0,0:0:0:0:pi4g.wav
213,192,8595,1,0,0:0:0:0:pi3e.wav
384,192,8595,1,0,0:0:0:0:pi4e.wav
128,192,8932,1,0,0:0:0:0:pi3c.wav
298,192,8932,1,0,0:0:0:0:pi4c.wav
213,192,9101,1,0,0:0:0:0:pi3d.wav
384,192,9101,1,0,0:0:0:0:pi4d.wav
298,192,9269,1,0,0:0:0:0:pi3e.wav
469,192,9269,1,0,0:0:0:0:pi4e.wav
128,192,9438,1,0,0:0:0:0:pi#a.wav
402,192,9438,1,0,0:0:0:0:pi3f.wav
128,192,10112,1,0,0:0:0:0:pi#a.wav
256,192,10196,1,0,0:0:0:0:pi2d.wav
469,192,10280,1,0,0:0:0:0:pi2f.wav
213,192,10365,1,0,0:0:0:0:pi2a.wav
384,192,10449,1,0,0:0:0:0:pi3d.wav
128,192,10533,1,0,0:0:0:0:pi2a.wav
298,192,10617,1,0,0:0:0:0:pi3d.wav
469,192,10702,1,0,0:0:0:0:pi3f.wav
298,192,10772,1,0,0:0:0:0:pi4#c.wav
128,192,10786,1,0,0:0:0:0:pi3d.wav
384,192,10786,1,0,0:0:0:0:pi4d.wav
128,192,11123,1,0,0:0:0:0:pi3d.wav
384,192,11123,1,0,0:0:0:0:pi4d.wav
213,192,11292,1,0,0:0:0:0:pi3e.wav
384,192,11292,1,0,0:0:0:0:pi4e.wav
213,192,11629,1,0,0:0:0:0:pi3e.wav
384,192,11629,1,0,0:0:0:0:pi4e.wav
213,192,11797,1,0,0:0:0:0:pi3f.wav
469,192,11797,1,0,0:0:0:0:pi4f.wav
128,192,12134,1,0,0:0:0:0:pi2c.wav
256,192,12134,1,0,0:0:0:0:pi3e.wav
469,192,12808,1,0,0:0:0:0:pi5c.wav
298,192,12893,1,0,0:0:0:0:pi4g.wav
384,192,12977,1,0,0:0:0:0:pi4e.wav
213,192,13061,1,0,0:0:0:0:pi4c.wav
298,192,13146,1,0,0:0:0:0:pi4g.wav
128,192,13230,1,0,0:0:0:0:pi4e.wav
384,192,13314,1,0,0:0:0:0:pi4c.wav
213,192,13398,1,0,0:0:0:0:pi3g.wav
298,192,13483,1,0,0:0:0:0:pi2c.wav
469,192,13483,1,0,0:0:0:0:pi4c.wav
128,192,13988,1,0,0:0:0:0:pi2d.wav
384,192,13988,1,0,0:0:0:0:pi3#a.wav
213,192,14494,1,0,0:0:0:0:pi2e.wav
329,192,14494,1,0,0:0:0:0:pi3g.wav
256,192,14831,1,0,0:0:0:0:pi3f.wav
384,192,14915,1,0,0:0:0:0:pi4f.wav
213,192,15000,1,0,0:0:0:0:pi4c.wav
298,192,15084,1,0,0:0:0:0:pi3a.wav
128,192,15168,1,0,0:0:0:0:pi3f.wav
298,192,15252,1,0,0:0:0:0:pi3a.wav
213,192,15337,1,0,0:0:0:0:pi4c.wav
384,192,15421,1,0,0:0:0:0:pi4f.wav
469,192,15505,1,0,0:0:0:0:pi4a.wav
298,192,15589,1,0,0:0:0:0:pi4f.wav
384,192,15674,1,0,0:0:0:0:pi4c.wav
213,192,15758,1,0,0:0:0:0:pi3a.wav
469,192,15842,1,0,0:0:0:0:pi4f.wav
298,192,15926,1,0,0:0:0:0:pi4c.wav
128,192,16011,1,0,0:0:0:0:pi3a.wav
384,192,16179,1,0,0:0:0:0:pi3a.wav
213,192,16264,1,0,0:0:0:0:pi3e.wav
384,192,16348,1,0,0:0:0:0:pi3a.wav
469,192,16432,1,0,0:0:0:0:pi4#c.wav
128,192,16516,1,0,0:0:0:0:pi3e.wav
384,192,16601,1,0,0:0:0:0:pi3a.wav
213,192,16685,1,0,0:0:0:0:pi4#c.wav
298,192,16769,1,0,0:0:0:0:pi4e.wav
469,192,16853,1,0,0:0:0:0:pi5#c.wav
213,192,16938,1,0,0:0:0:0:pi4a.wav
384,192,17022,1,0,0:0:0:0:pi4e.wav
298,192,17106,1,0,0:0:0:0:pi4#c.wav
469,192,17191,1,0,0:0:0:0:pi4a.wav
213,192,17275,1,0,0:0:0:0:pi4e.wav
384,192,17359,1,0,0:0:0:0:pi4#c.wav
256,192,17528,1,0,0:0:0:0:pi2d.wav
469,192,17528,1,0,0:0:0:0:pi3d.wav
42,192,17528,1,0,0:0:0:0:pid.wav
128,192,20224,1,0,0:0:0:0:kick1.wav
469,192,20224,1,0,0:0:0:0:vi01.wav
42,192,20224,1,0,0:0:0:0:cc.wav
128,192,20561,1,0,0:0:0:0:kick1.wav
128,192,20898,1,0,0:0:0:0:kick1.wav
128,192,21235,1,0,0:0:0:0:kick1.wav
128,192,21573,1,0,0:0:0:0:kick1.wav
384,192,21573,1,0,0:0:0:0:vi02.wav
128,192,21910,1,0,0:0:0:0:kick1.wav
128,192,22247,1,0,0:0:0:0:kick1.wav
384,192,22247,1,0,0:0:0:0:vi03.wav
213,192,22359,1,0,0:0:0:0:vi04.wav
298,192,22471,1,0,0:0:0:0:vi05.wav
128,192,22584,1,0,0:0:0:0:kick1.wav
384,192,22584,1,0,0:0:0:0:vi06.wav
256,192,22668,1,0,0:0:0:0:vi07.wav
384,192,22808,1,0,0:0:0:0:vi08.wav
128,192,22921,1,0,0:0:0:0:kick1.wav
469,192,22921,1,0,0:0:0:0:vi09.wav
128,192,23258,1,0,0:0:0:0:kick1.wav
128,192,23595,1,0,0:0:0:0:kick1.wav
128,192,23932,1,0,0:0:0:0:kick1.wav
298,192,23932,1,0,0:0:0:0:vi10.wav
128,192,24269,1,0,0:0:0:0:kick1.wav
384,192,24269,1,0,0:0:0:0:vi11.wav
128,192,24606,1,0,0:0:0:0:kick1.wav
128,192,24943,1,0,0:0:0:0:kick1.wav
469,192,24943,1,0,0:0:0:0:vi12.wav
128,192,25280,1,0,0:0:0:0:kick1.wav
256,192,25280,1,0,0:0:0:0:vi13.wav
128,192,25617,1,0,0:0:0:0:kick1.wav
469,192,25617,1,0,0:0:0:0:vi14.wav
128,192,25955,1,0,0:0:0:0:kick1.wav
384,192,26123,1,0,0:0:0:0:vi15.wav
128,192,26292,1,0,0:0:0:0:kick1.wav
128,192,26629,1,0,0:0:0:0:kick1.wav
298,192,26629,1,0,0:0:0:0:vi16.wav
128,192,26966,1,0,0:0:0:0:kick1.wav
256,192,26966,1,0,0:0:0:0:vi17.wav
128,192,27303,1,0,0:0:0:0:kick1.wav
213,192,27471,1,0,0:0:0:0:vi18.wav
128,192,27640,1,0,0:0:0:0:kick1.wav
128,192,27977,1,0,0:0:0:0:kick1.wav
469,192,27977,1,0,0:0:0:0:vi19.wav
128,192,28314,1,0,0:0:0:0:kick1.wav
298,192,28314,1,0,0:0:0:0:vi20.wav
128,192,28651,1,0,0:0:0:0:kick1.wav
128,192,28988,1,0,0:0:0:0:kick1.wav
128,192,29325,1,0,0:0:0:0:kick1.wav
384,192,29325,1,0,0:0:0:0:vi21.wav
213,192,29494,1,0,0:0:0:0:vi22.wav
128,192,29662,1,0,0:0:0:0:kick1.wav
384,192,29662,1,0,0:0:0:0:vi23.wav
128,192,30000,1,0,0:0:0:0:kick1.wav
128,192,30337,1,0,0:0:0:0:kick1.wav
298,192,30337,1,0,0:0:0:0:vi24.wav
128,192,30674,1,0,0:0:0:0:kick1.wav
128,192,31011,1,0,0:0:0:0:kick1.wav
469,192,31011,1,0,0:0:0:0:vi01.wav
42,192,31011,1,0,0:0:0:0:cc2.wav
128,192,31348,1,0,0:0:0:0:kick1.wav
128,192,31685,1,0,0:0:0:0:kick1.wav
128,192,32022,1,0,0:0:0:0:kick1.wav
128,192,32359,1,0,0:0:0:0:kick1.wav
298,192,32359,1,0,0:0:0:0:vi02.wav
128,192,32696,1,0,0:0:0:0:kick1.wav
128,192,33033,1,0,0:0:0:0:kick1.wav
384,192,33033,1,0,0:0:0:0:vi03.wav
213,192,33146,1,0,0:0:0:0:vi04.wav
298,192,33258,1,0,0:0:0:0:vi05.wav
128,192,33370,1,0,0:0:0:0:kick1.wav
384,192,33370,1,0,0:0:0:0:vi06.wav
298,192,33483,1,0,0:0:0:0:vi07.wav
384,192,33595,1,0,0:0:0:0:vi08.wav
128,192,33707,1,0,0:0:0:0:kick1.wav
475,192,33707,1,0,0:0:0:0:vi09.wav
128,192,34044,1,0,0:0:0:0:kick1.wav
128,192,34382,1,0,0:0:0:0:kick1.wav
128,192,34719,1,0,0:0:0:0:kick1.wav
469,192,34719,1,0,0:0:0:0:vi10.wav
128,192,35056,1,0,0:0:0:0:kick1.wav
384,192,35056,1,0,0:0:0:0:vi11.wav
128,192,35393,1,0,0:0:0:0:kick1.wav
128,192,35730,1,0,0:0:0:0:kick1.wav
469,192,35730,1,0,0:0:0:0:vi12.wav
128,192,36067,1,0,0:0:0:0:kick1.wav
384,192,36067,1,0,0:0:0:0:vi13.wav
128,192,36404,1,0,0:0:0:0:kick1.wav
469,192,36404,1,0,0:0:0:0:vi14.wav
128,192,36741,1,0,0:0:0:0:kick1.wav
384,192,36910,1,0,0:0:0:0:vi15.wav
128,192,37078,1,0,0:0:0:0:kick1.wav
128,192,37415,1,0,0:0:0:0:kick1.wav
298,192,37415,1,0,0:0:0:0:vi16.wav
128,192,37752,1,0,0:0:0:0:kick1.wav
384,192,37752,1,0,0:0:0:0:vi17.wav
128,192,38089,1,0,0:0:0:0:kick1.wav
213,192,38258,1,0,0:0:0:0:vi18.wav
128,192,38426,1,0,0:0:0:0:kick1.wav
128,192,38764,1,0,0:0:0:0:kick1.wav
469,192,38764,1,0,0:0:0:0:vi19.wav
128,192,39101,1,0,0:0:0:0:kick1.wav
298,192,39101,1,0,0:0:0:0:vi20.wav
128,192,39438,1,0,0:0:0:0:kick1.wav
128,192,39775,1,0,0:0:0:0:kick1.wav
128,192,40112,1,0,0:0:0:0:kick1.wav
384,192,40112,1,0,0:0:0:0:vi21.wav
213,192,40280,1,0,0:0:0:0:vi22.wav
128,192,40449,1,0,0:0:0:0:kick1.wav
384,192,40449,1,0,0:0:0:0:vi23.wav
128,192,40786,1,0,0:0:0:0:kick1.wav
128,192,41123,1,0,0:0:0:0:kick1.wav
298,192,41123,1,0,0:0:0:0:vi25.wav
128,192,41460,1,0,0:0:0:0:kick1.wav
256,192,41797,1,0,0:0:0:0:kick1.wav
469,192,41797,1,0,0:0:0:0:vi19.wav
42,192,41797,1,0,0:0:0:0:cc.wav
128,192,42134,1,0,0:0:0:0:kick1.wav
298,192,42134,1,0,0:0:0:0:vi26.wav
384,192,42303,1,0,0:0:0:0:vi27.wav
128,192,42471,1,0,0:0:0:0:kick1.wav
469,192,42640,1,0,0:0:0:0:vi21.wav
128,192,42808,1,0,0:0:0:0:kick1.wav
384,192,42808,1,0,0:0:0:0:vi22.wav
213,192,42977,1,0,0:0:0:0:vi26.wav
128,192,43146,1,0,0:0:0:0:kick1.wav
256,192,43146,1,0,0:0:0:0:vi28.wav
128,192,43483,1,0,0:0:0:0:kick1.wav
469,192,43483,1,0,0:0:0:0:vi26.wav
384,192,43651,1,0,0:0:0:0:vi27.wav
128,192,43820,1,0,0:0:0:0:kick1.wav
298,192,43988,1,0,0:0:0:0:vi21.wav
128,192,44157,1,0,0:0:0:0:kick1.wav
384,192,44157,1,0,0:0:0:0:vi22.wav
469,192,44325,1,0,0:0:0:0:vi29.wav
128,192,44494,1,0,0:0:0:0:kick1.wav
384,192,44494,1,0,0:0:0:0:vi27.wav
128,192,44831,1,0,0:0:0:0:kick1.wav
469,192,44831,1,0,0:0:0:0:vi13.wav
128,192,45168,1,0,0:0:0:0:kick1.wav
384,192,45168,1,0,0:0:0:0:vi30.wav
213,192,45337,1,0,0:0:0:0:vi19.wav
128,192,45505,1,0,0:0:0:0:kick1.wav
298,192,45674,1,0,0:0:0:0:vi16.wav
128,192,45842,1,0,0:0:0:0:kick1.wav
213,192,46011,1,0,0:0:0:0:vi32.wav
128,192,46179,1,0,0:0:0:0:kick1.wav
298,192,46348,1,0,0:0:0:0:vi27.wav
128,192,46516,1,0,0:0:0:0:kick1.wav
213,192,46685,1,0,0:0:0:0:vi33.wav
128,192,46853,1,0,0:0:0:0:kick1.wav
298,192,46853,1,0,0:0:0:0:vi34.wav
384,192,46938,1,0,0:0:0:0:vi35.wav
213,192,47022,1,0,0:0:0:0:vi36.wav
384,192,47106,1,0,0:0:0:0:vi37.wav
128,192,47191,1,0,0:0:0:0:kick1.wav
469,192,47191,1,0,0:0:0:0:vi11.wav
128,192,47528,1,0,0:0:0:0:kick1.wav
128,192,47865,1,0,0:0:0:0:kick1.wav
213,192,48033,1,0,0:0:0:0:vi19.wav
128,192,48202,1,0,0:0:0:0:kick1.wav
384,192,48370,1,0,0:0:0:0:vi38.wav
128,192,48539,1,0,0:0:0:0:kick1.wav
298,192,48707,1,0,0:0:0:0:vi39.wav
128,192,48876,1,0,0:0:0:0:kick1.wav
469,192,49044,1,0,0:0:0:0:vi40.wav
128,192,49213,1,0,0:0:0:0:kick1.wav
384,192,49382,1,0,0:0:0:0:vi41.wav
128,192,49550,1,0,0:0:0:0:kick1.wav
298,192,49550,1,0,0:0:0:0:vi42.wav
213,192,49719,1,0,0:0:0:0:vi43.wav
256,192,49887,1,0,0:0:0:0:vi44.wav
256,192,51235,1,0,0:0:0:0:se3.wav
469,192,52584,1,0,0:0:0:0:pi4a.wav
42,192,52584,1,0,0:0:0:0:cc2.wav
298,192,52668,1,0,0:0:0:0:pi4f.wav
213,192,52752,1,0,0:0:0:0:pi4d.wav
469,192,52837,1,0,0:0:0:0:pi4a.wav
298,192,52921,1,0,0:0:0:0:pi4f.wav
213,192,53005,1,0,0:0:0:0:pi4d.wav
469,192,53089,1,0,0:0:0:0:pi4a.wav
298,192,53174,1,0,0:0:0:0:pi4f.wav
213,192,53258,1,0,0:0:0:0:pi4d.wav
469,192,53342,1,0,0:0:0:0:pi4a.wav
298,192,53426,1,0,0:0:0:0:pi4f.wav
213,192,53511,1,0,0:0:0:0:pi4d.wav
469,192,53595,1,0,0:0:0:0:pi4a.wav
213,192,53679,1,0,0:0:0:0:pi4d.wav
256,192,53764,1,0,0:0:0:0:pi4#a.wav
213,192,53848,1,0,0:0:0:0:pi4d.wav
469,192,53932,1,0,0:0:0:0:pi5c.wav
298,192,54016,1,0,0:0:0:0:pi4f.wav
128,192,54101,1,0,0:0:0:0:pi4d.wav
469,192,54185,1,0,0:0:0:0:pi5c.wav
298,192,54269,1,0,0:0:0:0:pi4f.wav
128,192,54353,1,0,0:0:0:0:pi4d.wav
469,192,54438,1,0,0:0:0:0:pi5c.wav
128,192,54522,1,0,0:0:0:0:pi4d.wav
469,192,54606,1,0,0:0:0:0:pi4#a.wav
128,192,54691,1,0,0:0:0:0:pi4d.wav
384,192,54775,1,0,0:0:0:0:pi4a.wav
128,192,54859,1,0,0:0:0:0:pi4d.wav
298,192,54943,1,0,0:0:0:0:pi4f.wav
128,192,55028,1,0,0:0:0:0:pi4d.wav
469,192,55112,1,0,0:0:0:0:pi4g.wav
128,192,55196,1,0,0:0:0:0:pi4d.wav
384,192,55280,1,0,0:0:0:0:pi4e.wav
298,192,55365,1,0,0:0:0:0:pi4c.wav
128,192,55449,1,0,0:0:0:0:pi3g.wav
384,192,55533,1,0,0:0:0:0:pi4e.wav
298,192,55617,1,0,0:0:0:0:pi4c.wav
128,192,55702,1,0,0:0:0:0:pi3g.wav
384,192,55786,1,0,0:0:0:0:pi4e.wav
128,192,55870,1,0,0:0:0:0:pi3g.wav
384,192,55955,1,0,0:0:0:0:pi4e.wav
128,192,56039,1,0,0:0:0:0:pi3g.wav
298,192,56123,1,0,0:0:0:0:pi4g.wav
128,192,56207,1,0,0:0:0:0:pi3g.wav
384,192,56292,1,0,0:0:0:0:pi4b.wav
128,192,56376,1,0,0:0:0:0:pi3g.wav
469,192,56460,1,0,0:0:0:0:pi5c.wav
128,192,56544,1,0,0:0:0:0:pi3g.wav
384,192,56629,1,0,0:0:0:0:pi5e.wav
298,192,56713,1,0,0:0:0:0:pi5c.wav
128,192,56797,1,0,0:0:0:0:pi4g.wav
384,192,56882,1,0,0:0:0:0:pi5e.wav
298,192,56966,1,0,0:0:0:0:pi5c.wav
128,192,57050,1,0,0:0:0:0:pi4g.wav
384,192,57134,1,0,0:0:0:0:pi5e.wav
128,192,57219,1,0,0:0:0:0:pi4g.wav
469,192,57303,1,0,0:0:0:0:pi5g.wav
384,192,57387,1,0,0:0:0:0:pi5c.wav
213,192,57471,1,0,0:0:0:0:pi4g.wav
469,192,57556,1,0,0:0:0:0:pi5g.wav
384,192,57640,1,0,0:0:0:0:pi5c.wav
213,192,57724,1,0,0:0:0:0:pi4g.wav
469,192,57808,1,0,0:0:0:0:pi5g.wav
213,192,57893,1,0,0:0:0:0:pi4g.wav
256,192,57977,1,0,0:0:0:0:pi5c.wav
128,192,58061,1,0,0:0:0:0:pi2c.wav
298,192,58146,1,0,0:0:0:0:pi2e.wav
213,192,58230,1,0,0:0:0:0:pi2g.wav
384,192,58314,1,0,0:0:0:0:pi3c.wav
213,192,58398,1,0,0:0:0:0:pi3e.wav
384,192,58483,1,0,0:0:0:0:pi3g.wav
298,192,58567,1,0,0:0:0:0:pi4c.wav
469,192,58651,1,0,0:0:0:0:pi5c.wav
384,192,58707,1,0,0:0:0:0:pi4g.wav
213,192,58764,1,0,0:0:0:0:pi4e.wav
469,192,58820,1,0,0:0:0:0:pi4c.wav
298,192,58876,1,0,0:0:0:0:pi3g.wav
128,192,58932,1,0,0:0:0:0:pi3e.wav
384,192,58988,1,0,0:0:0:0:pi5f.wav
213,192,59073,1,0,0:0:0:0:pi5c.wav
298,192,59157,1,0,0:0:0:0:pi4a.wav
128,192,59241,1,0,0:0:0:0:pi4f.wav
469,192,59325,1,0,0:0:0:0:pi5#c.wav
128,192,59410,1,0,0:0:0:0:pi3#c.wav
298,192,59494,1,0,0:0:0:0:pi3e.wav
469,192,59578,1,0,0:0:0:0:pi3g.wav
213,192,59662,1,0,0:0:0:0:pi4#c.wav
384,192,59747,1,0,0:0:0:0:pi4e.wav
298,192,59831,1,0,0:0:0:0:pi4g.wav
213,192,59915,1,0,0:0:0:0:pi4#c.wav
469,192,60000,1,0,0:0:0:0:pi5g.wav
128,192,60084,1,0,0:0:0:0:pi3e.wav
298,192,60168,1,0,0:0:0:0:pi3g.wav
384,192,60252,1,0,0:0:0:0:pi4#c.wav
469,192,60337,1,0,0:0:0:0:pi5e.wav
384,192,60421,1,0,0:0:0:0:pi4#c.wav
298,192,60505,1,0,0:0:0:0:pi3g.wav
128,192,60589,1,0,0:0:0:0:pi3e.wav
256,192,60674,1,0,0:0:0:0:pi5f.wav
213,192,60758,1,0,0:0:0:0:pi2f.wav
298,192,60842,1,0,0:0:0:0:pi2a.wav
384,192,60926,1,0,0:0:0:0:pi3d.wav
128,192,61011,1,0,0:0:0:0:pi3f.wav
213,192,61095,1,0,0:0:0:0:pi3a.wav
298,192,61179,1,0,0:0:0:0:pi4d.wav
384,192,61264,1,0,0:0:0:0:pi4f.wav
298,192,61348,1,0,0:0:0:0:pi4g.wav
469,192,61348,1,0,0:0:0:0:pi5g.wav
128,192,61432,1,0,0:0:0:0:pi2a.wav
384,192,61516,1,0,0:0:0:0:pi3d.wav
213,192,61601,1,0,0:0:0:0:pi3f.wav
469,192,61685,1,0,0:0:0:0:pi3a.wav
298,192,61769,1,0,0:0:0:0:pi4d.wav
384,192,61853,1,0,0:0:0:0:pi4f.wav
213,192,61938,1,0,0:0:0:0:pi4a.wav
469,192,62022,1,0,0:0:0:0:pi5a.wav
298,192,62106,1,0,0:0:0:0:pi4d.wav
384,192,62191,1,0,0:0:0:0:pi3a.wav
213,192,62275,1,0,0:0:0:0:pi3f.wav
128,192,62359,1,0,0:0:0:0:pi2a.wav
298,192,62443,1,0,0:0:0:0:pi3d.wav
213,192,62528,1,0,0:0:0:0:pi3f.wav
384,192,62612,1,0,0:0:0:0:pi3a.wav
469,192,62696,1,0,0:0:0:0:pi5c.wav
213,192,62780,1,0,0:0:0:0:pi3c.wav
384,192,62865,1,0,0:0:0:0:pi3e.wav
469,192,62949,1,0,0:0:0:0:pi3g.wav
128,192,63033,1,0,0:0:0:0:pi3e.wav
298,192,63117,1,0,0:0:0:0:pi3g.wav
213,192,63202,1,0,0:0:0:0:pi4c.wav
384,192,63286,1,0,0:0:0:0:pi4e.wav
256,192,63370,1,0,0:0:0:0:pi4a.wav
42,192,63370,1,0,0:0:0:0:cc2.wav
298,192,63455,1,0,0:0:0:0:pi4f.wav
213,192,63539,1,0,0:0:0:0:pi4d.wav
469,192,63623,1,0,0:0:0:0:pi4a.wav
298,192,63707,1,0,0:0:0:0:pi4f.wav
213,192,63792,1,0,0:0:0:0:pi4d.wav
469,192,63876,1,0,0:0:0:0:pi4a.wav
298,192,63960,1,0,0:0:0:0:pi4f.wav
213,192,64044,1,0,0:0:0:0:pi4d.wav
469,192,64129,1,0,0:0:0:0:pi4a.wav
298,192,64213,1,0,0:0:0:0:pi4f.wav
213,192,64297,1,0,0:0:0:0:pi4d.wav
469,192,64382,1,0,0:0:0:0:pi4a.wav
213,192,64466,1,0,0:0:0:0:pi4d.wav
384,192,64550,1,0,0:0:0:0:pi4#a.wav
213,192,64634,1,0,0:0:0:0:pi4d.wav
469,192,64719,1,0,0:0:0:0:pi5c.wav
298,192,64803,1,0,0:0:0:0:pi4f.wav
128,192,64887,1,0,0:0:0:0:pi4d.wav
469,192,64971,1,0,0:0:0:0:pi5c.wav
298,192,65056,1,0,0:0:0:0:pi4f.wav
128,192,65140,1,0,0:0:0:0:pi4d.wav
469,192,65224,1,0,0:0:0:0:pi5c.wav
128,192,65308,1,0,0:0:0:0:pi4d.wav
469,192,65393,1,0,0:0:0:0:pi4#a.wav
128,192,65477,1,0,0:0:0:0:pi4d.wav
384,192,65561,1,0,0:0:0:0:pi4a.wav
128,192,65646,1,0,0:0:0:0:pi4d.wav
298,192,65730,1,0,0:0:0:0:pi4f.wav
128,192,65814,1,0,0:0:0:0:pi4d.wav
469,192,65898,1,0,0:0:0:0:pi4g.wav
128,192,65983,1,0,0:0:0:0:pi4d.wav
256,192,66067,1,0,0:0:0:0:pi4e.wav
298,192,66151,1,0,0:0:0:0:pi4c.wav
128,192,66235,1,0,0:0:0:0:pi3g.wav
384,192,66320,1,0,0:0:0:0:pi4e.wav
298,192,66404,1,0,0:0:0:0:pi4c.wav
128,192,66488,1,0,0:0:0:0:pi3g.wav
384,192,66573,1,0,0:0:0:0:pi4e.wav
128,192,66657,1,0,0:0:0:0:pi3g.wav
384,192,66741,1,0,0:0:0:0:pi4e.wav
128,192,66825,1,0,0:0:0:0:pi3g.wav
298,192,66910,1,0,0:0:0:0:pi4g.wav
128,192,66994,1,0,0:0:0:0:pi3g.wav
384,192,67078,1,0,0:0:0:0:pi4b.wav
128,192,67162,1,0,0:0:0:0:pi3g.wav
469,192,67247,1,0,0:0:0:0:pi5c.wav
128,192,67331,1,0,0:0:0:0:pi3g.wav
384,192,67415,1,0,0:0:0:0:pi5e.wav
298,192,67500,1,0,0:0:0:0:pi5c.wav
128,192,67584,1,0,0:0:0:0:pi4g.wav
384,192,67668,1,0,0:0:0:0:pi5e.wav
298,192,67752,1,0,0:0:0:0:pi5c.wav
128,192,67837,1,0,0:0:0:0:pi4g.wav
384,192,67921,1,0,0:0:0:0:pi5e.wav
128,192,68005,1,0,0:0:0:0:pi4g.wav
469,192,68089,1,0,0:0:0:0:pi5g.wav
384,192,68174,1,0,0:0:0:0:pi5c.wav
213,192,68258,1,0,0:0:0:0:pi4g.wav
469,192,68342,1,0,0:0:0:0:pi5g.wav
384,192,68426,1,0,0:0:0:0:pi5c.wav
213,192,68511,1,0,0:0:0:0:pi4g.wav
469,192,68595,1,0,0:0:0:0:pi5g.wav
213,192,68679,1,0,0:0:0:0:pi4g.wav
256,192,68764,1,0,0:0:0:0:pi5c.wav
128,192,68848,1,0,0:0:0:0:pi2c.wav
298,192,68932,1,0,0:0:0:0:pi2e.wav
213,192,69016,1,0,0:0:0:0:pi2g.wav
384,192,69101,1,0,0:0:0:0:pi3c.wav
213,192,69185,1,0,0:0:0:0:pi3e.wav
384,192,69269,1,0,0:0:0:0:pi3g.wav
298,192,69353,1,0,0:0:0:0:pi4c.wav
469,192,69438,1,0,0:0:0:0:pi5c.wav
384,192,69494,1,0,0:0:0:0:pi4g.wav
213,192,69550,1,0,0:0:0:0:pi4e.wav
469,192,69606,1,0,0:0:0:0:pi4c.wav
298,192,69662,1,0,0:0:0:0:pi3g.wav
128,192,69719,1,0,0:0:0:0:pi3e.wav
384,192,69775,1,0,0:0:0:0:pi5f.wav
213,192,69859,1,0,0:0:0:0:pi5c.wav
298,192,69943,1,0,0:0:0:0:pi4a.wav
128,192,70028,1,0,0:0:0:0:pi4f.wav
469,192,70112,1,0,0:0:0:0:pi5#c.wav
128,192,70196,1,0,0:0:0:0:pi3#c.wav
298,192,70280,1,0,0:0:0:0:pi3e.wav
469,192,70365,1,0,0:0:0:0:pi3g.wav
213,192,70449,1,0,0:0:0:0:pi4#c.wav
384,192,70533,1,0,0:0:0:0:pi4e.wav
298,192,70617,1,0,0:0:0:0:pi4g.wav
213,192,70702,1,0,0:0:0:0:pi4#c.wav
469,192,70786,1,0,0:0:0:0:pi5g.wav
128,192,70870,1,0,0:0:0:0:pi3e.wav
298,192,70955,1,0,0:0:0:0:pi3g.wav
384,192,71039,1,0,0:0:0:0:pi4#c.wav
469,192,71123,1,0,0:0:0:0:pi5e.wav
384,192,71207,1,0,0:0:0:0:pi4#c.wav
298,192,71292,1,0,0:0:0:0:pi3g.wav
128,192,71376,1,0,0:0:0:0:pi3e.wav
256,192,71460,1,0,0:0:0:0:pi5f.wav
213,192,71544,1,0,0:0:0:0:pi2f.wav
298,192,71629,1,0,0:0:0:0:pi2a.wav
384,192,71713,1,0,0:0:0:0:pi3d.wav
128,192,71797,1,0,0:0:0:0:pi3f.wav
213,192,71882,1,0,0:0:0:0:pi3a.wav
298,192,71966,1,0,0:0:0:0:pi4d.wav
384,192,72050,1,0,0:0:0:0:pi4f.wav
298,192,72134,1,0,0:0:0:0:pi4g.wav
469,192,72134,1,0,0:0:0:0:pi5g.wav
128,192,72219,1,0,0:0:0:0:pi2a.wav
384,192,72303,1,0,0:0:0:0:pi3d.wav
213,192,72387,1,0,0:0:0:0:pi3f.wav
469,192,72471,1,0,0:0:0:0:pi3a.wav
298,192,72556,1,0,0:0:0:0:pi4d.wav
384,192,72640,1,0,0:0:0:0:pi4f.wav
213,192,72724,1,0,0:0:0:0:pi4a.wav
469,192,72808,1,0,0:0:0:0:pi5a.wav
298,192,72893,1,0,0:0:0:0:pi4d.wav
384,192,72977,1,0,0:0:0:0:pi3a.wav
213,192,73061,1,0,0:0:0:0:pi3f.wav
128,192,73146,1,0,0:0:0:0:pi2a.wav
298,192,73230,1,0,0:0:0:0:pi3d.wav
213,192,73314,1,0,0:0:0:0:pi3f.wav
384,192,73398,1,0,0:0:0:0:pi3a.wav
469,192,73483,1,0,0:0:0:0:pi5c.wav
213,192,73567,1,0,0:0:0:0:pi3c.wav
384,192,73651,1,0,0:0:0:0:pi3e.wav
469,192,73735,1,0,0:0:0:0:pi3g.wav
128,192,73820,1,0,0:0:0:0:pi3e.wav
298,192,73904,1,0,0:0:0:0:pi3g.wav
213,192,73988,1,0,0:0:0:0:pi4c.wav
384,192,74073,1,0,0:0:0:0:pi4e.wav
256,192,74157,1,0,0:0:0:0:bpi3.wav
42,192,74157,1,0,0:0:0:0:cc.wav
213,192,74662,1,0,0:0:0:0:bpi1.wav
128,192,75842,1,0,0:0:0:0:bpi1.wav
213,192,76179,1,0,0:0:0:0:bpi3.wav
256,192,76432,1,0,0:0:0:0:bpi4.wav
384,192,76629,1,0,0:0:0:0:bpi5.wav
469,192,76853,1,0,0:0:0:0:bpi6.wav
469,192,78202,1,0,0:0:0:0:bpi7.wav
384,192,78707,1,0,0:0:0:0:bpi6.wav
298,192,79213,1,0,0:0:0:0:bpi5.wav
213,192,79550,1,0,0:0:0:0:bpi2.wav
128,192,80898,1,0,0:0:0:0:bpi1.wav
469,192,81404,1,0,0:0:0:0:bpi5.wav
384,192,81910,1,0,0:0:0:0:bpi4.wav
213,192,82247,1,0,0:0:0:0:bpi2.wav
298,192,82752,1,0,0:0:0:0:bpi3.wav
42,192,83258,1,0,0:0:0:0:rev.wav
128,192,83764,1,0,0:0:0:0:kick1.wav
469,192,83764,1,0,0:0:0:0:kick2.wav
128,192,84101,1,0,0:0:0:0:kick1.wav
469,192,84101,1,0,0:0:0:0:kick2.wav
128,192,84438,1,0,0:0:0:0:kick1.wav
469,192,84438,1,0,0:0:0:0:kick2.wav
213,192,84606,1,0,0:0:0:0:kick2.wav
384,192,84691,1,0,0:0:0:0:kick2.wav
213,192,84775,1,0,0:0:0:0:kick2.wav
384,192,84859,1,0,0:0:0:0:kick2.wav
128,192,84943,1,0,0:0:0:0:kick1.wav
298,192,84943,1,0,0:0:0:0:bpi3.wav
42,192,84943,1,0,0:0:0:0:cc2.wav
128,192,85280,1,0,0:0:0:0:kick1.wav
469,192,85280,1,0,0:0:0:0:clap.wav
213,192,85449,1,0,0:0:0:0:bpi1.wav
128,192,85617,1,0,0:0:0:0:kick1.wav
128,192,85955,1,0,0:0:0:0:kick1.wav
469,192,85955,1,0,0:0:0:0:clap.wav
128,192,86292,1,0,0:0:0:0:kick1.wav
128,192,86629,1,0,0:0:0:0:kick1.wav
298,192,86629,1,0,0:0:0:0:bpi1.wav
469,192,86629,1,0,0:0:0:0:clap.wav
128,192,86966,1,0,0:0:0:0:kick1.wav
384,192,86966,1,0,0:0:0:0:bpi3.wav
213,192,87191,1,0,0:0:0:0:bpi4.wav
128,192,87303,1,0,0:0:0:0:kick1.wav
469,192,87303,1,0,0:0:0:0:clap.wav
384,192,87415,1,0,0:0:0:0:bpi5.wav
128,192,87640,1,0,0:0:0:0:kick1.wav
256,192,87640,1,0,0:0:0:0:bpi6.wav
128,192,87977,1,0,0:0:0:0:kick1.wav
469,192,87977,1,0,0:0:0:0:clap.wav
128,192,88314,1,0,0:0:0:0:kick1.wav
128,192,88651,1,0,0:0:0:0:kick1.wav
469,192,88651,1,0,0:0:0:0:clap.wav
128,192,88988,1,0,0:0:0:0:kick1.wav
384,192,88988,1,0,0:0:0:0:bpi7.wav
128,192,89325,1,0,0:0:0:0:kick1.wav
469,192,89325,1,0,0:0:0:0:clap.wav
384,192,89494,1,0,0:0:0:0:bpi6.wav
128,192,89662,1,0,0:0:0:0:kick1.wav
128,192,90000,1,0,0:0:0:0:kick1.wav
469,192,90000,1,0,0:0:0:0:bpi8.wav
128,192,90337,1,0,0:0:0:0:kick1.wav
384,192,90337,1,0,0:0:0:0:bpi7.wav
128,192,90674,1,0,0:0:0:0:kick1.wav
469,192,90674,1,0,0:0:0:0:clap.wav
128,192,91011,1,0,0:0:0:0:kick1.wav
128,192,91348,1,0,0:0:0:0:kick1.wav
469,192,91348,1,0,0:0:0:0:clap.wav
128,192,91685,1,0,0:0:0:0:kick1.wav
298,192,91685,1,0,0:0:0:0:bpi1.wav
128,192,92022,1,0,0:0:0:0:kick1.wav
469,192,92022,1,0,0:0:0:0:clap.wav
213,192,92191,1,0,0:0:0:0:bpi5.wav
128,192,92359,1,0,0:0:0:0:kick1.wav
128,192,92696,1,0,0:0:0:0:kick1.wav
298,192,92696,1,0,0:0:0:0:bpi4.wav
128,192,93033,1,0,0:0:0:0:kick1.wav
384,192,93033,1,0,0:0:0:0:bpi6.wav
128,192,93370,1,0,0:0:0:0:kick1.wav
469,192,93370,1,0,0:0:0:0:clap.wav
256,192,93539,1,0,0:0:0:0:bpi5.wav
128,192,93707,1,0,0:0:0:0:kick1.wav
128,192,94044,1,0,0:0:0:0:kick1.wav
298,192,94044,1,0,0:0:0:0:bpi4.wav
469,192,94044,1,0,0:0:0:0:clap.wav
384,192,94382,1,0,0:0:0:0:bpi5.wav
128,192,95730,1,0,0:0:0:0:seqq1.wav
42,192,95730,1,0,0:0:0:0:cc.wav
298,192,95814,1,0,0:0:0:0:seqq1.wav
128,192,95898,1,0,0:0:0:0:seqq1.wav
298,192,95983,1,0,0:0:0:0:seqq1.wav
128,192,96067,1,0,0:0:0:0:seqq1.wav
128,192,96235,1,0,0:0:0:0:seqq1.wav
298,192,96320,1,0,0:0:0:0:seqq1.wav
128,192,96404,1,0,0:0:0:0:seqq1.wav
298,192,96488,1,0,0:0:0:0:seqq1.wav
128,192,96573,1,0,0:0:0:0:seqq1.wav
213,192,96741,1,0,0:0:0:0:seqq2.wav
384,192,96825,1,0,0:0:0:0:seqq2.wav
213,192,96910,1,0,0:0:0:0:seqq2.wav
384,192,96994,1,0,0:0:0:0:seqq2.wav
256,192,97078,1,0,0:0:0:0:seqq3.wav
469,192,97162,1,0,0:0:0:0:seqq3.wav
298,192,97247,1,0,0:0:0:0:seqq3.wav
469,192,97331,1,0,0:0:0:0:seqq3.wav
298,192,97415,1,0,0:0:0:0:seqq3.wav
298,192,97584,1,0,0:0:0:0:seqq3.wav
469,192,97668,1,0,0:0:0:0:seqq3.wav
298,192,97752,1,0,0:0:0:0:seqq3.wav
469,192,97837,1,0,0:0:0:0:seqq3.wav
298,192,97921,1,0,0:0:0:0:seqq3.wav
384,192,98089,1,0,0:0:0:0:seqq4.wav
213,192,98174,1,0,0:0:0:0:seqq4.wav
384,192,98258,1,0,0:0:0:0:seqq4.wav
213,192,98342,1,0,0:0:0:0:seqq4.wav
256,192,98426,1,0,0:0:0:0:seqq5.wav
128,192,98511,1,0,0:0:0:0:seqq5.wav
469,192,98595,1,0,0:0:0:0:seqq5.wav
128,192,98679,1,0,0:0:0:0:seqq5.wav
469,192,98764,1,0,0:0:0:0:seqq5.wav
469,192,98932,1,0,0:0:0:0:seqq5.wav
128,192,99016,1,0,0:0:0:0:seqq5.wav
469,192,99101,1,0,0:0:0:0:seqq5.wav
128,192,99185,1,0,0:0:0:0:seqq5.wav
469,192,99269,1,0,0:0:0:0:seqq5.wav
469,192,99438,1,0,0:0:0:0:seqq6.wav
298,192,99522,1,0,0:0:0:0:seqq6.wav
128,192,99606,1,0,0:0:0:0:seqq7.wav
298,192,99691,1,0,0:0:0:0:seqq7.wav
256,192,99775,1,0,0:0:0:0:seqq2.wav
213,192,99859,1,0,0:0:0:0:seqq2.wav
384,192,99943,1,0,0:0:0:0:seqq2.wav
213,192,100028,1,0,0:0:0:0:seqq2.wav
384,192,100112,1,0,0:0:0:0:seqq2.wav
384,192,100280,1,0,0:0:0:0:seqq2.wav
213,192,100365,1,0,0:0:0:0:seqq2.wav
384,192,100449,1,0,0:0:0:0:seqq2.wav
213,192,100533,1,0,0:0:0:0:seqq2.wav
384,192,100617,1,0,0:0:0:0:seqq2.wav
384,192,100786,1,0,0:0:0:0:seqq2.wav
213,192,100870,1,0,0:0:0:0:seqq2.wav
384,192,100955,1,0,0:0:0:0:seqq2.wav
213,192,101039,1,0,0:0:0:0:seqq2.wav
256,192,101123,1,0,0:0:0:0:seqq8.wav
128,192,101207,1,0,0:0:0:0:seqq8.wav
469,192,101292,1,0,0:0:0:0:seqq8.wav
128,192,101376,1,0,0:0:0:0:seqq8.wav
469,192,101460,1,0,0:0:0:0:seqq8.wav
469,192,101629,1,0,0:0:0:0:seqq8.wav
128,192,101713,1,0,0:0:0:0:seqq8.wav
469,192,101797,1,0,0:0:0:0:seqq8.wav
128,192,101882,1,0,0:0:0:0:seqq8.wav
469,192,101966,1,0,0:0:0:0:seqq8.wav
213,192,102134,1,0,0:0:0:0:seqq9.wav
384,192,102219,1,0,0:0:0:0:seqq9.wav
213,192,102303,1,0,0:0:0:0:seqq9.wav
384,192,102387,1,0,0:0:0:0:seqq9.wav
256,192,102471,1,0,0:0:0:0:seqq10.wav
384,192,102556,1,0,0:0:0:0:seqq10.wav
128,192,102640,1,0,0:0:0:0:seqq10.wav
384,192,102724,1,0,0:0:0:0:seqq10.wav
128,192,102808,1,0,0:0:0:0:seqq10.wav
128,192,102977,1,0,0:0:0:0:seqq10.wav
384,192,103061,1,0,0:0:0:0:seqq10.wav
128,192,103146,1,0,0:0:0:0:seqq10.wav
384,192,103230,1,0,0:0:0:0:seqq10.wav
128,192,103314,1,0,0:0:0:0:seqq10.wav
298,192,103483,1,0,0:0:0:0:seqq11.wav
469,192,103567,1,0,0:0:0:0:seqq11.wav
298,192,103651,1,0,0:0:0:0:seqq11.wav
469,192,103735,1,0,0:0:0:0:seqq11.wav
256,192,103820,1,0,0:0:0:0:seqq12.wav
384,192,103904,1,0,0:0:0:0:seqq12.wav
213,192,103988,1,0,0:0:0:0:seqq12.wav
384,192,104073,1,0,0:0:0:0:seqq12.wav
213,192,104157,1,0,0:0:0:0:seqq12.wav
213,192,104325,1,0,0:0:0:0:seqq12.wav
384,192,104410,1,0,0:0:0:0:seqq12.wav
213,192,104494,1,0,0:0:0:0:seqq12.wav
384,192,104578,1,0,0:0:0:0:seqq12.wav
213,192,104662,1,0,0:0:0:0:seqq12.wav
469,192,104831,1,0,0:0:0:0:seqq12.wav
128,192,104915,1,0,0:0:0:0:seqq12.wav
469,192,105000,1,0,0:0:0:0:seqq12.wav
128,192,105084,1,0,0:0:0:0:seqq12.wav
213,192,105168,1,0,0:0:0:0:seq13.wav
384,192,105168,1,0,0:0:0:0:seqq13.wav
298,192,105252,1,0,0:0:0:0:seq13.wav
213,192,105337,1,0,0:0:0:0:seq13.wav
384,192,105337,1,0,0:0:0:0:seqq13.wav
298,192,105421,1,0,0:0:0:0:seq13.wav
213,192,105505,1,0,0:0:0:0:seq13.wav
384,192,105505,1,0,0:0:0:0:seqq13.wav
128,192,105674,1,0,0:0:0:0:seq13.wav
469,192,105674,1,0,0:0:0:0:seqq13.wav
298,192,105758,1,0,0:0:0:0:seq13.wav
128,192,105842,1,0,0:0:0:0:seq13.wav
469,192,105842,1,0,0:0:0:0:seqq13.wav
298,192,105926,1,0,0:0:0:0:seq13.wav
128,192,106011,1,0,0:0:0:0:seq13.wav
469,192,106011,1,0,0:0:0:0:seqq13.wav
213,192,106179,1,0,0:0:0:0:seq13.wav
384,192,106179,1,0,0:0:0:0:seqq13.wav
298,192,106264,1,0,0:0:0:0:seq13.wav
213,192,106348,1,0,0:0:0:0:seq13.wav
384,192,106348,1,0,0:0:0:0:seqq13.wav
298,192,106432,1,0,0:0:0:0:seq13.wav
469,192,106516,1,0,0:0:0:0:pi4a.wav
42,192,106516,1,0,0:0:0:0:cc2.wav
298,192,106601,1,0,0:0:0:0:pi4f.wav
213,192,106685,1,0,0:0:0:0:pi4d.wav
469,192,106769,1,0,0:0:0:0:pi4a.wav
298,192,106853,1,0,0:0:0:0:pi4f.wav
213,192,106938,1,0,0:0:0:0:pi4d.wav
469,192,107022,1,0,0:0:0:0:pi4a.wav
298,192,107106,1,0,0:0:0:0:pi4f.wav
213,192,107191,1,0,0:0:0:0:pi4d.wav
469,192,107275,1,0,0:0:0:0:pi4a.wav
298,192,107359,1,0,0:0:0:0:pi4f.wav
213,192,107443,1,0,0:0:0:0:pi4d.wav
469,192,107528,1,0,0:0:0:0:pi4a.wav
213,192,107612,1,0,0:0:0:0:pi4d.wav
384,192,107696,1,0,0:0:0:0:pi4#a.wav
213,192,107780,1,0,0:0:0:0:pi4d.wav
469,192,107865,1,0,0:0:0:0:pi5c.wav
298,192,107949,1,0,0:0:0:0:pi4f.wav
128,192,108033,1,0,0:0:0:0:pi4d.wav
469,192,108117,1,0,0:0:0:0:pi5c.wav
298,192,108202,1,0,0:0:0:0:pi4f.wav
128,192,108286,1,0,0:0:0:0:pi4d.wav
469,192,108370,1,0,0:0:0:0:pi5c.wav
128,192,108455,1,0,0:0:0:0:pi4d.wav
469,192,108539,1,0,0:0:0:0:pi4#a.wav
128,192,108623,1,0,0:0:0:0:pi4d.wav
384,192,108707,1,0,0:0:0:0:pi4a.wav
128,192,108792,1,0,0:0:0:0:pi4d.wav
298,192,108876,1,0,0:0:0:0:pi4f.wav
128,192,108960,1,0,0:0:0:0:pi4d.wav
469,192,109044,1,0,0:0:0:0:pi4g.wav
128,192,109129,1,0,0:0:0:0:pi4d.wav
256,192,109213,1,0,0:0:0:0:pi4e.wav
298,192,109297,1,0,0:0:0:0:pi4c.wav
128,192,109382,1,0,0:0:0:0:pi3g.wav
384,192,109466,1,0,0:0:0:0:pi4e.wav
298,192,109550,1,0,0:0:0:0:pi4c.wav
128,192,109634,1,0,0:0:0:0:pi3g.wav
384,192,109719,1,0,0:0:0:0:pi4e.wav
128,192,109803,1,0,0:0:0:0:pi3g.wav
384,192,109887,1,0,0:0:0:0:pi4e.wav
128,192,109971,1,0,0:0:0:0:pi3g.wav
298,192,110056,1,0,0:0:0:0:pi4g.wav
128,192,110140,1,0,0:0:0:0:pi3g.wav
384,192,110224,1,0,0:0:0:0:pi4b.wav
128,192,110308,1,0,0:0:0:0:pi3g.wav
469,192,110393,1,0,0:0:0:0:pi5c.wav
128,192,110477,1,0,0:0:0:0:pi3g.wav
384,192,110561,1,0,0:0:0:0:pi5e.wav
298,192,110646,1,0,0:0:0:0:pi5c.wav
128,192,110730,1,0,0:0:0:0:pi4g.wav
384,192,110814,1,0,0:0:0:0:pi5e.wav
298,192,110898,1,0,0:0:0:0:pi5c.wav
128,192,110983,1,0,0:0:0:0:pi4g.wav
384,192,111067,1,0,0:0:0:0:pi5e.wav
128,192,111151,1,0,0:0:0:0:pi4g.wav
469,192,111235,1,0,0:0:0:0:pi5g.wav
384,192,111320,1,0,0:0:0:0:pi5c.wav
213,192,111404,1,0,0:0:0:0:pi4g.wav
469,192,111488,1,0,0:0:0:0:pi5g.wav
384,192,111573,1,0,0:0:0:0:pi5c.wav
213,192,111657,1,0,0:0:0:0:pi4g.wav
469,192,111741,1,0,0:0:0:0:pi5g.wav
213,192,111825,1,0,0:0:0:0:pi4g.wav
256,192,111910,1,0,0:0:0:0:pi5c.wav
128,192,111994,1,0,0:0:0:0:pi2c.wav
298,192,112078,1,0,0:0:0:0:pi2e.wav
213,192,112162,1,0,0:0:0:0:pi2g.wav
384,192,112247,1,0,0:0:0:0:pi3c.wav
213,192,112331,1,0,0:0:0:0:pi3e.wav
384,192,112415,1,0,0:0:0:0:pi3g.wav
298,192,112500,1,0,0:0:0:0:pi4c.wav
469,192,112584,1,0,0:0:0:0:pi5c.wav
384,192,112640,1,0,0:0:0:0:pi4g.wav
213,192,112696,1,0,0:0:0:0:pi4e.wav
469,192,112752,1,0,0:0:0:0:pi4c.wav
298,192,112808,1,0,0:0:0:0:pi3g.wav
128,192,112865,1,0,0:0:0:0:pi3e.wav
384,192,112921,1,0,0:0:0:0:pi5f.wav
213,192,113005,1,0,0:0:0:0:pi5c.wav
298,192,113089,1,0,0:0:0:0:pi4a.wav
128,192,113174,1,0,0:0:0:0:pi4f.wav
469,192,113258,1,0,0:0:0:0:pi5#c.wav
128,192,113342,1,0,0:0:0:0:pi3#c.wav
298,192,113426,1,0,0:0:0:0:pi3e.wav
469,192,113511,1,0,0:0:0:0:pi3g.wav
213,192,113595,1,0,0:0:0:0:pi4#c.wav
384,192,113679,1,0,0:0:0:0:pi4e.wav
298,192,113764,1,0,0:0:0:0:pi4g.wav
213,192,113848,1,0,0:0:0:0:pi4#c.wav
469,192,113932,1,0,0:0:0:0:pi5g.wav
128,192,114016,1,0,0:0:0:0:pi3e.wav
298,192,114101,1,0,0:0:0:0:pi3g.wav
384,192,114185,1,0,0:0:0:0:pi4#c.wav
469,192,114269,1,0,0:0:0:0:pi5e.wav
384,192,114353,1,0,0:0:0:0:pi4#c.wav
298,192,114438,1,0,0:0:0:0:pi3g.wav
128,192,114522,1,0,0:0:0:0:pi3e.wav
256,192,114606,1,0,0:0:0:0:pi5f.wav
213,192,114691,1,0,0:0:0:0:pi2f.wav
298,192,114775,1,0,0:0:0:0:pi2a.wav
384,192,114859,1,0,0:0:0:0:pi3d.wav
128,192,114943,1,0,0:0:0:0:pi3f.wav
213,192,115028,1,0,0:0:0:0:pi3a.wav
298,192,115112,1,0,0:0:0:0:pi4d.wav
384,192,115196,1,0,0:0:0:0:pi4f.wav
298,192,115280,1,0,0:0:0:0:pi4g.wav
469,192,115280,1,0,0:0:0:0:pi5g.wav
128,192,115365,1,0,0:0:0:0:pi2a.wav
384,192,115449,1,0,0:0:0:0:pi3d.wav
213,192,115533,1,0,0:0:0:0:pi3f.wav
469,192,115617,1,0,0:0:0:0:pi3a.wav
298,192,115702,1,0,0:0:0:0:pi4d.wav
384,192,115786,1,0,0:0:0:0:pi4f.wav
213,192,115870,1,0,0:0:0:0:pi4a.wav
469,192,115955,1,0,0:0:0:0:pi5a.wav
298,192,116039,1,0,0:0:0:0:pi4d.wav
384,192,116123,1,0,0:0:0:0:pi3a.wav
213,192,116207,1,0,0:0:0:0:pi3f.wav
128,192,116292,1,0,0:0:0:0:pi2a.wav
298,192,116376,1,0,0:0:0:0:pi3d.wav
213,192,116460,1,0,0:0:0:0:pi3f.wav
384,192,116544,1,0,0:0:0:0:pi3a.wav
469,192,116629,1,0,0:0:0:0:pi5c.wav
213,192,116713,1,0,0:0:0:0:pi3c.wav
384,192,116797,1,0,0:0:0:0:pi3e.wav
469,192,116882,1,0,0:0:0:0:pi3g.wav
128,192,116966,1,0,0:0:0:0:pi3e.wav
298,192,117050,1,0,0:0:0:0:pi3g.wav
213,192,117134,1,0,0:0:0:0:pi4c.wav
384,192,117219,1,0,0:0:0:0:pi4e.wav
256,192,117303,1,0,0:0:0:0:pi4d.wav
