osu file format v14

[General]
AudioFilename: audio.mp3
AudioLeadIn: 0
PreviewTime: -2
Countdown: 1
SampleSet: Soft
StackLeniency: 0.7
Mode: 3
LetterboxInBreaks: 0
SpecialStyle: 0
WidescreenStoryboard: 0

[Editor]
DistanceSpacing: 0.7
BeatDivisor: 4
GridSize: 4
TimelineZoom: 1.8

[Metadata]
Title:METATRON
TitleUnicode:METATRON
Artist:SHIKI
ArtistUnicode:SHIKI
Creator:My Angel Hibiki
Version:zap
Source:
Tags:
BeatmapID:1623260
BeatmapSetID:772165

[Difficulty]
HPDrainRate:8
CircleSize:4
OverallDifficulty:8
ApproachRate:5
SliderMultiplier:1.4
SliderTickRate:1

[Events]
//Background and Video events
//Break Periods
//Storyboard Layer 0 (Background)
//Storyboard Layer 1 (Fail)
//Storyboard Layer 2 (Pass)
//Storyboard Layer 3 (Foreground)
//Storyboard Sound Samples

[TimingPoints]
1375.39385446027,315.789473684211,4,2,0,20,1,0

[HitObjects]
64,192,1373,128,0,2004:0:0:0:0:
192,192,1373,1,0,0:0:0:0:
448,192,1529,1,0,0:0:0:0:
320,192,1608,1,0,0:0:0:0:
448,192,1687,1,0,0:0:0:0:
192,192,1687,1,0,0:0:0:0:
320,192,1766,1,0,0:0:0:0:
192,192,1845,1,0,0:0:0:0:
448,192,1924,1,0,0:0:0:0:
320,192,2002,1,0,0:0:0:0:
192,192,2002,1,0,0:0:0:0:
64,192,2160,1,0,0:0:0:0:
448,192,2160,1,0,0:0:0:0:
448,192,2318,1,0,0:0:0:0:
192,192,2318,1,0,0:0:0:0:
64,192,2634,1,0,0:0:0:0:
192,192,2634,1,0,0:0:0:0:
64,192,2792,128,0,3108:0:0:0:0:
320,192,2792,1,0,0:0:0:0:
448,192,2950,1,0,0:0:0:0:
192,192,3108,128,0,3424:0:0:0:0:
320,192,3108,1,0,0:0:0:0:
64,192,3266,1,0,0:0:0:0:
448,192,3424,1,0,0:0:0:0:
320,192,3424,128,0,3739:0:0:0:0:
64,192,3581,1,0,0:0:0:0:
192,192,3739,1,0,0:0:0:0:
448,192,3739,128,0,4055:0:0:0:0:
192,192,4055,128,0,4371:0:0:0:0:
64,192,4055,1,0,0:0:0:0:
320,192,4213,1,0,0:0:0:0:
64,192,4371,128,0,4687:0:0:0:0:
448,192,4371,1,0,0:0:0:0:
192,192,4529,1,0,0:0:0:0:
320,192,4687,128,0,5002:0:0:0:0:
448,192,4687,1,0,0:0:0:0:
64,192,4845,1,0,0:0:0:0:
448,192,5002,128,0,5318:0:0:0:0:
192,192,5002,1,0,0:0:0:0:
64,192,5160,1,0,0:0:0:0:
64,192,5318,128,0,5634:0:0:0:0:
320,192,5318,1,0,0:0:0:0:
192,192,5476,1,0,0:0:0:0:
320,192,5634,128,0,5950:0:0:0:0:
448,192,5634,1,0,0:0:0:0:
64,192,5792,1,0,0:0:0:0:
192,192,5950,128,0,6266:0:0:0:0:
448,192,5950,1,0,0:0:0:0:
320,192,6108,1,0,0:0:0:0:
448,192,6266,128,0,6581:0:0:0:0:
64,192,6266,1,0,0:0:0:0:
320,192,6424,1,0,0:0:0:0:
192,192,6502,1,0,0:0:0:0:
64,192,6581,1,0,0:0:0:0:
320,192,6581,128,0,6897:0:0:0:0:
192,192,6660,1,0,0:0:0:0:
64,192,6739,1,0,0:0:0:0:
192,192,6818,1,0,0:0:0:0:
64,192,6897,1,0,0:0:0:0:
448,192,6897,1,0,0:0:0:0:
192,192,6976,1,0,0:0:0:0:
64,192,7055,1,0,0:0:0:0:
192,192,7095,1,0,0:0:0:0:
320,192,7134,1,0,0:0:0:0:
448,192,7174,1,0,0:0:0:0:
64,192,7213,1,0,0:0:0:0:
192,192,7213,1,0,0:0:0:0:
320,192,7292,1,0,0:0:0:0:
448,192,7371,1,0,0:0:0:0:
320,192,7450,1,0,0:0:0:0:
448,192,7529,1,0,0:0:0:0:
192,192,7529,1,0,0:0:0:0:
64,192,7608,1,0,0:0:0:0:
448,192,7687,1,0,0:0:0:0:
320,192,7687,1,0,0:0:0:0:
192,192,7687,1,0,0:0:0:0:
448,192,7845,128,0,8160:0:0:0:0:
64,192,7845,1,0,0:0:0:0:
192,192,8002,1,0,0:0:0:0:
320,192,8160,128,0,8476:0:0:0:0:
64,192,8160,1,0,0:0:0:0:
448,192,8318,1,0,0:0:0:0:
64,192,8476,1,0,0:0:0:0:
192,192,8476,128,0,8792:0:0:0:0:
448,192,8634,1,0,0:0:0:0:
320,192,8792,1,0,0:0:0:0:
64,192,8792,128,0,9108:0:0:0:0:
448,192,9108,128,0,9424:0:0:0:0:
320,192,9108,1,0,0:0:0:0:
64,192,9266,1,0,0:0:0:0:
192,192,9424,128,0,9739:0:0:0:0:
320,192,9424,1,0,0:0:0:0:
448,192,9581,1,0,0:0:0:0:
64,192,9739,128,0,10055:0:0:0:0:
320,192,9739,1,0,0:0:0:0:
448,192,9897,1,0,0:0:0:0:
192,192,10055,1,0,0:0:0:0:
320,192,10213,1,0,0:0:0:0:
448,192,10213,1,0,0:0:0:0:
448,192,10371,1,0,0:0:0:0:
320,192,10371,1,0,0:0:0:0:
192,192,10529,1,0,0:0:0:0:
64,192,10687,1,0,0:0:0:0:
192,192,10766,1,0,0:0:0:0:
320,192,10845,1,0,0:0:0:0:
448,192,10845,1,0,0:0:0:0:
320,192,11002,1,0,0:0:0:0:
448,192,11002,1,0,0:0:0:0:
64,192,11160,1,0,0:0:0:0:
192,192,11160,1,0,0:0:0:0:
320,192,11239,1,0,0:0:0:0:
448,192,11239,1,0,0:0:0:0:
192,192,11318,1,0,0:0:0:0:
64,192,11318,1,0,0:0:0:0:
320,192,11397,1,0,0:0:0:0:
448,192,11397,1,0,0:0:0:0:
192,192,11476,1,0,0:0:0:0:
64,192,11476,128,0,12108:0:0:0:0:
320,192,11792,1,0,0:0:0:0:
448,192,11792,1,0,0:0:0:0:
320,192,12108,1,0,0:0:0:0:
448,192,12108,1,0,0:0:0:0:
192,192,12266,128,0,12424:0:0:0:0:
64,192,12424,128,0,12581:0:0:0:0:
448,192,12424,1,0,0:0:0:0:
320,192,12581,128,0,12739:0:0:0:0:
448,192,12739,128,0,13371:0:0:0:0:
64,192,12739,1,0,0:0:0:0:
64,192,12897,1,0,0:0:0:0:
320,192,13055,1,0,0:0:0:0:
192,192,13055,1,0,0:0:0:0:
192,192,13213,1,0,0:0:0:0:
320,192,13371,128,0,13845:0:0:0:0:
64,192,13371,1,0,0:0:0:0:
64,192,13529,1,0,0:0:0:0:
448,192,13687,1,0,0:0:0:0:
192,192,13687,1,0,0:0:0:0:
192,192,13845,128,0,15266:0:0:0:0:
64,192,14002,1,0,0:0:0:0:
448,192,14002,1,0,0:0:0:0:
448,192,14160,1,0,0:0:0:0:
320,192,14318,1,0,0:0:0:0:
64,192,14318,1,0,0:0:0:0:
64,192,14476,1,0,0:0:0:0:
320,192,14634,1,0,0:0:0:0:
448,192,14634,1,0,0:0:0:0:
448,192,14792,1,0,0:0:0:0:
64,192,14950,1,0,0:0:0:0:
320,192,14950,1,0,0:0:0:0:
320,192,15108,1,0,0:0:0:0:
64,192,15266,128,0,15897:0:0:0:0:
448,192,15266,1,0,0:0:0:0:
448,192,15424,1,0,0:0:0:0:
320,192,15502,1,0,0:0:0:0:
192,192,15581,1,0,0:0:0:0:
448,192,15581,1,0,0:0:0:0:
448,192,15739,1,0,0:0:0:0:
192,192,15897,128,0,16213:0:0:0:0:
320,192,15897,1,0,0:0:0:0:
320,192,16055,1,0,0:0:0:0:
64,192,16213,1,0,0:0:0:0:
448,192,16213,1,0,0:0:0:0:
192,192,16371,128,0,17160:0:0:0:0:
320,192,16529,1,0,0:0:0:0:
448,192,16529,1,0,0:0:0:0:
320,192,16687,1,0,0:0:0:0:
64,192,16845,1,0,0:0:0:0:
448,192,16845,1,0,0:0:0:0:
64,192,17002,1,0,0:0:0:0:
320,192,17160,1,0,0:0:0:0:
448,192,17160,1,0,0:0:0:0:
320,192,17318,128,0,17476:0:0:0:0:
64,192,17397,1,0,0:0:0:0:
192,192,17476,1,0,0:0:0:0:
448,192,17476,128,0,17634:0:0:0:0:
192,192,17634,128,0,17792:0:0:0:0:
64,192,17792,128,0,18424:0:0:0:0:
448,192,17792,1,0,0:0:0:0:
448,192,17950,1,0,0:0:0:0:
192,192,18108,1,0,0:0:0:0:
320,192,18108,1,0,0:0:0:0:
320,192,18266,1,0,0:0:0:0:
192,192,18424,128,0,18897:0:0:0:0:
448,192,18424,1,0,0:0:0:0:
448,192,18581,1,0,0:0:0:0:
64,192,18739,1,0,0:0:0:0:
320,192,18739,1,0,0:0:0:0:
320,192,18897,128,0,20002:0:0:0:0:
64,192,19055,1,0,0:0:0:0:
192,192,19055,1,0,0:0:0:0:
64,192,19213,1,0,0:0:0:0:
192,192,19371,1,0,0:0:0:0:
448,192,19371,1,0,0:0:0:0:
448,192,19529,1,0,0:0:0:0:
64,192,19687,1,0,0:0:0:0:
192,192,19687,1,0,0:0:0:0:
448,192,19845,1,0,0:0:0:0:
64,192,20002,128,0,20318:0:0:0:0:
192,192,20002,1,0,0:0:0:0:
192,192,20160,1,0,0:0:0:0:
320,192,20318,128,0,21581:0:0:0:0:
448,192,20318,1,0,0:0:0:0:
448,192,20476,1,0,0:0:0:0:
64,192,20555,1,0,0:0:0:0:
192,192,20634,1,0,0:0:0:0:
448,192,20634,1,0,0:0:0:0:
192,192,20792,1,0,0:0:0:0:
64,192,20950,1,0,0:0:0:0:
448,192,20950,1,0,0:0:0:0:
64,192,21108,1,0,0:0:0:0:
192,192,21266,1,0,0:0:0:0:
448,192,21266,1,0,0:0:0:0:
64,192,21581,1,0,0:0:0:0:
192,192,21581,1,0,0:0:0:0:
448,192,21581,1,0,0:0:0:0:
320,192,21739,1,0,0:0:0:0:
64,192,21897,1,0,0:0:0:0:
448,192,21897,1,0,0:0:0:0:
192,192,22055,128,0,22371:0:0:0:0:
320,192,22213,1,0,0:0:0:0:
448,192,22371,128,0,22529:0:0:0:0:
64,192,22529,128,0,22687:0:0:0:0:
320,192,22529,1,0,0:0:0:0:
448,192,22687,128,0,22845:0:0:0:0:
64,192,22845,128,0,23476:0:0:0:0:
448,192,23002,1,0,0:0:0:0:
192,192,23160,1,0,0:0:0:0:
320,192,23160,1,0,0:0:0:0:
448,192,23318,1,0,0:0:0:0:
320,192,23476,1,0,0:0:0:0:
448,192,23634,128,0,23792:0:0:0:0:
192,192,23792,128,0,23950:0:0:0:0:
64,192,23792,1,0,0:0:0:0:
320,192,23950,128,0,24108:0:0:0:0:
64,192,24108,128,0,24739:0:0:0:0:
448,192,24266,1,0,0:0:0:0:
320,192,24424,1,0,0:0:0:0:
192,192,24424,1,0,0:0:0:0:
448,192,24581,1,0,0:0:0:0:
192,192,24739,1,0,0:0:0:0:
448,192,24897,128,0,25055:0:0:0:0:
64,192,25055,128,0,25213:0:0:0:0:
320,192,25055,1,0,0:0:0:0:
192,192,25213,128,0,25371:0:0:0:0:
320,192,25371,128,0,25529:0:0:0:0:
64,192,25529,128,0,25608:0:0:0:0:
192,192,25608,128,0,25687:0:0:0:0:
448,192,25687,1,0,0:0:0:0:
320,192,25687,128,0,25766:0:0:0:0:
64,192,25845,128,0,26002:0:0:0:0:
448,192,26002,128,0,26081:0:0:0:0:
320,192,26081,128,0,26160:0:0:0:0:
192,192,26160,128,0,26239:0:0:0:0:
320,192,26318,128,0,26397:0:0:0:0:
448,192,26318,1,0,0:0:0:0:
64,192,26397,128,0,26476:0:0:0:0:
192,192,26476,128,0,26555:0:0:0:0:
448,192,26634,128,0,26792:0:0:0:0:
320,192,26634,1,0,0:0:0:0:
64,192,26792,128,0,26871:0:0:0:0:
192,192,26871,128,0,26950:0:0:0:0:
320,192,26950,128,0,27029:0:0:0:0:
448,192,26950,1,0,0:0:0:0:
64,192,27029,128,0,27108:0:0:0:0:
192,192,27108,128,0,27187:0:0:0:0:
320,192,27187,128,0,27266:0:0:0:0:
448,192,27266,128,0,27345:0:0:0:0:
192,192,27266,1,0,0:0:0:0:
64,192,27345,128,0,27424:0:0:0:0:
192,192,27424,128,0,27502:0:0:0:0:
448,192,27502,128,0,27581:0:0:0:0:
320,192,27581,128,0,27660:0:0:0:0:
192,192,27581,1,0,0:0:0:0:
64,192,27660,128,0,27739:0:0:0:0:
192,192,27739,128,0,27818:0:0:0:0:
448,192,27818,128,0,27897:0:0:0:0:
320,192,27897,1,0,0:0:0:0:
64,192,27897,128,0,28055:0:0:0:0:
192,192,28055,1,0,0:0:0:0:
64,192,28134,128,0,28292:0:0:0:0:
320,192,28213,1,0,0:0:0:0:
448,192,28213,1,0,0:0:0:0:
64,192,28371,128,0,28529:0:0:0:0:
320,192,28529,1,0,0:0:0:0:
448,192,28529,1,0,0:0:0:0:
192,192,28608,128,0,28766:0:0:0:0:
64,192,28687,1,0,0:0:0:0:
448,192,28845,128,0,28924:0:0:0:0:
320,192,28845,1,0,0:0:0:0:
320,192,29002,128,0,29081:0:0:0:0:
64,192,29160,1,0,0:0:0:0:
448,192,29160,128,0,29318:0:0:0:0:
320,192,29318,1,0,0:0:0:0:
448,192,29397,128,0,29555:0:0:0:0:
192,192,29476,1,0,0:0:0:0:
64,192,29476,1,0,0:0:0:0:
448,192,29634,128,0,29792:0:0:0:0:
192,192,29792,1,0,0:0:0:0:
64,192,29792,1,0,0:0:0:0:
320,192,29871,128,0,30029:0:0:0:0:
448,192,29950,1,0,0:0:0:0:
64,192,30108,128,0,30187:0:0:0:0:
192,192,30108,1,0,0:0:0:0:
192,192,30266,128,0,30345:0:0:0:0:
320,192,30424,1,0,0:0:0:0:
448,192,30424,128,0,31687:0:0:0:0:
192,192,30581,1,0,0:0:0:0:
64,192,30739,1,0,0:0:0:0:
320,192,30897,1,0,0:0:0:0:
64,192,31055,1,0,0:0:0:0:
192,192,31213,1,0,0:0:0:0:
64,192,31371,1,0,0:0:0:0:
320,192,31529,128,0,31687:0:0:0:0:
64,192,31687,1,0,0:0:0:0:
192,192,31687,1,0,0:0:0:0:
64,192,31845,1,0,0:0:0:0:
320,192,32002,1,0,0:0:0:0:
448,192,32002,1,0,0:0:0:0:
448,192,32160,1,0,0:0:0:0:
64,192,32318,1,0,0:0:0:0:
192,192,32318,1,0,0:0:0:0:
448,192,32476,1,0,0:0:0:0:
320,192,32634,1,0,0:0:0:0:
192,192,32634,1,0,0:0:0:0:
64,192,32792,1,0,0:0:0:0:
320,192,32950,1,0,0:0:0:0:
448,192,32950,1,0,0:0:0:0:
320,192,33108,1,0,0:0:0:0:
64,192,33266,1,0,0:0:0:0:
192,192,33266,1,0,0:0:0:0:
192,192,33424,1,0,0:0:0:0:
320,192,33581,1,0,0:0:0:0:
448,192,33581,1,0,0:0:0:0:
64,192,33739,1,0,0:0:0:0:
192,192,33818,1,0,0:0:0:0:
448,192,33897,1,0,0:0:0:0:
320,192,33897,1,0,0:0:0:0:
64,192,34055,1,0,0:0:0:0:
192,192,34213,1,0,0:0:0:0:
320,192,34213,1,0,0:0:0:0:
448,192,34371,1,0,0:0:0:0:
320,192,34529,1,0,0:0:0:0:
192,192,34529,1,0,0:0:0:0:
448,192,34687,1,0,0:0:0:0:
64,192,34845,1,0,0:0:0:0:
192,192,34845,1,0,0:0:0:0:
320,192,35002,1,0,0:0:0:0:
192,192,35160,1,0,0:0:0:0:
64,192,35160,1,0,0:0:0:0:
320,192,35318,1,0,0:0:0:0:
64,192,35476,1,0,0:0:0:0:
448,192,35476,128,0,35950:0:0:0:0:
320,192,35634,1,0,0:0:0:0:
192,192,35792,1,0,0:0:0:0:
64,192,35792,1,0,0:0:0:0:
320,192,35950,128,0,36266:0:0:0:0:
192,192,36108,1,0,0:0:0:0:
448,192,36108,1,0,0:0:0:0:
64,192,36266,128,0,36739:0:0:0:0:
192,192,36424,1,0,0:0:0:0:
448,192,36424,1,0,0:0:0:0:
320,192,36581,1,0,0:0:0:0:
448,192,36739,1,0,0:0:0:0:
192,192,36739,1,0,0:0:0:0:
320,192,36897,1,0,0:0:0:0:
192,192,36976,1,0,0:0:0:0:
64,192,37055,1,0,0:0:0:0:
448,192,37055,1,0,0:0:0:0:
320,192,37134,1,0,0:0:0:0:
192,192,37213,1,0,0:0:0:0:
448,192,37292,1,0,0:0:0:0:
64,192,37371,1,0,0:0:0:0:
320,192,37371,1,0,0:0:0:0:
192,192,37450,1,0,0:0:0:0:
320,192,37529,1,0,0:0:0:0:
448,192,37608,1,0,0:0:0:0:
320,192,37687,1,0,0:0:0:0:
64,192,37687,1,0,0:0:0:0:
192,192,37766,1,0,0:0:0:0:
64,192,37845,1,0,0:0:0:0:
448,192,37924,1,0,0:0:0:0:
320,192,38002,1,0,0:0:0:0:
192,192,38002,1,0,0:0:0:0:
64,192,38160,1,0,0:0:0:0:
320,192,38318,1,0,0:0:0:0:
448,192,38318,1,0,0:0:0:0:
192,192,38476,1,0,0:0:0:0:
448,192,38634,1,0,0:0:0:0:
64,192,38634,1,0,0:0:0:0:
320,192,38792,1,0,0:0:0:0:
64,192,38950,1,0,0:0:0:0:
192,192,38950,1,0,0:0:0:0:
448,192,39108,1,0,0:0:0:0:
64,192,39266,1,0,0:0:0:0:
320,192,39266,1,0,0:0:0:0:
192,192,39424,1,0,0:0:0:0:
320,192,39502,1,0,0:0:0:0:
448,192,39581,1,0,0:0:0:0:
64,192,39581,1,0,0:0:0:0:
192,192,39660,1,0,0:0:0:0:
320,192,39739,1,0,0:0:0:0:
64,192,39818,1,0,0:0:0:0:
448,192,39897,1,0,0:0:0:0:
192,192,39897,1,0,0:0:0:0:
320,192,39976,1,0,0:0:0:0:
192,192,40055,1,0,0:0:0:0:
64,192,40134,1,0,0:0:0:0:
192,192,40213,1,0,0:0:0:0:
448,192,40213,1,0,0:0:0:0:
320,192,40292,1,0,0:0:0:0:
448,192,40371,1,0,0:0:0:0:
64,192,40450,1,0,0:0:0:0:
192,192,40529,1,0,0:0:0:0:
320,192,40529,1,0,0:0:0:0:
448,192,40687,1,0,0:0:0:0:
320,192,40726,1,0,0:0:0:0:
64,192,40766,1,0,0:0:0:0:
192,192,40805,1,0,0:0:0:0:
320,192,40845,1,0,0:0:0:0:
448,192,40845,1,0,0:0:0:0:
64,192,41002,1,0,0:0:0:0:
192,192,41042,1,0,0:0:0:0:
448,192,41081,1,0,0:0:0:0:
320,192,41121,1,0,0:0:0:0:
64,192,41160,1,0,0:0:0:0:
192,192,41160,1,0,0:0:0:0:
448,192,41318,1,0,0:0:0:0:
320,192,41358,1,0,0:0:0:0:
64,192,41397,1,0,0:0:0:0:
192,192,41437,1,0,0:0:0:0:
448,192,41476,1,0,0:0:0:0:
320,192,41516,1,0,0:0:0:0:
64,192,41555,1,0,0:0:0:0:
192,192,41595,1,0,0:0:0:0:
320,192,41634,1,0,0:0:0:0:
448,192,41634,1,0,0:0:0:0:
192,192,41713,1,0,0:0:0:0:
64,192,41713,1,0,0:0:0:0:
448,192,41792,1,0,0:0:0:0:
64,192,41792,1,0,0:0:0:0:
320,192,41792,128,0,42108:0:0:0:0:
64,192,42108,1,0,0:0:0:0:
192,192,42108,1,0,0:0:0:0:
448,192,42108,1,0,0:0:0:0:
320,192,42266,1,0,0:0:0:0:
192,192,42345,1,0,0:0:0:0:
64,192,42424,1,0,0:0:0:0:
448,192,42424,128,0,42581:0:0:0:0:
192,192,42581,1,0,0:0:0:0:
320,192,42660,1,0,0:0:0:0:
448,192,42739,1,0,0:0:0:0:
64,192,42739,128,0,42897:0:0:0:0:
192,192,42976,1,0,0:0:0:0:
448,192,43055,1,0,0:0:0:0:
320,192,43055,128,0,43371:0:0:0:0:
64,192,43213,1,0,0:0:0:0:
192,192,43371,1,0,0:0:0:0:
448,192,43371,1,0,0:0:0:0:
64,192,43529,1,0,0:0:0:0:
192,192,43608,1,0,0:0:0:0:
320,192,43687,1,0,0:0:0:0:
448,192,43687,128,0,43845:0:0:0:0:
320,192,43845,128,0,44002:0:0:0:0:
192,192,44002,1,0,0:0:0:0:
64,192,44002,128,0,44318:0:0:0:0:
448,192,44160,1,0,0:0:0:0:
320,192,44318,128,0,44634:0:0:0:0:
192,192,44318,1,0,0:0:0:0:
448,192,44476,1,0,0:0:0:0:
192,192,44634,1,0,0:0:0:0:
64,192,44634,1,0,0:0:0:0:
448,192,44792,1,0,0:0:0:0:
192,192,44871,1,0,0:0:0:0:
320,192,44950,1,0,0:0:0:0:
64,192,44950,128,0,45108:0:0:0:0:
192,192,45108,128,0,45266:0:0:0:0:
448,192,45266,128,0,45424:0:0:0:0:
320,192,45266,1,0,0:0:0:0:
64,192,45424,1,0,0:0:0:0:
192,192,45476,1,0,0:0:0:0:
320,192,45529,1,0,0:0:0:0:
448,192,45581,128,0,45897:0:0:0:0:
64,192,45581,1,0,0:0:0:0:
192,192,45739,1,0,0:0:0:0:
320,192,45897,1,0,0:0:0:0:
64,192,45897,1,0,0:0:0:0:
192,192,46055,1,0,0:0:0:0:
320,192,46134,1,0,0:0:0:0:
192,192,46213,1,0,0:0:0:0:
448,192,46213,128,0,46529:0:0:0:0:
320,192,46371,1,0,0:0:0:0:
64,192,46529,128,0,46845:0:0:0:0:
192,192,46529,1,0,0:0:0:0:
320,192,46687,1,0,0:0:0:0:
448,192,46845,1,0,0:0:0:0:
192,192,46845,1,0,0:0:0:0:
320,192,47002,1,0,0:0:0:0:
192,192,47081,1,0,0:0:0:0:
64,192,47160,1,0,0:0:0:0:
448,192,47160,1,0,0:0:0:0:
320,192,47239,1,0,0:0:0:0:
192,192,47318,1,0,0:0:0:0:
448,192,47397,1,0,0:0:0:0:
320,192,47476,1,0,0:0:0:0:
64,192,47476,1,0,0:0:0:0:
448,192,47555,1,0,0:0:0:0:
192,192,47634,1,0,0:0:0:0:
448,192,47713,1,0,0:0:0:0:
320,192,47792,1,0,0:0:0:0:
64,192,47792,1,0,0:0:0:0:
448,192,47871,1,0,0:0:0:0:
192,192,47950,1,0,0:0:0:0:
448,192,48029,1,0,0:0:0:0:
64,192,48108,1,0,0:0:0:0:
320,192,48108,1,0,0:0:0:0:
192,192,48266,1,0,0:0:0:0:
320,192,48345,1,0,0:0:0:0:
448,192,48424,1,0,0:0:0:0:
64,192,48424,1,0,0:0:0:0:
192,192,48502,1,0,0:0:0:0:
320,192,48581,1,0,0:0:0:0:
64,192,48660,1,0,0:0:0:0:
192,192,48739,1,0,0:0:0:0:
448,192,48739,128,0,48897:0:0:0:0:
320,192,48897,128,0,49055:0:0:0:0:
192,192,49055,128,0,49213:0:0:0:0:
448,192,49055,1,0,0:0:0:0:
64,192,49213,128,0,49371:0:0:0:0:
320,192,49371,1,0,0:0:0:0:
448,192,49371,128,0,49687:0:0:0:0:
64,192,49529,1,0,0:0:0:0:
192,192,49687,1,0,0:0:0:0:
320,192,49687,1,0,0:0:0:0:
64,192,49845,1,0,0:0:0:0:
192,192,49924,1,0,0:0:0:0:
320,192,50002,1,0,0:0:0:0:
448,192,50002,1,0,0:0:0:0:
64,192,50160,1,0,0:0:0:0:
192,192,50318,1,0,0:0:0:0:
448,192,50318,1,0,0:0:0:0:
320,192,50476,1,0,0:0:0:0:
448,192,50634,128,0,50792:0:0:0:0:
320,192,50792,1,0,0:0:0:0:
64,192,50871,128,0,51029:0:0:0:0:
192,192,50950,1,0,0:0:0:0:
448,192,51108,1,0,0:0:0:0:
320,192,51187,1,0,0:0:0:0:
192,192,51266,128,0,51581:0:0:0:0:
448,192,51424,1,0,0:0:0:0:
64,192,51581,128,0,51897:0:0:0:0:
320,192,51739,1,0,0:0:0:0:
192,192,51897,1,0,0:0:0:0:
448,192,51897,128,0,52055:0:0:0:0:
320,192,52055,128,0,52213:0:0:0:0:
64,192,52213,128,0,52371:0:0:0:0:
448,192,52213,1,0,0:0:0:0:
192,192,52371,128,0,52529:0:0:0:0:
448,192,52529,128,0,52687:0:0:0:0:
64,192,52529,1,0,0:0:0:0:
320,192,52687,128,0,52845:0:0:0:0:
64,192,52845,128,0,53002:0:0:0:0:
448,192,52845,1,0,0:0:0:0:
192,192,53002,128,0,53160:0:0:0:0:
320,192,53160,1,0,0:0:0:0:
448,192,53160,1,0,0:0:0:0:
64,192,53318,128,0,53476:0:0:0:0:
320,192,53476,128,0,53634:0:0:0:0:
448,192,53476,1,0,0:0:0:0:
64,192,53634,128,0,53792:0:0:0:0:
448,192,53792,128,0,53950:0:0:0:0:
192,192,53792,1,0,0:0:0:0:
320,192,53950,128,0,54108:0:0:0:0:
64,192,54108,128,0,54266:0:0:0:0:
448,192,54108,1,0,0:0:0:0:
192,192,54266,128,0,54424:0:0:0:0:
448,192,54424,128,0,54581:0:0:0:0:
64,192,54424,1,0,0:0:0:0:
320,192,54581,128,0,54739:0:0:0:0:
64,192,54739,128,0,54897:0:0:0:0:
448,192,54739,1,0,0:0:0:0:
192,192,54897,128,0,55055:0:0:0:0:
448,192,55055,128,0,55213:0:0:0:0:
64,192,55055,1,0,0:0:0:0:
320,192,55213,128,0,55371:0:0:0:0:
192,192,55371,128,0,55529:0:0:0:0:
448,192,55371,1,0,0:0:0:0:
64,192,55529,128,0,55687:0:0:0:0:
320,192,55687,1,0,0:0:0:0:
448,192,55687,1,0,0:0:0:0:
64,192,55845,128,0,56002:0:0:0:0:
192,192,56002,1,0,0:0:0:0:
320,192,56002,1,0,0:0:0:0:
64,192,56160,128,0,56318:0:0:0:0:
192,192,56318,128,0,56476:0:0:0:0:
320,192,56318,1,0,0:0:0:0:
448,192,56476,1,0,0:0:0:0:
64,192,56634,1,0,0:0:0:0:
192,192,56634,1,0,0:0:0:0:
320,192,56713,1,0,0:0:0:0:
448,192,56713,1,0,0:0:0:0:
192,192,56792,1,0,0:0:0:0:
64,192,56792,1,0,0:0:0:0:
320,192,56871,1,0,0:0:0:0:
448,192,56871,1,0,0:0:0:0:
192,192,56950,1,0,0:0:0:0:
64,192,56950,128,0,57108:0:0:0:0:
192,192,57108,128,0,57266:0:0:0:0:
448,192,57266,128,0,57424:0:0:0:0:
320,192,57266,1,0,0:0:0:0:
320,192,57424,128,0,57581:0:0:0:0:
64,192,57581,128,0,57739:0:0:0:0:
192,192,57581,1,0,0:0:0:0:
192,192,57739,128,0,57897:0:0:0:0:
448,192,57897,128,0,58055:0:0:0:0:
320,192,57897,1,0,0:0:0:0:
320,192,58055,128,0,58213:0:0:0:0:
192,192,58213,1,0,0:0:0:0:
64,192,58213,1,0,0:0:0:0:
448,192,58371,128,0,58529:0:0:0:0:
192,192,58529,128,0,58687:0:0:0:0:
64,192,58529,1,0,0:0:0:0:
448,192,58687,128,0,58845:0:0:0:0:
64,192,58845,128,0,59002:0:0:0:0:
320,192,58845,1,0,0:0:0:0:
192,192,59002,128,0,59160:0:0:0:0:
448,192,59160,128,0,59318:0:0:0:0:
64,192,59160,1,0,0:0:0:0:
320,192,59318,128,0,59476:0:0:0:0:
64,192,59476,128,0,59634:0:0:0:0:
448,192,59476,1,0,0:0:0:0:
192,192,59634,128,0,59792:0:0:0:0:
448,192,59792,128,0,59950:0:0:0:0:
64,192,59792,1,0,0:0:0:0:
320,192,59950,128,0,60108:0:0:0:0:
64,192,60108,128,0,60266:0:0:0:0:
448,192,60108,1,0,0:0:0:0:
192,192,60266,128,0,60424:0:0:0:0:
320,192,60424,128,0,60581:0:0:0:0:
64,192,60424,1,0,0:0:0:0:
448,192,60581,128,0,60739:0:0:0:0:
448,192,60897,128,0,61055:0:0:0:0:
192,192,60897,1,0,0:0:0:0:
192,192,61213,1,0,0:0:0:0:
448,192,61213,128,0,61371:0:0:0:0:
320,192,61371,128,0,61529:0:0:0:0:
64,192,61529,1,0,0:0:0:0:
192,192,61533,128,0,61691:0:0:0:0:
320,192,61691,128,0,61849:0:0:0:0:
64,192,61849,128,0,62006:0:0:0:0:
192,192,61849,1,0,0:0:0:0:
448,192,62006,128,0,62796:0:0:0:0:
320,192,62006,1,0,0:0:0:0:
192,192,62164,1,0,0:0:0:0:
64,192,62322,1,0,0:0:0:0:
192,192,62480,1,0,0:0:0:0:
320,192,62638,1,0,0:0:0:0:
192,192,62796,128,0,62954:0:0:0:0:
64,192,62796,1,0,0:0:0:0:
64,192,62954,128,0,63112:0:0:0:0:
320,192,62954,1,0,0:0:0:0:
320,192,63112,128,0,63270:0:0:0:0:
192,192,63112,1,0,0:0:0:0:
448,192,63270,128,0,63743:0:0:0:0:
64,192,63270,1,0,0:0:0:0:
192,192,63428,1,0,0:0:0:0:
320,192,63585,1,0,0:0:0:0:
64,192,63743,128,0,64217:0:0:0:0:
192,192,63743,1,0,0:0:0:0:
320,192,63901,1,0,0:0:0:0:
448,192,64059,1,0,0:0:0:0:
192,192,64217,128,0,64533:0:0:0:0:
320,192,64217,1,0,0:0:0:0:
64,192,64375,1,0,0:0:0:0:
448,192,64533,128,0,65164:0:0:0:0:
320,192,64533,1,0,0:0:0:0:
64,192,64691,1,0,0:0:0:0:
192,192,64849,1,0,0:0:0:0:
64,192,65006,1,0,0:0:0:0:
320,192,65164,128,0,65480:0:0:0:0:
192,192,65164,1,0,0:0:0:0:
448,192,65322,1,0,0:0:0:0:
192,192,65480,128,0,65638:0:0:0:0:
64,192,65480,1,0,0:0:0:0:
320,192,65638,128,0,66270:0:0:0:0:
448,192,65638,1,0,0:0:0:0:
64,192,65796,1,0,0:0:0:0:
192,192,65954,1,0,0:0:0:0:
448,192,66112,1,0,0:0:0:0:
64,192,66270,1,0,0:0:0:0:
64,192,66428,128,0,67059:0:0:0:0:
448,192,66428,1,0,0:0:0:0:
192,192,66585,1,0,0:0:0:0:
448,192,66743,1,0,0:0:0:0:
192,192,66901,1,0,0:0:0:0:
448,192,67059,128,0,67533:0:0:0:0:
320,192,67059,1,0,0:0:0:0:
192,192,67217,1,0,0:0:0:0:
320,192,67375,1,0,0:0:0:0:
64,192,67533,128,0,67691:0:0:0:0:
192,192,67533,1,0,0:0:0:0:
320,192,67691,1,0,0:0:0:0:
64,192,67849,128,0,68006:0:0:0:0:
448,192,67849,1,0,0:0:0:0:
192,192,68006,128,0,68164:0:0:0:0:
320,192,68006,1,0,0:0:0:0:
320,192,68164,128,0,68322:0:0:0:0:
64,192,68164,1,0,0:0:0:0:
448,192,68322,128,0,68796:0:0:0:0:
192,192,68322,1,0,0:0:0:0:
64,192,68480,1,0,0:0:0:0:
320,192,68638,1,0,0:0:0:0:
64,192,68796,1,0,0:0:0:0:
64,192,68954,128,0,69270:0:0:0:0:
192,192,68954,1,0,0:0:0:0:
320,192,69112,1,0,0:0:0:0:
448,192,69270,1,0,0:0:0:0:
192,192,69270,128,0,69585:0:0:0:0:
320,192,69428,1,0,0:0:0:0:
64,192,69585,1,0,0:0:0:0:
448,192,69664,1,0,0:0:0:0:
64,192,69743,1,0,0:0:0:0:
448,192,69822,1,0,0:0:0:0:
192,192,69901,1,0,0:0:0:0:
320,192,69980,1,0,0:0:0:0:
192,192,70059,1,0,0:0:0:0:
320,192,70138,1,0,0:0:0:0:
64,192,70217,1,0,0:0:0:0:
192,192,70217,1,0,0:0:0:0:
448,192,70296,1,0,0:0:0:0:
320,192,70296,1,0,0:0:0:0:
192,192,70375,1,0,0:0:0:0:
64,192,70375,1,0,0:0:0:0:
320,192,70454,1,0,0:0:0:0:
448,192,70454,1,0,0:0:0:0:
64,192,70533,1,0,0:0:0:0:
192,192,70533,1,0,0:0:0:0:
320,192,70612,1,0,0:0:0:0:
448,192,70612,1,0,0:0:0:0:
64,192,70691,1,0,0:0:0:0:
192,192,70691,1,0,0:0:0:0:
320,192,70770,1,0,0:0:0:0:
448,192,70770,1,0,0:0:0:0:
64,192,70849,1,0,0:0:0:0:
448,192,70849,1,0,0:0:0:0:
192,192,70849,1,0,0:0:0:0:
320,192,71006,1,0,0:0:0:0:
192,192,71006,1,0,0:0:0:0:
192,192,71322,1,0,0:0:0:0:
320,192,71322,1,0,0:0:0:0:
320,192,71638,1,0,0:0:0:0:
448,192,71638,1,0,0:0:0:0:
192,192,71796,1,0,0:0:0:0:
320,192,71796,1,0,0:0:0:0:
64,192,72112,1,0,0:0:0:0:
448,192,72112,1,0,0:0:0:0:
192,192,72112,128,0,72428:0:0:0:0:
448,192,72428,1,0,0:0:0:0:
320,192,72428,1,0,0:0:0:0:
64,192,72428,1,0,0:0:0:0:
192,192,72585,1,0,0:0:0:0:
320,192,72664,1,0,0:0:0:0:
448,192,72743,1,0,0:0:0:0:
64,192,72743,128,0,73059:0:0:0:0:
192,192,72901,1,0,0:0:0:0:
320,192,72980,1,0,0:0:0:0:
192,192,73059,1,0,0:0:0:0:
448,192,73059,128,0,73217:0:0:0:0:
320,192,73296,1,0,0:0:0:0:
64,192,73375,1,0,0:0:0:0:
192,192,73375,128,0,73691:0:0:0:0:
448,192,73533,1,0,0:0:0:0:
320,192,73691,1,0,0:0:0:0:
64,192,73691,1,0,0:0:0:0:
448,192,73849,1,0,0:0:0:0:
320,192,73928,1,0,0:0:0:0:
192,192,74006,1,0,0:0:0:0:
64,192,74006,128,0,74322:0:0:0:0:
192,192,74164,128,0,74322:0:0:0:0:
320,192,74322,1,0,0:0:0:0:
448,192,74322,128,0,74638:0:0:0:0:
64,192,74480,1,0,0:0:0:0:
192,192,74638,128,0,74954:0:0:0:0:
320,192,74638,1,0,0:0:0:0:
64,192,74796,1,0,0:0:0:0:
320,192,74954,1,0,0:0:0:0:
448,192,74954,1,0,0:0:0:0:
64,192,75112,1,0,0:0:0:0:
320,192,75191,1,0,0:0:0:0:
192,192,75270,1,0,0:0:0:0:
448,192,75270,128,0,75585:0:0:0:0:
320,192,75428,128,0,75585:0:0:0:0:
64,192,75585,128,0,75743:0:0:0:0:
192,192,75585,1,0,0:0:0:0:
448,192,75743,1,0,0:0:0:0:
320,192,75796,1,0,0:0:0:0:
192,192,75849,1,0,0:0:0:0:
64,192,75901,128,0,76217:0:0:0:0:
448,192,75901,1,0,0:0:0:0:
320,192,76059,1,0,0:0:0:0:
192,192,76217,1,0,0:0:0:0:
448,192,76217,1,0,0:0:0:0:
320,192,76375,1,0,0:0:0:0:
192,192,76454,1,0,0:0:0:0:
320,192,76533,1,0,0:0:0:0:
64,192,76533,128,0,76849:0:0:0:0:
192,192,76691,1,0,0:0:0:0:
448,192,76849,128,0,77164:0:0:0:0:
320,192,76849,1,0,0:0:0:0:
192,192,77006,1,0,0:0:0:0:
64,192,77164,1,0,0:0:0:0:
320,192,77164,1,0,0:0:0:0:
192,192,77322,128,0,77480:0:0:0:0:
320,192,77401,128,0,77480:0:0:0:0:
448,192,77480,128,0,77638:0:0:0:0:
64,192,77480,1,0,0:0:0:0:
192,192,77559,1,0,0:0:0:0:
320,192,77638,1,0,0:0:0:0:
64,192,77717,1,0,0:0:0:0:
192,192,77796,1,0,0:0:0:0:
448,192,77796,128,0,77875:0:0:0:0:
64,192,77875,128,0,77954:0:0:0:0:
320,192,77954,128,0,78033:0:0:0:0:
64,192,78033,128,0,78112:0:0:0:0:
448,192,78112,1,0,0:0:0:0:
192,192,78112,128,0,78191:0:0:0:0:
64,192,78191,128,0,78270:0:0:0:0:
320,192,78270,128,0,78349:0:0:0:0:
64,192,78349,128,0,78428:0:0:0:0:
192,192,78428,1,0,0:0:0:0:
448,192,78428,128,0,78506:0:0:0:0:
320,192,78585,128,0,78743:0:0:0:0:
192,192,78664,128,0,78743:0:0:0:0:
64,192,78743,128,0,78901:0:0:0:0:
448,192,78743,1,0,0:0:0:0:
320,192,78822,1,0,0:0:0:0:
192,192,78901,1,0,0:0:0:0:
448,192,78980,1,0,0:0:0:0:
320,192,79059,1,0,0:0:0:0:
64,192,79059,128,0,79375:0:0:0:0:
192,192,79217,128,0,79375:0:0:0:0:
448,192,79375,128,0,79691:0:0:0:0:
320,192,79375,1,0,0:0:0:0:
320,192,79533,128,0,79691:0:0:0:0:
192,192,79691,1,0,0:0:0:0:
64,192,79691,128,0,80006:0:0:0:0:
448,192,79849,1,0,0:0:0:0:
320,192,80006,1,0,0:0:0:0:
192,192,80006,1,0,0:0:0:0:
448,192,80164,1,0,0:0:0:0:
320,192,80243,1,0,0:0:0:0:
192,192,80322,1,0,0:0:0:0:
64,192,80322,1,0,0:0:0:0:
448,192,80480,1,0,0:0:0:0:
320,192,80638,1,0,0:0:0:0:
64,192,80638,1,0,0:0:0:0:
192,192,80796,1,0,0:0:0:0:
64,192,80954,128,0,81112:0:0:0:0:
192,192,81112,1,0,0:0:0:0:
448,192,81191,128,0,81349:0:0:0:0:
320,192,81270,1,0,0:0:0:0:
64,192,81428,1,0,0:0:0:0:
192,192,81506,1,0,0:0:0:0:
320,192,81585,128,0,81901:0:0:0:0:
64,192,81743,1,0,0:0:0:0:
448,192,81901,128,0,82217:0:0:0:0:
192,192,82059,1,0,0:0:0:0:
320,192,82217,1,0,0:0:0:0:
64,192,82217,1,0,0:0:0:0:
192,192,82375,1,0,0:0:0:0:
320,192,82533,1,0,0:0:0:0:
448,192,82691,1,0,0:0:0:0:
64,192,82849,1,0,0:0:0:0:
192,192,83006,1,0,0:0:0:0:
320,192,83164,1,0,0:0:0:0:
448,192,83322,1,0,0:0:0:0:
64,192,83480,1,0,0:0:0:0:
192,192,83638,1,0,0:0:0:0:
320,192,83796,1,0,0:0:0:0:
448,192,83796,1,0,0:0:0:0:
64,192,83954,1,0,0:0:0:0:
192,192,84112,1,0,0:0:0:0:
320,192,84112,1,0,0:0:0:0:
448,192,84270,1,0,0:0:0:0:
64,192,84349,1,0,0:0:0:0:
192,192,84349,1,0,0:0:0:0:
320,192,84585,1,0,0:0:0:0:
448,192,84585,1,0,0:0:0:0:
64,192,84743,1,0,0:0:0:0:
192,192,84743,1,0,0:0:0:0:
320,192,84901,1,0,0:0:0:0:
448,192,85059,1,0,0:0:0:0:
64,192,85217,1,0,0:0:0:0:
192,192,85375,1,0,0:0:0:0:
448,192,85533,1,0,0:0:0:0:
64,192,85533,1,0,0:0:0:0:
320,192,85691,1,0,0:0:0:0:
192,192,85691,1,0,0:0:0:0:
64,192,85849,1,0,0:0:0:0:
192,192,85849,1,0,0:0:0:0:
320,192,86006,1,0,0:0:0:0:
448,192,86006,1,0,0:0:0:0:
192,192,86164,1,0,0:0:0:0:
64,192,86322,1,0,0:0:0:0:
320,192,86480,1,0,0:0:0:0:
192,192,86480,1,0,0:0:0:0:
448,192,86638,1,0,0:0:0:0:
192,192,86796,1,0,0:0:0:0:
320,192,86796,1,0,0:0:0:0:
64,192,86954,1,0,0:0:0:0:
192,192,86954,1,0,0:0:0:0:
320,192,87112,1,0,0:0:0:0:
448,192,87112,1,0,0:0:0:0:
192,192,87270,1,0,0:0:0:0:
320,192,87270,1,0,0:0:0:0:
64,192,87270,1,0,0:0:0:0:
448,192,87428,1,0,0:0:0:0:
64,192,87585,1,0,0:0:0:0:
192,192,87743,1,0,0:0:0:0:
320,192,87901,1,0,0:0:0:0:
64,192,88059,1,0,0:0:0:0:
192,192,88059,1,0,0:0:0:0:
192,192,88217,1,0,0:0:0:0:
320,192,88217,1,0,0:0:0:0:
320,192,88375,1,0,0:0:0:0:
448,192,88375,1,0,0:0:0:0:
192,192,88533,1,0,0:0:0:0:
64,192,88533,1,0,0:0:0:0:
448,192,88691,1,0,0:0:0:0:
192,192,88849,1,0,0:0:0:0:
320,192,89006,1,0,0:0:0:0:
448,192,89006,1,0,0:0:0:0:
64,192,89164,1,0,0:0:0:0:
192,192,89164,1,0,0:0:0:0:
448,192,89322,1,0,0:0:0:0:
320,192,89480,1,0,0:0:0:0:
64,192,89480,1,0,0:0:0:0:
192,192,89638,1,0,0:0:0:0:
64,192,89796,1,0,0:0:0:0:
448,192,89796,1,0,0:0:0:0:
192,192,89875,1,0,0:0:0:0:
320,192,89954,1,0,0:0:0:0:
448,192,90033,1,0,0:0:0:0:
64,192,90112,1,0,0:0:0:0:
192,192,90191,1,0,0:0:0:0:
320,192,90270,1,0,0:0:0:0:
448,192,90349,1,0,0:0:0:0:
64,192,90428,1,0,0:0:0:0:
192,192,90428,1,0,0:0:0:0:
320,192,90506,1,0,0:0:0:0:
448,192,90506,1,0,0:0:0:0:
192,192,90585,1,0,0:0:0:0:
64,192,90585,1,0,0:0:0:0:
320,192,90664,1,0,0:0:0:0:
448,192,90664,1,0,0:0:0:0:
192,192,90743,1,0,0:0:0:0:
64,192,90743,1,0,0:0:0:0:
448,192,90822,1,0,0:0:0:0:
320,192,90822,1,0,0:0:0:0:
192,192,90901,1,0,0:0:0:0:
64,192,90901,1,0,0:0:0:0:
320,192,90980,1,0,0:0:0:0:
448,192,90980,1,0,0:0:0:0:
192,192,91059,1,0,0:0:0:0:
64,192,91059,1,0,0:0:0:0:
448,192,91059,1,0,0:0:0:0:
64,192,91217,1,0,0:0:0:0:
320,192,91217,1,0,0:0:0:0:
192,192,91217,1,0,0:0:0:0:
192,192,91533,1,0,0:0:0:0:
320,192,91533,1,0,0:0:0:0:
448,192,91533,1,0,0:0:0:0:
64,192,91849,1,0,0:0:0:0:
320,192,91849,1,0,0:0:0:0:
448,192,91849,1,0,0:0:0:0:
320,192,92006,1,0,0:0:0:0:
448,192,92006,1,0,0:0:0:0:
64,192,92085,1,0,0:0:0:0:
192,192,92085,1,0,0:0:0:0:
320,192,92164,1,0,0:0:0:0:
448,192,92164,1,0,0:0:0:0:
192,192,92243,1,0,0:0:0:0:
64,192,92243,1,0,0:0:0:0:
320,192,92322,1,0,0:0:0:0:
448,192,92322,1,0,0:0:0:0:
64,192,92322,1,0,0:0:0:0:
192,192,92480,1,0,0:0:0:0:
320,192,92559,1,0,0:0:0:0:
448,192,92638,1,0,0:0:0:0:
64,192,92638,1,0,0:0:0:0:
320,192,92796,1,0,0:0:0:0:
192,192,92875,1,0,0:0:0:0:
64,192,92954,1,0,0:0:0:0:
448,192,92954,1,0,0:0:0:0:
64,192,93112,1,0,0:0:0:0:
192,192,93191,1,0,0:0:0:0:
448,192,93270,1,0,0:0:0:0:
320,192,93270,1,0,0:0:0:0:
448,192,93428,1,0,0:0:0:0:
320,192,93506,1,0,0:0:0:0:
192,192,93585,1,0,0:0:0:0:
64,192,93585,1,0,0:0:0:0:
448,192,93743,1,0,0:0:0:0:
192,192,93822,1,0,0:0:0:0:
64,192,93901,1,0,0:0:0:0:
320,192,93901,1,0,0:0:0:0:
192,192,94059,1,0,0:0:0:0:
448,192,94138,1,0,0:0:0:0:
64,192,94217,1,0,0:0:0:0:
320,192,94217,1,0,0:0:0:0:
448,192,94375,1,0,0:0:0:0:
64,192,94454,1,0,0:0:0:0:
192,192,94533,1,0,0:0:0:0:
320,192,94533,1,0,0:0:0:0:
64,192,94691,1,0,0:0:0:0:
320,192,94770,1,0,0:0:0:0:
448,192,94849,1,0,0:0:0:0:
192,192,94849,1,0,0:0:0:0:
320,192,95006,1,0,0:0:0:0:
192,192,95085,1,0,0:0:0:0:
64,192,95164,1,0,0:0:0:0:
448,192,95164,1,0,0:0:0:0:
192,192,95322,1,0,0:0:0:0:
320,192,95401,1,0,0:0:0:0:
448,192,95480,1,0,0:0:0:0:
64,192,95480,1,0,0:0:0:0:
192,192,95638,1,0,0:0:0:0:
448,192,95717,1,0,0:0:0:0:
320,192,95796,1,0,0:0:0:0:
64,192,95796,1,0,0:0:0:0:
448,192,95954,1,0,0:0:0:0:
64,192,96033,1,0,0:0:0:0:
192,192,96112,1,0,0:0:0:0:
320,192,96112,1,0,0:0:0:0:
448,192,96270,1,0,0:0:0:0:
320,192,96349,1,0,0:0:0:0:
192,192,96428,1,0,0:0:0:0:
64,192,96428,1,0,0:0:0:0:
320,192,96585,1,0,0:0:0:0:
192,192,96664,1,0,0:0:0:0:
64,192,96743,1,0,0:0:0:0:
448,192,96743,1,0,0:0:0:0:
192,192,96901,1,0,0:0:0:0:
320,192,96980,1,0,0:0:0:0:
448,192,97059,1,0,0:0:0:0:
64,192,97059,1,0,0:0:0:0:
192,192,97217,1,0,0:0:0:0:
320,192,97296,1,0,0:0:0:0:
64,192,97375,1,0,0:0:0:0:
192,192,97375,1,0,0:0:0:0:
448,192,97375,1,0,0:0:0:0:
320,192,97533,1,0,0:0:0:0:
192,192,97612,1,0,0:0:0:0:
64,192,97691,1,0,0:0:0:0:
448,192,97691,1,0,0:0:0:0:
320,192,97770,1,0,0:0:0:0:
192,192,97849,1,0,0:0:0:0:
320,192,97928,1,0,0:0:0:0:
448,192,98006,1,0,0:0:0:0:
64,192,98006,1,0,0:0:0:0:
192,192,98085,1,0,0:0:0:0:
320,192,98164,1,0,0:0:0:0:
192,192,98243,1,0,0:0:0:0:
64,192,98322,1,0,0:0:0:0:
448,192,98322,1,0,0:0:0:0:
320,192,98401,1,0,0:0:0:0:
192,192,98480,1,0,0:0:0:0:
320,192,98559,1,0,0:0:0:0:
448,192,98638,1,0,0:0:0:0:
64,192,98638,1,0,0:0:0:0:
192,192,98638,1,0,0:0:0:0:
64,192,98875,1,0,0:0:0:0:
320,192,98875,1,0,0:0:0:0:
448,192,98875,1,0,0:0:0:0:
320,192,99112,1,0,0:0:0:0:
448,192,99112,1,0,0:0:0:0:
448,192,99191,1,0,0:0:0:0:
320,192,99191,1,0,0:0:0:0:
320,192,99270,1,0,0:0:0:0:
448,192,99270,1,0,0:0:0:0:
448,192,99506,1,0,0:0:0:0:
192,192,99506,1,0,0:0:0:0:
64,192,99506,1,0,0:0:0:0:
64,192,99743,1,0,0:0:0:0:
320,192,99743,1,0,0:0:0:0:
448,192,99743,1,0,0:0:0:0:
320,192,99901,1,0,0:0:0:0:
448,192,99901,1,0,0:0:0:0:
192,192,99980,1,0,0:0:0:0:
64,192,100059,1,0,0:0:0:0:
192,192,100138,1,0,0:0:0:0:
320,192,100217,1,0,0:0:0:0:
448,192,100217,1,0,0:0:0:0:
192,192,100296,1,0,0:0:0:0:
64,192,100375,1,0,0:0:0:0:
192,192,100454,1,0,0:0:0:0:
320,192,100533,1,0,0:0:0:0:
448,192,100533,1,0,0:0:0:0:
192,192,100612,1,0,0:0:0:0:
64,192,100691,1,0,0:0:0:0:
192,192,100770,1,0,0:0:0:0:
320,192,100849,1,0,0:0:0:0:
448,192,100849,1,0,0:0:0:0:
192,192,100928,1,0,0:0:0:0:
64,192,101006,1,0,0:0:0:0:
448,192,101006,1,0,0:0:0:0:
320,192,101085,1,0,0:0:0:0:
64,192,101164,1,0,0:0:0:0:
192,192,101164,1,0,0:0:0:0:
320,192,101243,1,0,0:0:0:0:
448,192,101322,1,0,0:0:0:0:
320,192,101401,1,0,0:0:0:0:
192,192,101480,1,0,0:0:0:0:
64,192,101480,1,0,0:0:0:0:
320,192,101559,1,0,0:0:0:0:
448,192,101638,1,0,0:0:0:0:
320,192,101717,1,0,0:0:0:0:
64,192,101796,1,0,0:0:0:0:
192,192,101796,1,0,0:0:0:0:
320,192,101875,1,0,0:0:0:0:
448,192,101954,1,0,0:0:0:0:
320,192,102033,1,0,0:0:0:0:
192,192,102112,1,0,0:0:0:0:
64,192,102112,1,0,0:0:0:0:
320,192,102191,1,0,0:0:0:0:
448,192,102270,1,0,0:0:0:0:
320,192,102349,1,0,0:0:0:0:
64,192,102428,1,0,0:0:0:0:
192,192,102428,1,0,0:0:0:0:
448,192,102428,1,0,0:0:0:0:
320,192,102585,1,0,0:0:0:0:
64,192,102664,1,0,0:0:0:0:
192,192,102743,1,0,0:0:0:0:
448,192,102743,1,0,0:0:0:0:
320,192,102901,1,0,0:0:0:0:
192,192,102980,1,0,0:0:0:0:
64,192,103059,1,0,0:0:0:0:
448,192,103059,1,0,0:0:0:0:
192,192,103217,1,0,0:0:0:0:
448,192,103296,1,0,0:0:0:0:
320,192,103375,1,0,0:0:0:0:
64,192,103375,1,0,0:0:0:0:
192,192,103533,1,0,0:0:0:0:
320,192,103612,1,0,0:0:0:0:
448,192,103691,1,0,0:0:0:0:
64,192,103691,1,0,0:0:0:0:
320,192,103849,1,0,0:0:0:0:
192,192,103928,1,0,0:0:0:0:
64,192,104006,1,0,0:0:0:0:
448,192,104006,1,0,0:0:0:0:
192,192,104164,1,0,0:0:0:0:
448,192,104243,1,0,0:0:0:0:
320,192,104322,1,0,0:0:0:0:
64,192,104322,1,0,0:0:0:0:
320,192,104480,1,0,0:0:0:0:
448,192,104480,1,0,0:0:0:0:
192,192,104559,1,0,0:0:0:0:
64,192,104638,1,0,0:0:0:0:
448,192,104638,1,0,0:0:0:0:
320,192,104796,1,0,0:0:0:0:
192,192,104875,1,0,0:0:0:0:
448,192,104954,1,0,0:0:0:0:
64,192,104954,1,0,0:0:0:0:
320,192,105033,1,0,0:0:0:0:
192,192,105112,1,0,0:0:0:0:
320,192,105191,1,0,0:0:0:0:
448,192,105270,1,0,0:0:0:0:
64,192,105270,1,0,0:0:0:0:
192,192,105349,1,0,0:0:0:0:
320,192,105428,1,0,0:0:0:0:
192,192,105506,1,0,0:0:0:0:
64,192,105585,1,0,0:0:0:0:
448,192,105585,1,0,0:0:0:0:
320,192,105664,1,0,0:0:0:0:
192,192,105743,1,0,0:0:0:0:
320,192,105822,1,0,0:0:0:0:
448,192,105901,1,0,0:0:0:0:
64,192,105901,1,0,0:0:0:0:
192,192,105980,1,0,0:0:0:0:
320,192,106059,1,0,0:0:0:0:
192,192,106138,1,0,0:0:0:0:
64,192,106217,1,0,0:0:0:0:
448,192,106217,1,0,0:0:0:0:
64,192,106375,1,0,0:0:0:0:
192,192,106454,1,0,0:0:0:0:
448,192,106533,1,0,0:0:0:0:
320,192,106533,1,0,0:0:0:0:
192,192,106691,1,0,0:0:0:0:
320,192,106770,1,0,0:0:0:0:
448,192,106849,1,0,0:0:0:0:
64,192,106849,1,0,0:0:0:0:
320,192,107006,1,0,0:0:0:0:
448,192,107085,1,0,0:0:0:0:
64,192,107164,1,0,0:0:0:0:
192,192,107164,1,0,0:0:0:0:
448,192,107322,1,0,0:0:0:0:
64,192,107401,1,0,0:0:0:0:
192,192,107480,1,0,0:0:0:0:
320,192,107480,1,0,0:0:0:0:
64,192,107559,1,0,0:0:0:0:
448,192,107638,1,0,0:0:0:0:
64,192,107717,1,0,0:0:0:0:
192,192,107796,1,0,0:0:0:0:
320,192,107796,1,0,0:0:0:0:
448,192,107875,1,0,0:0:0:0:
64,192,107954,1,0,0:0:0:0:
448,192,108033,1,0,0:0:0:0:
192,192,108112,1,0,0:0:0:0:
320,192,108112,1,0,0:0:0:0:
64,192,108191,1,0,0:0:0:0:
448,192,108270,1,0,0:0:0:0:
64,192,108349,1,0,0:0:0:0:
320,192,108428,1,0,0:0:0:0:
192,192,108428,1,0,0:0:0:0:
448,192,108506,1,0,0:0:0:0:
64,192,108585,1,0,0:0:0:0:
448,192,108664,1,0,0:0:0:0:
192,192,108743,1,0,0:0:0:0:
320,192,108743,1,0,0:0:0:0:
448,192,108901,1,0,0:0:0:0:
320,192,108980,1,0,0:0:0:0:
192,192,109059,1,0,0:0:0:0:
64,192,109059,1,0,0:0:0:0:
320,192,109217,1,0,0:0:0:0:
192,192,109296,1,0,0:0:0:0:
64,192,109375,1,0,0:0:0:0:
448,192,109375,1,0,0:0:0:0:
192,192,109533,1,0,0:0:0:0:
64,192,109612,1,0,0:0:0:0:
320,192,109691,1,0,0:0:0:0:
448,192,109691,1,0,0:0:0:0:
64,192,109849,1,0,0:0:0:0:
448,192,109928,1,0,0:0:0:0:
320,192,110006,1,0,0:0:0:0:
192,192,110006,1,0,0:0:0:0:
448,192,110085,1,0,0:0:0:0:
64,192,110164,1,0,0:0:0:0:
448,192,110243,1,0,0:0:0:0:
192,192,110322,1,0,0:0:0:0:
320,192,110322,1,0,0:0:0:0:
64,192,110401,1,0,0:0:0:0:
448,192,110480,1,0,0:0:0:0:
64,192,110559,1,0,0:0:0:0:
320,192,110638,1,0,0:0:0:0:
192,192,110638,1,0,0:0:0:0:
448,192,110717,1,0,0:0:0:0:
64,192,110796,1,0,0:0:0:0:
448,192,110875,1,0,0:0:0:0:
320,192,110954,1,0,0:0:0:0:
192,192,110954,1,0,0:0:0:0:
64,192,111033,1,0,0:0:0:0:
448,192,111112,1,0,0:0:0:0:
64,192,111191,1,0,0:0:0:0:
192,192,111270,1,0,0:0:0:0:
320,192,111270,1,0,0:0:0:0:
448,192,111349,1,0,0:0:0:0:
64,192,111428,1,0,0:0:0:0:
320,192,111428,1,0,0:0:0:0:
192,192,111506,1,0,0:0:0:0:
448,192,111585,1,0,0:0:0:0:
320,192,111585,1,0,0:0:0:0:
64,192,111664,1,0,0:0:0:0:
192,192,111743,1,0,0:0:0:0:
320,192,111743,1,0,0:0:0:0:
448,192,111822,1,0,0:0:0:0:
64,192,111901,1,0,0:0:0:0:
320,192,111901,1,0,0:0:0:0:
448,192,111980,1,0,0:0:0:0:
64,192,112059,1,0,0:0:0:0:
192,192,112059,1,0,0:0:0:0:
320,192,112138,1,0,0:0:0:0:
448,192,112138,1,0,0:0:0:0:
192,192,112217,1,0,0:0:0:0:
64,192,112217,1,0,0:0:0:0:
320,192,112296,1,0,0:0:0:0:
448,192,112296,1,0,0:0:0:0:
192,192,112375,1,0,0:0:0:0:
64,192,112375,1,0,0:0:0:0:
320,192,112454,1,0,0:0:0:0:
448,192,112454,1,0,0:0:0:0:
64,192,112533,128,0,120112:0:0:0:0:
192,192,112533,128,0,118849:0:0:0:0:
