osu file format v14

[General]
AudioFilename: audio.mp3
AudioLeadIn: 0
PreviewTime: 14824
Countdown: 0
SampleSet: Normal
StackLeniency: 0.7
Mode: 3
LetterboxInBreaks: 0
SpecialStyle: 0
WidescreenStoryboard: 1

[Editor]
Bookmarks: 14824,27975,54276,80578,94139,107289,120440
DistanceSpacing: 1
BeatDivisor: 4
GridSize: 8
TimelineZoom: 1.8

[Metadata]
Title:Lapis
TitleUnicode:Lapis
Artist:SHIKI
ArtistUnicode:SHIKI
Creator:shizehao
Version:Beginner obj. FLeVI
Source:THE BMS OF FIGHTERS 2008 - Resurrection -
Tags:video game electronic instrumental bms bof2008 arcaea chunithm pokerizu sparebeat trance dance trancer doll's dolls year flevi [emiria] victorica_db heaven punisher 友達なんか要りません
BeatmapID:4082788
BeatmapSetID:1968445

[Difficulty]
HPDrainRate:7
CircleSize:4
OverallDifficulty:7
ApproachRate:5
SliderMultiplier:1.4
SliderTickRate:1

[Events]
//Background and Video events
Video,-6358,"video.mp4"
0,0,"bg.jpg",0,0
//Break Periods
//Storyboard Layer 0 (Background)
//Storyboard Layer 1 (Fail)
//Storyboard Layer 2 (Pass)
//Storyboard Layer 3 (Foreground)
//Storyboard Layer 4 (Overlay)
//Storyboard Sound Samples

[TimingPoints]
1674,410.958904109589,4,1,1,55,1,0
27975,-100,4,1,1,40,0,1
54276,-100,4,1,1,40,0,0
79961,-100,4,1,1,55,0,0
94139,410.958904109589,4,1,1,45,1,0
94139,-100,4,1,1,45,0,0
105645,-100,4,1,1,55,0,0
107289,-100,4,1,1,40,0,1
120440,-100,4,1,1,40,0,0

[HitObjects]
192,192,1674,5,0,0:0:0:0:
320,192,1982,1,0,0:0:0:0:
192,192,2290,1,0,0:0:0:0:
320,192,2598,1,0,0:0:0:0:
192,192,2906,1,0,0:0:0:0:
320,192,3112,1,0,0:0:0:0:
64,192,3317,1,0,0:0:0:0:
320,192,3626,1,0,0:0:0:0:
64,192,3934,1,0,0:0:0:0:
192,192,4242,1,0,0:0:0:0:
64,192,4550,1,0,0:0:0:0:
192,192,4756,1,0,0:0:0:0:
448,192,4961,1,0,0:0:0:0:
192,192,5269,1,0,0:0:0:0:
448,192,5578,1,0,0:0:0:0:
192,192,5886,1,0,0:0:0:0:
448,192,6194,1,0,0:0:0:0:
192,192,6400,1,0,0:0:0:0:
320,192,6605,1,0,0:0:0:0:
192,192,6913,1,0,0:0:0:0:
320,192,7221,1,0,0:0:0:0:
64,192,7530,1,0,0:0:0:0:
320,192,7838,1,0,0:0:0:0:
64,192,8043,1,0,0:0:0:0:
192,192,8249,1,0,0:0:0:0:
448,192,8557,1,0,0:0:0:0:
192,192,8865,1,0,0:0:0:0:
448,192,9174,1,0,0:0:0:0:
192,192,9482,1,0,0:0:0:0:
448,192,9687,1,0,0:0:0:0:
192,192,9893,1,0,0:0:0:0:
320,192,10201,1,0,0:0:0:0:
192,192,10509,1,0,0:0:0:0:
320,192,10817,1,0,0:0:0:0:
64,192,11126,1,0,0:0:0:0:
320,192,11331,1,0,0:0:0:0:
64,192,11537,1,0,0:0:0:0:
448,192,11845,1,0,0:0:0:0:
64,192,12153,1,0,0:0:0:0:
448,192,12461,1,0,0:0:0:0:
64,192,12769,1,0,0:0:0:0:
448,192,12975,1,0,0:0:0:0:
192,192,13180,1,0,0:0:0:0:
320,192,13489,1,0,0:0:0:0:
192,192,13797,1,0,0:0:0:0:
320,192,14208,1,0,0:0:0:0:
192,192,14413,1,0,0:0:0:0:
320,192,14619,1,0,0:0:0:0:
448,192,14824,1,0,0:0:0:0:
64,192,14824,1,0,0:0:0:0:
448,192,15235,1,0,0:0:0:0:
320,192,15235,1,0,0:0:0:0:
192,192,15646,1,0,0:0:0:0:
320,192,16057,1,0,0:0:0:0:
448,192,16057,1,0,0:0:0:0:
64,192,16468,1,0,0:0:0:0:
192,192,16879,1,0,0:0:0:0:
448,192,16879,1,0,0:0:0:0:
320,192,17290,1,0,0:0:0:0:
448,192,17701,1,0,0:0:0:0:
192,192,17701,1,0,0:0:0:0:
64,192,18112,1,0,0:0:0:0:
320,192,18523,1,0,0:0:0:0:
192,192,18523,1,0,0:0:0:0:
448,192,18934,1,0,0:0:0:0:
192,192,19345,1,0,0:0:0:0:
320,192,19345,1,0,0:0:0:0:
64,192,19756,1,0,0:0:0:0:
192,192,20167,1,0,0:0:0:0:
448,192,20167,1,0,0:0:0:0:
320,192,20578,1,0,0:0:0:0:
448,192,20989,1,0,0:0:0:0:
192,192,20989,1,0,0:0:0:0:
320,192,21400,1,0,0:0:0:0:
448,192,21810,1,0,0:0:0:0:
64,192,21810,1,0,0:0:0:0:
192,192,22221,1,0,0:0:0:0:
64,192,22632,1,0,0:0:0:0:
448,192,22632,1,0,0:0:0:0:
320,192,23043,1,0,0:0:0:0:
448,192,23454,1,0,0:0:0:0:
192,192,23454,1,0,0:0:0:0:
64,192,23865,1,0,0:0:0:0:
192,192,24276,1,0,0:0:0:0:
448,192,24276,1,0,0:0:0:0:
320,192,24687,1,0,0:0:0:0:
64,192,25098,1,0,0:0:0:0:
448,192,25098,1,0,0:0:0:0:
192,192,25509,1,0,0:0:0:0:
64,192,25920,1,0,0:0:0:0:
448,192,25920,1,0,0:0:0:0:
320,192,26331,1,0,0:0:0:0:
192,192,26742,1,0,0:0:0:0:
64,192,26742,1,0,0:0:0:0:
320,192,27153,1,0,0:0:0:0:
448,192,27564,1,0,0:0:0:0:
64,192,27564,128,0,27975:0:0:0:0:
448,192,27975,1,0,0:0:0:0:
320,192,27975,1,0,0:0:0:0:
64,192,28386,1,0,0:0:0:0:
320,192,28386,1,0,0:0:0:0:
192,192,28797,1,0,0:0:0:0:
64,192,29208,1,0,0:0:0:0:
320,192,29208,1,0,0:0:0:0:
448,192,29619,1,0,0:0:0:0:
320,192,29619,1,0,0:0:0:0:
192,192,30030,1,0,0:0:0:0:
64,192,30030,1,0,0:0:0:0:
64,192,30441,1,0,0:0:0:0:
448,192,30441,1,0,0:0:0:0:
192,192,30852,1,0,0:0:0:0:
320,192,30852,1,0,0:0:0:0:
448,192,31263,1,0,0:0:0:0:
320,192,31263,1,0,0:0:0:0:
64,192,31674,1,0,0:0:0:0:
192,192,31674,1,0,0:0:0:0:
320,192,32084,1,0,0:0:0:0:
64,192,32495,1,0,0:0:0:0:
448,192,32495,1,0,0:0:0:0:
64,192,32906,1,0,0:0:0:0:
192,192,32906,1,0,0:0:0:0:
448,192,33317,1,0,0:0:0:0:
320,192,33317,1,0,0:0:0:0:
64,192,33728,1,0,0:0:0:0:
448,192,34139,1,0,0:0:0:0:
192,192,34139,1,0,0:0:0:0:
320,192,34345,1,0,0:0:0:0:
64,192,34550,1,0,0:0:0:0:
448,192,34550,1,0,0:0:0:0:
192,192,34961,1,0,0:0:0:0:
320,192,34961,1,0,0:0:0:0:
448,192,35372,1,0,0:0:0:0:
192,192,35783,1,0,0:0:0:0:
64,192,35783,1,0,0:0:0:0:
64,192,36194,1,0,0:0:0:0:
448,192,36194,1,0,0:0:0:0:
192,192,36605,1,0,0:0:0:0:
320,192,36605,1,0,0:0:0:0:
64,192,37016,1,0,0:0:0:0:
320,192,37016,1,0,0:0:0:0:
192,192,37427,1,0,0:0:0:0:
448,192,37427,1,0,0:0:0:0:
192,192,37838,1,0,0:0:0:0:
64,192,37838,1,0,0:0:0:0:
320,192,38249,1,0,0:0:0:0:
448,192,38249,1,0,0:0:0:0:
448,192,38660,1,0,0:0:0:0:
64,192,38660,1,0,0:0:0:0:
192,192,39071,1,0,0:0:0:0:
320,192,39071,1,0,0:0:0:0:
320,192,39482,1,0,0:0:0:0:
448,192,39482,1,0,0:0:0:0:
192,192,40098,1,0,0:0:0:0:
320,192,40098,1,0,0:0:0:0:
64,192,40715,1,0,0:0:0:0:
448,192,40715,1,0,0:0:0:0:
192,192,40920,1,0,0:0:0:0:
320,192,41126,1,0,0:0:0:0:
448,192,41126,1,0,0:0:0:0:
320,192,41537,1,0,0:0:0:0:
64,192,41537,1,0,0:0:0:0:
192,192,41947,1,0,0:0:0:0:
320,192,42358,1,0,0:0:0:0:
64,192,42358,1,0,0:0:0:0:
320,192,42769,1,0,0:0:0:0:
448,192,42769,1,0,0:0:0:0:
64,192,43180,1,0,0:0:0:0:
192,192,43180,1,0,0:0:0:0:
64,192,43591,1,0,0:0:0:0:
448,192,43591,1,0,0:0:0:0:
192,192,44002,1,0,0:0:0:0:
320,192,44002,1,0,0:0:0:0:
320,192,44413,1,0,0:0:0:0:
448,192,44413,1,0,0:0:0:0:
192,192,44824,1,0,0:0:0:0:
64,192,44824,1,0,0:0:0:0:
320,192,45235,1,0,0:0:0:0:
448,192,45646,1,0,0:0:0:0:
64,192,45646,1,0,0:0:0:0:
64,192,46057,1,0,0:0:0:0:
192,192,46057,1,0,0:0:0:0:
320,192,46468,1,0,0:0:0:0:
448,192,46468,1,0,0:0:0:0:
64,192,46879,1,0,0:0:0:0:
192,192,47290,1,0,0:0:0:0:
448,192,47290,1,0,0:0:0:0:
320,192,47495,1,0,0:0:0:0:
448,192,47701,1,0,0:0:0:0:
64,192,47701,1,0,0:0:0:0:
320,192,48112,1,0,0:0:0:0:
192,192,48112,1,0,0:0:0:0:
448,192,48523,1,0,0:0:0:0:
64,192,48934,1,0,0:0:0:0:
192,192,48934,1,0,0:0:0:0:
448,192,49345,1,0,0:0:0:0:
64,192,49345,1,0,0:0:0:0:
192,192,49756,1,0,0:0:0:0:
320,192,49756,1,0,0:0:0:0:
320,192,50167,1,0,0:0:0:0:
64,192,50167,1,0,0:0:0:0:
448,192,50578,1,0,0:0:0:0:
192,192,50578,1,0,0:0:0:0:
64,192,50989,1,0,0:0:0:0:
192,192,50989,1,0,0:0:0:0:
448,192,51400,1,0,0:0:0:0:
320,192,51400,1,0,0:0:0:0:
448,192,51810,1,0,0:0:0:0:
64,192,51810,1,0,0:0:0:0:
192,192,52221,1,0,0:0:0:0:
320,192,52221,1,0,0:0:0:0:
64,192,52632,1,0,0:0:0:0:
192,192,52632,1,0,0:0:0:0:
320,192,52838,1,0,0:0:0:0:
448,192,53043,1,0,0:0:0:0:
192,192,53249,1,0,0:0:0:0:
320,192,53454,1,0,0:0:0:0:
64,192,53660,1,0,0:0:0:0:
192,192,53865,128,0,54276:0:0:0:0:
448,192,54276,1,0,0:0:0:0:
64,192,56742,1,0,0:0:0:0:
320,192,57153,1,0,0:0:0:0:
192,192,57564,1,0,0:0:0:0:
320,192,60030,1,0,0:0:0:0:
64,192,60441,1,0,0:0:0:0:
192,192,60852,1,0,0:0:0:0:
320,192,64139,1,0,0:0:0:0:
448,192,65783,1,0,0:0:0:0:
64,192,66605,128,0,67427:0:0:0:0:
448,192,67427,1,0,0:0:0:0:
320,192,67427,1,0,0:0:0:0:
192,192,68865,1,0,0:0:0:0:
448,192,69071,1,0,0:0:0:0:
64,192,69893,1,0,0:0:0:0:
320,192,70304,1,0,0:0:0:0:
192,192,70715,1,0,0:0:0:0:
64,192,72153,1,0,0:0:0:0:
448,192,72358,1,0,0:0:0:0:
320,192,73180,1,0,0:0:0:0:
64,192,73591,1,0,0:0:0:0:
192,192,74002,1,0,0:0:0:0:
192,192,75441,1,0,0:0:0:0:
448,192,75646,1,0,0:0:0:0:
64,192,77290,1,0,0:0:0:0:
192,192,78728,1,0,0:0:0:0:
448,192,78934,1,0,0:0:0:0:
192,192,79961,128,0,80578:0:0:0:0:
448,192,80578,1,0,0:0:0:0:
64,192,80578,1,0,0:0:0:0:
320,192,80989,1,0,0:0:0:0:
64,192,80989,1,0,0:0:0:0:
448,192,81400,1,0,0:0:0:0:
320,192,81810,1,0,0:0:0:0:
64,192,81810,1,0,0:0:0:0:
192,192,82221,1,0,0:0:0:0:
448,192,82632,1,0,0:0:0:0:
64,192,82632,1,0,0:0:0:0:
320,192,83043,1,0,0:0:0:0:
448,192,83454,1,0,0:0:0:0:
64,192,83454,1,0,0:0:0:0:
192,192,83865,1,0,0:0:0:0:
64,192,84276,1,0,0:0:0:0:
320,192,84276,1,0,0:0:0:0:
448,192,84687,1,0,0:0:0:0:
64,192,85098,1,0,0:0:0:0:
320,192,85098,1,0,0:0:0:0:
192,192,85509,1,0,0:0:0:0:
448,192,85920,1,0,0:0:0:0:
320,192,85920,1,0,0:0:0:0:
64,192,86331,1,0,0:0:0:0:
320,192,86742,1,0,0:0:0:0:
448,192,86742,1,0,0:0:0:0:
64,192,87153,1,0,0:0:0:0:
192,192,87564,1,0,0:0:0:0:
448,192,87564,1,0,0:0:0:0:
320,192,87975,1,0,0:0:0:0:
192,192,88386,1,0,0:0:0:0:
448,192,88386,1,0,0:0:0:0:
64,192,88797,1,0,0:0:0:0:
192,192,89208,1,0,0:0:0:0:
320,192,89208,1,0,0:0:0:0:
448,192,89619,1,0,0:0:0:0:
192,192,90030,1,0,0:0:0:0:
320,192,90030,1,0,0:0:0:0:
64,192,90441,1,0,0:0:0:0:
320,192,90852,1,0,0:0:0:0:
448,192,90852,1,0,0:0:0:0:
192,192,91263,1,0,0:0:0:0:
320,192,91673,1,0,0:0:0:0:
448,192,91673,1,0,0:0:0:0:
64,192,92084,1,0,0:0:0:0:
64,192,92495,1,0,0:0:0:0:
192,192,93112,1,0,0:0:0:0:
320,192,93317,1,0,0:0:0:0:
448,192,93523,1,0,0:0:0:0:
192,192,94139,1,0,0:0:0:0:
448,192,94139,1,0,0:0:0:0:
64,192,95782,1,0,0:0:0:0:
320,192,95782,1,0,0:0:0:0:
448,192,96604,1,0,0:0:0:0:
320,192,96604,1,0,0:0:0:0:
64,192,97015,1,0,0:0:0:0:
320,192,97015,1,0,0:0:0:0:
64,192,97426,1,0,0:0:0:0:
448,192,97426,1,0,0:0:0:0:
192,192,99070,1,0,0:0:0:0:
448,192,99070,1,0,0:0:0:0:
448,192,100303,1,0,0:0:0:0:
64,192,100714,1,0,0:0:0:0:
320,192,100714,1,0,0:0:0:0:
448,192,102358,1,0,0:0:0:0:
320,192,102358,1,0,0:0:0:0:
448,192,103180,1,0,0:0:0:0:
192,192,103180,1,0,0:0:0:0:
320,192,103591,1,0,0:0:0:0:
192,192,103591,1,0,0:0:0:0:
64,192,104002,1,0,0:0:0:0:
320,192,104002,1,0,0:0:0:0:
320,192,104823,1,0,0:0:0:0:
64,192,104823,1,0,0:0:0:0:
320,192,105234,1,0,0:0:0:0:
192,192,105234,1,0,0:0:0:0:
192,192,105645,1,0,0:0:0:0:
448,192,105645,1,0,0:0:0:0:
448,192,106056,1,0,0:0:0:0:
64,192,106262,1,0,0:0:0:0:
192,192,106262,1,0,0:0:0:0:
320,192,106467,1,0,0:0:0:0:
192,192,106878,1,0,0:0:0:0:
64,192,106878,1,0,0:0:0:0:
192,192,107289,1,0,0:0:0:0:
448,192,107289,1,0,0:0:0:0:
448,192,107700,1,0,0:0:0:0:
320,192,107700,1,0,0:0:0:0:
64,192,108111,1,0,0:0:0:0:
192,192,108522,1,0,0:0:0:0:
320,192,108522,1,0,0:0:0:0:
448,192,108933,1,0,0:0:0:0:
320,192,108933,1,0,0:0:0:0:
192,192,109344,1,0,0:0:0:0:
64,192,109344,1,0,0:0:0:0:
64,192,109755,1,0,0:0:0:0:
320,192,109755,1,0,0:0:0:0:
448,192,110166,1,0,0:0:0:0:
192,192,110166,1,0,0:0:0:0:
448,192,110577,1,0,0:0:0:0:
64,192,110577,1,0,0:0:0:0:
192,192,110988,1,0,0:0:0:0:
320,192,110988,1,0,0:0:0:0:
448,192,111399,1,0,0:0:0:0:
320,192,111810,1,0,0:0:0:0:
192,192,111810,1,0,0:0:0:0:
64,192,112221,1,0,0:0:0:0:
192,192,112221,1,0,0:0:0:0:
448,192,112632,1,0,0:0:0:0:
320,192,112632,1,0,0:0:0:0:
192,192,113043,1,0,0:0:0:0:
64,192,113454,1,0,0:0:0:0:
448,192,113454,1,0,0:0:0:0:
320,192,113659,1,0,0:0:0:0:
192,192,113865,1,0,0:0:0:0:
64,192,113865,1,0,0:0:0:0:
448,192,114275,1,0,0:0:0:0:
320,192,114275,1,0,0:0:0:0:
192,192,114686,1,0,0:0:0:0:
320,192,115097,1,0,0:0:0:0:
448,192,115097,1,0,0:0:0:0:
64,192,115508,1,0,0:0:0:0:
320,192,115508,1,0,0:0:0:0:
448,192,115919,1,0,0:0:0:0:
192,192,115919,1,0,0:0:0:0:
320,192,116330,1,0,0:0:0:0:
448,192,116330,1,0,0:0:0:0:
192,192,116741,1,0,0:0:0:0:
64,192,116741,1,0,0:0:0:0:
192,192,117152,1,0,0:0:0:0:
320,192,117152,1,0,0:0:0:0:
448,192,117563,1,0,0:0:0:0:
64,192,117563,1,0,0:0:0:0:
64,192,117974,1,0,0:0:0:0:
192,192,117974,1,0,0:0:0:0:
448,192,118385,1,0,0:0:0:0:
320,192,118385,1,0,0:0:0:0:
320,192,118796,1,0,0:0:0:0:
192,192,118796,1,0,0:0:0:0:
192,192,119207,1,0,0:0:0:0:
320,192,119412,1,0,0:0:0:0:
448,192,119412,1,0,0:0:0:0:
64,192,119618,1,0,0:0:0:0:
320,192,120029,1,0,0:0:0:0:
64,192,120029,1,0,0:0:0:0:
192,192,120234,1,0,0:0:0:0:
448,192,120440,1,0,0:0:0:0:
320,192,120440,1,0,0:0:0:0:
