osu file format v14

[General]
AudioFilename: audio.mp3
AudioLeadIn: 0
PreviewTime: 305231
Countdown: 0
SampleSet: Soft
StackLeniency: 0.7
Mode: 3
LetterboxInBreaks: 0
SpecialStyle: 0
WidescreenStoryboard: 1

[Editor]
Bookmarks: 1122,2765,15094,15916,29067,42217,53724,55368,68519,80026,81669,93176,94820,106327,120711,121121,145779,147423,153587,166738,172080,173724,179889,193039,198382,200026,213176,226327,239478,250985,289315,292080,305231,308108,311395,314683,318382,321258,324546,327834,329889,331532,337697,350848,356190,357834,382491,397286
DistanceSpacing: 1.5
BeatDivisor: 4
GridSize: 32
TimelineZoom: 1.4

[Metadata]
Title:Lapis (Kagetora. remix)
TitleUnicode:Lapis (影虎。remix)
Artist:SHIKI
ArtistUnicode:SHIKI
Creator:Kawawa
Version:Lapis Lazuli
Source:THE BMS OF FIGHTERS 2008 - Resurrection -
Tags:BOF2008 Instrumental Electronic Video Game Arcaea Trancer Doll's Psychedelic Trance Full on Psytrance kgtr0610 CHUNITHM Pokerizu Sparebeat
BeatmapID:3092852
BeatmapSetID:1510347

[Difficulty]
HPDrainRate:8.2
CircleSize:7
OverallDifficulty:7.7
ApproachRate:5
SliderMultiplier:1.4
SliderTickRate:1

[Events]
//Background and Video events
0,0,"BG.jpg",0,0
//Break Periods
//Storyboard Layer 0 (Background)
//Storyboard Layer 1 (Fail)
//Storyboard Layer 2 (Pass)
//Storyboard Layer 3 (Foreground)
//Storyboard Layer 4 (Overlay)
//Storyboard Sound Samples

[TimingPoints]
2765,410.958904109589,4,2,1,30,1,0
2765,-153.846153846154,4,2,1,30,0,0
15094,-149.253731343284,4,2,1,30,0,0
15163,-144.927536231884,4,2,1,30,0,0
15231,-140.845070422535,4,2,1,30,0,0
15300,-136.986301369863,4,2,1,30,0,0
15368,-133.333333333333,4,2,1,30,0,0
15437,-129.87012987013,4,2,1,30,0,0
15505,-126.582278481013,4,2,1,30,0,0
15574,-123.456790123457,4,2,1,30,0,0
15642,-120.481927710843,4,2,1,30,0,0
15711,-117.647058823529,4,2,1,30,0,0
42217,-111.111111111111,4,2,1,30,0,0
53724,-108.695652173913,4,2,1,30,0,0
54135,-106.382978723404,4,2,1,30,0,0
54546,-104.166666666667,4,2,1,30,0,0
54956,-102.040816326531,4,2,1,30,0,1
55367,-100,4,2,1,30,0,0
80025,-100,4,2,1,30,0,1
81669,-100,4,2,1,30,0,0
120710,-100,4,2,1,30,0,1
120915,-100,4,2,1,30,0,0
147422,-100,4,2,1,30,0,1
172080,-100,4,2,1,30,0,0
173723,-100,4,2,1,30,0,1
198381,-100,4,2,1,30,0,0
250984,-121.951219512195,4,2,1,30,0,0
277696,-100,4,2,1,30,0,0
305230,-100,4,2,1,30,0,1
329888,-100,4,2,1,30,0,0
331532,-100,4,2,1,30,0,1
356189,-100,4,2,1,30,0,0

[HitObjects]
475,192,2765,5,0,0:0:0:0:
109,192,2765,128,0,3997:0:0:0:0:
329,192,2765,1,0,0:0:0:30:Cymbal.wav
182,192,2970,128,0,3997:0:0:0:0:
256,192,3175,128,0,3997:0:0:0:0:
329,192,3381,128,0,5847:0:0:0:0:
182,192,4408,128,0,5847:0:0:0:0:
36,192,4408,128,0,5847:0:0:0:0:
475,192,5230,128,0,5847:0:0:0:0:
109,192,5230,128,0,5847:0:0:0:0:
256,192,6052,128,0,7285:0:0:0:0:
329,192,6258,128,0,7285:0:0:0:0:
402,192,6463,128,0,7285:0:0:0:0:
475,192,6669,128,0,9134:0:0:0:0:
256,192,7696,128,0,9134:0:0:0:0:
109,192,7696,128,0,9134:0:0:0:0:
329,192,8518,128,0,9134:0:0:0:0:
36,192,8518,128,0,9134:0:0:0:0:
182,192,9340,128,0,10573:0:0:0:0:
256,192,9545,128,0,10573:0:0:0:0:
329,192,9751,128,0,10573:0:0:0:0:
402,192,9956,128,0,12422:0:0:0:0:
182,192,10984,128,0,12422:0:0:0:0:
36,192,10984,128,0,12422:0:0:0:0:
329,192,11806,128,0,12422:0:0:0:0:
475,192,11806,128,0,12422:0:0:0:0:
36,192,12628,128,0,13860:0:0:0:0:
109,192,12833,128,0,13860:0:0:0:0:
182,192,13038,128,0,13860:0:0:0:0:
256,192,13244,128,0,15710:0:0:0:0:
36,192,14271,128,0,15710:0:0:0:0:
402,192,14271,128,0,15710:0:0:0:0:
109,192,15093,128,0,15710:0:0:0:0:
475,192,15093,128,0,15710:0:0:0:0:
36,192,15915,128,0,16121:0:0:0:0:
182,192,15915,128,0,16121:0:0:0:30:Highlight.wav
329,192,15915,1,0,0:0:0:30:Cymbal.wav
475,192,15915,1,0,0:0:0:0:
475,192,16223,1,0,0:0:0:0:
329,192,16326,1,0,0:0:0:0:
329,192,16532,1,0,0:0:0:0:
36,192,16737,1,0,0:0:0:0:
182,192,16840,1,0,0:0:0:0:
182,192,17148,1,0,0:0:0:0:
475,192,17559,128,0,17765:0:0:0:0:
329,192,17559,128,0,17765:0:0:0:30:Highlight.wav
109,192,17559,1,0,0:0:0:0:
109,192,17867,1,0,0:0:0:0:
256,192,17970,1,0,0:0:0:0:
256,192,18175,1,0,0:0:0:0:
109,192,18381,128,0,18586:0:0:0:30:Highlight.wav
36,192,18381,128,0,18586:0:0:0:0:
475,192,18381,1,0,0:0:0:0:
329,192,18484,1,0,0:0:0:0:
109,192,18792,128,0,18997:0:0:0:0:
182,192,18792,128,0,18997:0:0:0:30:Highlight.wav
329,192,18792,1,0,0:0:0:0:
182,192,19203,128,0,19408:0:0:0:0:
256,192,19203,128,0,19408:0:0:0:30:Highlight.wav
402,192,19203,1,0,0:0:0:0:
402,192,19511,1,0,0:0:0:0:
256,192,19614,1,0,0:0:0:0:
256,192,19819,1,0,0:0:0:0:
36,192,20025,1,0,0:0:0:0:
182,192,20128,1,0,0:0:0:0:
182,192,20436,1,0,0:0:0:0:
256,192,20847,128,0,21052:0:0:0:0:
402,192,20847,128,0,21052:0:0:0:30:Highlight.wav
109,192,20847,1,0,0:0:0:0:
109,192,21155,1,0,0:0:0:0:
256,192,21258,1,0,0:0:0:0:
256,192,21463,1,0,0:0:0:0:
182,192,21669,1,0,0:0:0:0:
329,192,21771,1,0,0:0:0:0:
182,192,22080,128,0,22285:0:0:0:30:Highlight.wav
36,192,22080,128,0,22285:0:0:0:0:
329,192,22080,1,0,0:0:0:0:
109,192,22491,128,0,22696:0:0:0:0:
256,192,22491,128,0,22696:0:0:0:30:Highlight.wav
475,192,22491,1,0,0:0:0:0:
475,192,22799,1,0,0:0:0:0:
329,192,22901,1,0,0:0:0:0:
329,192,23107,1,0,0:0:0:0:
36,192,23312,1,0,0:0:0:0:
182,192,23415,1,0,0:0:0:0:
182,192,23723,1,0,0:0:0:0:
475,192,24134,128,0,24340:0:0:0:0:
329,192,24134,128,0,24340:0:0:0:30:Highlight.wav
109,192,24134,1,0,0:0:0:0:
109,192,24443,1,0,0:0:0:0:
256,192,24545,1,0,0:0:0:0:
256,192,24751,1,0,0:0:0:0:
182,192,24956,128,0,25162:0:0:0:30:Highlight.wav
36,192,24956,128,0,25162:0:0:0:0:
329,192,24956,1,0,0:0:0:0:
475,192,25059,1,0,0:0:0:0:
329,192,25367,128,0,25573:0:0:0:0:
182,192,25367,128,0,25573:0:0:0:30:Highlight.wav
475,192,25367,1,0,0:0:0:0:
475,192,25778,128,0,25984:0:0:0:0:
329,192,25778,128,0,25984:0:0:0:30:Highlight.wav
36,192,25778,1,0,0:0:0:0:
36,192,26086,1,0,0:0:0:0:
182,192,26189,1,0,0:0:0:0:
182,192,26395,1,0,0:0:0:0:
402,192,26600,128,0,26806:0:0:0:30:Highlight.wav
475,192,26600,128,0,26806:0:0:0:0:
109,192,26600,1,0,0:0:0:0:
256,192,26703,1,0,0:0:0:0:
36,192,27011,128,0,27217:0:0:0:0:
109,192,27011,128,0,27217:0:0:0:30:Highlight.wav
256,192,27011,1,0,0:0:0:0:
475,192,27422,128,0,27628:0:0:0:0:
329,192,27422,128,0,27628:0:0:0:30:Highlight.wav
109,192,27422,1,0,0:0:0:0:
109,192,27730,1,0,0:0:0:0:
329,192,27833,1,0,0:0:0:0:
182,192,28038,128,0,28244:0:0:0:30:Highlight.wav
36,192,28038,128,0,28244:0:0:0:0:
329,192,28038,1,0,0:0:0:0:
402,192,28244,1,0,0:0:0:0:
256,192,28347,1,0,0:0:0:0:
109,192,28655,128,0,28860:0:0:0:30:Highlight.wav
402,192,28655,128,0,28860:0:0:0:0:
256,192,28655,1,0,0:0:0:0:
475,192,29066,128,0,29271:0:0:0:0:
36,192,29066,128,0,29271:0:0:0:30:Highlight.wav
182,192,29066,1,0,0:0:0:30:Cymbal.wav
329,192,29066,1,0,0:0:0:0:
182,192,29374,1,0,0:0:0:0:
329,192,29374,1,0,0:0:0:0:
475,192,29477,1,0,0:0:0:0:
329,192,29682,1,0,0:0:0:0:
475,192,29682,1,0,0:0:0:0:
109,192,29888,1,0,0:0:0:0:
256,192,29991,1,0,0:0:0:0:
402,192,29991,1,0,0:0:0:0:
256,192,30299,1,0,0:0:0:0:
402,192,30299,1,0,0:0:0:0:
475,192,30710,128,0,30915:0:0:0:0:
329,192,30710,128,0,30915:0:0:0:30:Highlight.wav
182,192,30710,1,0,0:0:0:0:
36,192,30710,1,0,0:0:0:0:
36,192,31018,1,0,0:0:0:0:
182,192,31018,1,0,0:0:0:0:
329,192,31121,1,0,0:0:0:0:
182,192,31326,1,0,0:0:0:0:
329,192,31326,1,0,0:0:0:0:
109,192,31532,128,0,31737:0:0:0:30:Highlight.wav
36,192,31532,128,0,31737:0:0:0:0:
475,192,31532,1,0,0:0:0:0:
402,192,31634,1,0,0:0:0:0:
256,192,31634,1,0,0:0:0:0:
475,192,31943,128,0,32148:0:0:0:0:
402,192,31943,128,0,32148:0:0:0:30:Highlight.wav
256,192,31943,1,0,0:0:0:0:
109,192,31943,1,0,0:0:0:0:
182,192,32354,128,0,32559:0:0:0:0:
329,192,32354,128,0,32559:0:0:0:30:Highlight.wav
36,192,32354,1,0,0:0:0:0:
475,192,32354,1,0,0:0:0:0:
475,192,32662,1,0,0:0:0:0:
36,192,32662,1,0,0:0:0:0:
182,192,32764,1,0,0:0:0:0:
182,192,32970,1,0,0:0:0:0:
329,192,32970,1,0,0:0:0:0:
402,192,33175,1,0,0:0:0:0:
109,192,33278,1,0,0:0:0:0:
256,192,33278,1,0,0:0:0:0:
109,192,33586,1,0,0:0:0:0:
256,192,33586,1,0,0:0:0:0:
182,192,33997,128,0,34203:0:0:0:30:Highlight.wav
36,192,33997,128,0,34203:0:0:0:0:
329,192,33997,1,0,0:0:0:0:
475,192,33997,1,0,0:0:0:0:
329,192,34306,1,0,0:0:0:0:
475,192,34306,1,0,0:0:0:0:
109,192,34408,1,0,0:0:0:0:
109,192,34614,1,0,0:0:0:0:
256,192,34614,1,0,0:0:0:0:
329,192,34819,1,0,0:0:0:0:
182,192,34922,1,0,0:0:0:0:
36,192,34922,1,0,0:0:0:0:
402,192,35230,128,0,35436:0:0:0:0:
329,192,35230,128,0,35436:0:0:0:30:Highlight.wav
36,192,35230,1,0,0:0:0:0:
182,192,35230,1,0,0:0:0:0:
475,192,35641,128,0,35847:0:0:0:0:
402,192,35641,128,0,35847:0:0:0:30:Highlight.wav
109,192,35641,1,0,0:0:0:0:
256,192,35641,1,0,0:0:0:0:
109,192,35949,1,0,0:0:0:0:
256,192,35949,1,0,0:0:0:0:
475,192,36052,1,0,0:0:0:0:
329,192,36258,1,0,0:0:0:0:
475,192,36258,1,0,0:0:0:0:
109,192,36463,1,0,0:0:0:0:
256,192,36566,1,0,0:0:0:0:
402,192,36566,1,0,0:0:0:0:
256,192,36874,1,0,0:0:0:0:
402,192,36874,1,0,0:0:0:0:
475,192,37285,128,0,37491:0:0:0:30:Highlight.wav
36,192,37285,128,0,37491:0:0:0:0:
182,192,37285,1,0,0:0:0:0:
329,192,37285,1,0,0:0:0:0:
329,192,37593,1,0,0:0:0:0:
182,192,37593,1,0,0:0:0:0:
475,192,37696,1,0,0:0:0:0:
329,192,37901,1,0,0:0:0:0:
475,192,37901,1,0,0:0:0:0:
36,192,38107,128,0,38312:0:0:0:0:
182,192,38107,128,0,38312:0:0:0:30:Highlight.wav
329,192,38107,1,0,0:0:0:0:
402,192,38210,1,0,0:0:0:0:
475,192,38210,1,0,0:0:0:0:
256,192,38518,128,0,38723:0:0:0:30:Highlight.wav
109,192,38518,128,0,38723:0:0:0:0:
402,192,38518,1,0,0:0:0:0:
475,192,38518,1,0,0:0:0:0:
182,192,38929,128,0,39134:0:0:0:0:
329,192,38929,128,0,39134:0:0:0:30:Highlight.wav
475,192,38929,1,0,0:0:0:0:
36,192,38929,1,0,0:0:0:0:
36,192,39237,1,0,0:0:0:0:
475,192,39237,1,0,0:0:0:0:
182,192,39340,1,0,0:0:0:0:
182,192,39545,1,0,0:0:0:0:
329,192,39545,1,0,0:0:0:0:
36,192,39751,128,0,39956:0:0:0:0:
109,192,39751,128,0,39956:0:0:0:30:Highlight.wav
475,192,39751,1,0,0:0:0:0:
256,192,39854,1,0,0:0:0:0:
402,192,39854,1,0,0:0:0:0:
182,192,40162,128,0,40367:0:0:0:30:Highlight.wav
109,192,40162,128,0,40367:0:0:0:0:
256,192,40162,1,0,0:0:0:0:
402,192,40162,1,0,0:0:0:0:
182,192,40573,128,0,40778:0:0:0:0:
256,192,40573,128,0,40778:0:0:0:30:Highlight.wav
402,192,40573,1,0,0:0:0:0:
36,192,40573,1,0,0:0:0:0:
36,192,40881,1,0,0:0:0:0:
402,192,40881,1,0,0:0:0:0:
182,192,40984,1,0,0:0:0:0:
329,192,41189,128,0,41395:0:0:0:30:Highlight.wav
475,192,41189,128,0,41395:0:0:0:0:
182,192,41189,1,0,0:0:0:0:
36,192,41189,1,0,0:0:0:0:
109,192,41395,1,0,0:0:0:0:
256,192,41497,1,0,0:0:0:0:
402,192,41497,1,0,0:0:0:0:
109,192,41806,128,0,42011:0:0:0:30:Highlight.wav
36,192,41806,128,0,42011:0:0:0:0:
402,192,41806,1,0,0:0:0:0:
256,192,41806,1,0,0:0:0:0:
329,192,42217,1,0,0:0:0:30:Cymbal.wav
475,192,42217,1,0,0:0:0:30:Highlight.wav
182,192,42217,1,0,0:0:0:0:
36,192,42217,1,0,0:0:0:0:
402,192,42422,1,0,0:0:0:0:
36,192,42525,1,0,0:0:0:0:
182,192,42525,1,0,0:0:0:0:
402,192,42730,1,0,0:0:0:0:
182,192,42833,1,0,0:0:0:0:
36,192,42833,1,0,0:0:0:0:
402,192,43038,1,0,0:0:0:0:
36,192,43141,1,0,0:0:0:0:
182,192,43141,1,0,0:0:0:0:
402,192,43347,1,0,0:0:0:0:
182,192,43449,1,0,0:0:0:0:
36,192,43449,1,0,0:0:0:0:
329,192,43860,1,0,0:0:0:0:
475,192,43860,1,0,0:0:0:0:
109,192,44066,1,0,0:0:0:0:
329,192,44169,1,0,0:0:0:0:
475,192,44169,1,0,0:0:0:0:
109,192,44374,1,0,0:0:0:0:
329,192,44477,1,0,0:0:0:0:
475,192,44477,1,0,0:0:0:0:
109,192,44682,1,0,0:0:0:0:
475,192,44785,1,0,0:0:0:0:
329,192,44785,1,0,0:0:0:0:
109,192,44991,1,0,0:0:0:0:
475,192,45093,1,0,0:0:0:0:
329,192,45093,1,0,0:0:0:0:
109,192,45504,1,0,0:0:0:0:
402,192,45504,1,0,0:0:0:0:
256,192,45710,1,0,0:0:0:0:
109,192,45812,1,0,0:0:0:0:
402,192,45812,1,0,0:0:0:0:
256,192,46018,1,0,0:0:0:0:
109,192,46121,1,0,0:0:0:0:
402,192,46121,1,0,0:0:0:0:
256,192,46326,1,0,0:0:0:0:
109,192,46429,1,0,0:0:0:0:
402,192,46429,1,0,0:0:0:0:
256,192,46634,1,0,0:0:0:0:
402,192,46737,1,0,0:0:0:0:
109,192,46737,1,0,0:0:0:0:
182,192,47148,1,0,0:0:0:0:
329,192,47148,1,0,0:0:0:0:
36,192,47354,1,0,0:0:0:0:
329,192,47456,1,0,0:0:0:0:
182,192,47456,1,0,0:0:0:0:
36,192,47662,1,0,0:0:0:0:
182,192,47765,1,0,0:0:0:0:
329,192,47765,1,0,0:0:0:0:
36,192,47970,1,0,0:0:0:0:
329,192,48073,1,0,0:0:0:0:
475,192,48073,1,0,0:0:0:0:
36,192,48278,1,0,0:0:0:0:
182,192,48381,1,0,0:0:0:0:
329,192,48381,1,0,0:0:0:0:
109,192,48586,1,0,0:0:0:0:
402,192,48586,1,0,0:0:0:0:
36,192,48792,1,0,0:0:0:0:
475,192,48792,1,0,0:0:0:0:
256,192,48997,1,0,0:0:0:0:
36,192,49100,1,0,0:0:0:0:
475,192,49100,1,0,0:0:0:0:
256,192,49306,1,0,0:0:0:0:
475,192,49408,1,0,0:0:0:0:
36,192,49408,1,0,0:0:0:0:
256,192,49614,1,0,0:0:0:0:
36,192,49717,1,0,0:0:0:0:
475,192,49717,1,0,0:0:0:0:
256,192,49922,1,0,0:0:0:0:
475,192,50025,1,0,0:0:0:0:
36,192,50025,1,0,0:0:0:0:
182,192,50436,1,0,0:0:0:0:
36,192,50436,1,0,0:0:0:0:
329,192,50641,1,0,0:0:0:0:
182,192,50744,1,0,0:0:0:0:
36,192,50744,1,0,0:0:0:0:
329,192,50949,1,0,0:0:0:0:
182,192,51052,1,0,0:0:0:0:
36,192,51052,1,0,0:0:0:0:
329,192,51258,1,0,0:0:0:0:
36,192,51360,1,0,0:0:0:0:
182,192,51360,1,0,0:0:0:0:
329,192,51566,1,0,0:0:0:0:
182,192,51669,1,0,0:0:0:0:
36,192,51669,1,0,0:0:0:0:
256,192,52080,1,0,0:0:0:0:
402,192,52080,1,0,0:0:0:0:
109,192,52285,1,0,0:0:0:0:
402,192,52388,1,0,0:0:0:0:
256,192,52388,1,0,0:0:0:0:
109,192,52593,1,0,0:0:0:0:
256,192,52696,1,0,0:0:0:0:
402,192,52696,1,0,0:0:0:0:
109,192,52901,1,0,0:0:0:0:
256,192,53004,1,0,0:0:0:0:
402,192,53004,1,0,0:0:0:0:
109,192,53210,1,0,0:0:0:0:
256,192,53312,1,0,0:0:0:0:
402,192,53312,1,0,0:0:0:0:
182,192,53723,1,0,0:0:0:0:
329,192,53723,1,0,0:0:0:0:
36,192,53723,1,0,0:0:0:0:
475,192,53929,1,0,0:0:0:0:
182,192,54032,1,0,0:0:0:0:
329,192,54032,1,0,0:0:0:0:
36,192,54134,1,0,0:0:0:0:
475,192,54237,5,0,0:0:0:0:
329,192,54340,5,0,0:0:0:0:
182,192,54340,1,0,0:0:0:0:
36,192,54545,1,0,0:0:0:0:
182,192,54545,1,0,0:0:0:0:
475,192,54648,1,0,0:0:0:0:
329,192,54648,1,0,0:0:0:0:
475,192,54854,1,0,0:0:0:0:
36,192,54854,1,0,0:0:0:30:Snare-2.wav
182,192,54854,1,0,0:0:0:0:
182,192,54956,1,0,0:0:0:0:
329,192,54956,1,0,0:0:0:0:
36,192,54956,1,0,0:0:0:30:Snare-2.wav
256,192,55162,1,0,0:0:0:0:
402,192,55162,1,0,0:0:0:0:
109,192,55367,5,0,0:0:0:30:KicK.wav
329,192,55367,1,0,0:0:0:30:Main-1.wav
36,192,55367,1,0,0:0:0:0:
475,192,55367,1,0,0:0:0:30:Cymbal.wav
182,192,55470,1,0,0:0:0:0:
256,192,55573,1,0,0:0:0:0:
36,192,55675,1,0,0:0:0:0:
475,192,55675,1,0,0:0:0:0:
329,192,55675,1,0,0:0:0:30:Main-1.wav
256,192,55778,1,0,0:0:0:0:
109,192,55778,1,0,0:0:0:30:KicK.wav
402,192,55778,1,0,0:0:0:0:
182,192,55881,1,0,0:0:0:0:
36,192,55984,1,0,0:0:0:0:
475,192,55984,1,0,0:0:0:0:
329,192,55984,1,0,0:0:0:30:Main-1.wav
182,192,56086,1,0,0:0:0:0:
256,192,56189,1,0,0:0:0:0:
109,192,56189,1,0,0:0:0:30:KicK.wav
402,192,56189,1,0,0:0:0:0:
36,192,56292,1,0,0:0:0:0:
329,192,56292,1,0,0:0:0:30:Main-1.wav
475,192,56292,1,0,0:0:0:0:
256,192,56395,1,0,0:0:0:0:
182,192,56497,1,0,0:0:0:0:
36,192,56600,1,0,0:0:0:0:
329,192,56600,1,0,0:0:0:30:Main-1.wav
109,192,56600,1,0,0:0:0:30:KicK.wav
475,192,56600,1,0,0:0:0:0:
329,192,56703,1,0,0:0:0:0:
182,192,56806,1,0,0:0:0:0:
402,192,56806,1,0,0:0:0:0:
182,192,56908,1,0,0:0:0:0:
36,192,57011,1,0,0:0:0:30:KicK.wav
256,192,57011,1,0,0:0:0:0:
109,192,57011,1,0,0:0:0:0:
475,192,57011,1,0,0:0:0:30:Main-1.wav
402,192,57114,1,0,0:0:0:0:
329,192,57217,1,0,0:0:0:0:
109,192,57319,1,0,0:0:0:0:
475,192,57319,1,0,0:0:0:30:Main-1.wav
256,192,57319,1,0,0:0:0:0:
36,192,57422,1,0,0:0:0:30:KicK.wav
329,192,57422,1,0,0:0:0:0:
402,192,57422,1,0,0:0:0:0:
182,192,57525,1,0,0:0:0:0:
109,192,57628,1,0,0:0:0:0:
475,192,57628,1,0,0:0:0:30:Main-1.wav
256,192,57628,1,0,0:0:0:0:
182,192,57730,1,0,0:0:0:0:
36,192,57833,1,0,0:0:0:30:KicK.wav
402,192,57833,1,0,0:0:0:0:
329,192,57833,1,0,0:0:0:0:
109,192,57936,1,0,0:0:0:0:
256,192,57936,1,0,0:0:0:0:
475,192,57936,1,0,0:0:0:30:Main-1.wav
329,192,58038,1,0,0:0:0:0:
402,192,58141,1,0,0:0:0:0:
256,192,58244,1,0,0:0:0:0:
109,192,58244,1,0,0:0:0:0:
36,192,58244,1,0,0:0:0:30:KicK.wav
475,192,58244,1,0,0:0:0:30:Main-1.wav
256,192,58347,1,0,0:0:0:0:
402,192,58449,1,0,0:0:0:0:
109,192,58449,1,0,0:0:0:0:
402,192,58552,1,0,0:0:0:0:
329,192,58655,1,0,0:0:0:30:KicK.wav
36,192,58655,1,0,0:0:0:0:
182,192,58655,1,0,0:0:0:30:Main-1.wav
475,192,58655,1,0,0:0:0:0:
256,192,58758,1,0,0:0:0:0:
329,192,58860,1,0,0:0:0:0:
475,192,58963,1,0,0:0:0:0:
36,192,58963,1,0,0:0:0:0:
182,192,58963,1,0,0:0:0:30:Main-1.wav
256,192,59066,1,0,0:0:0:30:KicK.wav
402,192,59066,1,0,0:0:0:0:
109,192,59066,1,0,0:0:0:0:
329,192,59169,1,0,0:0:0:0:
182,192,59271,1,0,0:0:0:30:Main-1.wav
36,192,59271,1,0,0:0:0:0:
475,192,59271,1,0,0:0:0:0:
329,192,59374,1,0,0:0:0:0:
402,192,59477,1,0,0:0:0:0:
109,192,59477,1,0,0:0:0:0:
256,192,59477,1,0,0:0:0:30:KicK.wav
36,192,59580,1,0,0:0:0:0:
475,192,59580,1,0,0:0:0:0:
182,192,59580,1,0,0:0:0:30:Main-1.wav
329,192,59682,1,0,0:0:0:0:
256,192,59785,1,0,0:0:0:0:
36,192,59888,1,0,0:0:0:0:
475,192,59888,1,0,0:0:0:0:
182,192,59888,1,0,0:0:0:30:Main-1.wav
329,192,59888,1,0,0:0:0:30:KicK.wav
475,192,59991,1,0,0:0:0:0:
256,192,60093,1,0,0:0:0:0:
109,192,60093,1,0,0:0:0:0:
109,192,60196,1,0,0:0:0:0:
36,192,60299,1,0,0:0:0:0:
402,192,60299,1,0,0:0:0:30:Main-1.wav
475,192,60299,1,0,0:0:0:0:
182,192,60299,1,0,0:0:0:30:KicK.wav
256,192,60401,1,0,0:0:0:0:
329,192,60504,1,0,0:0:0:0:
402,192,60607,1,0,0:0:0:30:Main-1.wav
475,192,60607,1,0,0:0:0:0:
36,192,60607,1,0,0:0:0:0:
329,192,60710,1,0,0:0:0:0:
182,192,60710,1,0,0:0:0:30:KicK.wav
109,192,60710,1,0,0:0:0:0:
256,192,60812,1,0,0:0:0:0:
36,192,60915,1,0,0:0:0:0:
402,192,60915,1,0,0:0:0:30:Main-1.wav
475,192,60915,1,0,0:0:0:0:
109,192,61018,1,0,0:0:0:0:
182,192,61121,1,0,0:0:0:30:KicK.wav
475,192,61121,1,0,0:0:0:0:
329,192,61121,1,0,0:0:0:0:
109,192,61223,1,0,0:0:0:30:Main-1.wav
36,192,61223,1,0,0:0:0:0:
402,192,61223,1,0,0:0:0:0:
329,192,61326,1,0,0:0:0:0:
402,192,61429,1,0,0:0:0:0:
36,192,61532,1,0,0:0:0:0:
475,192,61532,1,0,0:0:0:30:KicK.wav
182,192,61532,1,0,0:0:0:30:Main-1.wav
256,192,61532,1,0,0:0:0:0:
36,192,61634,1,0,0:0:0:0:
329,192,61737,1,0,0:0:0:0:
109,192,61737,1,0,0:0:0:30:Main-1.wav
182,192,61737,1,0,0:0:0:0:
329,192,61840,1,0,0:0:0:0:
475,192,61943,1,0,0:0:0:0:
36,192,61943,1,0,0:0:0:30:Main-1.wav
256,192,61943,1,0,0:0:0:30:KicK.wav
109,192,61943,1,0,0:0:0:0:
402,192,62045,1,0,0:0:0:0:
329,192,62148,1,0,0:0:0:0:
475,192,62251,1,0,0:0:0:0:
36,192,62251,1,0,0:0:0:30:Main-1.wav
256,192,62251,1,0,0:0:0:0:
329,192,62354,1,0,0:0:0:30:KicK.wav
109,192,62354,1,0,0:0:0:0:
182,192,62354,1,0,0:0:0:0:
402,192,62456,1,0,0:0:0:0:
475,192,62559,1,0,0:0:0:0:
36,192,62559,1,0,0:0:0:30:Main-1.wav
256,192,62559,1,0,0:0:0:0:
402,192,62662,1,0,0:0:0:0:
182,192,62765,1,0,0:0:0:0:
109,192,62765,1,0,0:0:0:0:
329,192,62765,1,0,0:0:0:30:KicK.wav
475,192,62867,1,0,0:0:0:0:
36,192,62867,1,0,0:0:0:30:Main-1.wav
256,192,62867,1,0,0:0:0:0:
329,192,62970,1,0,0:0:0:0:
402,192,63073,1,0,0:0:0:0:
36,192,63175,1,0,0:0:0:30:Main-1.wav
475,192,63175,1,0,0:0:0:0:
256,192,63175,1,0,0:0:0:30:KicK.wav
109,192,63175,1,0,0:0:0:0:
256,192,63278,1,0,0:0:0:0:
109,192,63381,1,0,0:0:0:0:
402,192,63381,1,0,0:0:0:0:
109,192,63484,1,0,0:0:0:0:
475,192,63586,1,0,0:0:0:30:KicK.wav
329,192,63586,1,0,0:0:0:0:
36,192,63586,1,0,0:0:0:0:
182,192,63586,1,0,0:0:0:30:Main-1.wav
256,192,63689,1,0,0:0:0:0:
329,192,63792,1,0,0:0:0:0:
36,192,63895,1,0,0:0:0:0:
182,192,63895,1,0,0:0:0:30:Main-1.wav
475,192,63895,1,0,0:0:0:0:
109,192,63997,1,0,0:0:0:0:
256,192,63997,1,0,0:0:0:0:
402,192,63997,1,0,0:0:0:30:KicK.wav
329,192,64100,1,0,0:0:0:0:
36,192,64203,1,0,0:0:0:0:
182,192,64203,1,0,0:0:0:30:Main-1.wav
475,192,64203,1,0,0:0:0:0:
329,192,64306,1,0,0:0:0:0:
402,192,64408,1,0,0:0:0:30:KicK.wav
256,192,64408,1,0,0:0:0:0:
109,192,64408,1,0,0:0:0:0:
475,192,64511,1,0,0:0:0:0:
182,192,64511,1,0,0:0:0:30:Main-1.wav
36,192,64511,1,0,0:0:0:0:
329,192,64614,1,0,0:0:0:0:
256,192,64717,1,0,0:0:0:0:
182,192,64819,1,0,0:0:0:30:Main-1.wav
475,192,64819,1,0,0:0:0:30:KicK.wav
36,192,64819,1,0,0:0:0:0:
329,192,64819,1,0,0:0:0:0:
182,192,64922,1,0,0:0:0:0:
329,192,65025,1,0,0:0:0:0:
109,192,65025,1,0,0:0:0:0:
329,192,65128,1,0,0:0:0:0:
109,192,65230,1,0,0:0:0:0:
256,192,65230,1,0,0:0:0:30:Main-1.wav
402,192,65230,1,0,0:0:0:30:KicK.wav
475,192,65230,1,0,0:0:0:0:
182,192,65333,1,0,0:0:0:0:
36,192,65436,1,0,0:0:0:0:
402,192,65538,1,0,0:0:0:0:
109,192,65538,1,0,0:0:0:0:
256,192,65538,1,0,0:0:0:30:Main-1.wav
182,192,65641,1,0,0:0:0:0:
329,192,65641,1,0,0:0:0:30:KicK.wav
475,192,65641,1,0,0:0:0:0:
36,192,65744,1,0,0:0:0:0:
256,192,65847,1,0,0:0:0:30:Main-1.wav
402,192,65847,1,0,0:0:0:0:
109,192,65847,1,0,0:0:0:0:
36,192,65949,1,0,0:0:0:0:
329,192,66052,1,0,0:0:0:30:KicK.wav
475,192,66052,1,0,0:0:0:0:
182,192,66052,1,0,0:0:0:0:
402,192,66155,1,0,0:0:0:0:
109,192,66155,1,0,0:0:0:0:
256,192,66155,1,0,0:0:0:30:Main-1.wav
36,192,66258,1,0,0:0:0:0:
182,192,66360,1,0,0:0:0:0:
402,192,66463,1,0,0:0:0:30:KicK.wav
109,192,66463,1,0,0:0:0:0:
475,192,66463,1,0,0:0:0:0:
256,192,66463,1,0,0:0:0:30:Main-1.wav
402,192,66566,1,0,0:0:0:0:
329,192,66669,1,0,0:0:0:0:
182,192,66669,1,0,0:0:0:0:
182,192,66771,1,0,0:0:0:0:
256,192,66874,1,0,0:0:0:0:
36,192,66874,1,0,0:0:0:0:
475,192,66874,1,0,0:0:0:30:KicK.wav
109,192,66874,1,0,0:0:0:30:Main-1.wav
402,192,66977,1,0,0:0:0:0:
329,192,67080,1,0,0:0:0:0:
256,192,67182,1,0,0:0:0:0:
109,192,67182,1,0,0:0:0:30:Main-1.wav
36,192,67182,1,0,0:0:0:0:
475,192,67285,1,0,0:0:0:0:
182,192,67285,1,0,0:0:0:0:
329,192,67285,1,0,0:0:0:30:KicK.wav
402,192,67388,1,0,0:0:0:0:
256,192,67491,1,0,0:0:0:0:
36,192,67491,1,0,0:0:0:0:
109,192,67491,1,0,0:0:0:30:Main-1.wav
329,192,67593,1,0,0:0:0:0:
36,192,67696,1,0,0:0:0:30:KicK.wav
402,192,67696,1,0,0:0:0:0:
475,192,67696,1,0,0:0:0:0:
109,192,67799,1,0,0:0:0:0:
329,192,67799,1,0,0:0:0:0:
182,192,67799,1,0,0:0:0:30:Main-1.wav
402,192,67901,1,0,0:0:0:0:
475,192,68004,1,0,0:0:0:0:
182,192,68107,1,0,0:0:0:0:
36,192,68107,1,0,0:0:0:0:
402,192,68107,1,0,0:0:0:30:KicK.wav
256,192,68107,1,0,0:0:0:30:Main-1.wav
36,192,68210,1,0,0:0:0:0:
256,192,68312,1,0,0:0:0:0:
475,192,68312,1,0,0:0:0:0:
329,192,68312,1,0,0:0:0:30:Main-1.wav
475,192,68415,1,0,0:0:0:0:
402,192,68518,1,0,0:0:0:30:Main-1.wav
36,192,68518,1,0,0:0:0:30:KicK.wav
109,192,68518,1,0,0:0:0:30:Cymbal.wav
182,192,68518,1,0,0:0:0:0:
329,192,68518,1,0,0:0:0:0:
256,192,68621,1,0,0:0:0:0:
329,192,68723,1,0,0:0:0:0:
109,192,68723,128,0,68826:0:0:0:30:Tick.wav
182,192,68775,128,0,68929:0:0:0:30:Tick.wav
402,192,68826,1,0,0:0:0:0:
256,192,68929,1,0,0:0:0:0:
109,192,68929,1,0,0:0:0:0:
36,192,68929,1,0,0:0:0:30:Snare.wav
475,192,68929,1,0,0:0:0:30:Sub Rhythm-2.wav
182,192,69032,1,0,0:0:0:0:
329,192,69032,1,0,0:0:0:30:Sub Rhythm-2.wav
475,192,69134,1,0,0:0:0:30:Sub Rhythm-2.wav
36,192,69134,1,0,0:0:0:0:
182,192,69237,1,0,0:0:0:0:
329,192,69237,1,0,0:0:0:30:Sub Rhythm-2.wav
36,192,69340,1,0,0:0:0:30:KicK.wav
109,192,69340,1,0,0:0:0:0:
475,192,69340,1,0,0:0:0:30:Sub Rhythm-2.wav
256,192,69340,1,0,0:0:0:0:
256,192,69443,1,0,0:0:0:0:
402,192,69545,1,0,0:0:0:0:
109,192,69545,1,0,0:0:0:0:
402,192,69648,1,0,0:0:0:0:
475,192,69751,1,0,0:0:0:0:
329,192,69751,1,0,0:0:0:0:
36,192,69751,1,0,0:0:0:30:Snare.wav
182,192,69751,1,0,0:0:0:0:
256,192,69854,1,0,0:0:0:0:
36,192,69956,1,0,0:0:0:0:
402,192,69956,128,0,70059:0:0:0:30:Tick.wav
329,192,70008,128,0,70110:0:0:0:30:Tick.wav
109,192,70059,1,0,0:0:0:0:
256,192,70059,128,0,70162:0:0:0:30:Tick.wav
36,192,70162,1,0,0:0:0:30:KicK.wav
182,192,70162,1,0,0:0:0:0:
402,192,70162,1,0,0:0:0:0:
475,192,70162,1,0,0:0:0:0:
329,192,70265,1,0,0:0:0:0:
182,192,70367,1,0,0:0:0:0:
475,192,70367,128,0,70470:0:0:0:30:Tick.wav
402,192,70419,128,0,70573:0:0:0:30:Tick.wav
256,192,70470,1,0,0:0:0:0:
329,192,70573,1,0,0:0:0:0:
36,192,70573,1,0,0:0:0:30:Snare.wav
475,192,70573,1,0,0:0:0:0:
109,192,70573,1,0,0:0:0:30:Sub Rhythm-2.wav
402,192,70675,1,0,0:0:0:0:
182,192,70675,1,0,0:0:0:30:Sub Rhythm-2.wav
329,192,70778,1,0,0:0:0:0:
109,192,70778,1,0,0:0:0:30:Sub Rhythm-2.wav
182,192,70881,1,0,0:0:0:30:Sub Rhythm-2.wav
402,192,70881,1,0,0:0:0:0:
109,192,70984,1,0,0:0:0:30:Sub Rhythm-2.wav
36,192,70984,1,0,0:0:0:30:KicK.wav
256,192,70984,1,0,0:0:0:0:
475,192,70984,1,0,0:0:0:0:
475,192,71086,1,0,0:0:0:0:
329,192,71189,1,0,0:0:0:0:
182,192,71189,1,0,0:0:0:0:
182,192,71292,1,0,0:0:0:0:
256,192,71395,1,0,0:0:0:0:
36,192,71395,1,0,0:0:0:30:Snare.wav
475,192,71395,1,0,0:0:0:0:
109,192,71395,1,0,0:0:0:0:
329,192,71497,1,0,0:0:0:0:
475,192,71600,1,0,0:0:0:0:
109,192,71600,128,0,71703:0:0:0:30:Tick.wav
402,192,71600,1,0,0:0:0:30:Highlight.wav
182,192,71651,128,0,71754:0:0:0:30:Tick.wav
329,192,71703,1,0,0:0:0:0:
256,192,71703,128,0,71806:0:0:0:30:Tick.wav
109,192,71806,1,0,0:0:0:0:
36,192,71806,1,0,0:0:0:30:KicK.wav
402,192,71806,1,0,0:0:0:0:
475,192,71806,1,0,0:0:0:0:
182,192,71908,1,0,0:0:0:0:
256,192,72011,1,0,0:0:0:0:
329,192,72011,128,0,72114:0:0:0:30:Tick.wav
402,192,72062,128,0,72217:0:0:0:30:Tick.wav
182,192,72114,1,0,0:0:0:0:
329,192,72217,1,0,0:0:0:30:Sub Rhythm-2.wav
36,192,72217,1,0,0:0:0:30:Snare.wav
109,192,72217,1,0,0:0:0:0:
475,192,72217,1,0,0:0:0:0:
402,192,72319,1,0,0:0:0:0:
256,192,72319,1,0,0:0:0:30:Sub Rhythm-2.wav
182,192,72422,1,0,0:0:0:30:Sub Rhythm-2.wav
36,192,72422,1,0,0:0:0:0:
256,192,72525,1,0,0:0:0:30:Sub Rhythm-2.wav
402,192,72525,1,0,0:0:0:0:
329,192,72628,1,0,0:0:0:30:Sub Rhythm-2.wav
475,192,72628,1,0,0:0:0:0:
109,192,72628,1,0,0:0:0:0:
36,192,72628,1,0,0:0:0:30:KicK.wav
109,192,72730,1,0,0:0:0:0:
402,192,72833,1,0,0:0:0:0:
256,192,72833,1,0,0:0:0:0:
402,192,72936,1,0,0:0:0:0:
329,192,73038,1,0,0:0:0:0:
36,192,73038,1,0,0:0:0:30:Snare.wav
475,192,73038,1,0,0:0:0:0:
182,192,73038,1,0,0:0:0:0:
256,192,73141,1,0,0:0:0:0:
109,192,73244,1,0,0:0:0:0:
329,192,73244,128,0,73347:0:0:0:30:Tick.wav
256,192,73295,128,0,73398:0:0:0:30:Tick.wav
475,192,73347,1,0,0:0:0:0:
182,192,73347,128,0,73449:0:0:0:30:Tick.wav
329,192,73449,1,0,0:0:0:0:
109,192,73449,1,0,0:0:0:0:
402,192,73449,1,0,0:0:0:0:
36,192,73449,1,0,0:0:0:30:KicK.wav
475,192,73552,1,0,0:0:0:0:
36,192,73655,128,0,73758:0:0:0:30:Tick.wav
256,192,73655,1,0,0:0:0:0:
109,192,73706,128,0,73860:0:0:0:30:Tick.wav
329,192,73758,1,0,0:0:0:0:
182,192,73860,1,0,0:0:0:0:
475,192,73860,1,0,0:0:0:0:
36,192,73860,1,0,0:0:0:30:Snare.wav
402,192,73860,1,0,0:0:0:30:Sub Rhythm-2.wav
329,192,73963,1,0,0:0:0:30:Sub Rhythm-2.wav
109,192,73963,1,0,0:0:0:0:
256,192,74066,1,0,0:0:0:30:Sub Rhythm-2.wav
475,192,74066,1,0,0:0:0:0:
329,192,74169,1,0,0:0:0:30:Sub Rhythm-2.wav
109,192,74169,1,0,0:0:0:0:
475,192,74271,1,0,0:0:0:0:
36,192,74271,1,0,0:0:0:30:KicK.wav
182,192,74271,1,0,0:0:0:0:
402,192,74271,1,0,0:0:0:30:Sub Rhythm-2.wav
182,192,74374,1,0,0:0:0:0:
109,192,74477,1,0,0:0:0:0:
329,192,74477,1,0,0:0:0:0:
329,192,74580,1,0,0:0:0:0:
402,192,74682,1,0,0:0:0:0:
475,192,74682,1,0,0:0:0:30:Snare.wav
182,192,74682,1,0,0:0:0:0:
36,192,74682,128,0,74854:0:0:0:0:
256,192,74785,1,0,0:0:0:0:
109,192,74785,128,0,74956:0:0:0:0:
329,192,74888,1,0,0:0:0:0:
182,192,74888,128,0,75059:0:0:0:0:
402,192,74991,1,0,0:0:0:0:
256,192,74991,128,0,75162:0:0:0:0:
36,192,75093,1,0,0:0:0:0:
475,192,75093,1,0,0:0:0:30:Cymbal.wav
329,192,75093,1,0,0:0:0:30:KicK.wav
109,192,75093,128,0,75230:0:0:0:0:
402,192,75196,1,0,0:0:0:0:
182,192,75196,128,0,75333:0:0:0:0:
475,192,75299,1,0,0:0:0:0:
256,192,75299,128,0,75436:0:0:0:0:
36,192,75401,1,0,0:0:0:0:
329,192,75401,128,0,75538:0:0:0:0:
402,192,75504,1,0,0:0:0:0:
475,192,75504,1,0,0:0:0:30:Snare.wav
182,192,75504,128,0,75607:0:0:0:0:
109,192,75504,1,0,0:0:0:30:Soft-Hitnormal.wav
36,192,75607,1,0,0:0:0:30:Soft-Hitnormal.wav
256,192,75607,128,0,75710:0:0:0:0:
109,192,75710,1,0,0:0:0:30:Soft-Hitnormal.wav
329,192,75710,128,0,75812:0:0:0:0:
182,192,75812,1,0,0:0:0:30:Soft-Hitnormal.wav
402,192,75812,128,0,75915:0:0:0:0:
256,192,75915,1,0,0:0:0:0:
475,192,75915,1,0,0:0:0:30:KicK.wav
36,192,75915,1,0,0:0:0:0:
109,192,75915,1,0,0:0:0:0:
475,192,76018,1,0,0:0:0:0:
329,192,76121,1,0,0:0:0:0:
182,192,76121,1,0,0:0:0:0:
182,192,76223,1,0,0:0:0:0:
109,192,76326,1,0,0:0:0:0:
36,192,76326,1,0,0:0:0:30:Snare.wav
329,192,76326,1,0,0:0:0:0:
475,192,76326,1,0,0:0:0:0:
256,192,76429,1,0,0:0:0:0:
402,192,76532,1,0,0:0:0:0:
36,192,76532,128,0,76634:0:0:0:30:Tick.wav
109,192,76583,128,0,76686:0:0:0:30:Tick.wav
329,192,76634,1,0,0:0:0:0:
182,192,76634,128,0,76737:0:0:0:30:Tick.wav
256,192,76737,1,0,0:0:0:0:
402,192,76737,1,0,0:0:0:0:
36,192,76737,1,0,0:0:0:0:
475,192,76737,1,0,0:0:0:30:KicK.wav
109,192,76840,1,0,0:0:0:0:
182,192,76943,1,0,0:0:0:0:
402,192,76943,128,0,77045:0:0:0:30:Tick.wav
329,192,76994,128,0,77148:0:0:0:30:Tick.wav
256,192,77045,1,0,0:0:0:0:
109,192,77148,1,0,0:0:0:0:
36,192,77148,1,0,0:0:0:30:Snare.wav
402,192,77148,1,0,0:0:0:0:
475,192,77148,1,0,0:0:0:30:Soft-Hitnormal.wav
329,192,77251,1,0,0:0:0:30:Soft-Hitnormal.wav
182,192,77251,1,0,0:0:0:0:
36,192,77354,1,0,0:0:0:0:
475,192,77354,1,0,0:0:0:30:Soft-Hitnormal.wav
329,192,77456,1,0,0:0:0:30:Soft-Hitnormal.wav
182,192,77456,1,0,0:0:0:0:
109,192,77559,1,0,0:0:0:0:
36,192,77559,1,0,0:0:0:30:KicK.wav
256,192,77559,1,0,0:0:0:0:
402,192,77559,1,0,0:0:0:30:Soft-Hitnormal.wav
402,192,77662,1,0,0:0:0:0:
329,192,77765,1,0,0:0:0:0:
182,192,77765,1,0,0:0:0:0:
182,192,77867,1,0,0:0:0:0:
36,192,77970,1,0,0:0:0:30:Snare.wav
402,192,77970,1,0,0:0:0:0:
256,192,77970,1,0,0:0:0:0:
475,192,77970,1,0,0:0:0:0:
329,192,78073,1,0,0:0:0:0:
109,192,78175,1,0,0:0:0:30:Highlight.wav
36,192,78175,1,0,0:0:0:0:
256,192,78175,128,0,78278:0:0:0:30:Tick.wav
329,192,78227,128,0,78330:0:0:0:30:Tick.wav
182,192,78278,1,0,0:0:0:0:
402,192,78278,128,0,78381:0:0:0:30:Tick.wav
109,192,78381,1,0,0:0:0:0:
36,192,78381,1,0,0:0:0:30:KicK.wav
256,192,78381,1,0,0:0:0:30:Cymbal.wav
475,192,78381,1,0,0:0:0:0:
402,192,78484,1,0,0:0:0:0:
329,192,78586,1,0,0:0:0:0:
182,192,78586,128,0,78689:0:0:0:30:Tick.wav
109,192,78638,128,0,78792:0:0:0:30:Tick.wav
256,192,78689,1,0,0:0:0:0:
36,192,78792,1,0,0:0:0:30:Snare.wav
182,192,78792,1,0,0:0:0:0:
402,192,78792,1,0,0:0:0:0:
475,192,78792,1,0,0:0:0:30:Soft-Hitnormal.wav
329,192,78895,1,0,0:0:0:30:Soft-Hitnormal.wav
256,192,78895,1,0,0:0:0:0:
109,192,78997,1,0,0:0:0:0:
475,192,78997,1,0,0:0:0:30:Soft-Hitnormal.wav
256,192,79100,1,0,0:0:0:0:
329,192,79100,1,0,0:0:0:30:Soft-Hitnormal.wav
402,192,79203,1,0,0:0:0:0:
475,192,79203,1,0,0:0:0:30:Soft-Hitnormal.wav
182,192,79203,1,0,0:0:0:0:
36,192,79203,1,0,0:0:0:30:KicK.wav
36,192,79306,1,0,0:0:0:0:
182,192,79408,1,0,0:0:0:0:
329,192,79408,1,0,0:0:0:0:
329,192,79511,1,0,0:0:0:0:
402,192,79614,1,0,0:0:0:0:
256,192,79614,1,0,0:0:0:70:Drum.wav
109,192,79614,1,0,0:0:0:30:Snare.wav
475,192,79614,1,0,0:0:0:0:
109,192,79717,1,0,0:0:0:0:
256,192,79717,1,0,0:0:0:70:Drum.wav
475,192,79819,1,0,0:0:0:0:
329,192,79819,1,0,0:0:0:70:Drum.wav
182,192,79819,1,0,0:0:0:0:
182,192,79922,1,0,0:0:0:0:
329,192,79922,1,0,0:0:0:70:Drum.wav
36,192,80025,1,0,0:0:0:30:KicK.wav
109,192,80025,1,0,0:0:0:0:
256,192,80025,128,0,80179:0:0:0:0:
402,192,80025,1,0,0:0:0:30:Cymbal.wav
475,192,80025,1,0,0:0:0:0:
329,192,80128,128,0,80282:0:0:0:0:
402,192,80230,128,0,80384:0:0:0:0:
475,192,80333,128,0,80487:0:0:0:0:
36,192,80436,1,0,0:0:0:0:
109,192,80436,1,0,0:0:0:0:
475,192,80538,128,0,80693:0:0:0:0:
329,192,80641,128,0,80795:0:0:0:0:
182,192,80744,128,0,80898:0:0:0:0:
475,192,80847,1,0,0:0:0:0:
402,192,80847,1,0,0:0:0:0:
36,192,80847,128,0,81001:0:0:0:0:
109,192,80949,128,0,81104:0:0:0:0:
402,192,81052,1,0,0:0:0:0:
475,192,81052,1,0,0:0:0:0:
182,192,81052,128,0,81206:0:0:0:0:
256,192,81155,128,0,81309:0:0:0:0:
475,192,81258,1,0,0:0:0:0:
402,192,81258,1,0,0:0:0:0:
256,192,81360,128,0,81514:0:0:0:0:
402,192,81463,1,0,0:0:0:0:
475,192,81463,1,0,0:0:0:0:
182,192,81463,128,0,81617:0:0:0:0:
109,192,81566,128,0,81720:0:0:0:0:
36,192,81669,128,0,81823:0:0:0:30:Cymbal.wav
475,192,81669,128,0,81720:0:0:0:30:KicK.wav
329,192,81669,128,0,81720:0:0:0:0:
402,192,81771,128,0,81823:0:0:0:0:
256,192,81771,128,0,81823:0:0:0:0:
329,192,81874,128,0,81925:0:0:0:0:
182,192,81874,128,0,81925:0:0:0:0:
256,192,81977,128,0,82028:0:0:0:0:
109,192,81977,128,0,82028:0:0:0:0:
475,192,82080,1,0,0:0:0:0:
329,192,82080,1,0,0:0:0:30:Snare.wav
182,192,82080,1,0,0:0:0:30:Sub Rhythm-2.wav
36,192,82080,1,0,0:0:0:0:
475,192,82182,1,0,0:0:0:0:
256,192,82182,1,0,0:0:0:30:Sub Rhythm-2.wav
329,192,82285,1,0,0:0:0:30:Sub Rhythm-2.wav
36,192,82285,1,0,0:0:0:0:
36,192,82388,1,0,0:0:0:0:
402,192,82388,1,0,0:0:0:30:Sub Rhythm-2.wav
475,192,82491,1,0,0:0:0:30:KicK.wav
109,192,82491,1,0,0:0:0:0:
182,192,82491,1,0,0:0:0:0:
329,192,82491,1,0,0:0:0:30:Sub Rhythm-2.wav
36,192,82593,1,0,0:0:0:0:
256,192,82593,1,0,0:0:0:30:Main-1.wav
402,192,82593,1,0,0:0:0:0:
182,192,82696,1,0,0:0:0:0:
36,192,82799,1,0,0:0:0:0:
256,192,82799,1,0,0:0:0:30:Main-1.wav
402,192,82799,1,0,0:0:0:0:
109,192,82901,1,0,0:0:0:0:
182,192,82901,1,0,0:0:0:0:
329,192,82901,1,0,0:0:0:0:
475,192,82901,1,0,0:0:0:30:Snare.wav
256,192,83004,1,0,0:0:0:0:
109,192,83107,1,0,0:0:0:30:Highlight.wav
475,192,83107,128,0,83210:0:0:0:30:Tick.wav
36,192,83107,1,0,0:0:0:0:
402,192,83158,128,0,83261:0:0:0:30:Tick.wav
182,192,83210,1,0,0:0:0:0:
329,192,83210,128,0,83312:0:0:0:30:Tick.wav
36,192,83312,1,0,0:0:0:0:
109,192,83312,1,0,0:0:0:0:
256,192,83312,1,0,0:0:0:0:
475,192,83312,1,0,0:0:0:30:KicK.wav
402,192,83415,1,0,0:0:0:0:
329,192,83518,1,0,0:0:0:0:
109,192,83518,128,0,83621:0:0:0:30:Tick.wav
182,192,83569,128,0,83723:0:0:0:30:Tick.wav
402,192,83621,1,0,0:0:0:0:
256,192,83723,1,0,0:0:0:30:Sub Rhythm-2.wav
109,192,83723,1,0,0:0:0:0:
475,192,83723,1,0,0:0:0:30:Snare.wav
36,192,83723,1,0,0:0:0:0:
109,192,83826,1,0,0:0:0:0:
329,192,83826,1,0,0:0:0:30:Sub Rhythm-2.wav
402,192,83929,1,0,0:0:0:0:
182,192,83929,1,0,0:0:0:30:Sub Rhythm-2.wav
402,192,84032,1,0,0:0:0:0:
256,192,84032,1,0,0:0:0:30:Sub Rhythm-2.wav
329,192,84134,1,0,0:0:0:30:Sub Rhythm-2.wav
36,192,84134,1,0,0:0:0:0:
475,192,84134,1,0,0:0:0:30:KicK.wav
109,192,84134,1,0,0:0:0:0:
256,192,84237,1,0,0:0:0:30:Main-1.wav
402,192,84237,1,0,0:0:0:0:
182,192,84237,1,0,0:0:0:0:
109,192,84340,1,0,0:0:0:0:
402,192,84443,1,0,0:0:0:0:
182,192,84443,1,0,0:0:0:0:
256,192,84443,1,0,0:0:0:30:Main-1.wav
36,192,84545,1,0,0:0:0:0:
475,192,84545,1,0,0:0:0:30:Snare.wav
329,192,84545,1,0,0:0:0:0:
109,192,84545,1,0,0:0:0:0:
402,192,84648,1,0,0:0:0:0:
475,192,84751,1,0,0:0:0:30:Highlight.wav
256,192,84751,128,0,84854:0:0:0:30:Tick.wav
36,192,84751,1,0,0:0:0:0:
182,192,84802,128,0,84905:0:0:0:30:Tick.wav
109,192,84854,128,0,84956:0:0:0:30:Tick.wav
329,192,84854,1,0,0:0:0:0:
475,192,84956,1,0,0:0:0:30:KicK.wav
256,192,84956,1,0,0:0:0:0:
402,192,84956,1,0,0:0:0:0:
36,192,84956,1,0,0:0:0:0:
109,192,85059,1,0,0:0:0:0:
182,192,85162,1,0,0:0:0:0:
402,192,85162,128,0,85265:0:0:0:30:Tick.wav
329,192,85213,128,0,85367:0:0:0:30:Tick.wav
256,192,85265,1,0,0:0:0:0:
475,192,85367,1,0,0:0:0:30:Snare.wav
36,192,85367,1,0,0:0:0:0:
182,192,85367,1,0,0:0:0:30:Sub Rhythm-2.wav
402,192,85367,1,0,0:0:0:0:
256,192,85470,1,0,0:0:0:30:Sub Rhythm-2.wav
36,192,85470,1,0,0:0:0:0:
329,192,85573,1,0,0:0:0:0:
109,192,85573,1,0,0:0:0:30:Sub Rhythm-2.wav
182,192,85675,1,0,0:0:0:30:Sub Rhythm-2.wav
329,192,85675,1,0,0:0:0:0:
475,192,85778,1,0,0:0:0:30:KicK.wav
36,192,85778,1,0,0:0:0:0:
256,192,85778,1,0,0:0:0:30:Sub Rhythm-2.wav
109,192,85778,1,0,0:0:0:0:
329,192,85881,1,0,0:0:0:0:
182,192,85881,1,0,0:0:0:0:
402,192,85881,1,0,0:0:0:30:Main-1.wav
36,192,85984,1,0,0:0:0:0:
329,192,86086,1,0,0:0:0:0:
402,192,86086,1,0,0:0:0:30:Main-1.wav
182,192,86086,1,0,0:0:0:0:
36,192,86189,1,0,0:0:0:0:
109,192,86189,1,0,0:0:0:0:
256,192,86189,1,0,0:0:0:0:
475,192,86189,1,0,0:0:0:30:Snare.wav
329,192,86292,1,0,0:0:0:0:
109,192,86395,1,0,0:0:0:30:Highlight.wav
475,192,86395,1,0,0:0:0:0:
402,192,86395,128,0,86497:0:0:0:30:Tick.wav
329,192,86446,128,0,86549:0:0:0:30:Tick.wav
256,192,86497,128,0,86600:0:0:0:30:Tick.wav
182,192,86497,1,0,0:0:0:0:
475,192,86600,1,0,0:0:0:30:KicK.wav
36,192,86600,1,0,0:0:0:0:
402,192,86600,1,0,0:0:0:0:
109,192,86600,1,0,0:0:0:0:
329,192,86703,1,0,0:0:0:0:
402,192,86806,1,0,0:0:0:0:
182,192,86806,128,0,86908:0:0:0:30:Tick.wav
256,192,86857,128,0,87011:0:0:0:30:Tick.wav
475,192,86908,1,0,0:0:0:0:
329,192,87011,1,0,0:0:0:30:Snare.wav
109,192,87011,1,0,0:0:0:0:
36,192,87011,1,0,0:0:0:0:
182,192,87011,1,0,0:0:0:30:Sub Rhythm-2.wav
329,192,87114,1,0,0:0:0:0:
475,192,87114,1,0,0:0:0:30:Sub Rhythm-2.wav
36,192,87217,1,0,0:0:0:30:Sub Rhythm-2.wav
182,192,87217,1,0,0:0:0:0:
182,192,87319,1,0,0:0:0:0:
329,192,87319,1,0,0:0:0:30:Sub Rhythm-2.wav
256,192,87422,1,0,0:0:0:30:Sub Rhythm-2.wav
475,192,87422,1,0,0:0:0:30:KicK.wav
36,192,87422,1,0,0:0:0:0:
402,192,87422,1,0,0:0:0:0:
109,192,87525,1,0,0:0:0:30:Main-1.wav
182,192,87525,1,0,0:0:0:0:
329,192,87525,1,0,0:0:0:0:
475,192,87628,1,0,0:0:0:0:
109,192,87730,1,0,0:0:0:30:Main-1.wav
182,192,87730,1,0,0:0:0:0:
329,192,87730,1,0,0:0:0:0:
402,192,87833,1,0,0:0:0:0:
475,192,87833,1,0,0:0:0:30:Snare.wav
36,192,87833,1,0,0:0:0:0:
256,192,87833,128,0,88004:0:0:0:0:
109,192,87936,1,0,0:0:0:0:
329,192,87936,128,0,88107:0:0:0:0:
182,192,88038,1,0,0:0:0:0:
402,192,88038,128,0,88210:0:0:0:0:
256,192,88141,1,0,0:0:0:0:
475,192,88141,128,0,88312:0:0:0:0:
329,192,88244,1,0,0:0:0:30:KicK.wav
109,192,88244,1,0,0:0:0:0:
36,192,88244,1,0,0:0:0:0:
182,192,88244,128,0,88381:0:0:0:0:
402,192,88347,1,0,0:0:0:0:
256,192,88347,128,0,88484:0:0:0:0:
329,192,88449,128,0,88586:0:0:0:0:
109,192,88449,1,0,0:0:0:0:
402,192,88552,128,0,88689:0:0:0:0:
182,192,88552,1,0,0:0:0:0:
256,192,88655,1,0,0:0:0:30:Sub Rhythm-2.wav
475,192,88655,1,0,0:0:0:30:Snare.wav
36,192,88655,1,0,0:0:0:0:
109,192,88655,128,0,88758:0:0:0:0:
329,192,88758,1,0,0:0:0:30:Sub Rhythm-2.wav
182,192,88758,128,0,88860:0:0:0:0:
402,192,88860,1,0,0:0:0:30:Sub Rhythm-2.wav
256,192,88860,128,0,88963:0:0:0:0:
475,192,88963,1,0,0:0:0:30:Sub Rhythm-2.wav
329,192,88963,128,0,89066:0:0:0:0:
256,192,89066,1,0,0:0:0:0:
36,192,89066,1,0,0:0:0:0:
402,192,89066,1,0,0:0:0:30:KicK.wav
109,192,89066,1,0,0:0:0:30:Sub Rhythm-2.wav
329,192,89169,1,0,0:0:0:30:Main-1.wav
182,192,89169,1,0,0:0:0:0:
475,192,89169,1,0,0:0:0:0:
36,192,89271,1,0,0:0:0:0:
475,192,89374,1,0,0:0:0:0:
182,192,89374,1,0,0:0:0:0:
329,192,89374,1,0,0:0:0:30:Main-1.wav
256,192,89477,1,0,0:0:0:0:
109,192,89477,1,0,0:0:0:0:
36,192,89477,1,0,0:0:0:0:
402,192,89477,1,0,0:0:0:30:Snare.wav
329,192,89580,1,0,0:0:0:0:
109,192,89682,1,0,0:0:0:30:Highlight.wav
36,192,89682,1,0,0:0:0:0:
475,192,89682,128,0,89785:0:0:0:30:Tick.wav
402,192,89734,128,0,89836:0:0:0:30:Tick.wav
329,192,89785,128,0,89888:0:0:0:30:Tick.wav
182,192,89785,1,0,0:0:0:0:
256,192,89888,1,0,0:0:0:0:
475,192,89888,1,0,0:0:0:30:KicK.wav
36,192,89888,1,0,0:0:0:0:
109,192,89888,1,0,0:0:0:0:
402,192,89991,1,0,0:0:0:0:
329,192,90093,1,0,0:0:0:0:
109,192,90093,128,0,90196:0:0:0:30:Tick.wav
182,192,90145,128,0,90299:0:0:0:30:Tick.wav
475,192,90196,1,0,0:0:0:0:
109,192,90299,1,0,0:0:0:0:
256,192,90299,1,0,0:0:0:30:Sub Rhythm-2.wav
402,192,90299,1,0,0:0:0:30:Snare.wav
36,192,90299,1,0,0:0:0:0:
402,192,90401,1,0,0:0:0:0:
182,192,90401,1,0,0:0:0:30:Sub Rhythm-2.wav
109,192,90504,1,0,0:0:0:0:
329,192,90504,1,0,0:0:0:30:Sub Rhythm-2.wav
109,192,90607,1,0,0:0:0:0:
402,192,90607,1,0,0:0:0:30:Sub Rhythm-2.wav
182,192,90710,1,0,0:0:0:0:
256,192,90710,1,0,0:0:0:30:Sub Rhythm-2.wav
475,192,90710,1,0,0:0:0:30:KicK.wav
36,192,90710,1,0,0:0:0:0:
109,192,90812,1,0,0:0:0:0:
402,192,90812,1,0,0:0:0:0:
329,192,90812,1,0,0:0:0:30:Main-1.wav
256,192,90915,1,0,0:0:0:0:
329,192,91018,1,0,0:0:0:30:Main-1.wav
109,192,91018,1,0,0:0:0:0:
402,192,91018,1,0,0:0:0:0:
256,192,91121,1,0,0:0:0:0:
36,192,91121,1,0,0:0:0:0:
182,192,91121,1,0,0:0:0:0:
475,192,91121,1,0,0:0:0:30:Snare.wav
329,192,91223,1,0,0:0:0:0:
402,192,91326,1,0,0:0:0:30:Highlight.wav
36,192,91326,1,0,0:0:0:0:
256,192,91326,128,0,91429:0:0:0:30:Tick.wav
182,192,91378,128,0,91480:0:0:0:30:Tick.wav
475,192,91429,1,0,0:0:0:0:
109,192,91429,128,0,91532:0:0:0:30:Tick.wav
329,192,91532,1,0,0:0:0:0:
256,192,91532,1,0,0:0:0:0:
402,192,91532,1,0,0:0:0:30:KicK.wav
36,192,91532,1,0,0:0:0:0:
182,192,91634,1,0,0:0:0:0:
329,192,91737,128,0,91840:0:0:0:30:Tick.wav
109,192,91737,1,0,0:0:0:0:
402,192,91788,128,0,91943:0:0:0:30:Tick.wav
182,192,91840,1,0,0:0:0:0:
36,192,91943,1,0,0:0:0:0:
256,192,91943,1,0,0:0:0:30:Sub Rhythm-2.wav
109,192,91943,1,0,0:0:0:0:
475,192,91943,1,0,0:0:0:30:Snare.wav
475,192,92045,1,0,0:0:0:0:
329,192,92045,1,0,0:0:0:30:Sub Rhythm-2.wav
182,192,92148,1,0,0:0:0:0:
36,192,92148,1,0,0:0:0:30:Sub Rhythm-2.wav
182,192,92251,1,0,0:0:0:0:
329,192,92251,1,0,0:0:0:30:Sub Rhythm-2.wav
256,192,92354,1,0,0:0:0:30:Sub Rhythm-2.wav
36,192,92354,1,0,0:0:0:0:
475,192,92354,1,0,0:0:0:30:KicK.wav
402,192,92354,1,0,0:0:0:0:
329,192,92456,1,0,0:0:0:0:
109,192,92456,1,0,0:0:0:30:Main-1.wav
182,192,92456,1,0,0:0:0:0:
475,192,92559,1,0,0:0:0:0:
182,192,92662,1,0,0:0:0:0:
329,192,92662,1,0,0:0:0:0:
109,192,92662,1,0,0:0:0:30:Main-1.wav
475,192,92765,1,0,0:0:0:30:Snare.wav
36,192,92765,1,0,0:0:0:0:
256,192,92765,1,0,0:0:0:0:
402,192,92765,1,0,0:0:0:0:
182,192,92867,1,0,0:0:0:0:
109,192,92970,1,0,0:0:0:30:Highlight.wav
475,192,92970,1,0,0:0:0:0:
402,192,92970,128,0,93073:0:0:0:30:Tick.wav
329,192,93021,128,0,93124:0:0:0:30:Tick.wav
36,192,93073,1,0,0:0:0:0:
256,192,93073,128,0,93175:0:0:0:30:Tick.wav
182,192,93175,1,0,0:0:0:0:
109,192,93175,1,0,0:0:0:0:
475,192,93175,1,0,0:0:0:30:KicK.wav
402,192,93175,1,0,0:0:0:0:
256,192,93278,1,0,0:0:0:0:
36,192,93381,1,0,0:0:0:0:
109,192,93381,1,0,0:0:0:0:
329,192,93381,1,0,0:0:0:0:
475,192,93484,1,0,0:0:0:0:
402,192,93484,1,0,0:0:0:0:
182,192,93484,1,0,0:0:0:0:
36,192,93586,1,0,0:0:0:0:
256,192,93586,1,0,0:0:0:30:Snare.wav
182,192,93689,1,0,0:0:0:0:
329,192,93689,1,0,0:0:0:0:
475,192,93689,1,0,0:0:0:0:
402,192,93792,1,0,0:0:0:0:
109,192,93792,1,0,0:0:0:0:
256,192,93792,1,0,0:0:0:0:
36,192,93895,1,0,0:0:0:0:
182,192,93895,1,0,0:0:0:0:
329,192,93895,1,0,0:0:0:0:
475,192,93997,1,0,0:0:0:30:KicK.wav
256,192,93997,1,0,0:0:0:0:
109,192,93997,1,0,0:0:0:0:
402,192,93997,1,0,0:0:0:0:
36,192,94100,1,0,0:0:0:0:
109,192,94203,1,0,0:0:0:0:
329,192,94203,1,0,0:0:0:0:
182,192,94203,1,0,0:0:0:0:
402,192,94306,1,0,0:0:0:0:
256,192,94306,1,0,0:0:0:0:
475,192,94306,1,0,0:0:0:0:
36,192,94408,1,0,0:0:0:0:
109,192,94408,1,0,0:0:0:30:Snare.wav
256,192,94511,1,0,0:0:0:0:
402,192,94511,1,0,0:0:0:0:
182,192,94511,1,0,0:0:0:0:
329,192,94614,1,0,0:0:0:0:
475,192,94614,1,0,0:0:0:0:
36,192,94614,1,0,0:0:0:0:
109,192,94717,1,0,0:0:0:0:
475,192,94819,128,0,94871:0:0:0:0:
329,192,94819,128,0,94871:0:0:0:0:
182,192,94819,1,0,0:0:0:30:KicK.wav
36,192,94819,1,0,0:0:0:30:Cymbal.wav
256,192,94922,128,0,94973:0:0:0:0:
402,192,94922,128,0,94973:0:0:0:0:
329,192,95025,128,0,95076:0:0:0:0:
182,192,95025,128,0,95076:0:0:0:0:
256,192,95128,128,0,95179:0:0:0:0:
109,192,95128,128,0,95179:0:0:0:0:
329,192,95230,1,0,0:0:0:30:Sub Rhythm-2.wav
182,192,95230,1,0,0:0:0:30:Snare.wav
475,192,95230,1,0,0:0:0:0:
36,192,95230,1,0,0:0:0:0:
36,192,95333,1,0,0:0:0:0:
402,192,95333,1,0,0:0:0:30:Sub Rhythm-2.wav
329,192,95436,1,0,0:0:0:0:
109,192,95436,1,0,0:0:0:30:Sub Rhythm-2.wav
182,192,95538,1,0,0:0:0:30:Sub Rhythm-2.wav
329,192,95538,1,0,0:0:0:0:
256,192,95641,1,0,0:0:0:30:Sub Rhythm-2.wav
36,192,95641,1,0,0:0:0:0:
402,192,95641,1,0,0:0:0:0:
109,192,95641,1,0,0:0:0:30:KicK.wav
182,192,95744,1,0,0:0:0:0:
475,192,95744,1,0,0:0:0:30:Main-1.wav
329,192,95744,1,0,0:0:0:0:
36,192,95847,1,0,0:0:0:0:
329,192,95949,1,0,0:0:0:0:
182,192,95949,1,0,0:0:0:0:
475,192,95949,1,0,0:0:0:30:Main-1.wav
109,192,96052,1,0,0:0:0:30:Snare.wav
402,192,96052,1,0,0:0:0:0:
256,192,96052,1,0,0:0:0:0:
36,192,96052,1,0,0:0:0:0:
475,192,96155,1,0,0:0:0:0:
36,192,96258,1,0,0:0:0:0:
329,192,96258,1,0,0:0:0:30:Highlight.wav
109,192,96258,128,0,96360:0:0:0:30:Tick.wav
182,192,96309,128,0,96412:0:0:0:30:Tick.wav
402,192,96360,1,0,0:0:0:0:
256,192,96360,128,0,96463:0:0:0:30:Tick.wav
329,192,96463,1,0,0:0:0:0:
475,192,96463,1,0,0:0:0:0:
109,192,96463,1,0,0:0:0:30:KicK.wav
36,192,96463,1,0,0:0:0:0:
182,192,96566,1,0,0:0:0:0:
256,192,96669,1,0,0:0:0:0:
402,192,96669,128,0,96771:0:0:0:30:Tick.wav
475,192,96720,128,0,96874:0:0:0:30:Tick.wav
329,192,96771,1,0,0:0:0:0:
402,192,96874,1,0,0:0:0:30:Snare.wav
256,192,96874,1,0,0:0:0:30:Sub Rhythm-2.wav
36,192,96874,1,0,0:0:0:0:
109,192,96874,1,0,0:0:0:0:
402,192,96977,1,0,0:0:0:0:
182,192,96977,1,0,0:0:0:30:Sub Rhythm-2.wav
329,192,97080,1,0,0:0:0:30:Sub Rhythm-2.wav
36,192,97080,1,0,0:0:0:0:
256,192,97182,1,0,0:0:0:30:Sub Rhythm-2.wav
36,192,97182,1,0,0:0:0:0:
182,192,97285,1,0,0:0:0:30:Sub Rhythm-2.wav
402,192,97285,1,0,0:0:0:0:
109,192,97285,1,0,0:0:0:30:KicK.wav
475,192,97285,1,0,0:0:0:0:
256,192,97388,1,0,0:0:0:30:Main-1.wav
36,192,97388,1,0,0:0:0:0:
329,192,97388,1,0,0:0:0:0:
402,192,97491,1,0,0:0:0:0:
256,192,97593,1,0,0:0:0:30:Main-1.wav
329,192,97593,1,0,0:0:0:0:
36,192,97593,1,0,0:0:0:0:
182,192,97696,1,0,0:0:0:0:
402,192,97696,1,0,0:0:0:30:Snare.wav
109,192,97696,1,0,0:0:0:0:
475,192,97696,1,0,0:0:0:0:
329,192,97799,1,0,0:0:0:0:
256,192,97901,1,0,0:0:0:0:
475,192,97901,1,0,0:0:0:30:Highlight.wav
36,192,97901,128,0,98004:0:0:0:30:Tick.wav
109,192,97953,128,0,98056:0:0:0:30:Tick.wav
329,192,98004,1,0,0:0:0:0:
182,192,98004,128,0,98107:0:0:0:30:Tick.wav
256,192,98107,1,0,0:0:0:30:KicK.wav
36,192,98107,1,0,0:0:0:0:
402,192,98107,1,0,0:0:0:0:
475,192,98107,1,0,0:0:0:0:
109,192,98210,1,0,0:0:0:0:
182,192,98312,1,0,0:0:0:0:
402,192,98312,128,0,98415:0:0:0:30:Tick.wav
329,192,98364,128,0,98518:0:0:0:30:Tick.wav
109,192,98415,1,0,0:0:0:0:
36,192,98518,1,0,0:0:0:0:
256,192,98518,1,0,0:0:0:30:Sub Rhythm-2.wav
402,192,98518,1,0,0:0:0:30:Snare.wav
475,192,98518,1,0,0:0:0:0:
182,192,98621,1,0,0:0:0:30:Sub Rhythm-2.wav
36,192,98621,1,0,0:0:0:0:
329,192,98723,1,0,0:0:0:0:
475,192,98723,1,0,0:0:0:30:Sub Rhythm-2.wav
329,192,98826,1,0,0:0:0:0:
182,192,98826,1,0,0:0:0:30:Sub Rhythm-2.wav
256,192,98929,1,0,0:0:0:30:KicK.wav
36,192,98929,1,0,0:0:0:30:Sub Rhythm-2.wav
475,192,98929,1,0,0:0:0:0:
402,192,98929,1,0,0:0:0:0:
329,192,99032,1,0,0:0:0:0:
182,192,99032,1,0,0:0:0:30:Main-1.wav
109,192,99032,1,0,0:0:0:0:
256,192,99134,1,0,0:0:0:0:
182,192,99237,1,0,0:0:0:30:Main-1.wav
329,192,99237,1,0,0:0:0:0:
109,192,99237,1,0,0:0:0:0:
475,192,99340,1,0,0:0:0:0:
36,192,99340,1,0,0:0:0:0:
256,192,99340,1,0,0:0:0:0:
402,192,99340,1,0,0:0:0:30:Snare.wav
109,192,99443,1,0,0:0:0:0:
182,192,99545,1,0,0:0:0:0:
475,192,99545,1,0,0:0:0:30:Highlight.wav
402,192,99545,128,0,99648:0:0:0:30:Tick.wav
329,192,99597,128,0,99699:0:0:0:30:Tick.wav
36,192,99648,1,0,0:0:0:0:
256,192,99648,128,0,99751:0:0:0:30:Tick.wav
182,192,99751,1,0,0:0:0:30:KicK.wav
475,192,99751,1,0,0:0:0:0:
109,192,99751,1,0,0:0:0:0:
402,192,99751,1,0,0:0:0:0:
329,192,99854,1,0,0:0:0:0:
256,192,99956,1,0,0:0:0:0:
36,192,99956,128,0,100059:0:0:0:30:Tick.wav
109,192,100008,128,0,100162:0:0:0:30:Tick.wav
329,192,100059,1,0,0:0:0:0:
36,192,100162,1,0,0:0:0:0:
182,192,100162,1,0,0:0:0:0:
475,192,100162,1,0,0:0:0:30:Sub Rhythm-2.wav
402,192,100162,1,0,0:0:0:30:Snare.wav
182,192,100265,1,0,0:0:0:0:
329,192,100265,1,0,0:0:0:30:Sub Rhythm-2.wav
109,192,100367,1,0,0:0:0:30:Sub Rhythm-2.wav
402,192,100367,1,0,0:0:0:0:
182,192,100470,1,0,0:0:0:30:Sub Rhythm-2.wav
402,192,100470,1,0,0:0:0:0:
109,192,100573,1,0,0:0:0:30:KicK.wav
36,192,100573,1,0,0:0:0:0:
475,192,100573,1,0,0:0:0:0:
256,192,100573,1,0,0:0:0:30:Sub Rhythm-2.wav
182,192,100675,1,0,0:0:0:0:
329,192,100675,1,0,0:0:0:0:
402,192,100675,1,0,0:0:0:30:Main-1.wav
36,192,100778,1,0,0:0:0:0:
182,192,100881,1,0,0:0:0:0:
402,192,100881,1,0,0:0:0:30:Main-1.wav
329,192,100881,1,0,0:0:0:0:
256,192,100984,1,0,0:0:0:0:
475,192,100984,1,0,0:0:0:30:Snare.wav
109,192,100984,128,0,101155:0:0:0:0:
36,192,100984,1,0,0:0:0:0:
329,192,101086,1,0,0:0:0:0:
182,192,101086,128,0,101258:0:0:0:0:
256,192,101189,128,0,101360:0:0:0:0:
402,192,101189,1,0,0:0:0:0:
475,192,101292,1,0,0:0:0:0:
329,192,101292,128,0,101463:0:0:0:0:
182,192,101395,128,0,101532:0:0:0:0:
36,192,101395,1,0,0:0:0:30:Cymbal.wav
402,192,101395,1,0,0:0:0:0:
109,192,101395,1,0,0:0:0:30:KicK.wav
256,192,101497,128,0,101634:0:0:0:0:
475,192,101497,1,0,0:0:0:0:
329,192,101600,128,0,101737:0:0:0:0:
36,192,101600,1,0,0:0:0:0:
109,192,101703,1,0,0:0:0:0:
402,192,101703,128,0,101840:0:0:0:0:
475,192,101806,1,0,0:0:0:0:
36,192,101806,1,0,0:0:0:30:Sub Rhythm-2.wav
256,192,101806,128,0,101908:0:0:0:0:
182,192,101806,1,0,0:0:0:30:Snare.wav
109,192,101908,1,0,0:0:0:30:Sub Rhythm-2.wav
329,192,101908,128,0,102011:0:0:0:0:
182,192,102011,1,0,0:0:0:30:Sub Rhythm-2.wav
402,192,102011,128,0,102114:0:0:0:0:
256,192,102114,1,0,0:0:0:30:Sub Rhythm-2.wav
475,192,102114,128,0,102217:0:0:0:0:
109,192,102217,1,0,0:0:0:30:KicK.wav
36,192,102217,1,0,0:0:0:0:
402,192,102217,1,0,0:0:0:0:
329,192,102217,1,0,0:0:0:30:Sub Rhythm-2.wav
256,192,102319,1,0,0:0:0:0:
475,192,102319,1,0,0:0:0:0:
182,192,102319,1,0,0:0:0:30:Main-1.wav
36,192,102422,1,0,0:0:0:0:
475,192,102525,1,0,0:0:0:0:
256,192,102525,1,0,0:0:0:0:
182,192,102525,1,0,0:0:0:30:Main-1.wav
109,192,102628,1,0,0:0:0:0:
36,192,102628,1,0,0:0:0:0:
329,192,102628,1,0,0:0:0:30:Snare.wav
402,192,102628,1,0,0:0:0:0:
182,192,102730,1,0,0:0:0:0:
402,192,102833,1,0,0:0:0:30:Highlight.wav
475,192,102833,1,0,0:0:0:0:
256,192,102833,128,0,102936:0:0:0:30:Tick.wav
182,192,102884,128,0,102987:0:0:0:30:Tick.wav
329,192,102936,1,0,0:0:0:0:
109,192,102936,128,0,103038:0:0:0:30:Tick.wav
256,192,103038,1,0,0:0:0:30:KicK.wav
402,192,103038,1,0,0:0:0:0:
475,192,103038,1,0,0:0:0:0:
36,192,103038,1,0,0:0:0:0:
109,192,103141,1,0,0:0:0:0:
182,192,103244,1,0,0:0:0:0:
329,192,103244,128,0,103347:0:0:0:30:Tick.wav
402,192,103295,128,0,103449:0:0:0:30:Tick.wav
256,192,103347,1,0,0:0:0:0:
329,192,103449,1,0,0:0:0:30:Snare.wav
109,192,103449,1,0,0:0:0:30:Sub Rhythm-2.wav
36,192,103449,1,0,0:0:0:0:
475,192,103449,1,0,0:0:0:0:
475,192,103552,1,0,0:0:0:0:
256,192,103552,1,0,0:0:0:30:Sub Rhythm-2.wav
182,192,103655,1,0,0:0:0:0:
402,192,103655,1,0,0:0:0:30:Sub Rhythm-2.wav
182,192,103758,1,0,0:0:0:0:
329,192,103758,1,0,0:0:0:30:Sub Rhythm-2.wav
36,192,103860,1,0,0:0:0:0:
475,192,103860,1,0,0:0:0:30:Sub Rhythm-2.wav
256,192,103860,1,0,0:0:0:30:KicK.wav
109,192,103860,1,0,0:0:0:0:
329,192,103963,1,0,0:0:0:30:Main-1.wav
402,192,103963,1,0,0:0:0:0:
182,192,103963,1,0,0:0:0:0:
36,192,104066,1,0,0:0:0:0:
329,192,104169,1,0,0:0:0:30:Main-1.wav
402,192,104169,1,0,0:0:0:0:
182,192,104169,1,0,0:0:0:0:
36,192,104271,1,0,0:0:0:0:
109,192,104271,1,0,0:0:0:0:
256,192,104271,1,0,0:0:0:0:
475,192,104271,1,0,0:0:0:30:Snare.wav
329,192,104374,1,0,0:0:0:0:
182,192,104477,1,0,0:0:0:30:Highlight.wav
109,192,104477,1,0,0:0:0:0:
475,192,104477,128,0,104580:0:0:0:30:Tick.wav
402,192,104528,128,0,104631:0:0:0:30:Tick.wav
256,192,104580,1,0,0:0:0:0:
329,192,104580,128,0,104682:0:0:0:30:Tick.wav
36,192,104682,1,0,0:0:0:0:
109,192,104682,1,0,0:0:0:30:Cymbal.wav
475,192,104682,1,0,0:0:0:0:
182,192,104682,1,0,0:0:0:30:KicK.wav
402,192,104785,1,0,0:0:0:0:
329,192,104888,1,0,0:0:0:0:
36,192,104888,128,0,104991:0:0:0:30:Tick.wav
109,192,104939,128,0,105093:0:0:0:30:Tick.wav
256,192,104991,1,0,0:0:0:0:
182,192,105093,1,0,0:0:0:30:Sub Rhythm-2.wav
329,192,105093,1,0,0:0:0:30:Snare.wav
36,192,105093,1,0,0:0:0:0:
475,192,105093,1,0,0:0:0:0:
402,192,105196,1,0,0:0:0:30:Sub Rhythm-2.wav
36,192,105196,1,0,0:0:0:0:
256,192,105299,1,0,0:0:0:0:
109,192,105299,1,0,0:0:0:30:Sub Rhythm-2.wav
475,192,105401,1,0,0:0:0:30:Sub Rhythm-2.wav
256,192,105401,1,0,0:0:0:0:
329,192,105504,1,0,0:0:0:30:KicK.wav
109,192,105504,1,0,0:0:0:0:
402,192,105504,1,0,0:0:0:30:Sub Rhythm-2.wav
36,192,105504,1,0,0:0:0:0:
182,192,105607,1,0,0:0:0:0:
475,192,105607,1,0,0:0:0:0:
256,192,105607,1,0,0:0:0:30:Main-1.wav
36,192,105710,1,0,0:0:0:0:
256,192,105812,1,0,0:0:0:30:Main-1.wav
182,192,105812,1,0,0:0:0:0:
475,192,105812,1,0,0:0:0:0:
402,192,105915,1,0,0:0:0:0:
329,192,105915,1,0,0:0:0:30:Snare.wav
109,192,105915,1,0,0:0:0:0:
36,192,105915,1,0,0:0:0:0:
475,192,106018,1,0,0:0:0:0:
36,192,106121,1,0,0:0:0:0:
402,192,106121,1,0,0:0:0:30:Highlight.wav
182,192,106121,128,0,106223:0:0:0:30:Tick.wav
256,192,106172,128,0,106275:0:0:0:30:Tick.wav
109,192,106223,1,0,0:0:0:0:
329,192,106223,128,0,106326:0:0:0:30:Tick.wav
475,192,106326,1,0,0:0:0:30:Cymbal.wav
402,192,106326,1,0,0:0:0:30:KicK.wav
36,192,106326,1,0,0:0:0:0:
182,192,106326,1,0,0:0:0:0:
256,192,106429,1,0,0:0:0:0:
329,192,106532,1,0,0:0:0:0:
109,192,106532,128,0,106634:0:0:0:30:Tick.wav
182,192,106583,128,0,106737:0:0:0:30:Tick.wav
402,192,106634,1,0,0:0:0:0:
256,192,106737,1,0,0:0:0:0:
475,192,106737,1,0,0:0:0:30:Snare.wav
36,192,106737,1,0,0:0:0:30:Sub Rhythm-2.wav
475,192,106840,1,0,0:0:0:0:
329,192,106840,1,0,0:0:0:30:Sub Rhythm-2.wav
182,192,106943,1,0,0:0:0:0:
36,192,106943,1,0,0:0:0:30:Sub Rhythm-2.wav
36,192,107045,1,0,0:0:0:0:
329,192,107045,1,0,0:0:0:30:Sub Rhythm-2.wav
256,192,107148,1,0,0:0:0:30:Sub Rhythm-2.wav
475,192,107148,1,0,0:0:0:0:
402,192,107251,1,0,0:0:0:0:
36,192,107251,1,0,0:0:0:0:
182,192,107251,1,0,0:0:0:0:
329,192,107354,1,0,0:0:0:0:
475,192,107456,1,0,0:0:0:0:
402,192,107456,1,0,0:0:0:0:
182,192,107456,1,0,0:0:0:0:
256,192,107559,128,0,107662:0:0:0:0:
329,192,107559,128,0,107662:0:0:0:0:
36,192,107559,1,0,0:0:0:0:
109,192,107559,1,0,0:0:0:30:Snare.wav
475,192,107662,1,0,0:0:0:0:
329,192,107765,128,0,107867:0:0:0:0:
402,192,107765,128,0,107867:0:0:0:0:
109,192,107765,1,0,0:0:0:0:
182,192,107765,1,0,0:0:0:0:
402,192,107970,128,0,108073:0:0:0:0:
475,192,107970,128,0,108073:0:0:0:0:
36,192,107970,128,0,108073:0:0:0:0:
182,192,107970,1,0,0:0:0:30:Cymbal.wav
256,192,107970,1,0,0:0:0:30:KicK.wav
36,192,108278,128,0,108381:0:0:0:0:
475,192,108381,1,0,0:0:0:0:
329,192,108484,1,0,0:0:0:0:
475,192,108586,1,0,0:0:0:0:
36,192,108586,128,0,108689:0:0:0:0:
329,192,108689,1,0,0:0:0:0:
475,192,108792,1,0,0:0:0:0:
36,192,108895,128,0,108997:0:0:0:0:
36,192,109203,128,0,109306:0:0:0:0:
36,192,109408,1,0,0:0:0:0:
182,192,109408,1,0,0:0:0:0:
402,192,109614,128,0,109717:0:0:0:0:
256,192,109614,1,0,0:0:0:0:
402,192,109922,128,0,110025:0:0:0:0:
109,192,110025,1,0,0:0:0:0:
36,192,110128,1,0,0:0:0:0:
402,192,110230,128,0,110333:0:0:0:0:
109,192,110230,1,0,0:0:0:0:
36,192,110333,1,0,0:0:0:0:
109,192,110436,1,0,0:0:0:0:
402,192,110538,128,0,110641:0:0:0:0:
402,192,110847,128,0,110949:0:0:0:0:
402,192,111052,1,0,0:0:0:0:
256,192,111052,1,0,0:0:0:0:
109,192,111258,128,0,111360:0:0:0:0:
329,192,111258,1,0,0:0:0:0:
109,192,111566,128,0,111669:0:0:0:0:
329,192,111669,1,0,0:0:0:0:
402,192,111771,1,0,0:0:0:0:
109,192,111874,128,0,111977:0:0:0:0:
329,192,111874,1,0,0:0:0:0:
402,192,111977,1,0,0:0:0:0:
329,192,112080,1,0,0:0:0:0:
109,192,112182,128,0,112285:0:0:0:0:
109,192,112491,128,0,112593:0:0:0:0:
109,192,112696,1,0,0:0:0:0:
256,192,112696,1,0,0:0:0:0:
329,192,112901,128,0,113004:0:0:0:0:
475,192,112901,1,0,0:0:0:0:
329,192,113210,128,0,113312:0:0:0:0:
109,192,113312,1,0,0:0:0:0:
182,192,113415,1,0,0:0:0:0:
329,192,113518,128,0,113621:0:0:0:0:
109,192,113518,1,0,0:0:0:0:
182,192,113621,1,0,0:0:0:0:
109,192,113723,1,0,0:0:0:0:
402,192,113826,128,0,113929:0:0:0:0:
475,192,114134,128,0,114237:0:0:0:0:
36,192,114134,1,0,0:0:0:0:
109,192,114237,1,0,0:0:0:0:
329,192,114340,128,0,114443:0:0:0:0:
182,192,114340,1,0,0:0:0:0:
256,192,114443,1,0,0:0:0:0:
182,192,114545,128,0,114648:0:0:0:0:
475,192,114545,1,0,0:0:0:0:
36,192,114545,1,0,0:0:0:0:
402,192,114648,1,0,0:0:0:0:
329,192,114751,1,0,0:0:0:0:
256,192,114854,1,0,0:0:0:0:
182,192,114854,128,0,114956:0:0:0:0:
475,192,114956,1,0,0:0:0:0:
402,192,115059,1,0,0:0:0:0:
182,192,115162,128,0,115265:0:0:0:0:
475,192,115162,1,0,0:0:0:0:
402,192,115265,1,0,0:0:0:0:
475,192,115367,1,0,0:0:0:0:
182,192,115470,128,0,115573:0:0:0:0:
182,192,115778,128,0,115881:0:0:0:0:
182,192,115984,1,0,0:0:0:0:
36,192,115984,1,0,0:0:0:0:
475,192,116189,128,0,116292:0:0:0:0:
329,192,116189,1,0,0:0:0:0:
475,192,116497,128,0,116600:0:0:0:0:
256,192,116600,1,0,0:0:0:0:
109,192,116703,1,0,0:0:0:0:
475,192,116806,128,0,116908:0:0:0:0:
256,192,116806,1,0,0:0:0:0:
109,192,116908,1,0,0:0:0:0:
256,192,117011,1,0,0:0:0:0:
475,192,117114,128,0,117217:0:0:0:0:
475,192,117422,128,0,117525:0:0:0:0:
329,192,117628,1,0,0:0:0:0:
475,192,117628,1,0,0:0:0:0:
256,192,117833,128,0,117936:0:0:0:0:
109,192,117833,1,0,0:0:0:0:
256,192,118141,128,0,118244:0:0:0:0:
402,192,118244,1,0,0:0:0:0:
109,192,118347,1,0,0:0:0:0:
256,192,118449,128,0,118552:0:0:0:0:
402,192,118449,1,0,0:0:0:0:
109,192,118552,1,0,0:0:0:0:
402,192,118655,1,0,0:0:0:0:
256,192,118758,128,0,118860:0:0:0:0:
256,192,119066,128,0,119169:0:0:0:0:
256,192,119271,1,0,0:0:0:0:
402,192,119271,1,0,0:0:0:0:
36,192,119477,128,0,119580:0:0:0:0:
182,192,119477,1,0,0:0:0:0:
475,192,119477,128,0,120607:0:0:0:0:
36,192,119785,128,0,119888:0:0:0:0:
329,192,119888,1,0,0:0:0:0:
182,192,119991,1,0,0:0:0:0:
36,192,120093,128,0,120196:0:0:0:0:
329,192,120093,1,0,0:0:0:0:
182,192,120196,1,0,0:0:0:0:
329,192,120299,1,0,0:0:0:0:
109,192,120401,128,0,120504:0:0:0:0:
182,192,120710,128,0,120915:0:0:0:0:
329,192,120710,128,0,120915:0:0:0:0:
475,192,120710,128,0,120915:0:0:0:0:
36,192,120710,128,0,120915:0:0:0:0:
475,192,121121,1,0,0:0:0:30:Cymbal.wav
402,192,121121,1,0,0:0:0:0:
256,192,121121,128,0,121223:0:0:0:0:
36,192,121121,128,0,122662:0:0:0:30:BeLL.wav
109,192,121121,1,0,0:0:0:30:KicK.wav
329,192,121223,128,0,121326:0:0:0:0:
109,192,121223,1,0,0:0:0:0:
402,192,121326,128,0,121429:0:0:0:0:
182,192,121326,1,0,0:0:0:0:
475,192,121429,128,0,121532:0:0:0:0:
256,192,121429,1,0,0:0:0:0:
109,192,121532,1,0,0:0:0:0:
182,192,121532,1,0,0:0:0:0:
329,192,121532,1,0,0:0:0:30:KicK.wav
475,192,121634,128,0,121737:0:0:0:0:
329,192,121634,1,0,0:0:0:0:
402,192,121737,128,0,121840:0:0:0:0:
256,192,121737,1,0,0:0:0:0:
329,192,121840,128,0,121943:0:0:0:0:
182,192,121840,1,0,0:0:0:0:
475,192,121943,1,0,0:0:0:0:
256,192,121943,128,0,122045:0:0:0:0:
109,192,121943,1,0,0:0:0:30:KicK.wav
402,192,121943,1,0,0:0:0:0:
109,192,122045,1,0,0:0:0:0:
329,192,122045,128,0,122148:0:0:0:0:
475,192,122148,1,0,0:0:0:0:
256,192,122148,128,0,122251:0:0:0:0:
182,192,122251,128,0,122354:0:0:0:0:
402,192,122251,1,0,0:0:0:0:
109,192,122354,1,0,0:0:0:0:
329,192,122354,1,0,0:0:0:30:KicK.wav
475,192,122354,1,0,0:0:0:0:
182,192,122456,128,0,122559:0:0:0:0:
329,192,122456,1,0,0:0:0:0:
256,192,122559,128,0,122662:0:0:0:0:
402,192,122559,1,0,0:0:0:0:
329,192,122662,128,0,122765:0:0:0:0:
475,192,122662,1,0,0:0:0:0:
109,192,122765,128,0,123484:0:0:0:30:BeLL.wav
182,192,122765,1,0,0:0:0:0:
36,192,122765,1,0,0:0:0:30:KicK.wav
256,192,122765,128,0,122867:0:0:0:0:
402,192,122765,1,0,0:0:0:0:
36,192,122867,1,0,0:0:0:0:
329,192,122867,128,0,122970:0:0:0:0:
402,192,122970,128,0,123073:0:0:0:0:
182,192,122970,1,0,0:0:0:0:
475,192,123073,128,0,123175:0:0:0:0:
256,192,123073,1,0,0:0:0:0:
36,192,123175,1,0,0:0:0:0:
329,192,123175,1,0,0:0:0:30:KicK.wav
182,192,123175,1,0,0:0:0:0:
475,192,123278,128,0,123381:0:0:0:0:
329,192,123278,1,0,0:0:0:0:
402,192,123381,128,0,123484:0:0:0:0:
256,192,123381,1,0,0:0:0:0:
329,192,123484,128,0,123586:0:0:0:0:
182,192,123484,1,0,0:0:0:0:
475,192,123586,128,0,123895:0:0:0:30:BeLL.wav
402,192,123586,1,0,0:0:0:30:KicK.wav
256,192,123586,128,0,123689:0:0:0:0:
36,192,123586,1,0,0:0:0:0:
109,192,123586,1,0,0:0:0:0:
182,192,123689,128,0,123792:0:0:0:0:
402,192,123689,1,0,0:0:0:0:
329,192,123792,128,0,123895:0:0:0:0:
36,192,123792,1,0,0:0:0:0:
256,192,123895,128,0,123997:0:0:0:0:
182,192,123895,1,0,0:0:0:0:
109,192,123997,1,0,0:0:0:0:
36,192,123997,128,0,124306:0:0:0:30:BeLL.wav
329,192,123997,1,0,0:0:0:0:
475,192,123997,1,0,0:0:0:30:KicK.wav
475,192,124100,1,0,0:0:0:0:
256,192,124100,128,0,124203:0:0:0:0:
402,192,124203,1,0,0:0:0:0:
182,192,124203,128,0,124306:0:0:0:0:
329,192,124306,1,0,0:0:0:0:
109,192,124306,128,0,124408:0:0:0:0:
256,192,124408,128,0,125949:0:0:0:30:BeLL.wav
402,192,124408,1,0,0:0:0:0:
475,192,124408,1,0,0:0:0:0:
36,192,124408,128,0,124511:0:0:0:0:
182,192,124408,1,0,0:0:0:30:KicK.wav
182,192,124511,1,0,0:0:0:0:
109,192,124614,128,0,124717:0:0:0:0:
329,192,124614,1,0,0:0:0:0:
475,192,124717,1,0,0:0:0:0:
36,192,124819,1,0,0:0:0:30:KicK.wav
329,192,124819,1,0,0:0:0:0:
182,192,124819,128,0,124922:0:0:0:0:
402,192,124819,1,0,0:0:0:0:
36,192,124922,1,0,0:0:0:0:
182,192,125025,128,0,125128:0:0:0:0:
475,192,125025,1,0,0:0:0:0:
109,192,125128,128,0,125230:0:0:0:0:
402,192,125128,1,0,0:0:0:0:
36,192,125230,128,0,125333:0:0:0:0:
329,192,125230,1,0,0:0:0:30:KicK.wav
182,192,125230,1,0,0:0:0:0:
475,192,125230,1,0,0:0:0:0:
329,192,125333,1,0,0:0:0:0:
475,192,125436,128,0,125538:0:0:0:0:
36,192,125436,1,0,0:0:0:0:
402,192,125538,128,0,125641:0:0:0:0:
109,192,125538,1,0,0:0:0:0:
36,192,125641,1,0,0:0:0:0:
329,192,125641,1,0,0:0:0:0:
182,192,125641,1,0,0:0:0:30:KicK.wav
402,192,125744,128,0,125847:0:0:0:0:
182,192,125744,1,0,0:0:0:0:
329,192,125847,128,0,125949:0:0:0:0:
475,192,125847,1,0,0:0:0:0:
182,192,125949,1,0,0:0:0:0:
402,192,126052,1,0,0:0:0:30:KicK.wav
256,192,126052,128,0,126155:0:0:0:0:
109,192,126052,1,0,0:0:0:0:
36,192,126052,1,0,0:0:0:0:
475,192,126052,128,0,127182:0:0:0:30:BeLL.wav
182,192,126155,128,0,126258:0:0:0:0:
402,192,126155,1,0,0:0:0:0:
109,192,126258,128,0,126360:0:0:0:0:
329,192,126258,1,0,0:0:0:0:
36,192,126360,128,0,126463:0:0:0:0:
256,192,126360,1,0,0:0:0:0:
402,192,126463,1,0,0:0:0:0:
329,192,126463,1,0,0:0:0:0:
182,192,126463,1,0,0:0:0:30:KicK.wav
36,192,126566,128,0,126669:0:0:0:0:
182,192,126566,1,0,0:0:0:0:
109,192,126669,128,0,126771:0:0:0:0:
256,192,126669,1,0,0:0:0:0:
182,192,126771,128,0,126874:0:0:0:0:
329,192,126771,1,0,0:0:0:0:
36,192,126874,1,0,0:0:0:0:
109,192,126874,1,0,0:0:0:0:
256,192,126874,128,0,126977:0:0:0:0:
402,192,126874,1,0,0:0:0:30:KicK.wav
402,192,126977,1,0,0:0:0:0:
329,192,126977,128,0,127080:0:0:0:0:
182,192,127080,128,0,127182:0:0:0:0:
109,192,127080,1,0,0:0:0:0:
329,192,127182,1,0,0:0:0:0:
256,192,127285,1,0,0:0:0:30:KicK.wav
402,192,127285,128,0,127388:0:0:0:0:
36,192,127285,1,0,0:0:0:0:
109,192,127285,128,0,127593:0:0:0:30:BeLL.wav
475,192,127285,1,0,0:0:0:0:
256,192,127388,1,0,0:0:0:0:
182,192,127491,1,0,0:0:0:0:
402,192,127491,128,0,127593:0:0:0:0:
329,192,127593,1,0,0:0:0:0:
475,192,127696,128,0,127799:0:0:0:0:
256,192,127696,128,0,129237:0:0:0:30:BeLL.wav
36,192,127696,1,0,0:0:0:30:KicK.wav
182,192,127696,1,0,0:0:0:0:
329,192,127799,128,0,127901:0:0:0:0:
36,192,127799,1,0,0:0:0:0:
475,192,127901,1,0,0:0:0:0:
109,192,128004,128,0,128107:0:0:0:0:
402,192,128004,1,0,0:0:0:0:
329,192,128107,1,0,0:0:0:30:KicK.wav
182,192,128107,1,0,0:0:0:0:
36,192,128107,1,0,0:0:0:0:
329,192,128210,1,0,0:0:0:0:
109,192,128210,128,0,128312:0:0:0:0:
36,192,128312,128,0,128415:0:0:0:0:
475,192,128312,1,0,0:0:0:0:
402,192,128415,1,0,0:0:0:0:
329,192,128518,128,0,128621:0:0:0:0:
36,192,128518,1,0,0:0:0:0:
182,192,128518,1,0,0:0:0:30:KicK.wav
475,192,128518,1,0,0:0:0:0:
182,192,128621,1,0,0:0:0:0:
329,192,128723,128,0,128826:0:0:0:0:
36,192,128723,1,0,0:0:0:0:
402,192,128826,128,0,128929:0:0:0:0:
109,192,128826,1,0,0:0:0:0:
475,192,128929,128,0,129032:0:0:0:0:
182,192,128929,1,0,0:0:0:0:
329,192,128929,1,0,0:0:0:0:
36,192,128929,1,0,0:0:0:30:KicK.wav
36,192,129032,1,0,0:0:0:0:
402,192,129134,128,0,129237:0:0:0:0:
109,192,129134,1,0,0:0:0:0:
182,192,129237,1,0,0:0:0:0:
36,192,129340,128,0,130059:0:0:0:30:BeLL.wav
109,192,129340,1,0,0:0:0:0:
256,192,129340,1,0,0:0:0:30:KicK.wav
402,192,129340,1,0,0:0:0:0:
329,192,129340,128,0,129443:0:0:0:0:
256,192,129443,1,0,0:0:0:0:
475,192,129443,128,0,129545:0:0:0:0:
329,192,129545,1,0,0:0:0:0:
182,192,129648,128,0,129751:0:0:0:0:
402,192,129648,1,0,0:0:0:0:
475,192,129751,1,0,0:0:0:30:KicK.wav
109,192,129751,1,0,0:0:0:0:
256,192,129751,1,0,0:0:0:0:
475,192,129854,1,0,0:0:0:0:
182,192,129854,128,0,129956:0:0:0:0:
402,192,129956,1,0,0:0:0:0:
256,192,129956,128,0,130059:0:0:0:0:
329,192,130059,1,0,0:0:0:0:
475,192,130162,128,0,130470:0:0:0:30:BeLL.wav
36,192,130162,1,0,0:0:0:30:KicK.wav
256,192,130162,1,0,0:0:0:0:
109,192,130162,1,0,0:0:0:0:
402,192,130162,128,0,130265:0:0:0:0:
36,192,130265,1,0,0:0:0:0:
329,192,130265,128,0,130367:0:0:0:0:
109,192,130367,1,0,0:0:0:0:
256,192,130367,128,0,130470:0:0:0:0:
402,192,130470,1,0,0:0:0:0:
182,192,130470,128,0,130573:0:0:0:0:
109,192,130573,128,0,130675:0:0:0:0:
329,192,130573,128,0,130881:0:0:0:30:BeLL.wav
36,192,130573,1,0,0:0:0:0:
475,192,130573,1,0,0:0:0:0:
256,192,130573,1,0,0:0:0:30:KicK.wav
256,192,130675,1,0,0:0:0:0:
182,192,130778,128,0,130881:0:0:0:0:
475,192,130778,1,0,0:0:0:0:
402,192,130881,1,0,0:0:0:0:
36,192,130984,128,0,131703:0:0:0:30:BeLL.wav
329,192,130984,1,0,0:0:0:0:
475,192,130984,1,0,0:0:0:30:KicK.wav
256,192,130984,128,0,131086:0:0:0:0:
182,192,130984,1,0,0:0:0:0:
109,192,131086,128,0,131189:0:0:0:0:
475,192,131086,1,0,0:0:0:0:
329,192,131189,1,0,0:0:0:0:
182,192,131292,1,0,0:0:0:0:
402,192,131292,128,0,131395:0:0:0:0:
256,192,131395,1,0,0:0:0:0:
475,192,131395,1,0,0:0:0:0:
109,192,131395,1,0,0:0:0:30:KicK.wav
109,192,131497,1,0,0:0:0:0:
402,192,131497,128,0,131600:0:0:0:0:
256,192,131600,1,0,0:0:0:0:
329,192,131600,128,0,131703:0:0:0:0:
182,192,131703,1,0,0:0:0:0:
402,192,131806,128,0,132422:0:0:0:30:BeLL.wav
109,192,131806,128,0,131908:0:0:0:0:
329,192,131806,1,0,0:0:0:30:KicK.wav
475,192,131806,1,0,0:0:0:0:
36,192,131806,1,0,0:0:0:0:
329,192,131908,1,0,0:0:0:0:
182,192,132011,1,0,0:0:0:0:
36,192,132011,128,0,132114:0:0:0:0:
256,192,132114,1,0,0:0:0:0:
109,192,132114,128,0,132217:0:0:0:0:
36,192,132217,128,0,132525:0:0:0:30:BeLL.wav
329,192,132217,1,0,0:0:0:0:
475,192,132217,1,0,0:0:0:30:KicK.wav
182,192,132217,128,0,132319:0:0:0:0:
475,192,132319,1,0,0:0:0:0:
256,192,132319,128,0,132422:0:0:0:0:
109,192,132319,1,0,0:0:0:0:
329,192,132422,128,0,132525:0:0:0:0:
182,192,132422,1,0,0:0:0:0:
402,192,132525,128,0,132628:0:0:0:0:
256,192,132525,1,0,0:0:0:0:
329,192,132628,1,0,0:0:0:30:Cymbal.wav
475,192,132628,1,0,0:0:0:30:BeLL.wav
109,192,132628,128,0,132730:0:0:0:0:
36,192,132628,128,0,132730:0:0:0:0:
256,192,132730,1,0,0:0:0:0:
329,192,132833,1,0,0:0:0:0:
402,192,132936,1,0,0:0:0:0:
109,192,132936,128,0,133038:0:0:0:0:
182,192,132936,128,0,133038:0:0:0:0:
329,192,133038,1,0,0:0:0:0:
402,192,133141,1,0,0:0:0:0:
475,192,133244,1,0,0:0:0:0:
256,192,133244,128,0,133347:0:0:0:0:
182,192,133244,128,0,133347:0:0:0:0:
402,192,133347,1,0,0:0:0:0:
182,192,133449,1,0,0:0:0:0:
36,192,133449,1,0,0:0:0:0:
329,192,133449,128,0,133552:0:0:0:0:
256,192,133552,1,0,0:0:0:0:
402,192,133552,128,0,133655:0:0:0:0:
109,192,133655,1,0,0:0:0:0:
256,192,133758,1,0,0:0:0:0:
402,192,133758,128,0,133860:0:0:0:0:
475,192,133860,128,0,133963:0:0:0:0:
182,192,133860,1,0,0:0:0:0:
36,192,133860,1,0,0:0:0:0:
329,192,133963,1,0,0:0:0:0:
475,192,134066,128,0,134169:0:0:0:0:
402,192,134066,128,0,134169:0:0:0:0:
182,192,134066,1,0,0:0:0:0:
36,192,134169,1,0,0:0:0:0:
329,192,134271,1,0,0:0:0:0:
475,192,134271,1,0,0:0:0:30:Cymbal.wav
256,192,134271,1,0,0:0:0:30:KicK.wav
256,192,134374,1,0,0:0:0:30:KicK.wav
329,192,134374,1,0,0:0:0:0:
36,192,134374,1,0,0:0:0:0:
109,192,134477,1,0,0:0:0:0:
402,192,134477,1,0,0:0:0:30:KicK.wav
475,192,134477,1,0,0:0:0:0:
182,192,134580,1,0,0:0:0:0:
475,192,134580,1,0,0:0:0:0:
402,192,134580,1,0,0:0:0:30:KicK.wav
109,192,134682,1,0,0:0:0:30:KicK.wav
36,192,134682,1,0,0:0:0:0:
256,192,134682,1,0,0:0:0:0:
36,192,134785,1,0,0:0:0:0:
329,192,134785,1,0,0:0:0:0:
109,192,134785,1,0,0:0:0:30:KicK.wav
256,192,134888,1,0,0:0:0:30:KicK.wav
402,192,134888,1,0,0:0:0:0:
182,192,134888,1,0,0:0:0:0:
256,192,134991,1,0,0:0:0:30:KicK.wav
182,192,134991,1,0,0:0:0:0:
475,192,134991,1,0,0:0:0:0:
329,192,135093,1,0,0:0:0:0:
402,192,135093,1,0,0:0:0:30:KicK.wav
36,192,135093,1,0,0:0:0:0:
402,192,135196,1,0,0:0:0:30:KicK.wav
109,192,135196,1,0,0:0:0:0:
329,192,135196,1,0,0:0:0:0:
182,192,135299,1,0,0:0:0:0:
36,192,135299,1,0,0:0:0:0:
475,192,135299,1,0,0:0:0:30:KicK.wav
256,192,135401,1,0,0:0:0:0:
36,192,135401,1,0,0:0:0:0:
475,192,135401,1,0,0:0:0:30:KicK.wav
182,192,135504,1,0,0:0:0:30:KicK.wav
329,192,135504,1,0,0:0:0:0:
109,192,135504,1,0,0:0:0:0:
109,192,135607,1,0,0:0:0:0:
182,192,135607,1,0,0:0:0:30:KicK.wav
402,192,135607,1,0,0:0:0:0:
256,192,135710,1,0,0:0:0:0:
475,192,135710,1,0,0:0:0:0:
329,192,135710,1,0,0:0:0:30:KicK.wav
256,192,135812,1,0,0:0:0:0:
329,192,135812,1,0,0:0:0:30:KicK.wav
36,192,135812,1,0,0:0:0:0:
475,192,135915,1,0,0:0:0:30:KicK.wav
402,192,135915,1,0,0:0:0:0:
109,192,135915,1,0,0:0:0:30:Cymbal.wav
475,192,136018,1,0,0:0:0:30:KicK.wav
402,192,136018,1,0,0:0:0:0:
182,192,136018,1,0,0:0:0:0:
256,192,136121,1,0,0:0:0:0:
329,192,136121,1,0,0:0:0:30:KicK.wav
109,192,136121,1,0,0:0:0:0:
256,192,136223,1,0,0:0:0:0:
329,192,136223,1,0,0:0:0:30:KicK.wav
36,192,136223,1,0,0:0:0:0:
182,192,136326,1,0,0:0:0:30:KicK.wav
109,192,136326,1,0,0:0:0:0:
475,192,136326,1,0,0:0:0:0:
182,192,136429,1,0,0:0:0:30:KicK.wav
402,192,136429,1,0,0:0:0:0:
109,192,136429,1,0,0:0:0:0:
475,192,136532,1,0,0:0:0:0:
329,192,136532,1,0,0:0:0:0:
36,192,136532,1,0,0:0:0:30:KicK.wav
36,192,136634,1,0,0:0:0:30:KicK.wav
256,192,136634,1,0,0:0:0:0:
475,192,136634,1,0,0:0:0:0:
182,192,136737,1,0,0:0:0:0:
402,192,136737,1,0,0:0:0:0:
329,192,136737,1,0,0:0:0:30:KicK.wav
329,192,136840,1,0,0:0:0:30:KicK.wav
402,192,136840,1,0,0:0:0:0:
109,192,136840,1,0,0:0:0:0:
256,192,136943,1,0,0:0:0:0:
182,192,136943,1,0,0:0:0:30:KicK.wav
36,192,136943,1,0,0:0:0:0:
256,192,137045,1,0,0:0:0:0:
182,192,137045,1,0,0:0:0:30:KicK.wav
475,192,137045,1,0,0:0:0:0:
109,192,137148,1,0,0:0:0:0:
36,192,137148,1,0,0:0:0:30:KicK.wav
402,192,137148,1,0,0:0:0:0:
329,192,137251,1,0,0:0:0:0:
109,192,137251,1,0,0:0:0:0:
36,192,137251,1,0,0:0:0:30:KicK.wav
256,192,137354,1,0,0:0:0:0:
475,192,137354,1,0,0:0:0:0:
402,192,137354,1,0,0:0:0:30:KicK.wav
475,192,137456,1,0,0:0:0:0:
182,192,137456,1,0,0:0:0:0:
402,192,137456,1,0,0:0:0:30:KicK.wav
109,192,137559,1,0,0:0:0:0:
256,192,137559,1,0,0:0:0:30:Cymbal.wav
329,192,137559,1,0,0:0:0:30:KicK.wav
36,192,137662,1,0,0:0:0:0:
256,192,137662,1,0,0:0:0:0:
329,192,137662,1,0,0:0:0:30:KicK.wav
475,192,137765,1,0,0:0:0:0:
109,192,137765,1,0,0:0:0:0:
402,192,137765,1,0,0:0:0:30:KicK.wav
475,192,137867,1,0,0:0:0:0:
182,192,137867,1,0,0:0:0:0:
402,192,137867,1,0,0:0:0:30:KicK.wav
36,192,137970,1,0,0:0:0:0:
256,192,137970,1,0,0:0:0:0:
109,192,137970,1,0,0:0:0:30:KicK.wav
109,192,138073,1,0,0:0:0:30:KicK.wav
36,192,138073,1,0,0:0:0:0:
329,192,138073,1,0,0:0:0:0:
402,192,138175,1,0,0:0:0:0:
182,192,138175,1,0,0:0:0:0:
256,192,138175,1,0,0:0:0:30:KicK.wav
182,192,138278,1,0,0:0:0:0:
256,192,138278,1,0,0:0:0:30:KicK.wav
475,192,138278,1,0,0:0:0:0:
402,192,138381,1,0,0:0:0:0:
109,192,138381,1,0,0:0:0:30:KicK.wav
36,192,138381,1,0,0:0:0:0:
36,192,138484,1,0,0:0:0:0:
109,192,138484,1,0,0:0:0:30:KicK.wav
329,192,138484,1,0,0:0:0:0:
256,192,138586,1,0,0:0:0:0:
402,192,138586,1,0,0:0:0:30:KicK.wav
475,192,138586,1,0,0:0:0:0:
402,192,138689,1,0,0:0:0:30:KicK.wav
475,192,138689,1,0,0:0:0:0:
182,192,138689,1,0,0:0:0:0:
256,192,138792,1,0,0:0:0:0:
36,192,138792,1,0,0:0:0:0:
109,192,138792,1,0,0:0:0:30:KicK.wav
329,192,138895,1,0,0:0:0:0:
36,192,138895,1,0,0:0:0:0:
109,192,138895,1,0,0:0:0:30:KicK.wav
402,192,138997,1,0,0:0:0:0:
182,192,138997,1,0,0:0:0:0:
256,192,138997,1,0,0:0:0:30:KicK.wav
475,192,139100,1,0,0:0:0:0:
182,192,139100,1,0,0:0:0:0:
256,192,139100,1,0,0:0:0:30:KicK.wav
329,192,139203,1,0,0:0:0:0:
402,192,139203,1,0,0:0:0:30:KicK.wav
36,192,139203,1,0,0:0:0:30:Cymbal.wav
329,192,139306,1,0,0:0:0:0:
402,192,139306,1,0,0:0:0:30:KicK.wav
109,192,139306,1,0,0:0:0:0:
182,192,139408,1,0,0:0:0:0:
475,192,139408,1,0,0:0:0:30:KicK.wav
36,192,139408,1,0,0:0:0:0:
256,192,139511,1,0,0:0:0:0:
475,192,139511,1,0,0:0:0:30:KicK.wav
36,192,139511,1,0,0:0:0:0:
329,192,139614,1,0,0:0:0:0:
109,192,139614,1,0,0:0:0:0:
402,192,139614,1,0,0:0:0:30:KicK.wav
329,192,139717,5,0,0:0:0:0:
182,192,139717,5,0,0:0:0:0:
402,192,139717,1,0,0:0:0:30:KicK.wav
36,192,139819,1,0,0:0:0:0:
256,192,139819,1,0,0:0:0:0:
109,192,139819,1,0,0:0:0:30:KicK.wav
36,192,139922,1,0,0:0:0:0:
329,192,139922,1,0,0:0:0:0:
109,192,139922,1,0,0:0:0:30:KicK.wav
475,192,140025,1,0,0:0:0:0:
182,192,140025,1,0,0:0:0:0:
402,192,140025,1,0,0:0:0:30:KicK.wav
256,192,140128,1,0,0:0:0:0:
475,192,140128,1,0,0:0:0:0:
402,192,140128,1,0,0:0:0:30:KicK.wav
329,192,140230,1,0,0:0:0:0:
109,192,140230,1,0,0:0:0:0:
36,192,140230,1,0,0:0:0:30:KicK.wav
402,192,140333,1,0,0:0:0:0:
36,192,140333,1,0,0:0:0:0:
109,192,140333,1,0,0:0:0:30:KicK.wav
256,192,140436,1,0,0:0:0:30:KicK.wav
475,192,140436,1,0,0:0:0:0:
182,192,140436,1,0,0:0:0:0:
182,192,140538,1,0,0:0:0:0:
402,192,140538,1,0,0:0:0:0:
256,192,140538,1,0,0:0:0:30:KicK.wav
109,192,140641,1,0,0:0:0:30:KicK.wav
329,192,140641,1,0,0:0:0:0:
36,192,140641,1,0,0:0:0:0:
256,192,140744,1,0,0:0:0:0:
36,192,140744,1,0,0:0:0:0:
109,192,140744,1,0,0:0:0:30:KicK.wav
182,192,140847,5,0,0:0:0:0:
402,192,140847,1,0,0:0:0:0:
329,192,140847,1,0,0:0:0:30:Cymbal.wav
475,192,140847,1,0,0:0:0:30:KicK.wav
109,192,140898,1,0,0:0:0:0:
36,192,140949,1,0,0:0:0:0:
329,192,141001,1,0,0:0:0:0:
402,192,141052,1,0,0:0:0:0:
475,192,141104,1,0,0:0:0:0:
182,192,141155,1,0,0:0:0:0:
109,192,141206,1,0,0:0:0:0:
36,192,141258,1,0,0:0:0:0:
329,192,141309,1,0,0:0:0:0:
402,192,141360,1,0,0:0:0:0:
475,192,141412,1,0,0:0:0:0:
182,192,141463,1,0,0:0:0:0:
109,192,141515,1,0,0:0:0:0:
36,192,141566,1,0,0:0:0:0:
475,192,141617,1,0,0:0:0:0:
402,192,141669,1,0,0:0:0:0:
109,192,141669,1,0,0:0:0:0:
329,192,141720,1,0,0:0:0:0:
256,192,141771,1,0,0:0:0:0:
36,192,141823,1,0,0:0:0:0:
402,192,141874,1,0,0:0:0:0:
109,192,141874,1,0,0:0:0:0:
182,192,141925,1,0,0:0:0:0:
256,192,141977,1,0,0:0:0:0:
475,192,142028,1,0,0:0:0:0:
109,192,142080,1,0,0:0:0:0:
402,192,142080,1,0,0:0:0:0:
329,192,142131,1,0,0:0:0:0:
256,192,142182,1,0,0:0:0:0:
36,192,142234,1,0,0:0:0:0:
109,192,142285,1,0,0:0:0:0:
402,192,142285,1,0,0:0:0:0:
182,192,142336,1,0,0:0:0:0:
256,192,142388,1,0,0:0:0:0:
475,192,142439,1,0,0:0:0:0:
402,192,142491,1,0,0:0:0:0:
36,192,142491,1,0,0:0:0:0:
329,192,142542,1,0,0:0:0:0:
109,192,142593,1,0,0:0:0:0:
182,192,142593,1,0,0:0:0:0:
475,192,142645,1,0,0:0:0:0:
36,192,142696,1,0,0:0:0:0:
256,192,142696,1,0,0:0:0:0:
329,192,142747,1,0,0:0:0:0:
182,192,142799,1,0,0:0:0:0:
402,192,142799,1,0,0:0:0:0:
36,192,142850,1,0,0:0:0:0:
109,192,142901,1,0,0:0:0:0:
475,192,142901,1,0,0:0:0:0:
182,192,142953,1,0,0:0:0:0:
402,192,143004,1,0,0:0:0:0:
329,192,143004,1,0,0:0:0:0:
36,192,143056,1,0,0:0:0:0:
256,192,143107,1,0,0:0:0:0:
475,192,143107,1,0,0:0:0:0:
182,192,143158,1,0,0:0:0:0:
109,192,143210,1,0,0:0:0:0:
329,192,143210,1,0,0:0:0:0:
475,192,143261,1,0,0:0:0:0:
36,192,143312,1,0,0:0:0:0:
402,192,143312,1,0,0:0:0:0:
329,192,143364,1,0,0:0:0:0:
109,192,143364,1,0,0:0:0:0:
182,192,143415,1,0,0:0:0:0:
475,192,143415,1,0,0:0:0:0:
256,192,143467,1,0,0:0:0:0:
402,192,143467,1,0,0:0:0:0:
109,192,143518,1,0,0:0:0:0:
36,192,143518,1,0,0:0:0:0:
182,192,143569,1,0,0:0:0:0:
475,192,143569,1,0,0:0:0:0:
329,192,143621,1,0,0:0:0:0:
402,192,143621,1,0,0:0:0:0:
36,192,143672,1,0,0:0:0:0:
256,192,143672,1,0,0:0:0:0:
109,192,143723,1,0,0:0:0:0:
475,192,143723,1,0,0:0:0:0:
182,192,143775,1,0,0:0:0:0:
402,192,143775,1,0,0:0:0:0:
329,192,143826,1,0,0:0:0:0:
36,192,143826,1,0,0:0:0:0:
256,192,143878,1,0,0:0:0:0:
109,192,143878,1,0,0:0:0:0:
402,192,143929,1,0,0:0:0:0:
475,192,143929,1,0,0:0:0:0:
36,192,143980,1,0,0:0:0:0:
329,192,143980,1,0,0:0:0:0:
182,192,144032,1,0,0:0:0:0:
109,192,144032,1,0,0:0:0:0:
256,192,144083,1,0,0:0:0:0:
402,192,144083,1,0,0:0:0:0:
36,192,144134,1,0,0:0:0:0:
475,192,144134,1,0,0:0:0:0:
109,192,144169,1,0,0:0:0:0:
182,192,144203,1,0,0:0:0:0:
256,192,144237,1,0,0:0:0:0:
329,192,144271,1,0,0:0:0:0:
402,192,144306,1,0,0:0:0:0:
36,192,144340,1,0,0:0:0:0:
109,192,144374,1,0,0:0:0:0:
182,192,144408,1,0,0:0:0:0:
475,192,144443,1,0,0:0:0:0:
402,192,144477,1,0,0:0:0:0:
329,192,144511,1,0,0:0:0:0:
256,192,144545,1,0,0:0:0:0:
182,192,144580,1,0,0:0:0:0:
109,192,144614,1,0,0:0:0:0:
475,192,144648,1,0,0:0:0:0:
402,192,144682,1,0,0:0:0:0:
329,192,144717,1,0,0:0:0:0:
36,192,144751,1,0,0:0:0:0:
109,192,144785,1,0,0:0:0:0:
182,192,144819,1,0,0:0:0:0:
256,192,144854,1,0,0:0:0:0:
329,192,144888,1,0,0:0:0:0:
402,192,144922,1,0,0:0:0:0:
36,192,144956,1,0,0:0:0:0:
109,192,144991,1,0,0:0:0:0:
182,192,145025,1,0,0:0:0:0:
475,192,145059,1,0,0:0:0:0:
402,192,145093,1,0,0:0:0:0:
329,192,145128,1,0,0:0:0:0:
182,192,145162,1,0,0:0:0:0:
109,192,145196,1,0,0:0:0:0:
36,192,145230,1,0,0:0:0:0:
329,192,145265,1,0,0:0:0:0:
402,192,145299,1,0,0:0:0:0:
475,192,145333,1,0,0:0:0:0:
182,192,145367,1,0,0:0:0:0:
256,192,145401,1,0,0:0:0:0:
329,192,145436,1,0,0:0:0:0:
36,192,145470,1,0,0:0:0:0:
109,192,145504,1,0,0:0:0:0:
182,192,145538,1,0,0:0:0:0:
475,192,145573,1,0,0:0:0:0:
402,192,145607,1,0,0:0:0:0:
329,192,145641,1,0,0:0:0:0:
256,192,145675,1,0,0:0:0:0:
182,192,145710,1,0,0:0:0:0:
109,192,145744,1,0,0:0:0:0:
36,192,145778,1,0,0:0:0:0:
475,192,146395,1,0,0:0:0:0:
402,192,146446,1,0,0:0:0:0:
329,192,146497,1,0,0:0:0:0:
256,192,146549,1,0,0:0:0:0:
182,192,146600,1,0,0:0:0:0:
36,192,146600,1,0,0:0:0:0:
182,192,146703,1,0,0:0:0:0:
36,192,146703,1,0,0:0:0:0:
182,192,146908,1,0,0:0:0:0:
36,192,146908,1,0,0:0:0:0:
182,192,147114,1,0,0:0:0:0:
36,192,147114,1,0,0:0:0:0:
182,192,147217,1,0,0:0:0:0:
36,192,147217,1,0,0:0:0:0:
36,192,147422,128,0,147525:0:0:0:0:
402,192,147422,1,0,0:0:0:30:KicK.wav
475,192,147422,1,0,0:0:0:30:Cymbal.wav
256,192,147422,128,0,147628:0:0:0:50:Synth.wav
109,192,147525,128,0,147628:0:0:0:0:
329,192,147525,128,0,147730:0:0:0:50:Synth.wav
182,192,147628,128,0,147730:0:0:0:0:
402,192,147628,128,0,147833:0:0:0:50:Synth.wav
256,192,147730,128,0,147833:0:0:0:0:
475,192,147730,128,0,147936:0:0:0:50:Synth.wav
329,192,147833,128,0,147936:0:0:0:0:
36,192,147833,1,0,0:0:0:0:
109,192,147833,1,0,0:0:0:30:Snare.wav
256,192,147936,128,0,148038:0:0:0:0:
402,192,147936,128,0,148141:0:0:0:50:Synth.wav
182,192,148038,128,0,148141:0:0:0:0:
329,192,148038,128,0,148244:0:0:0:50:Synth.wav
109,192,148141,128,0,148244:0:0:0:0:
256,192,148141,128,0,148347:0:0:0:50:Synth.wav
402,192,148244,128,0,148347:0:0:0:0:
36,192,148244,1,0,0:0:0:30:KicK.wav
475,192,148244,1,0,0:0:0:0:
182,192,148244,128,0,148449:0:0:0:50:Synth.wav
329,192,148347,128,0,148552:0:0:0:50:Synth.wav
109,192,148347,128,0,148449:0:0:0:0:
256,192,148449,128,0,148552:0:0:0:0:
402,192,148449,128,0,148655:0:0:0:50:Synth.wav
182,192,148552,128,0,148655:0:0:0:0:
475,192,148552,128,0,148758:0:0:0:50:Synth.wav
36,192,148655,1,0,0:0:0:30:Snare.wav
109,192,148655,1,0,0:0:0:0:
329,192,148655,128,0,148758:0:0:0:0:
256,192,148758,128,0,148860:0:0:0:0:
402,192,148758,128,0,148963:0:0:0:50:Synth.wav
182,192,148860,128,0,148963:0:0:0:0:
329,192,148860,128,0,149066:0:0:0:50:Synth.wav
109,192,148963,128,0,149066:0:0:0:0:
256,192,148963,128,0,149169:0:0:0:50:Synth.wav
36,192,149066,128,0,149169:0:0:0:0:
475,192,149066,1,0,0:0:0:30:KicK.wav
182,192,149066,1,0,0:0:0:0:
402,192,149066,128,0,149271:0:0:0:50:Synth.wav
109,192,149169,128,0,149271:0:0:0:0:
329,192,149169,128,0,149374:0:0:0:50:Synth.wav
182,192,149271,128,0,149374:0:0:0:0:
475,192,149271,128,0,149477:0:0:0:50:Synth.wav
256,192,149374,128,0,149477:0:0:0:0:
402,192,149374,128,0,149580:0:0:0:50:Synth.wav
36,192,149477,1,0,0:0:0:30:Snare.wav
182,192,149477,1,0,0:0:0:0:
329,192,149477,128,0,149580:0:0:0:0:
109,192,149580,128,0,149785:0:0:0:50:Synth.wav
256,192,149580,128,0,149682:0:0:0:0:
182,192,149682,128,0,149888:0:0:0:50:Synth.wav
329,192,149682,128,0,149785:0:0:0:0:
402,192,149785,128,0,149888:0:0:0:0:
256,192,149785,128,0,149991:0:0:0:50:Synth.wav
36,192,149888,128,0,150093:0:0:0:50:Synth.wav
109,192,149888,1,0,0:0:0:30:KicK.wav
475,192,149888,128,0,149991:0:0:0:0:
329,192,149888,1,0,0:0:0:0:
182,192,149991,128,0,150196:0:0:0:50:Synth.wav
402,192,149991,128,0,150093:0:0:0:0:
329,192,150093,128,0,150299:0:0:0:50:Synth.wav
109,192,150093,128,0,150196:0:0:0:0:
475,192,150196,128,0,150401:0:0:0:50:Synth.wav
256,192,150196,128,0,150299:0:0:0:0:
109,192,150299,1,0,0:0:0:30:Snare.wav
36,192,150299,1,0,0:0:0:0:
402,192,150299,128,0,150401:0:0:0:0:
329,192,150401,128,0,150504:0:0:0:0:
182,192,150401,128,0,150607:0:0:0:50:Synth.wav
109,192,150504,128,0,150710:0:0:0:50:Synth.wav
256,192,150504,128,0,150607:0:0:0:0:
36,192,150607,128,0,150812:0:0:0:50:Synth.wav
329,192,150607,128,0,150710:0:0:0:0:
182,192,150710,1,0,0:0:0:30:KicK.wav
256,192,150710,128,0,150915:0:0:0:50:Synth.wav
402,192,150710,128,0,150812:0:0:0:0:
475,192,150710,1,0,0:0:0:0:
329,192,150812,128,0,151018:0:0:0:50:Synth.wav
109,192,150812,128,0,150915:0:0:0:0:
402,192,150915,128,0,151121:0:0:0:50:Synth.wav
182,192,150915,128,0,151018:0:0:0:0:
256,192,151018,128,0,151121:0:0:0:0:
109,192,151121,128,0,151326:0:0:0:50:Synth.wav
182,192,151121,1,0,0:0:0:30:Snare.wav
36,192,151121,1,0,0:0:0:0:
475,192,151121,128,0,151223:0:0:0:0:
329,192,151223,128,0,151326:0:0:0:0:
182,192,151326,128,0,151429:0:0:0:0:
475,192,151326,128,0,151532:0:0:0:50:Synth.wav
402,192,151429,128,0,151634:0:0:0:50:Synth.wav
36,192,151429,128,0,151532:0:0:0:0:
109,192,151532,1,0,0:0:0:0:
329,192,151532,128,0,151737:0:0:0:50:Synth.wav
256,192,151532,128,0,151634:0:0:0:0:
182,192,151532,1,0,0:0:0:30:KicK.wav
475,192,151634,128,0,151737:0:0:0:0:
256,192,151737,128,0,151840:0:0:0:0:
109,192,151737,128,0,151943:0:0:0:50:Synth.wav
402,192,151840,128,0,151943:0:0:0:0:
182,192,151840,128,0,152045:0:0:0:50:Synth.wav
475,192,151943,1,0,0:0:0:30:Snare.wav
36,192,151943,1,0,0:0:0:0:
329,192,151943,128,0,152045:0:0:0:0:
402,192,152045,128,0,152148:0:0:0:0:
109,192,152045,128,0,152251:0:0:0:50:Synth.wav
182,192,152148,128,0,152354:0:0:0:50:Synth.wav
475,192,152148,128,0,152251:0:0:0:0:
329,192,152251,128,0,152354:0:0:0:0:
256,192,152354,128,0,152559:0:0:0:50:Synth.wav
402,192,152354,1,0,0:0:0:0:
36,192,152354,128,0,152456:0:0:0:0:
475,192,152354,1,0,0:0:0:30:KicK.wav
329,192,152456,128,0,152662:0:0:0:50:Synth.wav
109,192,152456,128,0,152559:0:0:0:0:
402,192,152559,128,0,152765:0:0:0:50:Synth.wav
182,192,152559,128,0,152662:0:0:0:0:
475,192,152662,128,0,152867:0:0:0:50:Synth.wav
256,192,152662,128,0,152765:0:0:0:0:
36,192,152765,1,0,0:0:0:30:Snare.wav
182,192,152765,128,0,152867:0:0:0:0:
329,192,152765,1,0,0:0:0:0:
256,192,152867,128,0,153073:0:0:0:50:Synth.wav
109,192,152867,128,0,152970:0:0:0:0:
182,192,152970,128,0,153175:0:0:0:50:Synth.wav
475,192,152970,128,0,153073:0:0:0:0:
329,192,153073,128,0,153278:0:0:0:50:Synth.wav
402,192,153073,128,0,153175:0:0:0:0:
256,192,153175,1,0,0:0:0:0:
475,192,153175,128,0,153381:0:0:0:50:Synth.wav
36,192,153175,128,0,153278:0:0:0:0:
109,192,153175,1,0,0:0:0:30:KicK.wav
402,192,153278,128,0,153484:0:0:0:50:Synth.wav
182,192,153278,128,0,153381:0:0:0:0:
329,192,153381,128,0,153586:0:0:0:50:Synth.wav
109,192,153381,128,0,153484:0:0:0:0:
256,192,153484,128,0,153586:0:0:0:0:
36,192,153586,1,0,0:0:0:30:Snare.wav
182,192,153586,128,0,153689:0:0:0:0:
402,192,153586,128,0,153689:0:0:0:50:Synth.wav
475,192,153586,128,0,153689:0:0:0:0:
109,192,153586,1,0,0:0:0:0:
256,192,153689,128,0,153792:0:0:0:0:
402,192,153792,128,0,153895:0:0:0:50:Synth.wav
109,192,153792,128,0,153895:0:0:0:0:
475,192,153792,128,0,153895:0:0:0:0:
182,192,153895,128,0,153997:0:0:0:0:
402,192,153997,1,0,0:0:0:30:KicK.wav
36,192,153997,128,0,154203:0:0:0:50:Synth.wav
256,192,153997,128,0,154100:0:0:0:0:
475,192,153997,1,0,0:0:0:0:
329,192,154100,128,0,154203:0:0:0:0:
182,192,154100,128,0,154306:0:0:0:50:Synth.wav
402,192,154203,128,0,154306:0:0:0:0:
109,192,154306,128,0,154511:0:0:0:50:Synth.wav
475,192,154306,128,0,154408:0:0:0:0:
36,192,154408,1,0,0:0:0:30:Snare.wav
256,192,154408,1,0,0:0:0:0:
402,192,154408,128,0,154511:0:0:0:0:
182,192,154511,128,0,154717:0:0:0:50:Synth.wav
329,192,154511,128,0,154614:0:0:0:0:
36,192,154614,128,0,154819:0:0:0:50:Synth.wav
475,192,154614,128,0,154717:0:0:0:0:
329,192,154717,128,0,154819:0:0:0:0:
256,192,154819,1,0,0:0:0:30:KicK.wav
182,192,154819,128,0,154922:0:0:0:0:
402,192,154819,128,0,155025:0:0:0:50:Synth.wav
475,192,154819,1,0,0:0:0:0:
329,192,154922,128,0,155025:0:0:0:0:
475,192,155025,128,0,155230:0:0:0:50:Synth.wav
182,192,155025,128,0,155128:0:0:0:0:
402,192,155128,128,0,155333:0:0:0:50:Synth.wav
36,192,155128,128,0,155230:0:0:0:0:
329,192,155230,128,0,155436:0:0:0:50:Synth.wav
256,192,155230,1,0,0:0:0:30:Snare.wav
109,192,155230,1,0,0:0:0:0:
182,192,155230,128,0,155333:0:0:0:0:
475,192,155333,128,0,155436:0:0:0:0:
109,192,155436,128,0,155641:0:0:0:50:Synth.wav
256,192,155436,128,0,155538:0:0:0:0:
402,192,155538,128,0,155641:0:0:0:0:
329,192,155641,128,0,155847:0:0:0:50:Synth.wav
36,192,155641,1,0,0:0:0:0:
182,192,155641,128,0,155744:0:0:0:0:
256,192,155641,1,0,0:0:0:30:KicK.wav
475,192,155744,128,0,155949:0:0:0:50:Synth.wav
109,192,155744,128,0,155847:0:0:0:0:
256,192,155847,128,0,155949:0:0:0:0:
402,192,155949,128,0,156155:0:0:0:50:Synth.wav
182,192,155949,128,0,156052:0:0:0:0:
256,192,156052,1,0,0:0:0:0:
109,192,156052,1,0,0:0:0:30:Snare.wav
329,192,156052,128,0,156155:0:0:0:0:
475,192,156155,128,0,156360:0:0:0:50:Synth.wav
36,192,156155,128,0,156258:0:0:0:0:
329,192,156258,128,0,156463:0:0:0:50:Synth.wav
109,192,156258,128,0,156360:0:0:0:0:
182,192,156360,128,0,156463:0:0:0:0:
109,192,156463,1,0,0:0:0:0:
256,192,156463,128,0,156669:0:0:0:50:Synth.wav
36,192,156463,128,0,156566:0:0:0:0:
402,192,156463,1,0,0:0:0:30:KicK.wav
182,192,156566,128,0,156771:0:0:0:50:Synth.wav
475,192,156566,128,0,156669:0:0:0:0:
109,192,156669,128,0,156874:0:0:0:50:Synth.wav
402,192,156669,128,0,156771:0:0:0:0:
36,192,156771,128,0,156977:0:0:0:50:Synth.wav
329,192,156771,128,0,156874:0:0:0:0:
182,192,156874,128,0,157080:0:0:0:50:Synth.wav
475,192,156874,1,0,0:0:0:30:Snare.wav
402,192,156874,1,0,0:0:0:0:
256,192,156874,128,0,156977:0:0:0:0:
329,192,156977,128,0,157080:0:0:0:0:
256,192,157080,128,0,157285:0:0:0:50:Synth.wav
402,192,157080,128,0,157182:0:0:0:0:
475,192,157182,128,0,157285:0:0:0:0:
329,192,157285,128,0,157491:0:0:0:50:Synth.wav
402,192,157285,1,0,0:0:0:30:KicK.wav
36,192,157285,1,0,0:0:0:0:
182,192,157285,128,0,157388:0:0:0:0:
256,192,157388,128,0,157593:0:0:0:50:Synth.wav
109,192,157388,128,0,157491:0:0:0:0:
36,192,157491,128,0,157593:0:0:0:0:
402,192,157593,128,0,157799:0:0:0:50:Synth.wav
182,192,157593,128,0,157696:0:0:0:0:
36,192,157696,1,0,0:0:0:30:Snare.wav
109,192,157696,1,0,0:0:0:0:
329,192,157696,128,0,157799:0:0:0:0:
256,192,157799,128,0,158004:0:0:0:50:Synth.wav
475,192,157799,128,0,157901:0:0:0:0:
329,192,157901,128,0,158107:0:0:0:50:Synth.wav
109,192,157901,128,0,158004:0:0:0:0:
182,192,158004,128,0,158107:0:0:0:0:
36,192,158107,128,0,158312:0:0:0:50:Synth.wav
109,192,158107,1,0,0:0:0:0:
475,192,158107,1,0,0:0:0:30:KicK.wav
402,192,158107,128,0,158210:0:0:0:0:
256,192,158210,128,0,158312:0:0:0:0:
109,192,158312,128,0,158415:0:0:0:0:
402,192,158312,128,0,158518:0:0:0:50:Synth.wav
329,192,158415,128,0,158621:0:0:0:50:Synth.wav
182,192,158415,128,0,158518:0:0:0:0:
256,192,158518,128,0,158723:0:0:0:50:Synth.wav
109,192,158518,1,0,0:0:0:0:
36,192,158518,1,0,0:0:0:30:Snare.wav
475,192,158518,128,0,158621:0:0:0:0:
182,192,158621,128,0,158826:0:0:0:50:Synth.wav
402,192,158621,128,0,158723:0:0:0:0:
109,192,158723,128,0,158929:0:0:0:50:Synth.wav
329,192,158723,128,0,158826:0:0:0:0:
256,192,158826,128,0,158929:0:0:0:0:
36,192,158929,1,0,0:0:0:30:KicK.wav
182,192,158929,1,0,0:0:0:0:
475,192,158929,128,0,159134:0:0:0:50:Synth.wav
329,192,158929,128,0,159032:0:0:0:0:
256,192,159032,128,0,159134:0:0:0:0:
329,192,159134,128,0,159340:0:0:0:50:Synth.wav
182,192,159134,128,0,159237:0:0:0:0:
402,192,159237,128,0,159443:0:0:0:50:Synth.wav
109,192,159237,128,0,159340:0:0:0:0:
256,192,159340,1,0,0:0:0:30:Snare.wav
475,192,159340,1,0,0:0:0:0:
36,192,159340,128,0,159443:0:0:0:0:
182,192,159443,128,0,159545:0:0:0:0:
329,192,159443,128,0,159648:0:0:0:50:Synth.wav
402,192,159545,128,0,159751:0:0:0:50:Synth.wav
109,192,159545,128,0,159648:0:0:0:0:
256,192,159648,128,0,159751:0:0:0:0:
36,192,159751,1,0,0:0:0:30:KicK.wav
109,192,159751,1,0,0:0:0:0:
182,192,159751,128,0,159854:0:0:0:0:
329,192,159751,128,0,159956:0:0:0:50:Synth.wav
256,192,159854,128,0,160059:0:0:0:50:Synth.wav
475,192,159854,128,0,159956:0:0:0:0:
182,192,159956,128,0,160162:0:0:0:50:Synth.wav
402,192,159956,128,0,160059:0:0:0:0:
109,192,160059,128,0,160265:0:0:0:50:Synth.wav
329,192,160059,128,0,160162:0:0:0:0:
36,192,160162,128,0,160367:0:0:0:50:Synth.wav
402,192,160162,1,0,0:0:0:0:
475,192,160162,1,0,0:0:0:30:Snare.wav
256,192,160162,128,0,160265:0:0:0:0:
182,192,160265,128,0,160367:0:0:0:0:
329,192,160367,128,0,160470:0:0:0:0:
475,192,160367,128,0,160573:0:0:0:50:Synth.wav
182,192,160470,128,0,160573:0:0:0:0:
109,192,160573,1,0,0:0:0:30:Cymbal.wav
256,192,160573,128,0,160778:0:0:0:50:Synth.wav
402,192,160573,128,0,160675:0:0:0:0:
36,192,160573,1,0,0:0:0:30:KicK.wav
475,192,160675,128,0,160778:0:0:0:0:
329,192,160675,128,0,160881:0:0:0:50:Synth.wav
402,192,160778,128,0,160984:0:0:0:50:Synth.wav
109,192,160778,128,0,160881:0:0:0:0:
475,192,160881,128,0,161086:0:0:0:50:Synth.wav
182,192,160881,128,0,160984:0:0:0:0:
329,192,160984,1,0,0:0:0:30:Snare.wav
256,192,160984,128,0,161086:0:0:0:0:
36,192,160984,1,0,0:0:0:0:
402,192,161086,128,0,161292:0:0:0:50:Synth.wav
182,192,161086,128,0,161189:0:0:0:0:
329,192,161189,128,0,161395:0:0:0:50:Synth.wav
109,192,161189,128,0,161292:0:0:0:0:
256,192,161292,128,0,161497:0:0:0:50:Synth.wav
36,192,161292,128,0,161395:0:0:0:0:
109,192,161395,1,0,0:0:0:0:
182,192,161395,128,0,161600:0:0:0:50:Synth.wav
402,192,161395,128,0,161497:0:0:0:0:
475,192,161395,1,0,0:0:0:30:KicK.wav
329,192,161497,128,0,161703:0:0:0:50:Synth.wav
36,192,161497,128,0,161600:0:0:0:0:
402,192,161600,128,0,161806:0:0:0:50:Synth.wav
109,192,161600,128,0,161703:0:0:0:0:
475,192,161703,128,0,161908:0:0:0:50:Synth.wav
182,192,161703,128,0,161806:0:0:0:0:
256,192,161806,128,0,161908:0:0:0:0:
109,192,161806,1,0,0:0:0:30:Snare.wav
36,192,161806,1,0,0:0:0:0:
402,192,161908,128,0,162114:0:0:0:50:Synth.wav
329,192,161908,128,0,162011:0:0:0:0:
256,192,162011,128,0,162217:0:0:0:50:Synth.wav
182,192,162011,128,0,162114:0:0:0:0:
109,192,162114,128,0,162319:0:0:0:50:Synth.wav
36,192,162114,128,0,162217:0:0:0:0:
475,192,162217,1,0,0:0:0:0:
182,192,162217,128,0,162422:0:0:0:50:Synth.wav
402,192,162217,128,0,162319:0:0:0:0:
329,192,162217,1,0,0:0:0:30:KicK.wav
256,192,162319,128,0,162525:0:0:0:50:Synth.wav
36,192,162319,128,0,162422:0:0:0:0:
329,192,162422,128,0,162628:0:0:0:50:Synth.wav
109,192,162422,128,0,162525:0:0:0:0:
402,192,162525,128,0,162730:0:0:0:50:Synth.wav
182,192,162525,128,0,162628:0:0:0:0:
256,192,162628,128,0,162730:0:0:0:0:
109,192,162628,1,0,0:0:0:0:
36,192,162628,1,0,0:0:0:30:Snare.wav
329,192,162730,128,0,162833:0:0:0:0:
475,192,162730,128,0,162936:0:0:0:50:Synth.wav
182,192,162833,128,0,162936:0:0:0:0:
402,192,162833,128,0,163038:0:0:0:50:Synth.wav
329,192,162936,128,0,163141:0:0:0:50:Synth.wav
36,192,162936,128,0,163038:0:0:0:0:
475,192,163038,128,0,163141:0:0:0:0:
182,192,163038,1,0,0:0:0:0:
256,192,163038,128,0,163244:0:0:0:50:Synth.wav
109,192,163038,1,0,0:0:0:30:KicK.wav
402,192,163141,128,0,163244:0:0:0:0:
36,192,163141,128,0,163347:0:0:0:50:Synth.wav
329,192,163244,128,0,163347:0:0:0:0:
109,192,163244,128,0,163449:0:0:0:50:Synth.wav
475,192,163347,128,0,163449:0:0:0:0:
182,192,163347,128,0,163552:0:0:0:50:Synth.wav
402,192,163449,128,0,163552:0:0:0:0:
36,192,163449,1,0,0:0:0:0:
329,192,163449,1,0,0:0:0:30:Snare.wav
475,192,163552,128,0,163655:0:0:0:0:
256,192,163552,128,0,163758:0:0:0:50:Synth.wav
182,192,163655,128,0,163860:0:0:0:50:Synth.wav
402,192,163655,128,0,163758:0:0:0:0:
329,192,163758,128,0,163860:0:0:0:0:
109,192,163758,128,0,163963:0:0:0:50:Synth.wav
36,192,163860,128,0,163963:0:0:0:0:
256,192,163860,1,0,0:0:0:0:
475,192,163860,1,0,0:0:0:30:KicK.wav
402,192,163860,128,0,164066:0:0:0:50:Synth.wav
182,192,163963,128,0,164066:0:0:0:0:
329,192,163963,128,0,164169:0:0:0:50:Synth.wav
109,192,164066,128,0,164169:0:0:0:0:
475,192,164066,128,0,164271:0:0:0:50:Synth.wav
256,192,164169,128,0,164271:0:0:0:0:
329,192,164271,1,0,0:0:0:0:
182,192,164271,128,0,164374:0:0:0:0:
36,192,164271,128,0,164477:0:0:0:50:Synth.wav
402,192,164271,1,0,0:0:0:30:Snare.wav
256,192,164374,128,0,164477:0:0:0:0:
109,192,164477,128,0,164580:0:0:0:0:
402,192,164477,128,0,164682:0:0:0:50:Synth.wav
36,192,164580,128,0,164682:0:0:0:0:
329,192,164580,128,0,164785:0:0:0:50:Synth.wav
475,192,164682,128,0,164785:0:0:0:0:
182,192,164682,1,0,0:0:0:30:KicK.wav
109,192,164682,1,0,0:0:0:0:
256,192,164682,128,0,164888:0:0:0:50:Synth.wav
36,192,164785,128,0,164888:0:0:0:0:
402,192,164888,128,0,165093:0:0:0:50:Synth.wav
109,192,164888,128,0,164991:0:0:0:0:
475,192,164991,128,0,165196:0:0:0:50:Synth.wav
182,192,164991,128,0,165093:0:0:0:0:
109,192,165093,128,0,165196:0:0:0:0:
329,192,165093,1,0,0:0:0:0:
36,192,165093,1,0,0:0:0:30:Snare.wav
402,192,165196,128,0,165401:0:0:0:50:Synth.wav
182,192,165196,128,0,165299:0:0:0:0:
256,192,165299,128,0,165401:0:0:0:0:
475,192,165299,128,0,165504:0:0:0:50:Synth.wav
329,192,165401,128,0,165504:0:0:0:0:
256,192,165504,128,0,165607:0:0:0:0:
182,192,165504,1,0,0:0:0:30:KicK.wav
36,192,165504,128,0,165710:0:0:0:50:Synth.wav
402,192,165504,1,0,0:0:0:0:
329,192,165607,128,0,165710:0:0:0:0:
109,192,165607,128,0,165812:0:0:0:50:Synth.wav
402,192,165710,128,0,165812:0:0:0:0:
182,192,165710,128,0,165915:0:0:0:50:Synth.wav
475,192,165812,128,0,165915:0:0:0:0:
256,192,165812,128,0,166018:0:0:0:50:Synth.wav
329,192,165915,128,0,166018:0:0:0:0:
109,192,165915,1,0,0:0:0:0:
36,192,165915,1,0,0:0:0:30:Snare.wav
475,192,166018,128,0,166121:0:0:0:0:
182,192,166018,128,0,166223:0:0:0:50:Synth.wav
402,192,166121,128,0,166223:0:0:0:0:
109,192,166121,128,0,166326:0:0:0:50:Synth.wav
329,192,166223,128,0,166326:0:0:0:0:
36,192,166223,128,0,166429:0:0:0:50:Synth.wav
182,192,166326,128,0,166429:0:0:0:0:
256,192,166326,1,0,0:0:0:30:KicK.wav
475,192,166326,1,0,0:0:0:0:
402,192,166326,128,0,166532:0:0:0:50:Synth.wav
109,192,166429,128,0,166532:0:0:0:0:
329,192,166429,128,0,166634:0:0:0:50:Synth.wav
36,192,166532,128,0,166634:0:0:0:0:
256,192,166532,128,0,166737:0:0:0:50:Synth.wav
402,192,166634,128,0,166737:0:0:0:0:
182,192,166737,1,0,0:0:0:0:
109,192,166737,128,0,166840:0:0:0:50:Synth.wav
329,192,166737,128,0,166840:0:0:0:0:
36,192,166737,128,0,166840:0:0:0:30:Snare.wav
475,192,166737,1,0,0:0:0:0:
256,192,166840,128,0,166943:0:0:0:0:
329,192,166943,128,0,167045:0:0:0:0:
36,192,166943,128,0,167045:0:0:0:50:Synth.wav
109,192,166943,128,0,167045:0:0:0:0:
402,192,167045,128,0,167148:0:0:0:0:
475,192,167148,128,0,167251:0:0:0:0:
109,192,167148,1,0,0:0:0:30:Cymbal.wav
36,192,167148,1,0,0:0:0:30:KicK.wav
256,192,167148,128,0,167354:0:0:0:50:Synth.wav
182,192,167251,128,0,167354:0:0:0:0:
402,192,167251,128,0,167456:0:0:0:50:Synth.wav
109,192,167354,128,0,167456:0:0:0:0:
256,192,167456,128,0,167559:0:0:0:0:
329,192,167456,128,0,167662:0:0:0:50:Synth.wav
36,192,167559,1,0,0:0:0:0:
475,192,167559,1,0,0:0:0:30:Snare.wav
182,192,167559,128,0,167662:0:0:0:0:
109,192,167662,128,0,167765:0:0:0:0:
402,192,167662,128,0,167867:0:0:0:50:Synth.wav
36,192,167765,128,0,167867:0:0:0:0:
256,192,167765,128,0,167970:0:0:0:50:Synth.wav
109,192,167867,128,0,167970:0:0:0:0:
475,192,167970,128,0,168175:0:0:0:50:Synth.wav
402,192,167970,1,0,0:0:0:0:
329,192,167970,1,0,0:0:0:30:KicK.wav
182,192,167970,128,0,168073:0:0:0:0:
256,192,168073,128,0,168175:0:0:0:0:
329,192,168175,128,0,168278:0:0:0:0:
182,192,168175,128,0,168381:0:0:0:50:Synth.wav
402,192,168278,128,0,168381:0:0:0:0:
109,192,168278,128,0,168484:0:0:0:50:Synth.wav
256,192,168381,1,0,0:0:0:0:
475,192,168381,128,0,168484:0:0:0:0:
36,192,168381,128,0,168586:0:0:0:50:Synth.wav
329,192,168381,1,0,0:0:0:30:Snare.wav
402,192,168484,128,0,168586:0:0:0:0:
329,192,168586,128,0,168689:0:0:0:0:
182,192,168586,128,0,168792:0:0:0:50:Synth.wav
402,192,168689,128,0,168792:0:0:0:0:
256,192,168792,128,0,168895:0:0:0:0:
109,192,168792,1,0,0:0:0:30:KicK.wav
329,192,168792,128,0,168997:0:0:0:50:Synth.wav
36,192,168792,1,0,0:0:0:0:
182,192,168895,128,0,168997:0:0:0:0:
475,192,168895,128,0,169100:0:0:0:50:Synth.wav
109,192,168997,128,0,169100:0:0:0:0:
36,192,169100,128,0,169203:0:0:0:0:
256,192,169100,128,0,169306:0:0:0:50:Synth.wav
402,192,169203,128,0,169306:0:0:0:0:
182,192,169203,1,0,0:0:0:30:Snare.wav
329,192,169203,1,0,0:0:0:0:
36,192,169306,128,0,169408:0:0:0:0:
475,192,169306,128,0,169511:0:0:0:50:Synth.wav
109,192,169408,128,0,169511:0:0:0:0:
329,192,169408,128,0,169614:0:0:0:50:Synth.wav
182,192,169511,128,0,169614:0:0:0:0:
256,192,169614,128,0,169717:0:0:0:0:
36,192,169614,1,0,0:0:0:30:KicK.wav
109,192,169614,1,0,0:0:0:0:
402,192,169614,128,0,169819:0:0:0:50:Synth.wav
182,192,169717,128,0,169819:0:0:0:0:
475,192,169717,128,0,169922:0:0:0:50:Synth.wav
109,192,169819,128,0,169922:0:0:0:0:
329,192,169819,128,0,170025:0:0:0:50:Synth.wav
36,192,169922,128,0,170025:0:0:0:0:
402,192,169922,128,0,170128:0:0:0:50:Synth.wav
182,192,170025,1,0,0:0:0:0:
256,192,170025,128,0,170128:0:0:0:0:
109,192,170025,128,0,170230:0:0:0:50:Synth.wav
475,192,170025,1,0,0:0:0:30:Snare.wav
329,192,170128,128,0,170230:0:0:0:0:
402,192,170230,128,0,170333:0:0:0:0:
182,192,170230,128,0,170436:0:0:0:50:Synth.wav
475,192,170333,128,0,170436:0:0:0:0:
109,192,170436,1,0,0:0:0:0:
36,192,170436,128,0,170538:0:0:0:0:
329,192,170436,128,0,170641:0:0:0:50:Synth.wav
256,192,170436,1,0,0:0:0:30:KicK.wav
475,192,170538,128,0,170641:0:0:0:0:
182,192,170538,128,0,170744:0:0:0:50:Synth.wav
402,192,170641,128,0,170744:0:0:0:0:
329,192,170744,128,0,170847:0:0:0:0:
256,192,170744,128,0,170949:0:0:0:50:Synth.wav
402,192,170847,128,0,170949:0:0:0:0:
109,192,170847,1,0,0:0:0:0:
36,192,170847,1,0,0:0:0:30:Snare.wav
475,192,170949,128,0,171052:0:0:0:0:
182,192,170949,128,0,171155:0:0:0:50:Synth.wav
36,192,171052,128,0,171155:0:0:0:0:
329,192,171052,128,0,171258:0:0:0:50:Synth.wav
256,192,171155,128,0,171258:0:0:0:0:
182,192,171258,1,0,0:0:0:30:KicK.wav
475,192,171258,128,0,171360:0:0:0:0:
109,192,171258,128,0,171463:0:0:0:50:Synth.wav
36,192,171258,1,0,0:0:0:0:
402,192,171360,128,0,171463:0:0:0:0:
256,192,171463,128,0,171669:0:0:0:50:Synth.wav
329,192,171463,128,0,171566:0:0:0:0:
36,192,171566,128,0,171669:0:0:0:0:
402,192,171566,128,0,171771:0:0:0:50:Synth.wav
475,192,171669,1,0,0:0:0:30:Snare.wav
109,192,171669,128,0,171771:0:0:0:0:
329,192,171669,128,0,171874:0:0:0:50:Synth.wav
182,192,171669,1,0,0:0:0:0:
36,192,171771,128,0,171874:0:0:0:0:
256,192,171771,128,0,171977:0:0:0:50:Synth.wav
475,192,171874,128,0,171977:0:0:0:0:
182,192,171874,128,0,172080:0:0:0:50:Synth.wav
402,192,171977,128,0,172080:0:0:0:0:
256,192,172080,1,0,0:0:0:30:KicK.wav
36,192,172080,1,0,0:0:0:0:
475,192,172080,1,0,0:0:0:30:Cymbal.wav
109,192,172080,1,0,0:0:0:0:
329,192,172182,1,0,0:0:0:0:
402,192,172285,1,0,0:0:0:0:
475,192,172388,1,0,0:0:0:0:
109,192,172388,1,0,0:0:0:0:
182,192,172388,1,0,0:0:0:0:
402,192,172491,1,0,0:0:0:0:
329,192,172593,1,0,0:0:0:0:
256,192,172696,1,0,0:0:0:0:
475,192,172696,1,0,0:0:0:0:
182,192,172696,1,0,0:0:0:0:
36,192,172799,1,0,0:0:0:0:
182,192,172901,1,0,0:0:0:0:
109,192,172901,1,0,0:0:0:0:
329,192,172901,1,0,0:0:0:0:
402,192,173004,1,0,0:0:0:0:
475,192,173004,1,0,0:0:0:0:
256,192,173107,1,0,0:0:0:0:
109,192,173210,1,0,0:0:0:0:
36,192,173210,1,0,0:0:0:0:
256,192,173312,1,0,0:0:0:0:
402,192,173312,1,0,0:0:0:0:
475,192,173312,1,0,0:0:0:0:
36,192,173415,1,0,0:0:0:0:
182,192,173518,1,0,0:0:0:0:
109,192,173518,1,0,0:0:0:0:
329,192,173518,1,0,0:0:0:0:
402,192,173621,1,0,0:0:0:0:
256,192,173723,128,0,173826:0:0:0:30:Cymbal.wav
475,192,173723,1,0,0:0:0:30:KicK.wav
109,192,173723,128,0,173929:0:0:0:50:Synth.wav
36,192,173723,128,0,175265:0:0:0:30:BeLL.wav
182,192,173826,128,0,174032:0:0:0:50:Synth.wav
329,192,173826,128,0,173929:0:0:0:0:
402,192,173929,128,0,174032:0:0:0:0:
256,192,173929,128,0,174134:0:0:0:50:Synth.wav
475,192,174032,128,0,174134:0:0:0:0:
329,192,174032,128,0,174237:0:0:0:50:Synth.wav
182,192,174134,128,0,174237:0:0:0:0:
109,192,174134,1,0,0:0:0:30:Snare.wav
256,192,174237,128,0,174340:0:0:0:0:
475,192,174237,128,0,174443:0:0:0:50:Synth.wav
182,192,174340,128,0,174443:0:0:0:0:
402,192,174340,128,0,174545:0:0:0:50:Synth.wav
109,192,174443,128,0,174545:0:0:0:0:
329,192,174443,128,0,174648:0:0:0:50:Synth.wav
256,192,174545,128,0,174751:0:0:0:50:Synth.wav
182,192,174545,128,0,174648:0:0:0:30:BeLL.wav
475,192,174545,1,0,0:0:0:30:KicK.wav
402,192,174648,128,0,174751:0:0:0:0:
109,192,174648,128,0,174854:0:0:0:50:Synth.wav
329,192,174751,128,0,174854:0:0:0:0:
182,192,174751,128,0,174956:0:0:0:50:Synth.wav
475,192,174854,128,0,174956:0:0:0:0:
256,192,174854,128,0,175059:0:0:0:50:Synth.wav
109,192,174956,1,0,0:0:0:30:Snare.wav
402,192,174956,128,0,175059:0:0:0:30:BeLL.wav
475,192,175059,128,0,175265:0:0:0:50:Synth.wav
329,192,175059,128,0,175162:0:0:0:0:
256,192,175162,128,0,175265:0:0:0:0:
402,192,175162,128,0,175367:0:0:0:50:Synth.wav
182,192,175265,128,0,175367:0:0:0:0:
329,192,175265,128,0,175470:0:0:0:50:Synth.wav
109,192,175367,128,0,175470:0:0:0:0:
475,192,175367,1,0,0:0:0:30:KicK.wav
36,192,175367,128,0,175573:0:0:0:50:Synth.wav
256,192,175367,128,0,175984:0:0:0:30:BeLL.wav
182,192,175470,128,0,175573:0:0:0:0:
402,192,175470,128,0,175675:0:0:0:50:Synth.wav
329,192,175573,128,0,175675:0:0:0:0:
109,192,175573,128,0,175778:0:0:0:50:Synth.wav
182,192,175675,128,0,175778:0:0:0:0:
475,192,175675,128,0,175881:0:0:0:50:Synth.wav
36,192,175778,1,0,0:0:0:30:Snare.wav
329,192,175778,128,0,175881:0:0:0:0:
182,192,175881,128,0,176086:0:0:0:50:Synth.wav
402,192,175881,128,0,175984:0:0:0:0:
109,192,175984,128,0,176189:0:0:0:50:Synth.wav
329,192,175984,128,0,176086:0:0:0:0:
475,192,175984,128,0,176600:0:0:0:30:BeLL.wav
256,192,176086,128,0,176189:0:0:0:0:
36,192,176086,128,0,176292:0:0:0:50:Synth.wav
329,192,176189,128,0,176395:0:0:0:50:Synth.wav
402,192,176189,1,0,0:0:0:30:KicK.wav
182,192,176189,128,0,176292:0:0:0:0:
256,192,176292,128,0,176497:0:0:0:50:Synth.wav
109,192,176292,128,0,176395:0:0:0:0:
402,192,176395,128,0,176600:0:0:0:50:Synth.wav
36,192,176395,128,0,176497:0:0:0:0:
329,192,176497,128,0,176703:0:0:0:50:Synth.wav
182,192,176497,128,0,176600:0:0:0:0:
256,192,176600,1,0,0:0:0:30:Snare.wav
109,192,176600,128,0,176703:0:0:0:0:
36,192,176600,128,0,176908:0:0:0:30:BeLL.wav
475,192,176703,128,0,176908:0:0:0:50:Synth.wav
182,192,176703,128,0,176806:0:0:0:0:
402,192,176806,128,0,177011:0:0:0:50:Synth.wav
256,192,176806,128,0,176908:0:0:0:0:
329,192,176908,128,0,177114:0:0:0:50:Synth.wav
109,192,176908,128,0,177011:0:0:0:0:
475,192,177011,1,0,0:0:0:30:KicK.wav
36,192,177011,128,0,177217:0:0:0:50:Synth.wav
182,192,177011,128,0,177114:0:0:0:0:
256,192,177011,128,0,177730:0:0:0:30:BeLL.wav
109,192,177114,128,0,177319:0:0:0:50:Synth.wav
402,192,177114,128,0,177217:0:0:0:0:
182,192,177217,128,0,177422:0:0:0:50:Synth.wav
329,192,177217,128,0,177319:0:0:0:0:
475,192,177319,128,0,177422:0:0:0:0:
36,192,177422,128,0,177628:0:0:0:50:Synth.wav
109,192,177422,1,0,0:0:0:30:Snare.wav
402,192,177422,128,0,177525:0:0:0:0:
475,192,177525,128,0,177628:0:0:0:0:
329,192,177628,128,0,177833:0:0:0:50:Synth.wav
182,192,177628,128,0,177730:0:0:0:0:
402,192,177730,128,0,177936:0:0:0:50:Synth.wav
109,192,177730,128,0,177833:0:0:0:0:
475,192,177833,128,0,178038:0:0:0:50:Synth.wav
36,192,177833,128,0,177936:0:0:0:0:
182,192,177833,1,0,0:0:0:30:KicK.wav
256,192,177833,128,0,178552:0:0:0:30:BeLL.wav
329,192,177936,128,0,178038:0:0:0:0:
402,192,178038,128,0,178141:0:0:0:0:
109,192,178038,128,0,178244:0:0:0:50:Synth.wav
475,192,178141,128,0,178244:0:0:0:0:
182,192,178141,128,0,178347:0:0:0:50:Synth.wav
36,192,178244,1,0,0:0:0:30:Snare.wav
329,192,178244,128,0,178347:0:0:0:0:
475,192,178347,128,0,178449:0:0:0:0:
109,192,178347,128,0,178552:0:0:0:50:Synth.wav
182,192,178449,128,0,178655:0:0:0:50:Synth.wav
329,192,178449,128,0,178552:0:0:0:0:
402,192,178552,128,0,178655:0:0:0:0:
475,192,178655,128,0,178860:0:0:0:50:Synth.wav
109,192,178655,128,0,178758:0:0:0:0:
256,192,178655,1,0,0:0:0:30:KicK.wav
36,192,178655,128,0,179169:0:0:0:30:BeLL.wav
402,192,178758,128,0,178963:0:0:0:50:Synth.wav
182,192,178758,128,0,178860:0:0:0:0:
329,192,178860,128,0,179066:0:0:0:50:Synth.wav
109,192,178860,128,0,178963:0:0:0:0:
256,192,178963,128,0,179169:0:0:0:50:Synth.wav
475,192,178963,128,0,179066:0:0:0:0:
109,192,179066,1,0,0:0:0:30:Snare.wav
402,192,179066,128,0,179169:0:0:0:0:
182,192,179169,128,0,179374:0:0:0:50:Synth.wav
329,192,179169,128,0,179271:0:0:0:0:
256,192,179271,128,0,179477:0:0:0:50:Synth.wav
36,192,179271,128,0,179374:0:0:0:0:
475,192,179271,128,0,179785:0:0:0:30:BeLL.wav
109,192,179374,128,0,179477:0:0:0:0:
329,192,179374,128,0,179580:0:0:0:50:Synth.wav
402,192,179477,128,0,179682:0:0:0:50:Synth.wav
182,192,179477,128,0,179580:0:0:0:0:
36,192,179477,1,0,0:0:0:30:KicK.wav
109,192,179580,128,0,179785:0:0:0:50:Synth.wav
256,192,179580,128,0,179682:0:0:0:0:
182,192,179682,128,0,179888:0:0:0:50:Synth.wav
329,192,179682,128,0,179785:0:0:0:0:
402,192,179785,128,0,179888:0:0:0:0:
256,192,179888,1,0,0:0:0:30:Snare.wav
36,192,179888,128,0,179991:0:0:0:0:
329,192,179888,128,0,179991:0:0:0:50:Synth.wav
109,192,179888,128,0,180196:0:0:0:30:BeLL.wav
475,192,179888,128,0,179991:0:0:0:0:
182,192,179991,128,0,180093:0:0:0:0:
329,192,180093,128,0,180196:0:0:0:50:Synth.wav
36,192,180093,128,0,180196:0:0:0:0:
475,192,180093,128,0,180196:0:0:0:0:
182,192,180196,128,0,180299:0:0:0:0:
475,192,180299,1,0,0:0:0:30:KicK.wav
402,192,180299,128,0,180504:0:0:0:50:Synth.wav
109,192,180299,128,0,180401:0:0:0:0:
256,192,180299,128,0,181018:0:0:0:30:BeLL.wav
36,192,180401,128,0,180504:0:0:0:0:
329,192,180401,128,0,180607:0:0:0:50:Synth.wav
109,192,180504,128,0,180607:0:0:0:0:
475,192,180607,128,0,180812:0:0:0:50:Synth.wav
182,192,180607,128,0,180710:0:0:0:0:
402,192,180710,1,0,0:0:0:30:Snare.wav
36,192,180710,128,0,180812:0:0:0:0:
109,192,180812,128,0,180915:0:0:0:0:
329,192,180812,128,0,181018:0:0:0:50:Synth.wav
402,192,180915,128,0,181121:0:0:0:50:Synth.wav
182,192,180915,128,0,181018:0:0:0:0:
109,192,181018,128,0,181121:0:0:0:0:
36,192,181121,128,0,181326:0:0:0:50:Synth.wav
475,192,181121,128,0,181223:0:0:0:0:
256,192,181121,1,0,0:0:0:30:KicK.wav
402,192,181223,128,0,181326:0:0:0:0:
182,192,181258,128,0,181395:0:0:0:20:BeLL.wav
475,192,181326,128,0,181532:0:0:0:50:Synth.wav
329,192,181326,128,0,181429:0:0:0:0:
109,192,181395,128,0,181532:0:0:0:20:BeLL.wav
256,192,181429,128,0,181532:0:0:0:0:
402,192,181429,128,0,181634:0:0:0:50:Synth.wav
329,192,181532,128,0,181737:0:0:0:50:Synth.wav
36,192,181532,128,0,181669:0:0:0:20:BeLL.wav
182,192,181532,1,0,0:0:0:30:Snare.wav
475,192,181634,128,0,181737:0:0:0:0:
109,192,181669,128,0,181806:0:0:0:20:BeLL.wav
256,192,181737,128,0,181943:0:0:0:50:Synth.wav
402,192,181737,128,0,181840:0:0:0:0:
182,192,181806,128,0,181943:0:0:0:20:BeLL.wav
329,192,181840,128,0,181943:0:0:0:0:
109,192,181943,128,0,182148:0:0:0:50:Synth.wav
475,192,181943,128,0,182045:0:0:0:0:
402,192,181943,1,0,0:0:0:30:KicK.wav
36,192,181943,128,0,182559:0:0:0:30:BeLL.wav
329,192,182045,128,0,182251:0:0:0:50:Synth.wav
182,192,182045,128,0,182148:0:0:0:0:
475,192,182148,128,0,182251:0:0:0:0:
256,192,182251,128,0,182456:0:0:0:50:Synth.wav
402,192,182251,128,0,182354:0:0:0:0:
109,192,182354,1,0,0:0:0:30:Snare.wav
475,192,182354,128,0,182456:0:0:0:0:
329,192,182456,128,0,182662:0:0:0:50:Synth.wav
182,192,182456,128,0,182559:0:0:0:0:
109,192,182559,128,0,182765:0:0:0:50:Synth.wav
256,192,182559,128,0,182662:0:0:0:0:
475,192,182559,128,0,183073:0:0:0:30:BeLL.wav
402,192,182662,128,0,182765:0:0:0:0:
256,192,182765,128,0,182970:0:0:0:50:Synth.wav
36,192,182765,128,0,182867:0:0:0:0:
329,192,182765,1,0,0:0:0:30:KicK.wav
182,192,182867,128,0,183073:0:0:0:50:Synth.wav
402,192,182867,128,0,182970:0:0:0:0:
109,192,182970,128,0,183175:0:0:0:50:Synth.wav
329,192,182970,128,0,183073:0:0:0:0:
36,192,183073,128,0,183278:0:0:0:50:Synth.wav
256,192,183073,128,0,183175:0:0:0:0:
182,192,183175,128,0,183381:0:0:0:50:Synth.wav
475,192,183175,1,0,0:0:0:30:Snare.wav
402,192,183175,128,0,183278:0:0:0:0:
329,192,183175,128,0,183586:0:0:0:30:BeLL.wav
109,192,183278,128,0,183381:0:0:0:0:
256,192,183381,128,0,183586:0:0:0:50:Synth.wav
475,192,183381,128,0,183484:0:0:0:0:
182,192,183484,128,0,183586:0:0:0:0:
402,192,183586,128,0,183792:0:0:0:50:Synth.wav
109,192,183586,1,0,0:0:0:30:KicK.wav
475,192,183586,128,0,183689:0:0:0:0:
36,192,183586,128,0,184306:0:0:0:30:BeLL.wav
329,192,183689,128,0,183895:0:0:0:50:Synth.wav
182,192,183689,128,0,183792:0:0:0:0:
109,192,183792,128,0,183895:0:0:0:0:
256,192,183895,128,0,184100:0:0:0:50:Synth.wav
475,192,183895,128,0,183997:0:0:0:0:
182,192,183997,1,0,0:0:0:30:Snare.wav
402,192,183997,128,0,184100:0:0:0:0:
329,192,184100,128,0,184306:0:0:0:50:Synth.wav
109,192,184100,128,0,184203:0:0:0:0:
402,192,184203,128,0,184408:0:0:0:50:Synth.wav
182,192,184203,128,0,184306:0:0:0:0:
256,192,184306,128,0,184408:0:0:0:0:
36,192,184408,128,0,184614:0:0:0:50:Synth.wav
329,192,184408,1,0,0:0:0:30:KicK.wav
109,192,184408,128,0,184511:0:0:0:0:
475,192,184408,128,0,185128:0:0:0:30:BeLL.wav
256,192,184511,128,0,184614:0:0:0:0:
329,192,184614,128,0,184819:0:0:0:50:Synth.wav
182,192,184614,128,0,184717:0:0:0:0:
256,192,184717,128,0,184922:0:0:0:50:Synth.wav
109,192,184717,128,0,184819:0:0:0:0:
402,192,184819,128,0,185025:0:0:0:50:Synth.wav
182,192,184819,1,0,0:0:0:30:Snare.wav
36,192,184819,128,0,184922:0:0:0:0:
329,192,184922,128,0,185128:0:0:0:50:Synth.wav
109,192,184922,128,0,185025:0:0:0:0:
36,192,185025,128,0,185230:0:0:0:50:Synth.wav
182,192,185025,128,0,185128:0:0:0:0:
256,192,185128,128,0,185230:0:0:0:0:
109,192,185230,1,0,0:0:0:30:KicK.wav
475,192,185230,128,0,185436:0:0:0:50:Synth.wav
402,192,185230,128,0,185333:0:0:0:0:
182,192,185230,128,0,186052:0:0:0:30:BeLL.wav
329,192,185333,128,0,185436:0:0:0:0:
36,192,185436,128,0,185641:0:0:0:50:Synth.wav
256,192,185436,128,0,185538:0:0:0:0:
109,192,185538,128,0,185744:0:0:0:50:Synth.wav
475,192,185538,128,0,185641:0:0:0:0:
402,192,185641,1,0,0:0:0:30:Snare.wav
329,192,185641,128,0,185744:0:0:0:0:
475,192,185744,128,0,185847:0:0:0:0:
36,192,185744,128,0,185949:0:0:0:50:Synth.wav
109,192,185847,128,0,186052:0:0:0:50:Synth.wav
329,192,185847,128,0,185949:0:0:0:0:
402,192,185949,128,0,186052:0:0:0:0:
256,192,186052,128,0,186771:0:0:0:30:BeLL.wav
329,192,186052,1,0,0:0:0:30:KicK.wav
36,192,186052,128,0,186155:0:0:0:0:
475,192,186052,128,0,186258:0:0:0:50:Synth.wav
402,192,186155,128,0,186360:0:0:0:50:Synth.wav
109,192,186155,128,0,186258:0:0:0:0:
329,192,186258,128,0,186463:0:0:0:50:Synth.wav
182,192,186258,128,0,186360:0:0:0:0:
109,192,186360,128,0,186566:0:0:0:50:Synth.wav
475,192,186360,128,0,186463:0:0:0:0:
36,192,186463,128,0,186669:0:0:0:50:Synth.wav
182,192,186463,1,0,0:0:0:30:Snare.wav
402,192,186463,128,0,186566:0:0:0:0:
329,192,186566,128,0,186669:0:0:0:0:
402,192,186669,128,0,186874:0:0:0:50:Synth.wav
109,192,186669,128,0,186771:0:0:0:0:
182,192,186771,128,0,186874:0:0:0:0:
36,192,186874,1,0,0:0:0:30:KicK.wav
109,192,186874,128,0,187080:0:0:0:50:Synth.wav
475,192,186874,128,0,188415:0:0:0:30:BeLL.wav
256,192,186874,128,0,186977:0:0:0:30:Cymbal.wav
329,192,186977,128,0,187080:0:0:0:0:
182,192,186977,128,0,187182:0:0:0:50:Synth.wav
256,192,187080,128,0,187285:0:0:0:50:Synth.wav
402,192,187080,128,0,187182:0:0:0:0:
329,192,187182,128,0,187388:0:0:0:50:Synth.wav
36,192,187182,128,0,187285:0:0:0:0:
402,192,187285,1,0,0:0:0:30:Snare.wav
109,192,187285,128,0,187388:0:0:0:0:
256,192,187388,128,0,187593:0:0:0:50:Synth.wav
36,192,187388,128,0,187491:0:0:0:0:
182,192,187491,128,0,187696:0:0:0:50:Synth.wav
402,192,187491,128,0,187593:0:0:0:0:
109,192,187593,128,0,187799:0:0:0:50:Synth.wav
329,192,187593,128,0,187696:0:0:0:0:
402,192,187696,128,0,187901:0:0:0:50:Synth.wav
36,192,187696,1,0,0:0:0:30:KicK.wav
256,192,187696,128,0,187799:0:0:0:30:BeLL.wav
329,192,187799,128,0,188004:0:0:0:50:Synth.wav
182,192,187799,128,0,187901:0:0:0:0:
109,192,187901,128,0,188107:0:0:0:50:Synth.wav
256,192,187901,128,0,188004:0:0:0:0:
182,192,188004,128,0,188210:0:0:0:50:Synth.wav
36,192,188004,128,0,188107:0:0:0:0:
256,192,188107,128,0,188210:0:0:0:30:BeLL.wav
402,192,188107,1,0,0:0:0:30:Snare.wav
36,192,188210,128,0,188415:0:0:0:50:Synth.wav
329,192,188210,128,0,188312:0:0:0:0:
109,192,188312,128,0,188518:0:0:0:50:Synth.wav
402,192,188312,128,0,188415:0:0:0:0:
182,192,188415,128,0,188621:0:0:0:50:Synth.wav
329,192,188415,128,0,188518:0:0:0:0:
475,192,188518,128,0,188723:0:0:0:50:Synth.wav
256,192,188518,128,0,189134:0:0:0:30:BeLL.wav
402,192,188518,128,0,188621:0:0:0:0:
36,192,188518,1,0,0:0:0:30:KicK.wav
329,192,188621,128,0,188826:0:0:0:50:Synth.wav
109,192,188621,128,0,188723:0:0:0:0:
182,192,188723,128,0,188929:0:0:0:50:Synth.wav
402,192,188723,128,0,188826:0:0:0:0:
36,192,188826,128,0,189032:0:0:0:50:Synth.wav
109,192,188826,128,0,188929:0:0:0:0:
475,192,188929,128,0,189032:0:0:0:0:
329,192,188929,1,0,0:0:0:30:Snare.wav
402,192,189032,128,0,189134:0:0:0:0:
182,192,189032,128,0,189237:0:0:0:50:Synth.wav
475,192,189134,128,0,189648:0:0:0:30:BeLL.wav
329,192,189134,128,0,189237:0:0:0:0:
109,192,189134,128,0,189340:0:0:0:50:Synth.wav
36,192,189237,128,0,189443:0:0:0:50:Synth.wav
256,192,189237,128,0,189340:0:0:0:0:
329,192,189340,128,0,189443:0:0:0:0:
182,192,189340,128,0,189545:0:0:0:50:Synth.wav
402,192,189340,1,0,0:0:0:30:KicK.wav
109,192,189443,128,0,189545:0:0:0:0:
256,192,189443,128,0,189648:0:0:0:50:Synth.wav
36,192,189545,128,0,189648:0:0:0:0:
329,192,189545,128,0,189751:0:0:0:50:Synth.wav
109,192,189648,128,0,189751:0:0:0:0:
402,192,189648,128,0,189854:0:0:0:50:Synth.wav
36,192,189751,128,0,190059:0:0:0:30:BeLL.wav
182,192,189751,128,0,189854:0:0:0:0:
475,192,189751,1,0,0:0:0:30:Snare.wav
256,192,189854,128,0,189956:0:0:0:0:
329,192,189854,128,0,190059:0:0:0:50:Synth.wav
402,192,189956,128,0,190162:0:0:0:50:Synth.wav
182,192,189956,128,0,190059:0:0:0:0:
109,192,190059,128,0,190162:0:0:0:0:
475,192,190059,128,0,190265:0:0:0:50:Synth.wav
256,192,190162,128,0,190265:0:0:0:0:
329,192,190162,128,0,190881:0:0:0:30:BeLL.wav
182,192,190162,1,0,0:0:0:30:KicK.wav
36,192,190162,128,0,190367:0:0:0:50:Synth.wav
402,192,190265,128,0,190367:0:0:0:0:
109,192,190265,128,0,190470:0:0:0:50:Synth.wav
475,192,190367,128,0,190470:0:0:0:0:
182,192,190367,128,0,190573:0:0:0:50:Synth.wav
256,192,190470,128,0,190573:0:0:0:0:
402,192,190573,128,0,190675:0:0:0:0:
36,192,190573,1,0,0:0:0:30:Snare.wav
109,192,190573,128,0,190778:0:0:0:50:Synth.wav
256,192,190675,128,0,190778:0:0:0:0:
475,192,190778,128,0,190881:0:0:0:0:
182,192,190778,128,0,190984:0:0:0:50:Synth.wav
402,192,190881,128,0,190984:0:0:0:0:
109,192,190881,128,0,191086:0:0:0:50:Synth.wav
475,192,190984,1,0,0:0:0:30:KicK.wav
256,192,190984,128,0,191703:0:0:0:30:BeLL.wav
36,192,190984,128,0,191189:0:0:0:50:Synth.wav
329,192,190984,128,0,191086:0:0:0:0:
402,192,191086,128,0,191189:0:0:0:0:
475,192,191189,128,0,191395:0:0:0:50:Synth.wav
182,192,191189,128,0,191292:0:0:0:0:
329,192,191292,128,0,191497:0:0:0:50:Synth.wav
109,192,191292,128,0,191395:0:0:0:0:
36,192,191395,128,0,191497:0:0:0:0:
402,192,191395,1,0,0:0:0:30:Snare.wav
475,192,191497,128,0,191703:0:0:0:50:Synth.wav
109,192,191497,128,0,191600:0:0:0:0:
182,192,191600,128,0,191703:0:0:0:0:
329,192,191600,128,0,191806:0:0:0:50:Synth.wav
109,192,191703,128,0,191806:0:0:0:0:
475,192,191806,1,0,0:0:0:30:KicK.wav
36,192,191806,128,0,192319:0:0:0:30:BeLL.wav
256,192,191806,128,0,192011:0:0:0:50:Synth.wav
402,192,191806,128,0,191908:0:0:0:0:
109,192,191908,128,0,192011:0:0:0:0:
329,192,191908,128,0,192114:0:0:0:50:Synth.wav
182,192,192011,128,0,192114:0:0:0:0:
402,192,192011,128,0,192217:0:0:0:50:Synth.wav
256,192,192114,128,0,192217:0:0:0:0:
475,192,192114,128,0,192319:0:0:0:50:Synth.wav
329,192,192217,128,0,192319:0:0:0:0:
109,192,192217,1,0,0:0:0:30:Snare.wav
402,192,192319,128,0,192422:0:0:0:0:
182,192,192319,128,0,192525:0:0:0:50:Synth.wav
475,192,192422,128,0,192936:0:0:0:30:BeLL.wav
36,192,192422,128,0,192525:0:0:0:0:
256,192,192422,128,0,192628:0:0:0:50:Synth.wav
109,192,192525,128,0,192628:0:0:0:0:
402,192,192525,128,0,192730:0:0:0:50:Synth.wav
36,192,192628,1,0,0:0:0:30:KicK.wav
182,192,192628,128,0,192730:0:0:0:0:
329,192,192628,128,0,192833:0:0:0:50:Synth.wav
109,192,192730,128,0,192833:0:0:0:0:
256,192,192730,128,0,192936:0:0:0:50:Synth.wav
402,192,192833,128,0,192936:0:0:0:0:
182,192,192833,128,0,193038:0:0:0:50:Synth.wav
329,192,192936,128,0,193038:0:0:0:0:
36,192,193038,128,0,193347:0:0:0:30:BeLL.wav
256,192,193038,1,0,0:0:0:30:Snare.wav
475,192,193038,128,0,193141:0:0:0:0:
109,192,193038,128,0,193141:0:0:0:0:
402,192,193038,128,0,193141:0:0:0:50:Synth.wav
182,192,193141,128,0,193244:0:0:0:0:
256,192,193244,128,0,193347:0:0:0:50:Synth.wav
475,192,193244,128,0,193347:0:0:0:0:
402,192,193244,128,0,193347:0:0:0:0:
329,192,193347,128,0,193449:0:0:0:0:
475,192,193449,128,0,193552:0:0:0:0:
256,192,193449,128,0,194169:0:0:0:30:BeLL.wav
109,192,193449,1,0,0:0:0:30:KicK.wav
36,192,193449,128,0,193655:0:0:0:50:Synth.wav
182,192,193552,128,0,193758:0:0:0:50:Synth.wav
402,192,193552,128,0,193655:0:0:0:0:
329,192,193655,128,0,193758:0:0:0:0:
475,192,193758,128,0,193860:0:0:0:0:
109,192,193758,128,0,193963:0:0:0:50:Synth.wav
402,192,193860,128,0,193963:0:0:0:0:
329,192,193860,1,0,0:0:0:30:Snare.wav
182,192,193963,128,0,194169:0:0:0:50:Synth.wav
475,192,193963,128,0,194066:0:0:0:0:
329,192,194066,128,0,194169:0:0:0:0:
36,192,194066,128,0,194271:0:0:0:50:Synth.wav
402,192,194169,128,0,194271:0:0:0:0:
256,192,194271,128,0,194477:0:0:0:50:Synth.wav
475,192,194271,128,0,194374:0:0:0:0:
109,192,194271,1,0,0:0:0:30:KicK.wav
402,192,194374,128,0,194477:0:0:0:0:
36,192,194408,128,0,194545:0:0:0:20:BeLL.wav
329,192,194477,128,0,194580:0:0:0:0:
182,192,194477,128,0,194682:0:0:0:50:Synth.wav
109,192,194545,128,0,194682:0:0:0:20:BeLL.wav
402,192,194580,128,0,194682:0:0:0:0:
256,192,194580,128,0,194785:0:0:0:50:Synth.wav
329,192,194682,128,0,194888:0:0:0:50:Synth.wav
36,192,194682,128,0,194819:0:0:0:20:BeLL.wav
475,192,194682,1,0,0:0:0:30:Snare.wav
402,192,194785,128,0,194888:0:0:0:0:
109,192,194819,128,0,194956:0:0:0:20:BeLL.wav
475,192,194888,128,0,195093:0:0:0:50:Synth.wav
256,192,194888,128,0,194991:0:0:0:0:
182,192,194956,128,0,195093:0:0:0:20:BeLL.wav
329,192,194991,128,0,195093:0:0:0:0:
256,192,195093,1,0,0:0:0:30:KicK.wav
109,192,195093,128,0,195710:0:0:0:30:BeLL.wav
36,192,195093,128,0,195299:0:0:0:50:Synth.wav
402,192,195093,128,0,195196:0:0:0:0:
475,192,195196,128,0,195299:0:0:0:0:
182,192,195196,128,0,195401:0:0:0:50:Synth.wav
402,192,195299,128,0,195401:0:0:0:0:
329,192,195401,128,0,195504:0:0:0:0:
256,192,195401,128,0,195607:0:0:0:50:Synth.wav
475,192,195504,128,0,195607:0:0:0:0:
36,192,195504,1,0,0:0:0:30:Snare.wav
402,192,195607,128,0,195710:0:0:0:0:
182,192,195607,128,0,195812:0:0:0:50:Synth.wav
475,192,195710,128,0,196223:0:0:0:30:BeLL.wav
329,192,195710,128,0,195812:0:0:0:0:
36,192,195710,128,0,195915:0:0:0:50:Synth.wav
256,192,195812,128,0,195915:0:0:0:0:
402,192,195915,1,0,0:0:0:30:KicK.wav
182,192,195915,128,0,196018:0:0:0:0:
329,192,195915,128,0,196121:0:0:0:50:Synth.wav
109,192,196018,128,0,196121:0:0:0:0:
256,192,196018,128,0,196223:0:0:0:50:Synth.wav
402,192,196121,128,0,196223:0:0:0:0:
182,192,196121,128,0,196326:0:0:0:50:Synth.wav
329,192,196223,128,0,196326:0:0:0:0:
109,192,196223,128,0,196429:0:0:0:50:Synth.wav
402,192,196326,128,0,196429:0:0:0:0:
256,192,196326,128,0,196634:0:0:0:30:BeLL.wav
36,192,196326,128,0,196532:0:0:0:50:Synth.wav
475,192,196326,1,0,0:0:0:30:Snare.wav
329,192,196429,128,0,196532:0:0:0:0:
475,192,196532,128,0,196634:0:0:0:0:
109,192,196532,128,0,196737:0:0:0:50:Synth.wav
402,192,196634,128,0,196737:0:0:0:0:
329,192,196737,128,0,196840:0:0:0:0:
36,192,196737,128,0,197456:0:0:0:30:BeLL.wav
182,192,196737,128,0,196943:0:0:0:50:Synth.wav
256,192,196737,1,0,0:0:0:30:KicK.wav
402,192,196840,128,0,196943:0:0:0:0:
475,192,196840,128,0,197045:0:0:0:50:Synth.wav
329,192,196943,128,0,197045:0:0:0:0:
256,192,197045,128,0,197148:0:0:0:0:
109,192,197045,128,0,197251:0:0:0:50:Synth.wav
182,192,197148,128,0,197251:0:0:0:0:
402,192,197148,1,0,0:0:0:30:Snare.wav
256,192,197251,128,0,197354:0:0:0:0:
475,192,197251,128,0,197456:0:0:0:50:Synth.wav
329,192,197354,128,0,197456:0:0:0:0:
182,192,197354,128,0,197559:0:0:0:50:Synth.wav
402,192,197456,128,0,197559:0:0:0:0:
475,192,197559,128,0,197662:0:0:0:0:
256,192,197559,128,0,198278:0:0:0:30:BeLL.wav
36,192,197559,128,0,197765:0:0:0:50:Synth.wav
109,192,197559,1,0,0:0:0:30:KicK.wav
402,192,197662,128,0,197765:0:0:0:0:
329,192,197765,128,0,197867:0:0:0:0:
182,192,197765,128,0,197970:0:0:0:50:Synth.wav
402,192,197867,128,0,197970:0:0:0:0:
109,192,197867,128,0,198073:0:0:0:50:Synth.wav
475,192,197970,128,0,198073:0:0:0:0:
329,192,197970,1,0,0:0:0:30:Snare.wav
36,192,197970,128,0,198175:0:0:0:50:Synth.wav
182,192,198073,128,0,198175:0:0:0:0:
402,192,198073,128,0,198278:0:0:0:50:Synth.wav
109,192,198175,128,0,198278:0:0:0:0:
329,192,198175,128,0,198381:0:0:0:50:Synth.wav
182,192,198278,128,0,198381:0:0:0:0:
475,192,198381,128,0,199922:0:0:0:30:BeLL.wav
256,192,198381,1,0,0:0:0:30:KicK.wav
402,192,198381,1,0,0:0:0:30:Cymbal.wav
36,192,198381,1,0,0:0:0:50:Synth.wav
109,192,198484,1,0,0:0:0:0:
182,192,198586,1,0,0:0:0:0:
256,192,198689,1,0,0:0:0:0:
36,192,198689,1,0,0:0:0:0:
109,192,198689,1,0,0:0:0:0:
329,192,198792,1,0,0:0:0:0:
402,192,198895,1,0,0:0:0:0:
329,192,198997,1,0,0:0:0:0:
109,192,198997,1,0,0:0:0:0:
182,192,198997,1,0,0:0:0:0:
402,192,199100,1,0,0:0:0:0:
256,192,199203,1,0,0:0:0:0:
36,192,199203,1,0,0:0:0:0:
329,192,199306,1,0,0:0:0:0:
109,192,199306,1,0,0:0:0:0:
402,192,199408,1,0,0:0:0:0:
182,192,199408,1,0,0:0:0:0:
256,192,199511,1,0,0:0:0:0:
36,192,199511,1,0,0:0:0:30:Snare.wav
109,192,199511,1,0,0:0:0:0:
109,192,199614,1,0,0:0:0:0:
36,192,199614,1,0,0:0:0:30:Snare.wav
329,192,199614,1,0,0:0:0:0:
402,192,199717,1,0,0:0:0:0:
256,192,199717,1,0,0:0:0:0:
182,192,199819,1,0,0:0:0:0:
329,192,199819,1,0,0:0:0:0:
256,192,199922,1,0,0:0:0:0:
109,192,199922,1,0,0:0:0:0:
36,192,200025,1,0,0:0:0:30:KicK.wav
402,192,200025,1,0,0:0:0:0:
182,192,200025,1,0,0:0:0:30:Cymbal.wav
475,192,200025,1,0,0:0:0:0:
329,192,200128,1,0,0:0:0:0:
329,192,200230,1,0,0:0:0:0:
329,192,200333,1,0,0:0:0:0:
36,192,200436,1,0,0:0:0:30:Clap-2.wav
182,192,200436,1,0,0:0:0:0:
402,192,200436,1,0,0:0:0:0:
182,192,200641,1,0,0:0:0:0:
329,192,200641,1,0,0:0:0:0:
256,192,200847,1,0,0:0:0:0:
475,192,200847,1,0,0:0:0:0:
36,192,200847,1,0,0:0:0:30:KicK.wav
109,192,200949,1,0,0:0:0:0:
402,192,200949,1,0,0:0:0:0:
109,192,201155,1,0,0:0:0:0:
402,192,201155,1,0,0:0:0:0:
329,192,201258,1,0,0:0:0:0:
182,192,201258,1,0,0:0:0:0:
475,192,201258,1,0,0:0:0:30:Clap-2.wav
182,192,201463,1,0,0:0:0:0:
329,192,201463,1,0,0:0:0:0:
475,192,201669,1,0,0:0:0:30:KicK.wav
256,192,201669,1,0,0:0:0:0:
109,192,201669,1,0,0:0:0:0:
36,192,201771,1,0,0:0:0:0:
36,192,201874,1,0,0:0:0:0:
36,192,201977,1,0,0:0:0:0:
402,192,202080,1,0,0:0:0:30:Clap-2.wav
256,192,202080,1,0,0:0:0:0:
109,192,202080,1,0,0:0:0:0:
402,192,202285,1,0,0:0:0:0:
182,192,202285,1,0,0:0:0:0:
256,192,202491,1,0,0:0:0:0:
36,192,202491,1,0,0:0:0:0:
475,192,202491,1,0,0:0:0:30:KicK.wav
109,192,202593,1,0,0:0:0:0:
329,192,202593,1,0,0:0:0:0:
109,192,202799,1,0,0:0:0:0:
329,192,202799,1,0,0:0:0:0:
36,192,202901,1,0,0:0:0:0:
256,192,202901,1,0,0:0:0:0:
475,192,202901,1,0,0:0:0:30:Clap-2.wav
256,192,203107,1,0,0:0:0:0:
475,192,203107,1,0,0:0:0:0:
36,192,203312,1,0,0:0:0:30:KicK.wav
182,192,203312,1,0,0:0:0:0:
329,192,203312,1,0,0:0:0:0:
475,192,203415,1,0,0:0:0:0:
475,192,203518,1,0,0:0:0:0:
475,192,203621,1,0,0:0:0:0:
402,192,203723,1,0,0:0:0:0:
256,192,203723,1,0,0:0:0:0:
109,192,203723,1,0,0:0:0:30:Clap-2.wav
256,192,203929,1,0,0:0:0:0:
475,192,203929,1,0,0:0:0:0:
36,192,204134,1,0,0:0:0:0:
329,192,204134,1,0,0:0:0:30:KicK.wav
182,192,204134,1,0,0:0:0:0:
402,192,204237,1,0,0:0:0:0:
109,192,204237,1,0,0:0:0:0:
402,192,204443,1,0,0:0:0:0:
109,192,204443,1,0,0:0:0:0:
329,192,204545,1,0,0:0:0:0:
182,192,204545,1,0,0:0:0:30:Clap-2.wav
475,192,204545,1,0,0:0:0:0:
475,192,204751,1,0,0:0:0:0:
329,192,204751,1,0,0:0:0:0:
36,192,204956,1,0,0:0:0:30:KicK.wav
182,192,204956,1,0,0:0:0:0:
402,192,204956,1,0,0:0:0:0:
329,192,205059,1,0,0:0:0:0:
329,192,205162,1,0,0:0:0:0:
329,192,205265,1,0,0:0:0:0:
109,192,205367,1,0,0:0:0:30:Clap-2.wav
475,192,205367,1,0,0:0:0:0:
256,192,205367,1,0,0:0:0:0:
109,192,205573,1,0,0:0:0:0:
402,192,205573,1,0,0:0:0:0:
182,192,205778,1,0,0:0:0:0:
329,192,205778,1,0,0:0:0:0:
36,192,205778,1,0,0:0:0:30:KicK.wav
256,192,205881,1,0,0:0:0:0:
475,192,205881,1,0,0:0:0:0:
256,192,206086,1,0,0:0:0:0:
475,192,206086,1,0,0:0:0:0:
329,192,206189,1,0,0:0:0:0:
36,192,206189,1,0,0:0:0:0:
182,192,206189,1,0,0:0:0:30:Clap-2.wav
182,192,206395,1,0,0:0:0:0:
329,192,206395,1,0,0:0:0:0:
402,192,206600,1,0,0:0:0:30:KicK.wav
256,192,206600,1,0,0:0:0:0:
109,192,206600,1,0,0:0:0:0:
36,192,206703,1,0,0:0:0:0:
36,192,206806,1,0,0:0:0:0:
36,192,206908,1,0,0:0:0:0:
402,192,207011,1,0,0:0:0:30:Clap-2.wav
256,192,207011,1,0,0:0:0:0:
109,192,207011,1,0,0:0:0:0:
402,192,207217,1,0,0:0:0:0:
182,192,207217,1,0,0:0:0:0:
256,192,207422,1,0,0:0:0:0:
36,192,207422,1,0,0:0:0:0:
475,192,207422,1,0,0:0:0:30:KicK.wav
109,192,207525,1,0,0:0:0:0:
329,192,207525,1,0,0:0:0:0:
109,192,207730,1,0,0:0:0:0:
329,192,207730,1,0,0:0:0:0:
36,192,207833,1,0,0:0:0:0:
256,192,207833,1,0,0:0:0:0:
475,192,207833,1,0,0:0:0:30:Clap-2.wav
256,192,208038,1,0,0:0:0:0:
475,192,208038,1,0,0:0:0:0:
36,192,208244,1,0,0:0:0:30:KicK.wav
182,192,208244,1,0,0:0:0:0:
329,192,208244,1,0,0:0:0:0:
475,192,208347,1,0,0:0:0:0:
475,192,208449,1,0,0:0:0:0:
475,192,208552,1,0,0:0:0:0:
402,192,208655,1,0,0:0:0:0:
256,192,208655,1,0,0:0:0:0:
109,192,208655,1,0,0:0:0:30:Clap-2.wav
256,192,208860,1,0,0:0:0:0:
475,192,208860,1,0,0:0:0:0:
109,192,209066,1,0,0:0:0:0:
329,192,209066,1,0,0:0:0:30:KicK.wav
182,192,209066,1,0,0:0:0:0:
402,192,209169,1,0,0:0:0:0:
36,192,209169,1,0,0:0:0:0:
402,192,209374,1,0,0:0:0:0:
36,192,209374,1,0,0:0:0:0:
109,192,209477,1,0,0:0:0:30:Clap-2.wav
182,192,209477,1,0,0:0:0:0:
329,192,209477,1,0,0:0:0:0:
182,192,209682,1,0,0:0:0:0:
109,192,209682,1,0,0:0:0:0:
475,192,209888,1,0,0:0:0:30:KicK.wav
36,192,209888,1,0,0:0:0:0:
329,192,209888,1,0,0:0:0:0:
256,192,209991,1,0,0:0:0:0:
256,192,210093,1,0,0:0:0:0:
256,192,210196,1,0,0:0:0:0:
402,192,210299,1,0,0:0:0:30:Clap-2.wav
182,192,210299,1,0,0:0:0:0:
36,192,210299,1,0,0:0:0:0:
256,192,210504,1,0,0:0:0:0:
36,192,210504,1,0,0:0:0:0:
329,192,210710,1,0,0:0:0:0:
109,192,210710,1,0,0:0:0:0:
475,192,210710,1,0,0:0:0:30:KicK.wav
182,192,210812,1,0,0:0:0:0:
402,192,210812,1,0,0:0:0:0:
182,192,211018,1,0,0:0:0:0:
402,192,211018,1,0,0:0:0:0:
329,192,211121,1,0,0:0:0:0:
475,192,211121,1,0,0:0:0:30:Clap-2.wav
109,192,211121,1,0,0:0:0:0:
329,192,211326,1,0,0:0:0:0:
109,192,211326,1,0,0:0:0:0:
36,192,211532,1,0,0:0:0:30:KicK.wav
256,192,211532,1,0,0:0:0:0:
475,192,211532,1,0,0:0:0:0:
402,192,211634,1,0,0:0:0:0:
402,192,211737,1,0,0:0:0:0:
402,192,211840,1,0,0:0:0:0:
256,192,211943,1,0,0:0:0:0:
475,192,211943,1,0,0:0:0:0:
109,192,211943,1,0,0:0:0:30:Clap-2.wav
109,192,212148,1,0,0:0:0:0:
329,192,212148,1,0,0:0:0:0:
475,192,212354,1,0,0:0:0:0:
36,192,212354,1,0,0:0:0:30:KicK.wav
402,192,212354,1,0,0:0:0:0:
256,192,212456,1,0,0:0:0:0:
109,192,212456,1,0,0:0:0:0:
256,192,212662,1,0,0:0:0:0:
109,192,212662,1,0,0:0:0:0:
329,192,212765,1,0,0:0:0:0:
182,192,212765,1,0,0:0:0:30:Clap-2.wav
36,192,212765,1,0,0:0:0:0:
475,192,212765,1,0,0:0:0:0:
182,192,212901,5,0,0:0:0:0:
475,192,212901,1,0,0:0:0:0:
182,192,213038,1,0,0:0:0:0:
475,192,213038,1,0,0:0:0:0:
402,192,213175,1,0,0:0:0:0:
256,192,213175,1,0,0:0:0:30:Cymbal.wav
36,192,213175,1,0,0:0:0:0:
109,192,213175,1,0,0:0:0:30:KicK.wav
475,192,213278,1,0,0:0:0:0:
329,192,213278,1,0,0:0:0:0:
329,192,213381,1,0,0:0:0:0:
36,192,213381,1,0,0:0:0:0:
36,192,213484,1,0,0:0:0:0:
182,192,213484,1,0,0:0:0:0:
256,192,213586,1,0,0:0:0:0:
109,192,213586,1,0,0:0:0:30:Clap-2.wav
402,192,213586,1,0,0:0:0:0:
329,192,213689,1,0,0:0:0:0:
402,192,213792,1,0,0:0:0:0:
109,192,213792,1,0,0:0:0:0:
329,192,213895,1,0,0:0:0:0:
475,192,213997,1,0,0:0:0:0:
36,192,213997,1,0,0:0:0:0:
182,192,213997,1,0,0:0:0:30:KicK.wav
402,192,214100,1,0,0:0:0:0:
256,192,214100,1,0,0:0:0:0:
109,192,214203,1,0,0:0:0:0:
402,192,214306,1,0,0:0:0:0:
256,192,214306,1,0,0:0:0:0:
475,192,214408,1,0,0:0:0:0:
36,192,214408,1,0,0:0:0:0:
182,192,214408,1,0,0:0:0:30:Clap-2.wav
329,192,214511,1,0,0:0:0:0:
475,192,214614,1,0,0:0:0:0:
182,192,214614,1,0,0:0:0:0:
329,192,214717,1,0,0:0:0:0:
109,192,214819,1,0,0:0:0:0:
402,192,214819,1,0,0:0:0:0:
36,192,214819,1,0,0:0:0:30:KicK.wav
256,192,214922,1,0,0:0:0:0:
475,192,214922,1,0,0:0:0:0:
109,192,215025,1,0,0:0:0:0:
256,192,215025,1,0,0:0:0:0:
109,192,215128,1,0,0:0:0:0:
475,192,215128,1,0,0:0:0:0:
402,192,215230,1,0,0:0:0:0:
36,192,215230,1,0,0:0:0:0:
182,192,215230,1,0,0:0:0:30:Clap-2.wav
329,192,215333,1,0,0:0:0:0:
182,192,215436,1,0,0:0:0:0:
402,192,215436,1,0,0:0:0:0:
329,192,215538,1,0,0:0:0:0:
36,192,215641,1,0,0:0:0:0:
475,192,215641,1,0,0:0:0:0:
256,192,215641,1,0,0:0:0:30:KicK.wav
182,192,215744,1,0,0:0:0:0:
109,192,215744,1,0,0:0:0:0:
402,192,215847,1,0,0:0:0:0:
182,192,215949,1,0,0:0:0:0:
109,192,215949,1,0,0:0:0:0:
475,192,216052,1,0,0:0:0:30:Clap-2.wav
36,192,216052,1,0,0:0:0:0:
256,192,216052,1,0,0:0:0:0:
329,192,216155,1,0,0:0:0:0:
256,192,216258,1,0,0:0:0:0:
109,192,216258,128,0,216360:0:0:0:0:
36,192,216258,128,0,216360:0:0:0:0:
329,192,216360,1,0,0:0:0:0:
475,192,216463,1,0,0:0:0:0:
402,192,216463,1,0,0:0:0:30:KicK.wav
36,192,216463,1,0,0:0:0:0:
109,192,216566,1,0,0:0:0:0:
256,192,216566,1,0,0:0:0:0:
109,192,216669,1,0,0:0:0:0:
329,192,216669,1,0,0:0:0:0:
182,192,216771,1,0,0:0:0:0:
329,192,216771,1,0,0:0:0:0:
36,192,216874,1,0,0:0:0:30:Clap-2.wav
256,192,216874,1,0,0:0:0:0:
475,192,216874,1,0,0:0:0:0:
402,192,216977,1,0,0:0:0:0:
109,192,217080,1,0,0:0:0:0:
475,192,217080,1,0,0:0:0:0:
402,192,217182,1,0,0:0:0:0:
329,192,217285,1,0,0:0:0:0:
182,192,217285,1,0,0:0:0:30:KicK.wav
36,192,217285,1,0,0:0:0:0:
109,192,217388,1,0,0:0:0:0:
475,192,217388,1,0,0:0:0:0:
256,192,217491,1,0,0:0:0:0:
109,192,217593,1,0,0:0:0:0:
475,192,217593,1,0,0:0:0:0:
36,192,217696,1,0,0:0:0:0:
182,192,217696,1,0,0:0:0:30:Clap-2.wav
329,192,217696,1,0,0:0:0:0:
402,192,217799,1,0,0:0:0:0:
182,192,217901,1,0,0:0:0:0:
329,192,217901,1,0,0:0:0:0:
402,192,218004,1,0,0:0:0:0:
36,192,218107,1,0,0:0:0:0:
475,192,218107,1,0,0:0:0:30:KicK.wav
256,192,218107,1,0,0:0:0:0:
329,192,218210,1,0,0:0:0:0:
109,192,218210,1,0,0:0:0:0:
182,192,218312,1,0,0:0:0:0:
329,192,218312,1,0,0:0:0:0:
182,192,218415,1,0,0:0:0:0:
402,192,218415,1,0,0:0:0:0:
36,192,218518,1,0,0:0:0:0:
475,192,218518,1,0,0:0:0:0:
256,192,218518,1,0,0:0:0:30:Clap-2.wav
329,192,218621,1,0,0:0:0:0:
256,192,218723,1,0,0:0:0:0:
109,192,218723,1,0,0:0:0:0:
329,192,218826,1,0,0:0:0:0:
402,192,218929,1,0,0:0:0:0:
182,192,218929,1,0,0:0:0:0:
475,192,218929,1,0,0:0:0:30:KicK.wav
256,192,219032,1,0,0:0:0:0:
36,192,219032,1,0,0:0:0:0:
109,192,219134,1,0,0:0:0:0:
256,192,219237,1,0,0:0:0:0:
36,192,219237,1,0,0:0:0:0:
475,192,219340,1,0,0:0:0:30:Clap-2.wav
182,192,219340,1,0,0:0:0:0:
402,192,219340,1,0,0:0:0:0:
109,192,219443,1,0,0:0:0:0:
402,192,219545,128,0,219648:0:0:0:0:
182,192,219545,1,0,0:0:0:0:
329,192,219545,128,0,219648:0:0:0:0:
109,192,219648,1,0,0:0:0:0:
475,192,219751,1,0,0:0:0:0:
256,192,219751,1,0,0:0:0:30:KicK.wav
36,192,219751,1,0,0:0:0:0:
182,192,219854,1,0,0:0:0:0:
402,192,219854,1,0,0:0:0:0:
109,192,219956,1,0,0:0:0:0:
402,192,219956,1,0,0:0:0:0:
109,192,220059,1,0,0:0:0:0:
329,192,220059,1,0,0:0:0:0:
36,192,220162,1,0,0:0:0:30:Clap-2.wav
256,192,220162,1,0,0:0:0:0:
475,192,220162,1,0,0:0:0:0:
402,192,220265,1,0,0:0:0:0:
109,192,220367,1,0,0:0:0:0:
329,192,220367,1,0,0:0:0:0:
402,192,220470,1,0,0:0:0:0:
329,192,220573,1,0,0:0:0:0:
182,192,220573,1,0,0:0:0:30:KicK.wav
36,192,220573,1,0,0:0:0:0:
475,192,220675,1,0,0:0:0:0:
109,192,220675,1,0,0:0:0:0:
256,192,220778,1,0,0:0:0:0:
109,192,220881,1,0,0:0:0:0:
475,192,220881,1,0,0:0:0:0:
182,192,220984,1,0,0:0:0:0:
36,192,220984,1,0,0:0:0:30:Clap-2.wav
329,192,220984,1,0,0:0:0:0:
402,192,221086,1,0,0:0:0:0:
329,192,221189,1,0,0:0:0:0:
182,192,221189,1,0,0:0:0:0:
402,192,221292,1,0,0:0:0:0:
109,192,221395,1,0,0:0:0:0:
256,192,221395,1,0,0:0:0:30:KicK.wav
475,192,221395,1,0,0:0:0:0:
36,192,221497,1,0,0:0:0:0:
182,192,221497,1,0,0:0:0:0:
36,192,221600,1,0,0:0:0:0:
475,192,221600,1,0,0:0:0:0:
329,192,221703,1,0,0:0:0:0:
475,192,221703,1,0,0:0:0:0:
109,192,221806,1,0,0:0:0:0:
402,192,221806,1,0,0:0:0:0:
256,192,221806,1,0,0:0:0:30:Clap-2.wav
182,192,221908,1,0,0:0:0:0:
329,192,222011,1,0,0:0:0:0:
109,192,222011,1,0,0:0:0:0:
182,192,222114,1,0,0:0:0:0:
256,192,222217,1,0,0:0:0:0:
36,192,222217,1,0,0:0:0:30:KicK.wav
402,192,222217,1,0,0:0:0:0:
109,192,222319,1,0,0:0:0:0:
329,192,222319,1,0,0:0:0:0:
475,192,222422,1,0,0:0:0:0:
109,192,222525,1,0,0:0:0:0:
329,192,222525,1,0,0:0:0:0:
36,192,222628,1,0,0:0:0:30:Clap-2.wav
402,192,222628,1,0,0:0:0:0:
182,192,222628,1,0,0:0:0:0:
475,192,222730,1,0,0:0:0:0:
36,192,222833,128,0,222936:0:0:0:0:
329,192,222833,1,0,0:0:0:0:
182,192,222833,128,0,222936:0:0:0:0:
475,192,222936,1,0,0:0:0:0:
109,192,223038,1,0,0:0:0:0:
402,192,223038,1,0,0:0:0:30:KicK.wav
256,192,223038,1,0,0:0:0:0:
182,192,223141,1,0,0:0:0:0:
329,192,223141,1,0,0:0:0:0:
329,192,223244,1,0,0:0:0:0:
36,192,223244,1,0,0:0:0:0:
182,192,223347,1,0,0:0:0:0:
36,192,223347,1,0,0:0:0:0:
256,192,223449,1,0,0:0:0:0:
402,192,223449,1,0,0:0:0:0:
475,192,223449,1,0,0:0:0:30:Clap-2.wav
109,192,223449,128,0,224682:0:0:0:0:
329,192,223552,1,0,0:0:0:0:
475,192,223655,1,0,0:0:0:0:
256,192,223655,1,0,0:0:0:0:
329,192,223758,1,0,0:0:0:0:
402,192,223860,1,0,0:0:0:0:
182,192,223860,1,0,0:0:0:0:
36,192,223860,1,0,0:0:0:30:KicK.wav
256,192,223963,1,0,0:0:0:0:
475,192,223963,1,0,0:0:0:0:
36,192,224066,1,0,0:0:0:0:
256,192,224169,1,0,0:0:0:0:
475,192,224169,1,0,0:0:0:0:
402,192,224271,1,0,0:0:0:30:Clap-2.wav
36,192,224271,1,0,0:0:0:0:
182,192,224271,1,0,0:0:0:0:
329,192,224374,1,0,0:0:0:0:
182,192,224477,1,0,0:0:0:0:
402,192,224477,1,0,0:0:0:0:
329,192,224580,1,0,0:0:0:0:
256,192,224682,1,0,0:0:0:0:
475,192,224682,1,0,0:0:0:0:
36,192,224682,1,0,0:0:0:30:KicK.wav
182,192,224785,1,0,0:0:0:0:
182,192,224888,1,0,0:0:0:0:
182,192,224991,1,0,0:0:0:0:
109,192,225093,1,0,0:0:0:0:
329,192,225093,128,0,225230:0:0:0:0:
402,192,225162,128,0,225299:0:0:0:0:
475,192,225230,128,0,225812:0:0:0:0:
182,192,225299,128,0,225436:0:0:0:0:
256,192,225367,128,0,225504:0:0:0:0:
329,192,225436,128,0,225573:0:0:0:0:
109,192,225504,1,0,0:0:0:0:
402,192,225504,128,0,225812:0:0:0:0:
182,192,225607,1,0,0:0:0:0:
329,192,225710,128,0,225812:0:0:0:0:
182,192,225812,1,0,0:0:0:0:
109,192,225915,1,0,0:0:0:0:
475,192,225915,1,0,0:0:0:0:
402,192,225915,1,0,0:0:0:0:
475,192,226052,1,0,0:0:0:0:
402,192,226052,1,0,0:0:0:0:
36,192,226121,1,0,0:0:0:30:KicK.wav
182,192,226121,1,0,0:0:0:0:
402,192,226189,1,0,0:0:0:0:
475,192,226189,1,0,0:0:0:0:
182,192,226326,1,0,0:0:0:50:BeLL.wav
329,192,226326,1,0,0:0:0:0:
402,192,226326,1,0,0:0:0:0:
475,192,226326,1,0,0:0:0:30:Cymbal.wav
36,192,226326,1,0,0:0:0:30:KicK.wav
256,192,226429,1,0,0:0:0:0:
109,192,226429,1,0,0:0:0:0:
402,192,226532,1,0,0:0:0:0:
109,192,226532,1,0,0:0:0:0:
402,192,226634,1,0,0:0:0:0:
256,192,226634,1,0,0:0:0:0:
475,192,226737,1,0,0:0:0:30:Snare.wav
182,192,226737,1,0,0:0:0:0:
329,192,226737,1,0,0:0:0:0:
256,192,226840,1,0,0:0:0:0:
36,192,226840,1,0,0:0:0:0:
256,192,226943,1,0,0:0:0:0:
109,192,226943,1,0,0:0:0:0:
109,192,227045,1,0,0:0:0:0:
402,192,227045,1,0,0:0:0:0:
182,192,227148,1,0,0:0:0:0:
329,192,227148,1,0,0:0:0:30:KicK.wav
36,192,227148,1,0,0:0:0:0:
256,192,227251,1,0,0:0:0:30:Main-1.wav
402,192,227251,1,0,0:0:0:0:
475,192,227251,1,0,0:0:0:0:
36,192,227354,1,0,0:0:0:0:
329,192,227456,1,0,0:0:0:30:Main-1.wav
109,192,227456,1,0,0:0:0:0:
182,192,227456,1,0,0:0:0:0:
475,192,227559,1,0,0:0:0:0:
256,192,227559,1,0,0:0:0:30:Snare.wav
36,192,227559,1,0,0:0:0:0:
329,192,227662,1,0,0:0:0:0:
402,192,227765,128,0,227867:0:0:0:30:Tick.wav
182,192,227765,1,0,0:0:0:0:
329,192,227816,128,0,227919:0:0:0:30:Tick.wav
36,192,227867,1,0,0:0:0:0:
475,192,227970,1,0,0:0:0:0:
182,192,227970,1,0,0:0:0:0:
256,192,227970,1,0,0:0:0:50:BeLL.wav
402,192,227970,1,0,0:0:0:0:
109,192,227970,1,0,0:0:0:30:KicK.wav
329,192,228073,1,0,0:0:0:0:
36,192,228073,1,0,0:0:0:0:
109,192,228175,1,0,0:0:0:0:
329,192,228175,1,0,0:0:0:0:
109,192,228278,1,0,0:0:0:0:
256,192,228278,1,0,0:0:0:0:
475,192,228381,1,0,0:0:0:0:
182,192,228381,1,0,0:0:0:30:Snare.wav
402,192,228381,1,0,0:0:0:0:
36,192,228484,1,0,0:0:0:0:
329,192,228484,1,0,0:0:0:0:
402,192,228586,1,0,0:0:0:0:
36,192,228586,1,0,0:0:0:0:
402,192,228689,1,0,0:0:0:0:
182,192,228689,1,0,0:0:0:0:
256,192,228792,1,0,0:0:0:0:
475,192,228792,1,0,0:0:0:30:KicK.wav
36,192,228792,1,0,0:0:0:50:BeLL.wav
109,192,228792,1,0,0:0:0:0:
182,192,228895,1,0,0:0:0:0:
329,192,228895,1,0,0:0:0:0:
402,192,228895,1,0,0:0:0:30:Main-1.wav
475,192,228997,1,0,0:0:0:0:
329,192,229100,1,0,0:0:0:0:
182,192,229100,1,0,0:0:0:30:Main-1.wav
109,192,229100,1,0,0:0:0:0:
475,192,229203,1,0,0:0:0:0:
256,192,229203,1,0,0:0:0:0:
36,192,229203,1,0,0:0:0:50:BeLL.wav
402,192,229203,1,0,0:0:0:30:Snare.wav
182,192,229306,1,0,0:0:0:0:
329,192,229408,1,0,0:0:0:0:
109,192,229408,128,0,229511:0:0:0:30:Tick.wav
182,192,229460,128,0,229562:0:0:0:30:Tick.wav
475,192,229511,1,0,0:0:0:0:
329,192,229614,1,0,0:0:0:0:
402,192,229614,1,0,0:0:0:0:
109,192,229614,1,0,0:0:0:30:KicK.wav
36,192,229614,1,0,0:0:0:0:
256,192,229614,1,0,0:0:0:50:BeLL.wav
182,192,229717,1,0,0:0:0:0:
475,192,229717,1,0,0:0:0:0:
182,192,229819,1,0,0:0:0:0:
402,192,229819,1,0,0:0:0:0:
109,192,229922,1,0,0:0:0:0:
402,192,229922,1,0,0:0:0:0:
475,192,230025,1,0,0:0:0:0:
182,192,230025,1,0,0:0:0:0:
329,192,230025,1,0,0:0:0:30:Snare.wav
36,192,230128,1,0,0:0:0:0:
402,192,230128,1,0,0:0:0:0:
256,192,230230,1,0,0:0:0:0:
36,192,230230,1,0,0:0:0:0:
256,192,230333,1,0,0:0:0:0:
475,192,230333,1,0,0:0:0:0:
329,192,230436,1,0,0:0:0:30:KicK.wav
182,192,230436,1,0,0:0:0:0:
36,192,230436,1,0,0:0:0:0:
256,192,230538,1,0,0:0:0:0:
475,192,230538,1,0,0:0:0:0:
402,192,230538,1,0,0:0:0:30:Main-1.wav
36,192,230641,1,0,0:0:0:0:
109,192,230744,1,0,0:0:0:0:
256,192,230744,1,0,0:0:0:30:Main-1.wav
475,192,230744,1,0,0:0:0:0:
36,192,230847,1,0,0:0:0:0:
402,192,230847,1,0,0:0:0:0:
182,192,230847,1,0,0:0:0:30:Snare.wav
329,192,230949,1,0,0:0:0:0:
402,192,231052,1,0,0:0:0:0:
182,192,231052,128,0,231155:0:0:0:30:Tick.wav
256,192,231104,128,0,231206:0:0:0:30:Tick.wav
475,192,231155,1,0,0:0:0:0:
329,192,231258,1,0,0:0:0:0:
402,192,231258,1,0,0:0:0:0:
109,192,231258,1,0,0:0:0:30:KicK.wav
36,192,231258,1,0,0:0:0:0:
182,192,231258,1,0,0:0:0:50:BeLL.wav
475,192,231360,1,0,0:0:0:0:
256,192,231360,1,0,0:0:0:0:
475,192,231463,1,0,0:0:0:0:
109,192,231463,1,0,0:0:0:0:
256,192,231566,1,0,0:0:0:0:
109,192,231566,1,0,0:0:0:0:
182,192,231669,1,0,0:0:0:0:
36,192,231669,1,0,0:0:0:30:Snare.wav
329,192,231669,1,0,0:0:0:0:
402,192,231771,1,0,0:0:0:0:
256,192,231771,1,0,0:0:0:0:
402,192,231874,1,0,0:0:0:0:
36,192,231874,1,0,0:0:0:0:
36,192,231977,1,0,0:0:0:0:
475,192,231977,1,0,0:0:0:0:
329,192,232080,1,0,0:0:0:30:KicK.wav
182,192,232080,1,0,0:0:0:0:
109,192,232080,1,0,0:0:0:0:
475,192,232182,1,0,0:0:0:0:
402,192,232182,1,0,0:0:0:30:Main-1.wav
256,192,232182,1,0,0:0:0:0:
36,192,232285,1,0,0:0:0:0:
402,192,232388,1,0,0:0:0:30:Main-1.wav
109,192,232388,1,0,0:0:0:0:
256,192,232388,1,0,0:0:0:0:
329,192,232491,1,0,0:0:0:50:BeLL.wav
475,192,232491,1,0,0:0:0:0:
36,192,232491,1,0,0:0:0:30:Snare.wav
182,192,232491,128,0,232559:0:0:0:0:
109,192,232593,128,0,232662:0:0:0:0:
402,192,232628,1,0,0:0:0:0:
182,192,232696,128,0,232765:0:0:0:0:
475,192,232765,1,0,0:0:0:0:
256,192,232799,128,0,232867:0:0:0:0:
36,192,232901,1,0,0:0:0:30:KicK.wav
109,192,232901,1,0,0:0:0:0:
329,192,232901,1,0,0:0:0:50:BeLL.wav
402,192,232901,128,0,232970:0:0:0:0:
182,192,232901,1,0,0:0:0:0:
256,192,233004,1,0,0:0:0:0:
475,192,233004,128,0,233073:0:0:0:0:
256,192,233107,1,0,0:0:0:0:
109,192,233107,1,0,0:0:0:0:
402,192,233107,128,0,233175:0:0:0:0:
109,192,233210,1,0,0:0:0:0:
329,192,233210,128,0,233278:0:0:0:0:
475,192,233312,1,0,0:0:0:30:Snare.wav
36,192,233312,1,0,0:0:0:0:
402,192,233312,1,0,0:0:0:0:
182,192,233312,128,0,233381:0:0:0:0:
329,192,233415,1,0,0:0:0:0:
109,192,233415,128,0,233484:0:0:0:0:
329,192,233518,1,0,0:0:0:0:
475,192,233518,1,0,0:0:0:0:
182,192,233518,128,0,233586:0:0:0:0:
475,192,233621,1,0,0:0:0:0:
256,192,233621,128,0,233689:0:0:0:0:
36,192,233723,1,0,0:0:0:30:KicK.wav
182,192,233723,1,0,0:0:0:0:
329,192,233723,1,0,0:0:0:0:
402,192,233826,1,0,0:0:0:0:
475,192,233826,1,0,0:0:0:0:
256,192,233826,1,0,0:0:0:30:Main-1.wav
36,192,233929,1,0,0:0:0:0:
402,192,234032,1,0,0:0:0:0:
256,192,234032,1,0,0:0:0:30:Main-1.wav
109,192,234032,1,0,0:0:0:0:
329,192,234134,1,0,0:0:0:0:
475,192,234134,1,0,0:0:0:30:Snare.wav
182,192,234134,1,0,0:0:0:0:
109,192,234237,1,0,0:0:0:0:
36,192,234340,1,0,0:0:0:0:
402,192,234340,128,0,234443:0:0:0:30:Tick.wav
329,192,234391,128,0,234494:0:0:0:30:Tick.wav
182,192,234443,1,0,0:0:0:0:
402,192,234545,1,0,0:0:0:0:
109,192,234545,1,0,0:0:0:30:KicK.wav
256,192,234545,1,0,0:0:0:50:BeLL.wav
475,192,234545,1,0,0:0:0:0:
36,192,234545,1,0,0:0:0:0:
329,192,234648,1,0,0:0:0:0:
182,192,234648,1,0,0:0:0:0:
329,192,234751,1,0,0:0:0:0:
36,192,234751,1,0,0:0:0:0:
36,192,234854,1,0,0:0:0:0:
475,192,234854,1,0,0:0:0:0:
256,192,234956,1,0,0:0:0:0:
109,192,234956,1,0,0:0:0:30:Snare.wav
402,192,234956,1,0,0:0:0:0:
182,192,235059,1,0,0:0:0:0:
329,192,235059,1,0,0:0:0:0:
182,192,235162,1,0,0:0:0:0:
402,192,235162,1,0,0:0:0:0:
402,192,235265,1,0,0:0:0:0:
256,192,235265,1,0,0:0:0:0:
182,192,235367,1,0,0:0:0:0:
329,192,235367,1,0,0:0:0:30:KicK.wav
36,192,235367,1,0,0:0:0:50:BeLL.wav
109,192,235367,1,0,0:0:0:0:
475,192,235470,1,0,0:0:0:0:
402,192,235470,1,0,0:0:0:30:Main-1.wav
256,192,235470,1,0,0:0:0:0:
36,192,235573,1,0,0:0:0:0:
329,192,235675,1,0,0:0:0:0:
182,192,235675,1,0,0:0:0:0:
109,192,235675,1,0,0:0:0:30:Main-1.wav
36,192,235778,1,0,0:0:0:0:
256,192,235778,1,0,0:0:0:50:BeLL.wav
402,192,235778,1,0,0:0:0:30:Snare.wav
475,192,235778,1,0,0:0:0:0:
182,192,235881,1,0,0:0:0:0:
329,192,235984,1,0,0:0:0:0:
109,192,235984,128,0,236086:0:0:0:30:Tick.wav
36,192,236035,128,0,236138:0:0:0:30:Tick.wav
475,192,236086,1,0,0:0:0:0:
182,192,236189,1,0,0:0:0:0:
109,192,236189,1,0,0:0:0:0:
329,192,236189,1,0,0:0:0:0:
402,192,236189,1,0,0:0:0:30:KicK.wav
256,192,236189,1,0,0:0:0:50:BeLL.wav
475,192,236292,1,0,0:0:0:0:
36,192,236292,1,0,0:0:0:0:
475,192,236395,1,0,0:0:0:0:
109,192,236395,1,0,0:0:0:0:
402,192,236497,1,0,0:0:0:0:
109,192,236497,1,0,0:0:0:0:
329,192,236600,1,0,0:0:0:0:
182,192,236600,1,0,0:0:0:0:
36,192,236600,1,0,0:0:0:30:Snare.wav
475,192,236703,1,0,0:0:0:0:
256,192,236703,1,0,0:0:0:0:
256,192,236806,1,0,0:0:0:0:
402,192,236806,1,0,0:0:0:0:
182,192,236908,1,0,0:0:0:0:
402,192,236908,1,0,0:0:0:0:
36,192,237011,1,0,0:0:0:50:BeLL.wav
329,192,237011,1,0,0:0:0:0:
475,192,237011,1,0,0:0:0:30:KicK.wav
109,192,237011,1,0,0:0:0:0:
402,192,237114,1,0,0:0:0:30:Main-1.wav
256,192,237114,1,0,0:0:0:0:
182,192,237114,1,0,0:0:0:0:
36,192,237217,1,0,0:0:0:0:
329,192,237319,1,0,0:0:0:30:Main-1.wav
182,192,237319,1,0,0:0:0:0:
109,192,237319,1,0,0:0:0:0:
256,192,237422,1,0,0:0:0:50:BeLL.wav
36,192,237422,1,0,0:0:0:0:
475,192,237422,1,0,0:0:0:0:
402,192,237422,1,0,0:0:0:30:Snare.wav
109,192,237525,1,0,0:0:0:0:
182,192,237628,1,0,0:0:0:0:
329,192,237628,128,0,237730:0:0:0:30:Tick.wav
402,192,237679,128,0,237782:0:0:0:30:Tick.wav
256,192,237730,1,0,0:0:0:0:
36,192,237833,1,0,0:0:0:50:BeLL.wav
182,192,237833,1,0,0:0:0:0:
109,192,237833,1,0,0:0:0:30:KicK.wav
475,192,237833,1,0,0:0:0:0:
329,192,237833,1,0,0:0:0:0:
256,192,237936,1,0,0:0:0:0:
402,192,237936,1,0,0:0:0:0:
256,192,238038,1,0,0:0:0:0:
109,192,238038,1,0,0:0:0:0:
402,192,238141,1,0,0:0:0:0:
109,192,238141,1,0,0:0:0:0:
475,192,238244,1,0,0:0:0:30:Snare.wav
182,192,238244,1,0,0:0:0:0:
329,192,238244,1,0,0:0:0:0:
256,192,238347,1,0,0:0:0:0:
36,192,238347,1,0,0:0:0:0:
329,192,238449,1,0,0:0:0:0:
475,192,238449,1,0,0:0:0:0:
36,192,238449,1,0,0:0:0:50:BeLL.wav
182,192,238449,1,0,0:0:0:0:
329,192,238552,1,0,0:0:0:0:
109,192,238552,1,0,0:0:0:0:
256,192,238655,1,0,0:0:0:0:
402,192,238655,1,0,0:0:0:30:KicK.wav
36,192,238655,1,0,0:0:0:0:
182,192,238758,1,0,0:0:0:0:
475,192,238758,1,0,0:0:0:30:Main-1.wav
109,192,238758,1,0,0:0:0:0:
402,192,238860,1,0,0:0:0:0:
182,192,238963,1,0,0:0:0:0:
329,192,238963,1,0,0:0:0:30:Main-1.wav
109,192,238963,1,0,0:0:0:0:
402,192,239066,1,0,0:0:0:0:
475,192,239066,1,0,0:0:0:30:Snare.wav
36,192,239066,1,0,0:0:0:50:BeLL.wav
256,192,239066,128,0,239134:0:0:0:0:
329,192,239169,128,0,239237:0:0:0:0:
109,192,239203,1,0,0:0:0:0:
402,192,239271,128,0,239340:0:0:0:0:
182,192,239340,1,0,0:0:0:0:
475,192,239374,128,0,239443:0:0:0:0:
329,192,239477,1,0,0:0:0:50:BeLL.wav
36,192,239477,1,0,0:0:0:30:KicK.wav
109,192,239477,1,0,0:0:0:0:
402,192,239477,1,0,0:0:0:0:
256,192,239477,128,0,239545:0:0:0:0:
475,192,239580,1,0,0:0:0:0:
182,192,239580,128,0,239648:0:0:0:0:
475,192,239682,1,0,0:0:0:0:
109,192,239682,128,0,239751:0:0:0:0:
329,192,239682,1,0,0:0:0:0:
36,192,239785,128,0,239854:0:0:0:0:
329,192,239785,1,0,0:0:0:0:
475,192,239888,1,0,0:0:0:30:Snare.wav
182,192,239888,1,0,0:0:0:0:
256,192,239888,128,0,239956:0:0:0:0:
402,192,239888,1,0,0:0:0:0:
36,192,239991,1,0,0:0:0:0:
329,192,239991,128,0,240059:0:0:0:0:
182,192,240093,1,0,0:0:0:0:
402,192,240093,128,0,240162:0:0:0:0:
36,192,240093,1,0,0:0:0:0:
475,192,240196,128,0,240265:0:0:0:0:
182,192,240196,1,0,0:0:0:0:
109,192,240299,1,0,0:0:0:0:
256,192,240299,1,0,0:0:0:0:
36,192,240299,1,0,0:0:0:30:KicK.wav
402,192,240401,1,0,0:0:0:0:
475,192,240401,1,0,0:0:0:0:
329,192,240401,1,0,0:0:0:30:Main-1.wav
36,192,240504,1,0,0:0:0:0:
329,192,240607,1,0,0:0:0:0:
109,192,240607,1,0,0:0:0:0:
182,192,240607,1,0,0:0:0:30:Main-1.wav
475,192,240710,1,0,0:0:0:30:Snare.wav
256,192,240710,1,0,0:0:0:0:
36,192,240710,1,0,0:0:0:0:
329,192,240812,1,0,0:0:0:0:
475,192,240915,128,0,241018:0:0:0:30:Tick.wav
182,192,240915,1,0,0:0:0:0:
402,192,240967,128,0,241069:0:0:0:30:Tick.wav
36,192,241018,1,0,0:0:0:0:
256,192,241121,1,0,0:0:0:50:BeLL.wav
182,192,241121,1,0,0:0:0:0:
109,192,241121,1,0,0:0:0:30:KicK.wav
329,192,241121,1,0,0:0:0:0:
475,192,241121,1,0,0:0:0:0:
402,192,241223,1,0,0:0:0:0:
36,192,241223,1,0,0:0:0:0:
36,192,241326,1,0,0:0:0:0:
329,192,241326,1,0,0:0:0:0:
109,192,241429,1,0,0:0:0:0:
329,192,241429,1,0,0:0:0:0:
475,192,241532,1,0,0:0:0:0:
182,192,241532,1,0,0:0:0:30:Snare.wav
402,192,241532,1,0,0:0:0:0:
109,192,241634,1,0,0:0:0:0:
256,192,241634,1,0,0:0:0:0:
329,192,241737,1,0,0:0:0:0:
109,192,241737,1,0,0:0:0:0:
329,192,241840,1,0,0:0:0:0:
182,192,241840,1,0,0:0:0:0:
256,192,241943,1,0,0:0:0:0:
402,192,241943,1,0,0:0:0:30:KicK.wav
36,192,241943,1,0,0:0:0:50:BeLL.wav
475,192,241943,1,0,0:0:0:0:
109,192,242045,1,0,0:0:0:0:
329,192,242045,1,0,0:0:0:30:Main-1.wav
182,192,242045,1,0,0:0:0:0:
36,192,242148,1,0,0:0:0:0:
182,192,242251,1,0,0:0:0:0:
329,192,242251,1,0,0:0:0:0:
475,192,242251,1,0,0:0:0:30:Main-1.wav
36,192,242354,1,0,0:0:0:0:
256,192,242354,1,0,0:0:0:50:BeLL.wav
402,192,242354,1,0,0:0:0:30:Snare.wav
109,192,242354,1,0,0:0:0:0:
475,192,242456,1,0,0:0:0:0:
402,192,242559,1,0,0:0:0:0:
109,192,242559,128,0,242662:0:0:0:30:Tick.wav
182,192,242610,128,0,242713:0:0:0:30:Tick.wav
329,192,242662,1,0,0:0:0:0:
109,192,242765,1,0,0:0:0:0:
36,192,242765,1,0,0:0:0:0:
402,192,242765,1,0,0:0:0:0:
475,192,242765,1,0,0:0:0:30:KicK.wav
256,192,242765,1,0,0:0:0:50:BeLL.wav
329,192,242867,1,0,0:0:0:0:
182,192,242867,1,0,0:0:0:0:
402,192,242970,1,0,0:0:0:0:
182,192,242970,1,0,0:0:0:0:
109,192,243073,1,0,0:0:0:0:
402,192,243073,1,0,0:0:0:0:
475,192,243175,1,0,0:0:0:0:
329,192,243175,1,0,0:0:0:30:Snare.wav
36,192,243175,1,0,0:0:0:0:
109,192,243278,1,0,0:0:0:0:
256,192,243278,1,0,0:0:0:0:
109,192,243381,1,0,0:0:0:0:
329,192,243381,1,0,0:0:0:0:
475,192,243484,1,0,0:0:0:0:
329,192,243484,1,0,0:0:0:0:
36,192,243586,1,0,0:0:0:0:
256,192,243586,1,0,0:0:0:0:
402,192,243586,1,0,0:0:0:30:KicK.wav
329,192,243689,1,0,0:0:0:0:
182,192,243689,1,0,0:0:0:30:Main-1.wav
109,192,243689,1,0,0:0:0:0:
475,192,243792,1,0,0:0:0:0:
402,192,243895,1,0,0:0:0:0:
182,192,243895,1,0,0:0:0:0:
329,192,243895,1,0,0:0:0:30:Main-1.wav
36,192,243997,1,0,0:0:0:0:
256,192,243997,1,0,0:0:0:30:Snare.wav
475,192,243997,1,0,0:0:0:0:
182,192,244100,1,0,0:0:0:0:
109,192,244203,1,0,0:0:0:0:
329,192,244203,128,0,244306:0:0:0:30:Tick.wav
256,192,244254,128,0,244357:0:0:0:30:Tick.wav
36,192,244306,1,0,0:0:0:0:
402,192,244408,1,0,0:0:0:0:
109,192,244408,1,0,0:0:0:30:KicK.wav
182,192,244408,1,0,0:0:0:50:BeLL.wav
475,192,244408,1,0,0:0:0:0:
329,192,244408,1,0,0:0:0:0:
256,192,244511,1,0,0:0:0:0:
36,192,244511,1,0,0:0:0:0:
402,192,244614,1,0,0:0:0:0:
256,192,244614,1,0,0:0:0:0:
182,192,244717,1,0,0:0:0:0:
402,192,244717,1,0,0:0:0:0:
475,192,244819,1,0,0:0:0:0:
329,192,244819,1,0,0:0:0:30:Snare.wav
109,192,244819,1,0,0:0:0:0:
36,192,244922,1,0,0:0:0:0:
256,192,244922,1,0,0:0:0:0:
36,192,245025,1,0,0:0:0:0:
182,192,245025,1,0,0:0:0:0:
329,192,245128,1,0,0:0:0:0:
182,192,245128,1,0,0:0:0:0:
36,192,245230,1,0,0:0:0:0:
256,192,245230,1,0,0:0:0:0:
475,192,245230,1,0,0:0:0:30:KicK.wav
329,192,245333,1,0,0:0:0:0:
402,192,245333,1,0,0:0:0:30:Main-1.wav
109,192,245333,1,0,0:0:0:0:
182,192,245436,1,0,0:0:0:0:
402,192,245538,1,0,0:0:0:0:
475,192,245538,1,0,0:0:0:0:
256,192,245538,1,0,0:0:0:30:Main-1.wav
36,192,245641,1,0,0:0:0:0:
182,192,245641,1,0,0:0:0:30:Snare.wav
109,192,245641,1,0,0:0:0:50:BeLL.wav
329,192,245641,128,0,245710:0:0:0:0:
256,192,245744,128,0,245812:0:0:0:0:
475,192,245778,1,0,0:0:0:0:
182,192,245847,128,0,245915:0:0:0:0:
329,192,245915,1,0,0:0:0:0:
109,192,245949,128,0,246018:0:0:0:0:
36,192,246052,1,0,0:0:0:30:KicK.wav
402,192,246052,1,0,0:0:0:30:Cymbal.wav
475,192,246052,1,0,0:0:0:50:BeLL.wav
182,192,246052,1,0,0:0:0:0:
256,192,246052,128,0,246121:0:0:0:0:
109,192,246155,1,0,0:0:0:0:
329,192,246155,128,0,246223:0:0:0:0:
256,192,246258,1,0,0:0:0:0:
109,192,246258,1,0,0:0:0:0:
402,192,246258,128,0,246326:0:0:0:0:
256,192,246360,1,0,0:0:0:0:
475,192,246360,128,0,246429:0:0:0:0:
182,192,246463,1,0,0:0:0:30:Snare.wav
36,192,246463,1,0,0:0:0:0:
402,192,246463,1,0,0:0:0:0:
329,192,246463,128,0,246532:0:0:0:0:
475,192,246566,1,0,0:0:0:0:
256,192,246566,128,0,246634:0:0:0:0:
36,192,246669,1,0,0:0:0:0:
475,192,246669,1,0,0:0:0:0:
182,192,246669,128,0,246737:0:0:0:0:
36,192,246771,1,0,0:0:0:0:
109,192,246771,128,0,246840:0:0:0:0:
475,192,246874,1,0,0:0:0:30:KicK.wav
256,192,246874,1,0,0:0:0:0:
402,192,246874,1,0,0:0:0:0:
329,192,246977,1,0,0:0:0:0:
36,192,246977,1,0,0:0:0:0:
182,192,246977,1,0,0:0:0:30:Main-1.wav
475,192,247080,1,0,0:0:0:0:
402,192,247182,1,0,0:0:0:0:
329,192,247182,1,0,0:0:0:30:Main-1.wav
182,192,247182,1,0,0:0:0:0:
36,192,247285,1,0,0:0:0:0:
256,192,247285,1,0,0:0:0:30:Snare.wav
109,192,247285,1,0,0:0:0:0:
329,192,247388,1,0,0:0:0:0:
402,192,247491,1,0,0:0:0:0:
109,192,247491,128,0,247593:0:0:0:30:Tick.wav
36,192,247542,128,0,247645:0:0:0:30:Tick.wav
475,192,247593,1,0,0:0:0:0:
256,192,247696,1,0,0:0:0:50:BeLL.wav
329,192,247696,1,0,0:0:0:0:
182,192,247696,1,0,0:0:0:0:
109,192,247696,1,0,0:0:0:30:KicK.wav
402,192,247696,1,0,0:0:0:0:
36,192,247799,1,0,0:0:0:0:
475,192,247799,1,0,0:0:0:0:
475,192,247901,1,0,0:0:0:0:
109,192,247901,1,0,0:0:0:0:
402,192,248004,1,0,0:0:0:0:
109,192,248004,1,0,0:0:0:0:
36,192,248107,1,0,0:0:0:0:
182,192,248107,1,0,0:0:0:30:Snare.wav
329,192,248107,1,0,0:0:0:0:
402,192,248210,1,0,0:0:0:0:
256,192,248210,1,0,0:0:0:0:
475,192,248312,1,0,0:0:0:0:
256,192,248312,1,0,0:0:0:0:
182,192,248415,1,0,0:0:0:0:
475,192,248415,1,0,0:0:0:0:
36,192,248518,1,0,0:0:0:50:BeLL.wav
109,192,248518,1,0,0:0:0:0:
256,192,248518,1,0,0:0:0:0:
402,192,248518,1,0,0:0:0:30:KicK.wav
329,192,248621,1,0,0:0:0:30:Main-1.wav
182,192,248621,1,0,0:0:0:0:
475,192,248621,1,0,0:0:0:0:
36,192,248723,1,0,0:0:0:0:
402,192,248826,1,0,0:0:0:30:Main-1.wav
109,192,248826,1,0,0:0:0:0:
256,192,248826,1,0,0:0:0:0:
475,192,248929,1,0,0:0:0:30:Snare.wav
36,192,248929,1,0,0:0:0:0:
182,192,248929,1,0,0:0:0:0:
329,192,248929,1,0,0:0:0:50:BeLL.wav
256,192,249032,1,0,0:0:0:0:
402,192,249134,128,0,249237:0:0:0:30:Tick.wav
182,192,249134,1,0,0:0:0:0:
329,192,249186,128,0,249288:0:0:0:30:Tick.wav
109,192,249237,1,0,0:0:0:0:
402,192,249340,1,0,0:0:0:30:KicK.wav
256,192,249340,1,0,0:0:0:50:BeLL.wav
475,192,249340,1,0,0:0:0:0:
182,192,249340,1,0,0:0:0:30:Cymbal.wav
36,192,249340,1,0,0:0:0:0:
109,192,249443,1,0,0:0:0:0:
329,192,249443,1,0,0:0:0:0:
329,192,249545,1,0,0:0:0:0:
182,192,249545,1,0,0:0:0:0:
182,192,249648,1,0,0:0:0:0:
402,192,249648,1,0,0:0:0:0:
475,192,249751,1,0,0:0:0:0:
256,192,249751,1,0,0:0:0:30:Snare.wav
36,192,249751,1,0,0:0:0:0:
109,192,249854,1,0,0:0:0:0:
402,192,249854,1,0,0:0:0:0:
109,192,249956,1,0,0:0:0:0:
329,192,249956,1,0,0:0:0:0:
329,192,250059,1,0,0:0:0:0:
182,192,250059,1,0,0:0:0:0:
475,192,250162,1,0,0:0:0:0:
36,192,250162,1,0,0:0:0:50:BeLL.wav
256,192,250162,1,0,0:0:0:0:
402,192,250162,1,0,0:0:0:30:KicK.wav
109,192,250265,1,0,0:0:0:0:
329,192,250265,1,0,0:0:0:30:Main-1.wav
182,192,250265,1,0,0:0:0:0:
36,192,250367,1,0,0:0:0:0:
329,192,250470,1,0,0:0:0:0:
475,192,250470,1,0,0:0:0:30:Main-1.wav
182,192,250470,1,0,0:0:0:0:
402,192,250573,1,0,0:0:0:0:
109,192,250573,1,0,0:0:0:0:
256,192,250573,1,0,0:0:0:50:BeLL.wav
36,192,250573,1,0,0:0:0:30:Snare.wav
475,192,250675,1,0,0:0:0:0:
109,192,250778,128,0,250881:0:0:0:30:Tick.wav
402,192,250778,1,0,0:0:0:0:
182,192,250830,128,0,250932:0:0:0:30:Tick.wav
329,192,250881,1,0,0:0:0:0:
475,192,250984,1,0,0:0:0:0:
402,192,250984,1,0,0:0:0:30:KicK.wav
36,192,250984,1,0,0:0:0:30:Cymbal.wav
109,192,250984,1,0,0:0:0:0:
256,192,250984,128,0,252525:0:0:0:50:BeLL.wav
36,192,252628,128,0,253449:0:0:0:0:
402,192,252628,128,0,252730:0:0:0:0:
475,192,252628,128,0,252730:0:0:0:30:Clap.wav
256,192,252628,1,0,0:0:0:15:BeLL.wav
182,192,252833,128,0,253449:0:0:0:0:
329,192,253038,128,0,253449:0:0:0:0:
475,192,253244,128,0,253449:0:0:0:0:
402,192,254271,128,0,254580:0:0:0:0:
256,192,254271,128,0,254374:0:0:0:15:BeLL.wav
109,192,254271,128,0,254374:0:0:0:0:
182,192,255093,128,0,255401:0:0:0:0:
329,192,255093,128,0,255196:0:0:0:0:
475,192,255093,128,0,255196:0:0:0:15:BeLL.wav
36,192,255504,128,0,255607:0:0:0:15:BeLL.wav
109,192,255504,128,0,255607:0:0:0:0:
109,192,255915,128,0,256737:0:0:0:15:BeLL.wav
402,192,255915,128,0,256018:0:0:0:0:
256,192,255915,128,0,256018:0:0:0:0:
329,192,256121,128,0,256737:0:0:0:0:
182,192,256326,128,0,256737:0:0:0:0:
402,192,256532,128,0,256737:0:0:0:0:
329,192,257559,128,0,257867:0:0:0:0:
182,192,257559,128,0,257662:0:0:0:0:
36,192,257559,128,0,257662:0:0:0:15:BeLL.wav
109,192,258381,128,0,258689:0:0:0:0:
182,192,258792,128,0,258895:0:0:0:0:
329,192,258792,128,0,258895:0:0:0:15:BeLL.wav
36,192,259203,128,0,260025:0:0:0:0:
329,192,259203,128,0,259306:0:0:0:0:
475,192,259203,128,0,259306:0:0:0:15:BeLL.wav
256,192,259408,128,0,260025:0:0:0:0:
109,192,259614,128,0,260025:0:0:0:0:
329,192,259819,128,0,260025:0:0:0:0:
36,192,260847,128,0,260949:0:0:0:0:
182,192,260847,128,0,260949:0:0:0:15:BeLL.wav
402,192,260847,128,0,261155:0:0:0:0:
402,192,261669,128,0,261771:0:0:0:0:
36,192,261669,128,0,261977:0:0:0:0:
256,192,261669,128,0,261771:0:0:0:15:BeLL.wav
109,192,262080,128,0,262182:0:0:0:15:BeLL.wav
256,192,262080,128,0,262182:0:0:0:0:
182,192,262491,128,0,263312:0:0:0:0:
475,192,262491,128,0,262593:0:0:0:15:BeLL.wav
329,192,262491,128,0,262593:0:0:0:0:
256,192,262696,128,0,263312:0:0:0:0:
329,192,262901,128,0,263312:0:0:0:0:
402,192,263107,128,0,263312:0:0:0:0:
109,192,263312,128,0,263415:0:0:0:15:BeLL.wav
36,192,263312,128,0,263415:0:0:0:0:
256,192,263723,128,0,263826:0:0:0:0:
182,192,263723,128,0,263826:0:0:0:15:BeLL.wav
329,192,264134,128,0,264237:0:0:0:0:
402,192,264134,128,0,264237:0:0:0:15:BeLL.wav
109,192,264134,128,0,264443:0:0:0:0:
329,192,264751,128,0,264854:0:0:0:15:BeLL.wav
256,192,264751,128,0,264854:0:0:0:0:
109,192,264956,128,0,265265:0:0:0:0:
256,192,265367,128,0,265470:0:0:0:0:
182,192,265367,128,0,265470:0:0:0:15:BeLL.wav
109,192,265778,128,0,265881:0:0:0:0:
256,192,265778,128,0,266086:0:0:0:15:BeLL.wav
402,192,265778,128,0,266497:0:0:0:0:
475,192,265778,1,0,0:0:0:0:
182,192,265984,128,0,266086:0:0:0:0:
256,192,266189,128,0,266292:0:0:0:0:
329,192,266395,128,0,266497:0:0:0:0:
182,192,267422,128,0,267730:0:0:0:0:
36,192,267422,128,0,267525:0:0:0:0:
329,192,267422,128,0,267730:0:0:0:15:BeLL.wav
402,192,268244,128,0,268552:0:0:0:15:BeLL.wav
256,192,268244,128,0,268552:0:0:0:0:
109,192,268244,128,0,268347:0:0:0:0:
182,192,268655,128,0,268963:0:0:0:15:BeLL.wav
36,192,268655,128,0,268963:0:0:0:0:
329,192,269066,128,0,269374:0:0:0:0:
109,192,269066,128,0,269169:0:0:0:0:
475,192,269066,128,0,269785:0:0:0:15:BeLL.wav
182,192,269271,128,0,269374:0:0:0:0:
256,192,269477,128,0,269580:0:0:0:0:
329,192,269682,128,0,269785:0:0:0:0:
256,192,270710,128,0,271018:0:0:0:0:
109,192,270710,128,0,271018:0:0:0:0:
402,192,270710,128,0,270812:0:0:0:15:BeLL.wav
402,192,271532,128,0,271634:0:0:0:0:
36,192,271943,128,0,272251:0:0:0:15:BeLL.wav
182,192,271943,128,0,272251:0:0:0:0:
109,192,272354,128,0,273073:0:0:0:0:
475,192,272354,128,0,272867:0:0:0:15:BeLL.wav
329,192,272354,128,0,272456:0:0:0:0:
182,192,272559,128,0,272662:0:0:0:0:
402,192,272765,128,0,272867:0:0:0:0:
256,192,272970,128,0,273073:0:0:0:0:
182,192,273997,128,0,274100:0:0:0:0:
329,192,273997,128,0,274306:0:0:0:15:BeLL.wav
475,192,273997,128,0,274306:0:0:0:0:
256,192,274819,128,0,274922:0:0:0:0:
109,192,274819,128,0,275128:0:0:0:15:BeLL.wav
36,192,274819,128,0,275128:0:0:0:0:
256,192,275230,128,0,275538:0:0:0:0:
182,192,275230,128,0,275538:0:0:0:15:BeLL.wav
329,192,275641,128,0,276155:0:0:0:0:
402,192,275641,128,0,276360:0:0:0:15:BeLL.wav
109,192,275641,128,0,275744:0:0:0:0:
182,192,275847,128,0,275949:0:0:0:0:
256,192,276052,128,0,276155:0:0:0:0:
329,192,276258,128,0,276360:0:0:0:0:
109,192,276463,128,0,276771:0:0:0:0:
256,192,276463,128,0,276771:0:0:0:15:BeLL.wav
402,192,276874,128,0,277182:0:0:0:0:
256,192,276874,128,0,277182:0:0:0:15:BeLL.wav
475,192,277285,128,0,277593:0:0:0:0:
182,192,277285,128,0,278826:0:0:0:15:BeLL.wav
329,192,277285,128,0,277593:0:0:0:0:
36,192,277285,128,0,278826:0:0:0:0:
182,192,278929,1,0,0:0:0:30:Cymbal.wav
329,192,278929,128,0,279134:0:0:0:0:
109,192,278929,128,0,279032:0:0:0:30:KicK.wav
36,192,278929,128,0,279032:0:0:0:0:
475,192,278929,1,0,0:0:0:0:
402,192,279032,128,0,279186:0:0:0:0:
182,192,279134,1,0,0:0:0:0:
475,192,279134,128,0,279237:0:0:0:0:
402,192,279340,128,0,279545:0:0:0:0:
109,192,279340,128,0,279443:0:0:0:30:KicK.wav
36,192,279340,128,0,279443:0:0:0:0:
329,192,279443,128,0,279597:0:0:0:0:
182,192,279545,1,0,0:0:0:0:
256,192,279545,128,0,279648:0:0:0:0:
329,192,279751,128,0,279956:0:0:0:0:
109,192,279751,128,0,279854:0:0:0:30:KicK.wav
36,192,279751,128,0,279854:0:0:0:0:
402,192,279854,128,0,280008:0:0:0:0:
182,192,279956,1,0,0:0:0:0:
475,192,279956,128,0,280059:0:0:0:0:
402,192,280162,128,0,280367:0:0:0:0:
109,192,280162,128,0,280265:0:0:0:30:KicK.wav
36,192,280162,128,0,280265:0:0:0:0:
329,192,280265,128,0,280419:0:0:0:0:
182,192,280367,1,0,0:0:0:0:
256,192,280367,128,0,280470:0:0:0:0:
36,192,280573,128,0,280778:0:0:0:0:
329,192,280573,128,0,280675:0:0:0:30:KicK.wav
402,192,280573,128,0,280675:0:0:0:0:
109,192,280675,128,0,280830:0:0:0:0:
475,192,280778,1,0,0:0:0:0:
182,192,280778,128,0,280881:0:0:0:0:
256,192,280984,128,0,281189:0:0:0:0:
329,192,280984,128,0,281086:0:0:0:30:KicK.wav
402,192,280984,128,0,281086:0:0:0:0:
182,192,281086,128,0,281241:0:0:0:0:
475,192,281189,1,0,0:0:0:0:
109,192,281189,128,0,281292:0:0:0:0:
36,192,281395,128,0,281600:0:0:0:0:
329,192,281395,128,0,281497:0:0:0:30:KicK.wav
402,192,281395,128,0,281497:0:0:0:0:
109,192,281497,128,0,281651:0:0:0:0:
475,192,281600,1,0,0:0:0:0:
182,192,281600,128,0,281703:0:0:0:0:
256,192,281806,128,0,282011:0:0:0:0:
329,192,281806,128,0,281908:0:0:0:30:KicK.wav
402,192,281806,128,0,281908:0:0:0:0:
182,192,281908,128,0,282062:0:0:0:0:
475,192,282011,1,0,0:0:0:0:
109,192,282011,128,0,282114:0:0:0:0:
36,192,282217,128,0,282319:0:0:0:0:
182,192,282217,128,0,282319:0:0:0:30:KicK.wav
402,192,282217,128,0,282422:0:0:0:0:
329,192,282319,128,0,282473:0:0:0:0:
256,192,282422,128,0,282525:0:0:0:0:
109,192,282422,1,0,0:0:0:0:
182,192,282628,128,0,282730:0:0:0:30:KicK.wav
36,192,282628,128,0,282730:0:0:0:0:
329,192,282628,128,0,282833:0:0:0:0:
402,192,282730,128,0,282884:0:0:0:0:
109,192,282833,1,0,0:0:0:0:
475,192,282833,128,0,282936:0:0:0:0:
36,192,283038,128,0,283141:0:0:0:0:
182,192,283038,128,0,283141:0:0:0:30:KicK.wav
402,192,283038,128,0,283244:0:0:0:0:
329,192,283141,128,0,283295:0:0:0:0:
109,192,283244,1,0,0:0:0:0:
256,192,283244,128,0,283347:0:0:0:0:
182,192,283449,128,0,283552:0:0:0:30:KicK.wav
36,192,283449,128,0,283552:0:0:0:0:
329,192,283449,128,0,283655:0:0:0:0:
402,192,283552,128,0,283706:0:0:0:0:
109,192,283655,1,0,0:0:0:0:
475,192,283655,128,0,283758:0:0:0:0:
402,192,283860,128,0,284066:0:0:0:0:
36,192,283860,128,0,283963:0:0:0:0:
182,192,283860,128,0,283963:0:0:0:30:KicK.wav
329,192,283963,128,0,284117:0:0:0:0:
256,192,284066,128,0,284169:0:0:0:0:
109,192,284066,1,0,0:0:0:0:
329,192,284271,128,0,284477:0:0:0:0:
36,192,284271,128,0,284374:0:0:0:0:
182,192,284271,128,0,284374:0:0:0:30:KicK.wav
402,192,284374,128,0,284528:0:0:0:0:
475,192,284477,128,0,284580:0:0:0:0:
109,192,284477,1,0,0:0:0:0:
182,192,284682,128,0,284888:0:0:0:0:
402,192,284682,128,0,284785:0:0:0:0:
329,192,284682,128,0,284785:0:0:0:30:KicK.wav
109,192,284785,128,0,284939:0:0:0:0:
36,192,284888,128,0,284991:0:0:0:0:
475,192,284888,1,0,0:0:0:0:
109,192,285093,128,0,285299:0:0:0:0:
329,192,285093,128,0,285196:0:0:0:30:KicK.wav
402,192,285093,128,0,285196:0:0:0:0:
182,192,285196,128,0,285350:0:0:0:0:
256,192,285299,128,0,285401:0:0:0:0:
475,192,285299,1,0,0:0:0:0:
182,192,285504,128,0,285607:0:0:0:0:
109,192,285504,128,0,285607:0:0:0:30:KicK.wav
36,192,285504,1,0,0:0:0:30:Cymbal.wav
475,192,285504,128,0,285761:0:0:0:0:
329,192,285504,1,0,0:0:0:0:
402,192,285607,128,0,285812:0:0:0:0:
36,192,285710,1,0,0:0:0:0:
329,192,285710,128,0,285864:0:0:0:0:
256,192,285812,1,0,0:0:0:0:
182,192,285915,128,0,286018:0:0:0:0:
109,192,285915,128,0,286018:0:0:0:30:KicK.wav
475,192,285915,128,0,286172:0:0:0:0:
329,192,286018,128,0,286223:0:0:0:0:
36,192,286121,1,0,0:0:0:0:
402,192,286121,128,0,286275:0:0:0:0:
256,192,286223,1,0,0:0:0:0:
109,192,286326,128,0,286429:0:0:0:30:KicK.wav
182,192,286326,128,0,286429:0:0:0:0:
475,192,286326,128,0,286583:0:0:0:0:
402,192,286429,128,0,286634:0:0:0:0:
36,192,286532,1,0,0:0:0:0:
329,192,286532,128,0,286686:0:0:0:0:
256,192,286634,1,0,0:0:0:0:
182,192,286737,128,0,286840:0:0:0:0:
109,192,286737,128,0,286840:0:0:0:30:KicK.wav
475,192,286737,128,0,286994:0:0:0:0:
329,192,286840,128,0,287045:0:0:0:0:
36,192,286943,1,0,0:0:0:0:
402,192,286943,128,0,287097:0:0:0:0:
256,192,287045,1,0,0:0:0:0:
329,192,287148,128,0,287251:0:0:0:30:KicK.wav
475,192,287148,128,0,287251:0:0:0:0:
109,192,287148,128,0,287405:0:0:0:0:
182,192,287251,128,0,287456:0:0:0:0:
402,192,287354,1,0,0:0:0:0:
36,192,287354,128,0,287508:0:0:0:0:
256,192,287456,1,0,0:0:0:0:
329,192,287559,128,0,287662:0:0:0:30:KicK.wav
475,192,287559,128,0,287662:0:0:0:0:
109,192,287559,128,0,287816:0:0:0:0:
36,192,287662,128,0,287867:0:0:0:0:
402,192,287765,1,0,0:0:0:0:
182,192,287765,128,0,287919:0:0:0:0:
256,192,287867,1,0,0:0:0:0:
475,192,287970,128,0,288073:0:0:0:0:
329,192,287970,128,0,288073:0:0:0:30:KicK.wav
109,192,287970,128,0,288227:0:0:0:0:
182,192,288073,128,0,288278:0:0:0:0:
402,192,288175,1,0,0:0:0:0:
36,192,288175,128,0,288330:0:0:0:0:
256,192,288278,1,0,0:0:0:0:
329,192,288381,128,0,288484:0:0:0:30:KicK.wav
475,192,288381,128,0,288484:0:0:0:0:
109,192,288381,128,0,288638:0:0:0:0:
36,192,288484,128,0,288689:0:0:0:0:
402,192,288586,1,0,0:0:0:0:
182,192,288586,128,0,288741:0:0:0:0:
256,192,288689,1,0,0:0:0:0:
109,192,288792,128,0,288895:0:0:0:30:KicK.wav
402,192,288792,128,0,289049:0:0:0:0:
36,192,288792,128,0,288895:0:0:0:0:
329,192,288895,128,0,289100:0:0:0:0:
475,192,288997,1,0,0:0:0:0:
256,192,288997,128,0,289151:0:0:0:0:
182,192,289100,1,0,0:0:0:0:
36,192,289203,128,0,289306:0:0:0:0:
109,192,289203,128,0,289306:0:0:0:30:KicK.wav
402,192,289203,128,0,289460:0:0:0:0:
256,192,289306,128,0,289511:0:0:0:0:
475,192,289408,1,0,0:0:0:0:
329,192,289408,128,0,289562:0:0:0:0:
182,192,289511,1,0,0:0:0:0:
109,192,289614,128,0,289717:0:0:0:30:KicK.wav
36,192,289614,128,0,289717:0:0:0:0:
402,192,289614,128,0,289871:0:0:0:0:
329,192,289717,128,0,289922:0:0:0:0:
475,192,289819,1,0,0:0:0:0:
256,192,289819,128,0,289973:0:0:0:0:
182,192,289922,1,0,0:0:0:0:
36,192,290025,128,0,290128:0:0:0:0:
109,192,290025,128,0,290128:0:0:0:30:KicK.wav
402,192,290025,128,0,290282:0:0:0:0:
256,192,290128,128,0,290333:0:0:0:0:
329,192,290230,128,0,290384:0:0:0:0:
475,192,290230,1,0,0:0:0:0:
182,192,290333,1,0,0:0:0:0:
402,192,290436,128,0,290538:0:0:0:0:
475,192,290436,128,0,290538:0:0:0:30:KicK.wav
109,192,290436,128,0,290693:0:0:0:0:
256,192,290538,128,0,290744:0:0:0:0:
329,192,290641,1,0,0:0:0:0:
182,192,290641,128,0,290795:0:0:0:0:
36,192,290744,1,0,0:0:0:0:
402,192,290847,128,0,290949:0:0:0:0:
475,192,290847,128,0,290949:0:0:0:30:KicK.wav
109,192,290847,128,0,291104:0:0:0:0:
182,192,290949,128,0,291155:0:0:0:0:
329,192,291052,1,0,0:0:0:0:
256,192,291052,128,0,291206:0:0:0:0:
36,192,291155,1,0,0:0:0:0:
475,192,291258,128,0,291360:0:0:0:30:KicK.wav
402,192,291258,128,0,291360:0:0:0:0:
109,192,291258,128,0,291515:0:0:0:0:
256,192,291360,128,0,291566:0:0:0:0:
329,192,291463,1,0,0:0:0:0:
182,192,291463,128,0,291617:0:0:0:0:
36,192,291566,1,0,0:0:0:0:
402,192,291669,128,0,291771:0:0:0:0:
475,192,291669,128,0,291771:0:0:0:30:KicK.wav
109,192,291669,128,0,291925:0:0:0:0:
182,192,291771,128,0,291977:0:0:0:0:
329,192,291874,1,0,0:0:0:0:
256,192,291874,128,0,292028:0:0:0:0:
36,192,291977,1,0,0:0:0:0:
402,192,292080,1,0,0:0:0:30:Cymbal.wav
109,192,292080,1,0,0:0:0:0:
475,192,292080,1,0,0:0:0:30:KicK.wav
402,192,292182,1,0,0:0:0:0:
182,192,292182,1,0,0:0:0:0:
475,192,292182,1,0,0:0:0:30:KicK.wav
329,192,292285,1,0,0:0:0:0:
256,192,292285,1,0,0:0:0:30:KicK.wav
109,192,292285,1,0,0:0:0:0:
256,192,292388,1,0,0:0:0:30:KicK.wav
329,192,292388,1,0,0:0:0:0:
36,192,292388,1,0,0:0:0:0:
475,192,292491,1,0,0:0:0:0:
109,192,292491,1,0,0:0:0:0:
182,192,292491,1,0,0:0:0:30:KicK.wav
109,192,292593,1,0,0:0:0:30:KicK.wav
402,192,292593,1,0,0:0:0:0:
182,192,292593,1,0,0:0:0:0:
329,192,292696,1,0,0:0:0:0:
36,192,292696,1,0,0:0:0:0:
256,192,292696,1,0,0:0:0:30:KicK.wav
109,192,292799,1,0,0:0:0:0:
329,192,292799,1,0,0:0:0:0:
256,192,292799,1,0,0:0:0:30:KicK.wav
182,192,292901,1,0,0:0:0:0:
402,192,292901,1,0,0:0:0:30:KicK.wav
475,192,292901,1,0,0:0:0:0:
475,192,293004,1,0,0:0:0:0:
256,192,293004,1,0,0:0:0:0:
402,192,293004,1,0,0:0:0:30:KicK.wav
36,192,293107,1,0,0:0:0:0:
329,192,293107,1,0,0:0:0:0:
109,192,293107,1,0,0:0:0:30:KicK.wav
109,192,293210,1,0,0:0:0:30:KicK.wav
36,192,293210,1,0,0:0:0:0:
402,192,293210,1,0,0:0:0:0:
475,192,293312,1,0,0:0:0:0:
256,192,293312,1,0,0:0:0:0:
182,192,293312,1,0,0:0:0:30:KicK.wav
402,192,293415,1,0,0:0:0:0:
182,192,293415,1,0,0:0:0:30:KicK.wav
256,192,293415,1,0,0:0:0:0:
329,192,293518,1,0,0:0:0:30:KicK.wav
36,192,293518,1,0,0:0:0:0:
109,192,293518,1,0,0:0:0:0:
36,192,293621,1,0,0:0:0:0:
256,192,293621,1,0,0:0:0:30:KicK.wav
109,192,293621,1,0,0:0:0:0:
182,192,293723,1,0,0:0:0:30:Cymbal.wav
402,192,293723,1,0,0:0:0:0:
475,192,293723,1,0,0:0:0:30:KicK.wav
109,192,293826,1,0,0:0:0:0:
402,192,293826,1,0,0:0:0:0:
475,192,293826,1,0,0:0:0:30:KicK.wav
36,192,293929,1,0,0:0:0:0:
329,192,293929,1,0,0:0:0:30:KicK.wav
256,192,293929,1,0,0:0:0:0:
475,192,294032,1,0,0:0:0:0:
329,192,294032,1,0,0:0:0:30:KicK.wav
256,192,294032,1,0,0:0:0:0:
109,192,294134,1,0,0:0:0:0:
402,192,294134,1,0,0:0:0:0:
182,192,294134,1,0,0:0:0:30:KicK.wav
109,192,294237,1,0,0:0:0:0:
329,192,294237,1,0,0:0:0:0:
182,192,294237,1,0,0:0:0:30:KicK.wav
36,192,294340,1,0,0:0:0:30:KicK.wav
256,192,294340,1,0,0:0:0:0:
475,192,294340,1,0,0:0:0:0:
475,192,294443,1,0,0:0:0:0:
182,192,294443,1,0,0:0:0:0:
36,192,294443,1,0,0:0:0:30:KicK.wav
109,192,294545,1,0,0:0:0:0:
256,192,294545,1,0,0:0:0:0:
329,192,294545,1,0,0:0:0:30:KicK.wav
256,192,294648,1,0,0:0:0:0:
329,192,294648,1,0,0:0:0:30:KicK.wav
36,192,294648,1,0,0:0:0:0:
475,192,294751,1,0,0:0:0:0:
109,192,294751,1,0,0:0:0:30:KicK.wav
402,192,294751,1,0,0:0:0:0:
475,192,294854,1,0,0:0:0:0:
402,192,294854,1,0,0:0:0:0:
182,192,294854,1,0,0:0:0:30:KicK.wav
109,192,294956,1,0,0:0:0:0:
256,192,294956,1,0,0:0:0:0:
36,192,294956,1,0,0:0:0:30:KicK.wav
36,192,295059,1,0,0:0:0:30:KicK.wav
109,192,295059,1,0,0:0:0:0:
329,192,295059,1,0,0:0:0:0:
475,192,295162,1,0,0:0:0:0:
402,192,295162,1,0,0:0:0:30:KicK.wav
182,192,295162,1,0,0:0:0:0:
402,192,295265,1,0,0:0:0:30:KicK.wav
256,192,295265,1,0,0:0:0:0:
475,192,295265,1,0,0:0:0:0:
182,192,295367,1,0,0:0:0:30:KicK.wav
329,192,295367,1,0,0:0:0:30:Cymbal.wav
109,192,295367,1,0,0:0:0:0:
402,192,295470,1,0,0:0:0:30:KicK.wav
182,192,295470,1,0,0:0:0:0:
109,192,295470,1,0,0:0:0:0:
475,192,295573,1,0,0:0:0:30:KicK.wav
329,192,295573,1,0,0:0:0:0:
36,192,295573,1,0,0:0:0:0:
475,192,295675,1,0,0:0:0:30:KicK.wav
256,192,295675,1,0,0:0:0:0:
36,192,295675,1,0,0:0:0:0:
109,192,295778,1,0,0:0:0:30:KicK.wav
329,192,295778,1,0,0:0:0:0:
402,192,295778,1,0,0:0:0:0:
402,192,295881,1,0,0:0:0:0:
329,192,295881,1,0,0:0:0:0:
182,192,295881,1,0,0:0:0:30:KicK.wav
109,192,295984,1,0,0:0:0:30:KicK.wav
36,192,295984,1,0,0:0:0:0:
256,192,295984,1,0,0:0:0:0:
329,192,296086,1,0,0:0:0:0:
109,192,296086,1,0,0:0:0:30:KicK.wav
36,192,296086,1,0,0:0:0:0:
256,192,296189,1,0,0:0:0:0:
182,192,296189,1,0,0:0:0:30:KicK.wav
402,192,296189,1,0,0:0:0:0:
256,192,296292,1,0,0:0:0:0:
182,192,296292,1,0,0:0:0:30:KicK.wav
475,192,296292,1,0,0:0:0:0:
329,192,296395,1,0,0:0:0:0:
402,192,296395,1,0,0:0:0:30:KicK.wav
109,192,296395,1,0,0:0:0:0:
36,192,296497,1,0,0:0:0:0:
402,192,296497,1,0,0:0:0:0:
329,192,296497,1,0,0:0:0:30:KicK.wav
256,192,296600,1,0,0:0:0:30:KicK.wav
182,192,296600,1,0,0:0:0:0:
475,192,296600,1,0,0:0:0:0:
256,192,296703,1,0,0:0:0:30:KicK.wav
182,192,296703,1,0,0:0:0:0:
402,192,296703,1,0,0:0:0:0:
36,192,296806,1,0,0:0:0:30:KicK.wav
109,192,296806,1,0,0:0:0:0:
329,192,296806,1,0,0:0:0:0:
109,192,296908,1,0,0:0:0:30:KicK.wav
36,192,296908,1,0,0:0:0:0:
256,192,296908,1,0,0:0:0:0:
182,192,297011,1,0,0:0:0:30:Cymbal.wav
402,192,297011,1,0,0:0:0:30:KicK.wav
475,192,297011,1,0,0:0:0:0:
256,192,297114,1,0,0:0:0:0:
402,192,297114,1,0,0:0:0:30:KicK.wav
475,192,297114,1,0,0:0:0:0:
36,192,297217,1,0,0:0:0:0:
329,192,297217,1,0,0:0:0:30:KicK.wav
109,192,297217,1,0,0:0:0:0:
36,192,297319,1,0,0:0:0:0:
402,192,297319,1,0,0:0:0:30:KicK.wav
109,192,297319,1,0,0:0:0:0:
475,192,297422,1,0,0:0:0:30:KicK.wav
182,192,297422,1,0,0:0:0:0:
256,192,297422,1,0,0:0:0:0:
182,192,297525,5,0,0:0:0:0:
36,192,297525,5,0,0:0:0:0:
256,192,297525,1,0,0:0:0:30:KicK.wav
329,192,297628,1,0,0:0:0:30:KicK.wav
402,192,297628,1,0,0:0:0:0:
109,192,297628,1,0,0:0:0:0:
402,192,297730,1,0,0:0:0:30:KicK.wav
329,192,297730,1,0,0:0:0:0:
182,192,297730,1,0,0:0:0:0:
256,192,297833,1,0,0:0:0:30:KicK.wav
36,192,297833,1,0,0:0:0:0:
475,192,297833,1,0,0:0:0:0:
329,192,297936,1,0,0:0:0:30:KicK.wav
475,192,297936,1,0,0:0:0:0:
36,192,297936,1,0,0:0:0:0:
182,192,298038,1,0,0:0:0:30:KicK.wav
109,192,298038,1,0,0:0:0:0:
402,192,298038,1,0,0:0:0:0:
109,192,298141,1,0,0:0:0:30:KicK.wav
182,192,298141,1,0,0:0:0:0:
329,192,298141,1,0,0:0:0:0:
256,192,298244,1,0,0:0:0:0:
475,192,298244,1,0,0:0:0:0:
36,192,298244,1,0,0:0:0:30:KicK.wav
475,192,298347,1,0,0:0:0:30:KicK.wav
182,192,298347,1,0,0:0:0:0:
36,192,298347,1,0,0:0:0:0:
402,192,298449,1,0,0:0:0:0:
329,192,298449,1,0,0:0:0:0:
109,192,298449,1,0,0:0:0:30:KicK.wav
182,192,298552,1,0,0:0:0:30:KicK.wav
402,192,298552,1,0,0:0:0:0:
329,192,298552,1,0,0:0:0:0:
36,192,298655,5,0,0:0:0:0:
256,192,298655,1,0,0:0:0:30:Cymbal.wav
475,192,298655,1,0,0:0:0:30:KicK.wav
109,192,298655,1,0,0:0:0:0:
402,192,298706,1,0,0:0:0:0:
329,192,298758,1,0,0:0:0:0:
36,192,298809,1,0,0:0:0:0:
109,192,298860,1,0,0:0:0:0:
182,192,298912,1,0,0:0:0:0:
475,192,298963,1,0,0:0:0:0:
402,192,299015,1,0,0:0:0:0:
329,192,299066,1,0,0:0:0:0:
36,192,299117,1,0,0:0:0:0:
109,192,299169,1,0,0:0:0:0:
182,192,299220,1,0,0:0:0:0:
475,192,299271,1,0,0:0:0:0:
402,192,299323,1,0,0:0:0:0:
329,192,299374,1,0,0:0:0:0:
256,192,299425,1,0,0:0:0:0:
182,192,299477,1,0,0:0:0:0:
475,192,299477,1,0,0:0:0:0:
109,192,299528,1,0,0:0:0:0:
402,192,299580,1,0,0:0:0:0:
36,192,299631,1,0,0:0:0:0:
109,192,299682,1,0,0:0:0:0:
329,192,299682,1,0,0:0:0:0:
182,192,299734,1,0,0:0:0:0:
256,192,299785,1,0,0:0:0:0:
329,192,299836,1,0,0:0:0:0:
402,192,299888,1,0,0:0:0:0:
36,192,299888,1,0,0:0:0:0:
109,192,299991,1,0,0:0:0:0:
475,192,300042,1,0,0:0:0:0:
402,192,300093,1,0,0:0:0:0:
182,192,300093,1,0,0:0:0:0:
329,192,300145,1,0,0:0:0:0:
256,192,300196,1,0,0:0:0:0:
182,192,300247,1,0,0:0:0:0:
109,192,300299,1,0,0:0:0:0:
475,192,300299,1,0,0:0:0:0:
402,192,300350,1,0,0:0:0:0:
36,192,300401,1,0,0:0:0:0:
329,192,300401,1,0,0:0:0:0:
109,192,300453,1,0,0:0:0:0:
182,192,300504,1,0,0:0:0:0:
475,192,300504,1,0,0:0:0:0:
256,192,300556,1,0,0:0:0:0:
36,192,300607,1,0,0:0:0:0:
329,192,300607,1,0,0:0:0:0:
109,192,300658,1,0,0:0:0:0:
182,192,300710,1,0,0:0:0:0:
475,192,300710,1,0,0:0:0:0:
402,192,300761,1,0,0:0:0:0:
329,192,300812,1,0,0:0:0:0:
36,192,300812,1,0,0:0:0:0:
256,192,300864,1,0,0:0:0:0:
475,192,300915,1,0,0:0:0:0:
182,192,300915,1,0,0:0:0:0:
402,192,300967,1,0,0:0:0:0:
329,192,301018,1,0,0:0:0:0:
36,192,301018,1,0,0:0:0:0:
109,192,301069,1,0,0:0:0:0:
182,192,301121,1,0,0:0:0:0:
475,192,301121,1,0,0:0:0:0:
329,192,301172,1,0,0:0:0:0:
256,192,301172,1,0,0:0:0:0:
36,192,301223,1,0,0:0:0:0:
109,192,301223,1,0,0:0:0:0:
182,192,301275,1,0,0:0:0:0:
475,192,301275,1,0,0:0:0:0:
402,192,301326,1,0,0:0:0:0:
329,192,301326,1,0,0:0:0:0:
256,192,301378,1,0,0:0:0:0:
36,192,301378,1,0,0:0:0:0:
182,192,301429,1,0,0:0:0:0:
109,192,301429,1,0,0:0:0:0:
475,192,301480,1,0,0:0:0:0:
402,192,301480,1,0,0:0:0:0:
329,192,301532,1,0,0:0:0:0:
36,192,301532,1,0,0:0:0:0:
182,192,301583,1,0,0:0:0:0:
256,192,301583,1,0,0:0:0:0:
402,192,301634,1,0,0:0:0:0:
475,192,301634,1,0,0:0:0:0:
329,192,301686,1,0,0:0:0:0:
36,192,301686,1,0,0:0:0:0:
182,192,301737,1,0,0:0:0:0:
109,192,301737,1,0,0:0:0:0:
475,192,301788,1,0,0:0:0:0:
256,192,301788,1,0,0:0:0:0:
329,192,301840,1,0,0:0:0:0:
402,192,301840,1,0,0:0:0:0:
36,192,301891,1,0,0:0:0:0:
109,192,301891,1,0,0:0:0:0:
475,192,301943,1,0,0:0:0:0:
182,192,301943,1,0,0:0:0:0:
402,192,301977,1,0,0:0:0:0:
329,192,302011,1,0,0:0:0:0:
256,192,302045,1,0,0:0:0:0:
36,192,302080,1,0,0:0:0:0:
109,192,302114,1,0,0:0:0:0:
182,192,302148,1,0,0:0:0:0:
256,192,302182,1,0,0:0:0:0:
329,192,302217,1,0,0:0:0:0:
402,192,302251,1,0,0:0:0:0:
475,192,302285,1,0,0:0:0:0:
256,192,302319,1,0,0:0:0:0:
182,192,302354,1,0,0:0:0:0:
109,192,302388,1,0,0:0:0:0:
36,192,302422,1,0,0:0:0:0:
475,192,302456,1,0,0:0:0:0:
402,192,302491,1,0,0:0:0:0:
329,192,302525,1,0,0:0:0:0:
256,192,302559,1,0,0:0:0:0:
182,192,302593,1,0,0:0:0:0:
109,192,302628,1,0,0:0:0:0:
36,192,302662,1,0,0:0:0:0:
256,192,302696,1,0,0:0:0:0:
329,192,302730,1,0,0:0:0:0:
402,192,302765,1,0,0:0:0:0:
475,192,302799,1,0,0:0:0:0:
36,192,302833,1,0,0:0:0:0:
109,192,302867,1,0,0:0:0:0:
182,192,302901,1,0,0:0:0:0:
475,192,302936,1,0,0:0:0:0:
402,192,302970,1,0,0:0:0:0:
329,192,303004,1,0,0:0:0:0:
182,192,303038,1,0,0:0:0:0:
109,192,303073,1,0,0:0:0:0:
36,192,303107,1,0,0:0:0:0:
329,192,303141,1,0,0:0:0:0:
402,192,303175,1,0,0:0:0:0:
475,192,303210,1,0,0:0:0:0:
36,192,303244,1,0,0:0:0:0:
109,192,303278,1,0,0:0:0:0:
182,192,303312,1,0,0:0:0:0:
256,192,303347,1,0,0:0:0:0:
329,192,303381,1,0,0:0:0:0:
402,192,303415,1,0,0:0:0:0:
182,192,303449,1,0,0:0:0:0:
256,192,303484,1,0,0:0:0:0:
329,192,303518,1,0,0:0:0:0:
402,192,303552,1,0,0:0:0:0:
109,192,303586,1,0,0:0:0:0:
36,192,303586,1,0,0:0:0:0:
475,192,303586,1,0,0:0:0:0:
36,192,303997,1,0,0:0:0:0:
109,192,303997,1,0,0:0:0:0:
109,192,304408,1,0,0:0:0:0:
36,192,304408,1,0,0:0:0:0:
329,192,304408,1,0,0:0:0:0:
36,192,304614,1,0,0:0:0:0:
109,192,304614,1,0,0:0:0:0:
329,192,304614,1,0,0:0:0:0:
475,192,304717,1,0,0:0:0:0:
109,192,304819,1,0,0:0:0:0:
36,192,304819,1,0,0:0:0:0:
475,192,304922,1,0,0:0:0:0:
36,192,305025,1,0,0:0:0:0:
109,192,305025,1,0,0:0:0:0:
402,192,305025,1,0,0:0:0:0:
329,192,305128,1,0,0:0:0:0:
402,192,305230,5,0,0:0:0:30:KicK.wav
36,192,305230,128,0,305333:0:0:0:0:
256,192,305230,128,0,305436:0:0:0:50:Synth.wav
475,192,305230,1,0,0:0:0:30:Cymbal.wav
182,192,305230,1,0,0:0:0:0:
329,192,305333,128,0,305538:0:0:0:50:Synth.wav
109,192,305333,128,0,305436:0:0:0:0:
402,192,305436,128,0,305641:0:0:0:50:Synth.wav
182,192,305436,128,0,305538:0:0:0:0:
475,192,305538,128,0,305744:0:0:0:50:Synth.wav
256,192,305538,128,0,305641:0:0:0:0:
36,192,305641,1,0,0:0:0:30:Snare.wav
329,192,305641,128,0,305744:0:0:0:0:
109,192,305641,1,0,0:0:0:0:
36,192,305744,128,0,305949:0:0:0:50:Synth.wav
109,192,305744,128,0,305847:0:0:0:0:
256,192,305847,128,0,306052:0:0:0:50:Synth.wav
329,192,305847,128,0,305949:0:0:0:0:
182,192,305949,128,0,306155:0:0:0:50:Synth.wav
402,192,305949,128,0,306052:0:0:0:0:
475,192,306052,128,0,306155:0:0:0:0:
329,192,306052,1,0,0:0:0:30:KicK.wav
109,192,306052,128,0,306258:0:0:0:50:Synth.wav
36,192,306052,1,0,0:0:0:0:
402,192,306155,128,0,306360:0:0:0:50:Synth.wav
256,192,306155,128,0,306258:0:0:0:0:
36,192,306258,128,0,306360:0:0:0:0:
329,192,306258,128,0,306463:0:0:0:50:Synth.wav
109,192,306360,128,0,306463:0:0:0:0:
256,192,306360,128,0,306566:0:0:0:50:Synth.wav
182,192,306463,128,0,306566:0:0:0:0:
475,192,306463,1,0,0:0:0:30:Snare.wav
402,192,306463,1,0,0:0:0:0:
475,192,306566,128,0,306771:0:0:0:50:Synth.wav
402,192,306566,128,0,306669:0:0:0:0:
182,192,306669,128,0,306874:0:0:0:50:Synth.wav
329,192,306669,128,0,306771:0:0:0:0:
109,192,306771,128,0,306977:0:0:0:50:Synth.wav
256,192,306771,128,0,306874:0:0:0:0:
36,192,306874,128,0,307080:0:0:0:50:Synth.wav
329,192,306874,1,0,0:0:0:0:
402,192,306874,128,0,306977:0:0:0:0:
475,192,306874,1,0,0:0:0:30:KicK.wav
256,192,306977,128,0,307182:0:0:0:50:Synth.wav
182,192,306977,128,0,307080:0:0:0:0:
329,192,307080,128,0,307285:0:0:0:50:Synth.wav
109,192,307080,128,0,307182:0:0:0:0:
402,192,307182,128,0,307388:0:0:0:50:Synth.wav
36,192,307182,128,0,307285:0:0:0:0:
182,192,307285,1,0,0:0:0:0:
109,192,307285,1,0,0:0:0:30:Snare.wav
475,192,307285,128,0,307388:0:0:0:0:
182,192,307388,128,0,307491:0:0:0:0:
109,192,307388,128,0,307593:0:0:0:50:Synth.wav
329,192,307491,128,0,307593:0:0:0:0:
256,192,307491,128,0,307696:0:0:0:50:Synth.wav
402,192,307593,128,0,307799:0:0:0:50:Synth.wav
475,192,307593,128,0,307696:0:0:0:0:
109,192,307696,128,0,307799:0:0:0:0:
36,192,307696,1,0,0:0:0:0:
329,192,307696,128,0,307901:0:0:0:50:Synth.wav
182,192,307696,1,0,0:0:0:30:KicK.wav
475,192,307799,128,0,307901:0:0:0:0:
256,192,307799,128,0,308004:0:0:0:50:Synth.wav
109,192,307901,128,0,308107:0:0:0:50:Synth.wav
402,192,307901,128,0,308004:0:0:0:0:
182,192,308004,128,0,308210:0:0:0:50:Synth.wav
475,192,308004,128,0,308107:0:0:0:0:
36,192,308107,128,0,308210:0:0:0:0:
402,192,308107,1,0,0:0:0:0:
329,192,308107,1,0,0:0:0:30:Snare.wav
329,192,308210,128,0,308312:0:0:0:50:Synth.wav
109,192,308210,128,0,308312:0:0:0:0:
402,192,308210,128,0,308312:0:0:0:0:
182,192,308312,128,0,308415:0:0:0:0:
36,192,308415,128,0,308518:0:0:0:50:Synth.wav
256,192,308415,128,0,308518:0:0:0:0:
475,192,308415,128,0,308518:0:0:0:0:
329,192,308518,128,0,308621:0:0:0:30:KicK.wav
182,192,308518,128,0,308723:0:0:0:30:Cymbal.wav
402,192,308518,1,0,0:0:0:0:
109,192,308518,1,0,0:0:0:50:Synth.wav
475,192,308621,128,0,308723:0:0:0:0:
256,192,308621,128,0,308826:0:0:0:50:Synth.wav
109,192,308723,128,0,308826:0:0:0:0:
329,192,308723,128,0,308929:0:0:0:50:Synth.wav
182,192,308826,128,0,308929:0:0:0:0:
402,192,308826,128,0,309032:0:0:0:50:Synth.wav
256,192,308929,128,0,309032:0:0:0:0:
36,192,308929,1,0,0:0:0:30:Snare.wav
109,192,308929,1,0,0:0:0:0:
109,192,309032,128,0,309134:0:0:0:0:
36,192,309032,128,0,309237:0:0:0:50:Synth.wav
256,192,309134,128,0,309340:0:0:0:50:Synth.wav
402,192,309134,128,0,309237:0:0:0:0:
329,192,309237,128,0,309340:0:0:0:0:
182,192,309237,128,0,309443:0:0:0:50:Synth.wav
475,192,309340,1,0,0:0:0:30:KicK.wav
36,192,309340,1,0,0:0:0:0:
402,192,309340,128,0,309443:0:0:0:0:
109,192,309340,128,0,309545:0:0:0:50:Synth.wav
256,192,309443,128,0,309545:0:0:0:0:
329,192,309443,128,0,309648:0:0:0:50:Synth.wav
402,192,309545,128,0,309751:0:0:0:50:Synth.wav
182,192,309545,128,0,309648:0:0:0:0:
475,192,309648,128,0,309854:0:0:0:50:Synth.wav
109,192,309648,128,0,309751:0:0:0:0:
256,192,309751,1,0,0:0:0:0:
329,192,309751,1,0,0:0:0:30:Snare.wav
36,192,309751,128,0,309854:0:0:0:0:
329,192,309854,128,0,309956:0:0:0:0:
256,192,309854,128,0,310059:0:0:0:50:Synth.wav
402,192,309956,128,0,310059:0:0:0:0:
182,192,309956,128,0,310162:0:0:0:50:Synth.wav
329,192,310059,128,0,310162:0:0:0:0:
109,192,310059,128,0,310265:0:0:0:50:Synth.wav
36,192,310162,128,0,310265:0:0:0:0:
475,192,310162,1,0,0:0:0:30:KicK.wav
402,192,310162,1,0,0:0:0:0:
256,192,310162,128,0,310367:0:0:0:50:Synth.wav
182,192,310265,128,0,310367:0:0:0:0:
329,192,310265,128,0,310470:0:0:0:50:Synth.wav
109,192,310367,128,0,310470:0:0:0:0:
402,192,310367,128,0,310573:0:0:0:50:Synth.wav
256,192,310470,128,0,310573:0:0:0:0:
475,192,310470,128,0,310675:0:0:0:50:Synth.wav
36,192,310573,1,0,0:0:0:30:Snare.wav
182,192,310573,1,0,0:0:0:0:
329,192,310573,128,0,310675:0:0:0:0:
36,192,310675,128,0,310881:0:0:0:50:Synth.wav
182,192,310675,128,0,310778:0:0:0:0:
109,192,310778,128,0,310984:0:0:0:50:Synth.wav
329,192,310778,128,0,310881:0:0:0:0:
402,192,310881,128,0,310984:0:0:0:0:
182,192,310881,128,0,311086:0:0:0:50:Synth.wav
256,192,310984,128,0,311189:0:0:0:50:Synth.wav
36,192,310984,1,0,0:0:0:30:KicK.wav
475,192,310984,128,0,311086:0:0:0:0:
329,192,310984,1,0,0:0:0:0:
402,192,311086,128,0,311292:0:0:0:50:Synth.wav
109,192,311086,128,0,311189:0:0:0:0:
182,192,311189,128,0,311292:0:0:0:0:
329,192,311189,128,0,311395:0:0:0:50:Synth.wav
475,192,311292,128,0,311395:0:0:0:0:
256,192,311292,128,0,311497:0:0:0:50:Synth.wav
109,192,311395,1,0,0:0:0:30:Snare.wav
36,192,311395,1,0,0:0:0:0:
402,192,311395,128,0,311497:0:0:0:0:
36,192,311497,128,0,311600:0:0:0:0:
109,192,311497,128,0,311600:0:0:0:50:Synth.wav
329,192,311497,128,0,311600:0:0:0:0:
182,192,311600,128,0,311703:0:0:0:0:
475,192,311703,128,0,311806:0:0:0:50:Synth.wav
256,192,311703,128,0,311806:0:0:0:0:
402,192,311703,128,0,311806:0:0:0:0:
182,192,311806,1,0,0:0:0:30:KicK.wav
329,192,311806,128,0,311908:0:0:0:0:
36,192,311806,128,0,312011:0:0:0:50:Synth.wav
109,192,311806,1,0,0:0:0:0:
402,192,311908,128,0,312011:0:0:0:0:
256,192,311908,128,0,312114:0:0:0:50:Synth.wav
475,192,312011,128,0,312114:0:0:0:0:
109,192,312011,128,0,312217:0:0:0:50:Synth.wav
36,192,312114,128,0,312217:0:0:0:0:
329,192,312114,128,0,312319:0:0:0:50:Synth.wav
182,192,312217,128,0,312319:0:0:0:0:
402,192,312217,1,0,0:0:0:30:Snare.wav
475,192,312217,1,0,0:0:0:0:
475,192,312319,128,0,312422:0:0:0:0:
402,192,312319,128,0,312525:0:0:0:50:Synth.wav
182,192,312422,128,0,312525:0:0:0:0:
329,192,312422,128,0,312628:0:0:0:50:Synth.wav
109,192,312525,128,0,312628:0:0:0:0:
256,192,312525,128,0,312730:0:0:0:50:Synth.wav
36,192,312628,1,0,0:0:0:30:KicK.wav
475,192,312628,1,0,0:0:0:0:
182,192,312628,128,0,312833:0:0:0:50:Synth.wav
402,192,312628,128,0,312730:0:0:0:0:
109,192,312730,128,0,312833:0:0:0:0:
329,192,312730,128,0,312936:0:0:0:50:Synth.wav
402,192,312833,128,0,313038:0:0:0:50:Synth.wav
36,192,312833,128,0,312936:0:0:0:0:
475,192,312936,128,0,313141:0:0:0:50:Synth.wav
182,192,312936,128,0,313038:0:0:0:0:
109,192,313038,1,0,0:0:0:0:
36,192,313038,1,0,0:0:0:30:Snare.wav
329,192,313038,128,0,313141:0:0:0:0:
109,192,313141,128,0,313244:0:0:0:0:
36,192,313141,128,0,313347:0:0:0:50:Synth.wav
256,192,313244,128,0,313347:0:0:0:0:
402,192,313244,128,0,313449:0:0:0:50:Synth.wav
182,192,313347,128,0,313449:0:0:0:0:
329,192,313347,128,0,313552:0:0:0:50:Synth.wav
475,192,313449,1,0,0:0:0:30:KicK.wav
36,192,313449,1,0,0:0:0:0:
256,192,313449,128,0,313655:0:0:0:50:Synth.wav
109,192,313449,128,0,313552:0:0:0:0:
182,192,313552,128,0,313655:0:0:0:0:
402,192,313552,128,0,313758:0:0:0:50:Synth.wav
109,192,313655,128,0,313758:0:0:0:0:
329,192,313655,128,0,313860:0:0:0:50:Synth.wav
36,192,313758,128,0,313860:0:0:0:0:
475,192,313758,128,0,313963:0:0:0:50:Synth.wav
256,192,313860,1,0,0:0:0:30:Snare.wav
182,192,313860,1,0,0:0:0:0:
402,192,313860,128,0,313963:0:0:0:0:
182,192,313963,128,0,314169:0:0:0:50:Synth.wav
256,192,313963,128,0,314066:0:0:0:0:
109,192,314066,128,0,314271:0:0:0:50:Synth.wav
402,192,314066,128,0,314169:0:0:0:0:
329,192,314169,128,0,314271:0:0:0:0:
36,192,314169,128,0,314374:0:0:0:50:Synth.wav
256,192,314271,128,0,314477:0:0:0:50:Synth.wav
402,192,314271,1,0,0:0:0:30:KicK.wav
182,192,314271,128,0,314374:0:0:0:0:
475,192,314271,1,0,0:0:0:0:
329,192,314374,128,0,314580:0:0:0:50:Synth.wav
109,192,314374,128,0,314477:0:0:0:0:
182,192,314477,128,0,314580:0:0:0:0:
402,192,314477,128,0,314682:0:0:0:50:Synth.wav
256,192,314580,128,0,314682:0:0:0:0:
475,192,314580,128,0,314785:0:0:0:50:Synth.wav
36,192,314682,1,0,0:0:0:0:
182,192,314682,1,0,0:0:0:30:Snare.wav
329,192,314682,128,0,314785:0:0:0:0:
182,192,314785,128,0,314888:0:0:0:0:
36,192,314785,128,0,314888:0:0:0:50:Synth.wav
402,192,314785,128,0,314888:0:0:0:0:
329,192,314888,128,0,314991:0:0:0:0:
256,192,314991,128,0,315093:0:0:0:0:
475,192,314991,128,0,315093:0:0:0:50:Synth.wav
109,192,314991,128,0,315093:0:0:0:0:
182,192,315093,1,0,0:0:0:0:
402,192,315093,128,0,315196:0:0:0:30:KicK.wav
36,192,315093,128,0,315299:0:0:0:50:Synth.wav
329,192,315093,1,0,0:0:0:0:
256,192,315196,128,0,315299:0:0:0:0:
109,192,315196,128,0,315401:0:0:0:50:Synth.wav
182,192,315299,128,0,315504:0:0:0:50:Synth.wav
329,192,315299,128,0,315401:0:0:0:0:
256,192,315401,128,0,315607:0:0:0:50:Synth.wav
402,192,315401,128,0,315504:0:0:0:0:
109,192,315504,1,0,0:0:0:30:Snare.wav
36,192,315504,1,0,0:0:0:50:Synth.wav
475,192,315504,128,0,315607:0:0:0:0:
36,192,315607,128,0,315812:0:0:0:50:Synth.wav
109,192,315607,128,0,315710:0:0:0:0:
475,192,315710,128,0,315812:0:0:0:0:
256,192,315710,128,0,315915:0:0:0:50:Synth.wav
182,192,315812,128,0,316018:0:0:0:50:Synth.wav
402,192,315812,128,0,315915:0:0:0:0:
36,192,315915,128,0,316018:0:0:0:0:
109,192,315915,128,0,316121:0:0:0:50:Synth.wav
329,192,315915,1,0,0:0:0:30:KicK.wav
475,192,315915,1,0,0:0:0:0:
402,192,316018,128,0,316223:0:0:0:50:Synth.wav
256,192,316018,128,0,316121:0:0:0:0:
182,192,316121,128,0,316223:0:0:0:0:
329,192,316121,128,0,316326:0:0:0:50:Synth.wav
109,192,316223,128,0,316326:0:0:0:0:
475,192,316223,128,0,316429:0:0:0:50:Synth.wav
36,192,316326,128,0,316429:0:0:0:0:
182,192,316326,1,0,0:0:0:30:Snare.wav
256,192,316326,1,0,0:0:0:0:
182,192,316429,128,0,316634:0:0:0:50:Synth.wav
256,192,316429,128,0,316532:0:0:0:0:
109,192,316532,128,0,316737:0:0:0:50:Synth.wav
329,192,316532,128,0,316634:0:0:0:0:
36,192,316634,128,0,316840:0:0:0:50:Synth.wav
402,192,316634,128,0,316737:0:0:0:0:
329,192,316737,1,0,0:0:0:0:
182,192,316737,128,0,316943:0:0:0:50:Synth.wav
475,192,316737,128,0,316840:0:0:0:0:
256,192,316737,1,0,0:0:0:30:KicK.wav
402,192,316840,128,0,317045:0:0:0:50:Synth.wav
109,192,316840,128,0,316943:0:0:0:0:
256,192,316943,128,0,317148:0:0:0:50:Synth.wav
329,192,316943,128,0,317045:0:0:0:0:
475,192,317045,128,0,317251:0:0:0:50:Synth.wav
109,192,317045,128,0,317148:0:0:0:0:
182,192,317148,128,0,317251:0:0:0:0:
402,192,317148,1,0,0:0:0:0:
329,192,317148,1,0,0:0:0:30:Snare.wav
329,192,317251,128,0,317354:0:0:0:0:
402,192,317251,128,0,317456:0:0:0:50:Synth.wav
182,192,317354,128,0,317456:0:0:0:0:
256,192,317354,128,0,317559:0:0:0:50:Synth.wav
109,192,317456,128,0,317662:0:0:0:50:Synth.wav
36,192,317456,128,0,317559:0:0:0:0:
402,192,317559,128,0,317662:0:0:0:0:
475,192,317559,1,0,0:0:0:0:
182,192,317559,128,0,317765:0:0:0:50:Synth.wav
329,192,317559,1,0,0:0:0:30:KicK.wav
36,192,317662,128,0,317765:0:0:0:0:
256,192,317662,128,0,317867:0:0:0:50:Synth.wav
329,192,317765,128,0,317970:0:0:0:50:Synth.wav
109,192,317765,128,0,317867:0:0:0:0:
402,192,317867,128,0,318073:0:0:0:50:Synth.wav
182,192,317867,128,0,317970:0:0:0:0:
475,192,317970,128,0,318073:0:0:0:0:
36,192,317970,1,0,0:0:0:0:
109,192,317970,1,0,0:0:0:30:Snare.wav
256,192,318073,128,0,318175:0:0:0:50:Synth.wav
109,192,318073,128,0,318175:0:0:0:0:
36,192,318073,128,0,318175:0:0:0:0:
475,192,318175,128,0,318278:0:0:0:0:
402,192,318278,128,0,318381:0:0:0:0:
329,192,318278,128,0,318381:0:0:0:50:Synth.wav
182,192,318278,128,0,318381:0:0:0:0:
36,192,318381,1,0,0:0:0:0:
475,192,318381,1,0,0:0:0:50:Synth.wav
109,192,318381,128,0,318586:0:0:0:30:KicK.wav
256,192,318381,128,0,318484:0:0:0:30:Cymbal.wav
402,192,318484,128,0,318586:0:0:0:0:
182,192,318484,128,0,318689:0:0:0:50:Synth.wav
329,192,318586,128,0,318689:0:0:0:0:
36,192,318586,128,0,318792:0:0:0:50:Synth.wav
402,192,318689,128,0,318792:0:0:0:0:
109,192,318689,128,0,318895:0:0:0:50:Synth.wav
182,192,318792,1,0,0:0:0:0:
475,192,318792,128,0,318895:0:0:0:0:
329,192,318792,1,0,0:0:0:30:Snare.wav
182,192,318895,128,0,318997:0:0:0:0:
329,192,318895,128,0,319100:0:0:0:50:Synth.wav
109,192,318997,128,0,319100:0:0:0:0:
256,192,318997,128,0,319203:0:0:0:50:Synth.wav
36,192,319100,128,0,319203:0:0:0:0:
182,192,319100,128,0,319306:0:0:0:50:Synth.wav
329,192,319203,1,0,0:0:0:30:KicK.wav
475,192,319203,1,0,0:0:0:0:
109,192,319203,128,0,319408:0:0:0:50:Synth.wav
402,192,319203,128,0,319306:0:0:0:0:
36,192,319306,128,0,319408:0:0:0:0:
256,192,319306,128,0,319511:0:0:0:50:Synth.wav
329,192,319408,128,0,319614:0:0:0:50:Synth.wav
182,192,319408,128,0,319511:0:0:0:0:
402,192,319511,128,0,319717:0:0:0:50:Synth.wav
109,192,319511,128,0,319614:0:0:0:0:
256,192,319614,1,0,0:0:0:0:
475,192,319614,1,0,0:0:0:30:Snare.wav
36,192,319614,128,0,319717:0:0:0:0:
475,192,319717,128,0,319819:0:0:0:0:
256,192,319717,128,0,319922:0:0:0:50:Synth.wav
402,192,319819,128,0,319922:0:0:0:0:
182,192,319819,128,0,320025:0:0:0:50:Synth.wav
329,192,319922,128,0,320025:0:0:0:0:
109,192,319922,128,0,320128:0:0:0:50:Synth.wav
475,192,320025,128,0,320128:0:0:0:0:
402,192,320025,1,0,0:0:0:30:KicK.wav
36,192,320025,1,0,0:0:0:0:
256,192,320025,128,0,320230:0:0:0:50:Synth.wav
182,192,320128,128,0,320230:0:0:0:0:
329,192,320128,128,0,320333:0:0:0:50:Synth.wav
109,192,320230,128,0,320333:0:0:0:0:
402,192,320230,128,0,320436:0:0:0:50:Synth.wav
36,192,320333,128,0,320436:0:0:0:0:
475,192,320333,128,0,320538:0:0:0:50:Synth.wav
256,192,320436,1,0,0:0:0:30:Snare.wav
109,192,320436,1,0,0:0:0:0:
329,192,320436,128,0,320538:0:0:0:0:
256,192,320538,128,0,320744:0:0:0:50:Synth.wav
109,192,320538,128,0,320641:0:0:0:0:
402,192,320641,128,0,320744:0:0:0:0:
182,192,320641,128,0,320847:0:0:0:50:Synth.wav
329,192,320744,128,0,320847:0:0:0:0:
109,192,320744,128,0,320949:0:0:0:50:Synth.wav
402,192,320847,128,0,321052:0:0:0:50:Synth.wav
36,192,320847,1,0,0:0:0:30:KicK.wav
256,192,320847,128,0,320949:0:0:0:0:
475,192,320847,1,0,0:0:0:0:
329,192,320949,128,0,321155:0:0:0:50:Synth.wav
182,192,320949,128,0,321052:0:0:0:0:
109,192,321052,128,0,321155:0:0:0:0:
475,192,321052,128,0,321258:0:0:0:50:Synth.wav
36,192,321155,128,0,321258:0:0:0:0:
402,192,321155,128,0,321360:0:0:0:50:Synth.wav
109,192,321258,1,0,0:0:0:30:Snare.wav
329,192,321258,1,0,0:0:0:0:
256,192,321258,128,0,321360:0:0:0:0:
109,192,321360,128,0,321463:0:0:0:0:
329,192,321360,128,0,321463:0:0:0:50:Synth.wav
475,192,321360,128,0,321463:0:0:0:0:
182,192,321463,128,0,321566:0:0:0:0:
36,192,321566,128,0,321669:0:0:0:0:
256,192,321566,128,0,321669:0:0:0:50:Synth.wav
402,192,321566,128,0,321669:0:0:0:0:
475,192,321669,1,0,0:0:0:0:
109,192,321669,1,0,0:0:0:50:Synth.wav
329,192,321669,128,0,321771:0:0:0:30:KicK.wav
182,192,321669,128,0,321874:0:0:0:0:
256,192,321771,128,0,321977:0:0:0:50:Synth.wav
402,192,321771,128,0,321874:0:0:0:0:
329,192,321874,128,0,322080:0:0:0:50:Synth.wav
475,192,321874,128,0,321977:0:0:0:0:
402,192,321977,128,0,322182:0:0:0:50:Synth.wav
182,192,321977,128,0,322080:0:0:0:0:
36,192,322080,1,0,0:0:0:0:
256,192,322080,1,0,0:0:0:30:Snare.wav
109,192,322080,128,0,322182:0:0:0:0:
36,192,322182,128,0,322285:0:0:0:0:
256,192,322182,128,0,322388:0:0:0:50:Synth.wav
182,192,322285,128,0,322491:0:0:0:50:Synth.wav
402,192,322285,128,0,322388:0:0:0:0:
109,192,322388,128,0,322593:0:0:0:50:Synth.wav
329,192,322388,128,0,322491:0:0:0:0:
256,192,322491,128,0,322593:0:0:0:0:
36,192,322491,128,0,322696:0:0:0:50:Synth.wav
402,192,322491,1,0,0:0:0:30:KicK.wav
475,192,322491,1,0,0:0:0:0:
329,192,322593,128,0,322799:0:0:0:50:Synth.wav
182,192,322593,128,0,322696:0:0:0:0:
109,192,322696,128,0,322799:0:0:0:0:
402,192,322696,128,0,322901:0:0:0:50:Synth.wav
475,192,322799,128,0,323004:0:0:0:50:Synth.wav
182,192,322799,128,0,322901:0:0:0:0:
256,192,322901,128,0,323004:0:0:0:0:
329,192,322901,1,0,0:0:0:30:Snare.wav
36,192,322901,1,0,0:0:0:0:
329,192,323004,128,0,323210:0:0:0:50:Synth.wav
36,192,323004,128,0,323107:0:0:0:0:
256,192,323107,128,0,323312:0:0:0:50:Synth.wav
109,192,323107,128,0,323210:0:0:0:0:
182,192,323210,128,0,323415:0:0:0:50:Synth.wav
402,192,323210,128,0,323312:0:0:0:0:
475,192,323312,1,0,0:0:0:0:
109,192,323312,128,0,323518:0:0:0:50:Synth.wav
329,192,323312,128,0,323415:0:0:0:0:
36,192,323312,1,0,0:0:0:30:KicK.wav
256,192,323415,128,0,323621:0:0:0:50:Synth.wav
402,192,323415,128,0,323518:0:0:0:0:
329,192,323518,128,0,323723:0:0:0:50:Synth.wav
36,192,323518,128,0,323621:0:0:0:0:
109,192,323621,128,0,323723:0:0:0:0:
402,192,323621,128,0,323826:0:0:0:50:Synth.wav
182,192,323723,128,0,323826:0:0:0:0:
256,192,323723,1,0,0:0:0:0:
475,192,323723,1,0,0:0:0:30:Snare.wav
256,192,323826,128,0,323929:0:0:0:0:
475,192,323826,128,0,324032:0:0:0:50:Synth.wav
182,192,323929,128,0,324032:0:0:0:0:
402,192,323929,128,0,324134:0:0:0:50:Synth.wav
329,192,324032,128,0,324237:0:0:0:50:Synth.wav
109,192,324032,128,0,324134:0:0:0:0:
475,192,324134,128,0,324237:0:0:0:0:
256,192,324134,1,0,0:0:0:0:
182,192,324134,128,0,324340:0:0:0:50:Synth.wav
36,192,324134,1,0,0:0:0:30:KicK.wav
109,192,324237,128,0,324340:0:0:0:0:
402,192,324237,128,0,324443:0:0:0:50:Synth.wav
256,192,324340,128,0,324545:0:0:0:50:Synth.wav
329,192,324340,128,0,324443:0:0:0:0:
475,192,324443,128,0,324648:0:0:0:50:Synth.wav
36,192,324443,128,0,324545:0:0:0:0:
109,192,324545,128,0,324648:0:0:0:0:
182,192,324545,1,0,0:0:0:0:
329,192,324545,1,0,0:0:0:30:Snare.wav
36,192,324648,128,0,324751:0:0:0:50:Synth.wav
182,192,324648,128,0,324751:0:0:0:0:
329,192,324648,128,0,324751:0:0:0:0:
402,192,324751,128,0,324854:0:0:0:0:
36,192,324854,128,0,324956:0:0:0:0:
256,192,324854,128,0,324956:0:0:0:50:Synth.wav
475,192,324854,128,0,324956:0:0:0:0:
182,192,324956,128,0,325162:0:0:0:50:Synth.wav
402,192,324956,1,0,0:0:0:30:KicK.wav
329,192,324956,128,0,325059:0:0:0:0:
109,192,324956,1,0,0:0:0:30:Cymbal.wav
256,192,325059,128,0,325265:0:0:0:50:Synth.wav
36,192,325059,128,0,325162:0:0:0:0:
329,192,325162,128,0,325367:0:0:0:50:Synth.wav
109,192,325162,128,0,325265:0:0:0:0:
402,192,325265,128,0,325470:0:0:0:50:Synth.wav
182,192,325265,128,0,325367:0:0:0:0:
475,192,325367,1,0,0:0:0:0:
36,192,325367,1,0,0:0:0:50:Synth.wav
256,192,325367,128,0,325470:0:0:0:30:Snare.wav
475,192,325470,128,0,325675:0:0:0:50:Synth.wav
36,192,325470,128,0,325573:0:0:0:0:
402,192,325573,128,0,325778:0:0:0:50:Synth.wav
182,192,325573,128,0,325675:0:0:0:0:
329,192,325675,128,0,325881:0:0:0:50:Synth.wav
109,192,325675,128,0,325778:0:0:0:0:
36,192,325778,128,0,325984:0:0:0:50:Synth.wav
256,192,325778,128,0,325881:0:0:0:0:
182,192,325778,1,0,0:0:0:30:KicK.wav
475,192,325778,1,0,0:0:0:0:
109,192,325881,128,0,326086:0:0:0:50:Synth.wav
402,192,325881,128,0,325984:0:0:0:0:
329,192,325984,128,0,326086:0:0:0:0:
182,192,325984,128,0,326189:0:0:0:50:Synth.wav
475,192,326086,128,0,326189:0:0:0:0:
256,192,326086,128,0,326292:0:0:0:50:Synth.wav
402,192,326189,128,0,326292:0:0:0:0:
109,192,326189,1,0,0:0:0:30:Snare.wav
329,192,326189,1,0,0:0:0:0:
329,192,326292,128,0,326497:0:0:0:50:Synth.wav
109,192,326292,128,0,326395:0:0:0:0:
256,192,326395,128,0,326600:0:0:0:50:Synth.wav
36,192,326395,128,0,326497:0:0:0:0:
182,192,326497,128,0,326703:0:0:0:50:Synth.wav
475,192,326497,128,0,326600:0:0:0:0:
36,192,326600,1,0,0:0:0:0:
109,192,326600,128,0,326806:0:0:0:50:Synth.wav
402,192,326600,1,0,0:0:0:30:KicK.wav
329,192,326600,128,0,326703:0:0:0:0:
256,192,326703,128,0,326908:0:0:0:50:Synth.wav
475,192,326703,128,0,326806:0:0:0:0:
182,192,326806,128,0,327011:0:0:0:50:Synth.wav
402,192,326806,128,0,326908:0:0:0:0:
329,192,326908,128,0,327114:0:0:0:50:Synth.wav
36,192,326908,128,0,327011:0:0:0:0:
109,192,327011,128,0,327114:0:0:0:0:
256,192,327011,1,0,0:0:0:0:
402,192,327011,1,0,0:0:0:30:Snare.wav
402,192,327114,128,0,327217:0:0:0:0:
256,192,327114,128,0,327319:0:0:0:50:Synth.wav
475,192,327217,128,0,327319:0:0:0:0:
182,192,327217,128,0,327422:0:0:0:50:Synth.wav
109,192,327319,128,0,327525:0:0:0:50:Synth.wav
329,192,327319,128,0,327422:0:0:0:0:
402,192,327422,128,0,327525:0:0:0:0:
36,192,327422,1,0,0:0:0:0:
256,192,327422,128,0,327628:0:0:0:50:Synth.wav
475,192,327422,1,0,0:0:0:30:KicK.wav
182,192,327525,128,0,327628:0:0:0:0:
329,192,327525,128,0,327730:0:0:0:50:Synth.wav
402,192,327628,128,0,327833:0:0:0:50:Synth.wav
109,192,327628,128,0,327730:0:0:0:0:
475,192,327730,128,0,327936:0:0:0:50:Synth.wav
36,192,327730,128,0,327833:0:0:0:0:
329,192,327833,128,0,327936:0:0:0:0:
109,192,327833,1,0,0:0:0:0:
256,192,327833,1,0,0:0:0:30:Snare.wav
109,192,327936,128,0,328038:0:0:0:50:Synth.wav
402,192,327936,128,0,328038:0:0:0:0:
256,192,327936,128,0,328038:0:0:0:0:
475,192,328038,128,0,328141:0:0:0:0:
182,192,328141,128,0,328244:0:0:0:50:Synth.wav
329,192,328141,128,0,328244:0:0:0:0:
36,192,328141,128,0,328244:0:0:0:0:
109,192,328244,128,0,328449:0:0:0:30:Cymbal.wav
402,192,328244,1,0,0:0:0:0:
475,192,328244,1,0,0:0:0:50:Synth.wav
256,192,328244,128,0,328347:0:0:0:30:KicK.wav
182,192,328347,128,0,328552:0:0:0:50:Synth.wav
329,192,328347,128,0,328449:0:0:0:0:
402,192,328449,128,0,328552:0:0:0:0:
256,192,328449,128,0,328655:0:0:0:50:Synth.wav
475,192,328552,128,0,328655:0:0:0:0:
329,192,328552,128,0,328758:0:0:0:50:Synth.wav
182,192,328655,128,0,328758:0:0:0:0:
109,192,328655,1,0,0:0:0:50:Synth.wav
402,192,328655,1,0,0:0:0:30:Snare.wav
109,192,328758,128,0,328860:0:0:0:0:
402,192,328758,128,0,328963:0:0:0:50:Synth.wav
329,192,328860,128,0,329066:0:0:0:50:Synth.wav
36,192,328860,128,0,328963:0:0:0:0:
475,192,328963,128,0,329066:0:0:0:0:
256,192,328963,128,0,329169:0:0:0:50:Synth.wav
36,192,329066,1,0,0:0:0:30:KicK.wav
182,192,329066,1,0,0:0:0:0:
402,192,329066,128,0,329169:0:0:0:0:
109,192,329066,128,0,329271:0:0:0:50:Synth.wav
475,192,329169,128,0,329271:0:0:0:0:
329,192,329169,128,0,329374:0:0:0:50:Synth.wav
182,192,329271,128,0,329477:0:0:0:50:Synth.wav
36,192,329271,128,0,329374:0:0:0:0:
402,192,329374,128,0,329580:0:0:0:50:Synth.wav
256,192,329374,128,0,329477:0:0:0:0:
475,192,329477,128,0,329580:0:0:0:0:
329,192,329477,1,0,0:0:0:0:
36,192,329477,1,0,0:0:0:30:Snare.wav
329,192,329580,128,0,329785:0:0:0:50:Synth.wav
36,192,329580,128,0,329682:0:0:0:0:
109,192,329682,128,0,329888:0:0:0:0:
182,192,329682,128,0,329785:0:0:0:50:Synth.wav
402,192,329785,128,0,329888:0:0:0:0:
256,192,329785,128,0,329888:0:0:0:50:Synth.wav
475,192,329888,1,0,0:0:0:30:KicK.wav
329,192,329888,1,0,0:0:0:30:Cymbal.wav
182,192,329888,1,0,0:0:0:50:Synth.wav
36,192,329888,1,0,0:0:0:0:
109,192,329991,1,0,0:0:0:0:
182,192,330093,1,0,0:0:0:0:
256,192,330196,1,0,0:0:0:0:
402,192,330196,1,0,0:0:0:0:
36,192,330196,1,0,0:0:0:0:
182,192,330299,1,0,0:0:0:0:
256,192,330401,1,0,0:0:0:0:
475,192,330504,1,0,0:0:0:0:
329,192,330504,1,0,0:0:0:0:
36,192,330504,1,0,0:0:0:0:
109,192,330556,1,0,0:0:0:0:
182,192,330607,1,0,0:0:0:0:
256,192,330658,1,0,0:0:0:0:
36,192,330710,1,0,0:0:0:0:
402,192,330710,1,0,0:0:0:0:
475,192,330710,1,0,0:0:0:0:
36,192,330812,1,0,0:0:0:0:
329,192,330812,1,0,0:0:0:0:
182,192,330812,1,0,0:0:0:0:
182,192,331018,1,0,0:0:0:0:
329,192,331018,1,0,0:0:0:0:
36,192,331018,1,0,0:0:0:0:
475,192,331121,1,0,0:0:0:0:
402,192,331121,1,0,0:0:0:0:
109,192,331223,1,0,0:0:0:0:
256,192,331223,1,0,0:0:0:0:
109,192,331326,1,0,0:0:0:0:
475,192,331326,1,0,0:0:0:0:
402,192,331326,1,0,0:0:0:0:
256,192,331326,1,0,0:0:0:30:KicK.wav
182,192,331532,128,0,331634:0:0:0:30:KicK.wav
402,192,331532,1,0,0:0:0:30:Cymbal.wav
475,192,331532,128,0,333073:0:0:0:30:BeLL.wav
329,192,331532,1,0,0:0:0:0:
36,192,331532,128,0,331737:0:0:0:50:Synth.wav
256,192,331634,128,0,331737:0:0:0:0:
109,192,331634,128,0,331840:0:0:0:50:Synth.wav
329,192,331737,128,0,331840:0:0:0:0:
182,192,331737,128,0,331943:0:0:0:50:Synth.wav
36,192,331840,128,0,331943:0:0:0:0:
256,192,331840,128,0,332045:0:0:0:50:Synth.wav
329,192,331943,128,0,332045:0:0:0:0:
109,192,331943,128,0,332045:0:0:0:0:
402,192,331943,1,0,0:0:0:30:Snare.wav
182,192,332045,128,0,332148:0:0:0:0:
402,192,332045,128,0,332251:0:0:0:50:Synth.wav
36,192,332148,128,0,332251:0:0:0:0:
329,192,332148,128,0,332354:0:0:0:50:Synth.wav
109,192,332251,128,0,332354:0:0:0:0:
256,192,332251,128,0,332456:0:0:0:50:Synth.wav
402,192,332354,128,0,332456:0:0:0:30:BeLL.wav
36,192,332354,1,0,0:0:0:30:KicK.wav
182,192,332354,128,0,332559:0:0:0:50:Synth.wav
109,192,332456,128,0,332559:0:0:0:0:
329,192,332456,128,0,332662:0:0:0:50:Synth.wav
36,192,332559,128,0,332662:0:0:0:0:
256,192,332559,128,0,332765:0:0:0:50:Synth.wav
402,192,332662,128,0,332867:0:0:0:50:Synth.wav
182,192,332662,128,0,332765:0:0:0:0:
36,192,332765,128,0,332867:0:0:0:30:BeLL.wav
109,192,332765,1,0,0:0:0:30:Snare.wav
329,192,332765,128,0,332867:0:0:0:0:
109,192,332867,128,0,332970:0:0:0:0:
256,192,332867,128,0,333073:0:0:0:50:Synth.wav
402,192,332970,128,0,333073:0:0:0:0:
182,192,332970,128,0,333175:0:0:0:50:Synth.wav
329,192,333073,128,0,333175:0:0:0:0:
109,192,333073,128,0,333278:0:0:0:50:Synth.wav
256,192,333175,128,0,333278:0:0:0:0:
475,192,333175,1,0,0:0:0:30:KicK.wav
36,192,333175,128,0,333381:0:0:0:50:Synth.wav
402,192,333175,128,0,333792:0:0:0:30:BeLL.wav
329,192,333278,128,0,333381:0:0:0:0:
182,192,333278,128,0,333484:0:0:0:50:Synth.wav
256,192,333381,128,0,333484:0:0:0:0:
475,192,333381,128,0,333586:0:0:0:50:Synth.wav
36,192,333484,128,0,333586:0:0:0:0:
329,192,333484,128,0,333689:0:0:0:50:Synth.wav
256,192,333586,128,0,333689:0:0:0:0:
109,192,333586,128,0,333689:0:0:0:0:
182,192,333586,1,0,0:0:0:30:Snare.wav
182,192,333689,128,0,333895:0:0:0:50:Synth.wav
475,192,333689,128,0,333792:0:0:0:0:
109,192,333792,128,0,333997:0:0:0:50:Synth.wav
329,192,333792,128,0,333895:0:0:0:0:
256,192,333792,128,0,334306:0:0:0:30:BeLL.wav
402,192,333895,128,0,333997:0:0:0:0:
36,192,333895,128,0,334100:0:0:0:50:Synth.wav
475,192,333997,128,0,334203:0:0:0:50:Synth.wav
329,192,333997,1,0,0:0:0:30:KicK.wav
182,192,333997,128,0,334100:0:0:0:0:
402,192,334100,128,0,334306:0:0:0:50:Synth.wav
109,192,334100,128,0,334203:0:0:0:0:
36,192,334203,128,0,334306:0:0:0:0:
329,192,334203,128,0,334408:0:0:0:50:Synth.wav
109,192,334306,128,0,334408:0:0:0:0:
475,192,334306,128,0,334511:0:0:0:50:Synth.wav
256,192,334408,1,0,0:0:0:30:Snare.wav
402,192,334408,128,0,334511:0:0:0:0:
182,192,334408,128,0,334511:0:0:0:0:
36,192,334408,128,0,334717:0:0:0:30:BeLL.wav
256,192,334511,128,0,334717:0:0:0:50:Synth.wav
329,192,334511,128,0,334614:0:0:0:0:
402,192,334614,128,0,334819:0:0:0:50:Synth.wav
109,192,334614,128,0,334717:0:0:0:0:
329,192,334717,128,0,334922:0:0:0:50:Synth.wav
182,192,334717,128,0,334819:0:0:0:0:
36,192,334819,1,0,0:0:0:30:KicK.wav
109,192,334819,128,0,335025:0:0:0:50:Synth.wav
256,192,334819,128,0,334922:0:0:0:0:
475,192,334819,128,0,335538:0:0:0:30:BeLL.wav
402,192,334922,128,0,335025:0:0:0:0:
182,192,334922,128,0,335128:0:0:0:50:Synth.wav
256,192,335025,128,0,335230:0:0:0:50:Synth.wav
329,192,335025,128,0,335128:0:0:0:0:
36,192,335128,128,0,335230:0:0:0:0:
182,192,335230,128,0,335436:0:0:0:50:Synth.wav
109,192,335230,128,0,335333:0:0:0:0:
402,192,335230,128,0,335333:0:0:0:0:
329,192,335230,1,0,0:0:0:30:Snare.wav
329,192,335333,128,0,335436:0:0:0:0:
109,192,335436,128,0,335641:0:0:0:50:Synth.wav
256,192,335436,128,0,335538:0:0:0:0:
402,192,335538,128,0,335744:0:0:0:50:Synth.wav
329,192,335538,128,0,335641:0:0:0:0:
256,192,335641,128,0,335847:0:0:0:50:Synth.wav
475,192,335641,128,0,335744:0:0:0:0:
182,192,335641,1,0,0:0:0:30:KicK.wav
36,192,335641,128,0,336463:0:0:0:30:BeLL.wav
109,192,335744,128,0,335847:0:0:0:0:
182,192,335847,128,0,335949:0:0:0:0:
475,192,335847,128,0,336052:0:0:0:50:Synth.wav
256,192,335949,128,0,336052:0:0:0:0:
329,192,335949,128,0,336155:0:0:0:50:Synth.wav
182,192,336052,128,0,336155:0:0:0:0:
109,192,336052,1,0,0:0:0:30:Snare.wav
402,192,336052,128,0,336155:0:0:0:0:
109,192,336155,128,0,336258:0:0:0:0:
475,192,336155,128,0,336360:0:0:0:50:Synth.wav
329,192,336258,128,0,336463:0:0:0:50:Synth.wav
256,192,336258,128,0,336360:0:0:0:0:
182,192,336360,128,0,336463:0:0:0:0:
475,192,336463,128,0,336977:0:0:0:30:BeLL.wav
256,192,336463,128,0,336669:0:0:0:50:Synth.wav
109,192,336463,128,0,336566:0:0:0:0:
402,192,336463,1,0,0:0:0:30:KicK.wav
329,192,336566,128,0,336771:0:0:0:50:Synth.wav
36,192,336566,128,0,336669:0:0:0:0:
402,192,336669,128,0,336874:0:0:0:50:Synth.wav
109,192,336669,128,0,336771:0:0:0:0:
36,192,336771,128,0,336977:0:0:0:50:Synth.wav
182,192,336771,128,0,336874:0:0:0:0:
329,192,336874,128,0,336977:0:0:0:0:
256,192,336874,1,0,0:0:0:30:Snare.wav
109,192,336874,128,0,336977:0:0:0:0:
256,192,336977,128,0,337182:0:0:0:50:Synth.wav
402,192,336977,128,0,337080:0:0:0:0:
329,192,337080,128,0,337285:0:0:0:50:Synth.wav
475,192,337080,128,0,337182:0:0:0:0:
109,192,337080,128,0,337593:0:0:0:30:BeLL.wav
402,192,337182,128,0,337388:0:0:0:50:Synth.wav
36,192,337182,128,0,337285:0:0:0:0:
475,192,337285,128,0,337491:0:0:0:50:Synth.wav
182,192,337285,128,0,337388:0:0:0:0:
256,192,337285,1,0,0:0:0:30:KicK.wav
36,192,337388,128,0,337593:0:0:0:50:Synth.wav
329,192,337388,128,0,337491:0:0:0:0:
182,192,337491,128,0,337696:0:0:0:50:Synth.wav
256,192,337491,128,0,337593:0:0:0:0:
402,192,337593,128,0,337696:0:0:0:0:
475,192,337696,1,0,0:0:0:30:Snare.wav
109,192,337696,128,0,337799:0:0:0:0:
36,192,337696,128,0,337799:0:0:0:50:Synth.wav
256,192,337696,128,0,338107:0:0:0:30:BeLL.wav
329,192,337696,128,0,337799:0:0:0:0:
475,192,337799,128,0,337901:0:0:0:0:
36,192,337901,128,0,338004:0:0:0:50:Synth.wav
109,192,337901,128,0,338004:0:0:0:0:
402,192,337901,128,0,338004:0:0:0:0:
329,192,338004,128,0,338107:0:0:0:0:
182,192,338107,1,0,0:0:0:30:KicK.wav
36,192,338107,128,0,338312:0:0:0:50:Synth.wav
475,192,338107,128,0,338929:0:0:0:30:BeLL.wav
402,192,338107,128,0,338210:0:0:0:0:
329,192,338210,128,0,338312:0:0:0:0:
109,192,338210,128,0,338415:0:0:0:50:Synth.wav
256,192,338312,128,0,338415:0:0:0:0:
182,192,338415,128,0,338621:0:0:0:50:Synth.wav
329,192,338415,128,0,338518:0:0:0:0:
256,192,338518,128,0,338621:0:0:0:0:
402,192,338518,1,0,0:0:0:30:Snare.wav
36,192,338518,128,0,338621:0:0:0:0:
402,192,338621,128,0,338723:0:0:0:0:
109,192,338621,128,0,338826:0:0:0:50:Synth.wav
329,192,338723,128,0,338826:0:0:0:0:
36,192,338723,128,0,338929:0:0:0:50:Synth.wav
256,192,338826,128,0,338929:0:0:0:0:
109,192,338929,1,0,0:0:0:30:KicK.wav
182,192,338929,128,0,339032:0:0:0:0:
402,192,338929,128,0,339134:0:0:0:50:Synth.wav
329,192,339032,128,0,339134:0:0:0:0:
36,192,339066,128,0,339203:0:0:0:20:BeLL.wav
256,192,339134,128,0,339340:0:0:0:50:Synth.wav
475,192,339134,128,0,339237:0:0:0:0:
109,192,339203,128,0,339340:0:0:0:20:BeLL.wav
329,192,339237,128,0,339443:0:0:0:50:Synth.wav
402,192,339237,128,0,339340:0:0:0:0:
36,192,339340,128,0,339545:0:0:0:50:Synth.wav
182,192,339340,128,0,339477:0:0:0:20:BeLL.wav
475,192,339340,1,0,0:0:0:30:Snare.wav
475,192,339443,128,0,339545:0:0:0:0:
256,192,339477,128,0,339614:0:0:0:20:BeLL.wav
109,192,339545,128,0,339751:0:0:0:50:Synth.wav
402,192,339545,128,0,339648:0:0:0:0:
182,192,339614,128,0,339751:0:0:0:20:BeLL.wav
329,192,339648,128,0,339751:0:0:0:0:
402,192,339751,128,0,339956:0:0:0:50:Synth.wav
256,192,339751,128,0,339854:0:0:0:0:
475,192,339751,1,0,0:0:0:30:KicK.wav
36,192,339751,128,0,340367:0:0:0:30:BeLL.wav
329,192,339854,128,0,340059:0:0:0:50:Synth.wav
109,192,339854,128,0,339956:0:0:0:0:
182,192,339956,128,0,340059:0:0:0:0:
475,192,340059,128,0,340265:0:0:0:50:Synth.wav
256,192,340059,128,0,340162:0:0:0:0:
109,192,340162,128,0,340265:0:0:0:0:
182,192,340162,1,0,0:0:0:30:Snare.wav
402,192,340162,128,0,340265:0:0:0:0:
329,192,340265,128,0,340470:0:0:0:50:Synth.wav
182,192,340265,128,0,340367:0:0:0:0:
402,192,340367,128,0,340573:0:0:0:50:Synth.wav
109,192,340367,128,0,340470:0:0:0:0:
256,192,340367,128,0,340881:0:0:0:30:BeLL.wav
475,192,340470,128,0,340573:0:0:0:0:
36,192,340573,128,0,340778:0:0:0:50:Synth.wav
109,192,340573,128,0,340675:0:0:0:0:
329,192,340573,1,0,0:0:0:30:KicK.wav
182,192,340675,128,0,340881:0:0:0:50:Synth.wav
475,192,340675,128,0,340778:0:0:0:0:
109,192,340778,128,0,340984:0:0:0:50:Synth.wav
402,192,340778,128,0,340881:0:0:0:0:
36,192,340881,128,0,341086:0:0:0:50:Synth.wav
329,192,340881,128,0,340984:0:0:0:0:
182,192,340984,128,0,341189:0:0:0:50:Synth.wav
256,192,340984,1,0,0:0:0:30:Snare.wav
402,192,340984,128,0,341086:0:0:0:0:
475,192,340984,128,0,341292:0:0:0:30:BeLL.wav
256,192,341086,128,0,341189:0:0:0:0:
329,192,341189,128,0,341395:0:0:0:50:Synth.wav
109,192,341189,128,0,341292:0:0:0:0:
256,192,341292,128,0,341395:0:0:0:0:
36,192,341395,128,0,341600:0:0:0:50:Synth.wav
475,192,341395,1,0,0:0:0:30:KicK.wav
402,192,341395,128,0,341497:0:0:0:0:
182,192,341395,128,0,342114:0:0:0:30:BeLL.wav
109,192,341497,128,0,341703:0:0:0:50:Synth.wav
329,192,341497,128,0,341600:0:0:0:0:
475,192,341600,128,0,341703:0:0:0:0:
256,192,341703,128,0,341908:0:0:0:50:Synth.wav
402,192,341703,128,0,341806:0:0:0:0:
36,192,341806,128,0,341908:0:0:0:0:
329,192,341806,1,0,0:0:0:30:Snare.wav
475,192,341806,128,0,341908:0:0:0:0:
109,192,341908,128,0,342114:0:0:0:50:Synth.wav
329,192,341908,128,0,342011:0:0:0:0:
36,192,342011,128,0,342217:0:0:0:50:Synth.wav
475,192,342011,128,0,342114:0:0:0:0:
402,192,342114,128,0,342217:0:0:0:0:
182,192,342217,128,0,342422:0:0:0:50:Synth.wav
256,192,342217,1,0,0:0:0:30:KicK.wav
329,192,342217,128,0,342319:0:0:0:0:
109,192,342217,128,0,343038:0:0:0:30:BeLL.wav
402,192,342319,128,0,342422:0:0:0:0:
475,192,342422,128,0,342628:0:0:0:50:Synth.wav
329,192,342422,128,0,342525:0:0:0:0:
402,192,342525,128,0,342730:0:0:0:50:Synth.wav
256,192,342525,128,0,342628:0:0:0:0:
329,192,342628,128,0,342833:0:0:0:50:Synth.wav
36,192,342628,1,0,0:0:0:30:Snare.wav
182,192,342628,128,0,342730:0:0:0:0:
256,192,342730,128,0,342936:0:0:0:50:Synth.wav
36,192,342730,128,0,342833:0:0:0:0:
182,192,342833,128,0,343038:0:0:0:50:Synth.wav
475,192,342833,128,0,342936:0:0:0:0:
402,192,342936,128,0,343038:0:0:0:0:
329,192,343038,1,0,0:0:0:30:KicK.wav
36,192,343038,128,0,343244:0:0:0:50:Synth.wav
475,192,343038,128,0,343141:0:0:0:0:
256,192,343038,128,0,343860:0:0:0:30:BeLL.wav
402,192,343141,128,0,343244:0:0:0:0:
182,192,343244,128,0,343449:0:0:0:50:Synth.wav
329,192,343244,128,0,343347:0:0:0:0:
36,192,343347,128,0,343552:0:0:0:50:Synth.wav
475,192,343347,128,0,343449:0:0:0:0:
109,192,343449,128,0,343552:0:0:0:0:
402,192,343449,1,0,0:0:0:30:Snare.wav
329,192,343449,128,0,343552:0:0:0:0:
402,192,343552,128,0,343655:0:0:0:0:
182,192,343552,128,0,343758:0:0:0:50:Synth.wav
36,192,343655,128,0,343860:0:0:0:50:Synth.wav
475,192,343655,128,0,343758:0:0:0:0:
109,192,343758,128,0,343860:0:0:0:0:
475,192,343860,128,0,344580:0:0:0:30:BeLL.wav
402,192,343860,1,0,0:0:0:30:KicK.wav
182,192,343860,128,0,343963:0:0:0:0:
329,192,343860,128,0,344066:0:0:0:50:Synth.wav
256,192,343963,128,0,344169:0:0:0:50:Synth.wav
109,192,343963,128,0,344066:0:0:0:0:
182,192,344066,128,0,344271:0:0:0:50:Synth.wav
36,192,344066,128,0,344169:0:0:0:0:
109,192,344169,128,0,344374:0:0:0:50:Synth.wav
402,192,344169,128,0,344271:0:0:0:0:
36,192,344271,128,0,344477:0:0:0:50:Synth.wav
256,192,344271,1,0,0:0:0:30:Snare.wav
329,192,344271,128,0,344374:0:0:0:0:
256,192,344374,128,0,344477:0:0:0:0:
329,192,344477,128,0,344682:0:0:0:50:Synth.wav
109,192,344477,128,0,344580:0:0:0:0:
182,192,344580,128,0,344682:0:0:0:0:
109,192,344682,128,0,344888:0:0:0:50:Synth.wav
36,192,344682,128,0,346223:0:0:0:30:BeLL.wav
402,192,344682,1,0,0:0:0:0:
475,192,344682,128,0,344888:0:0:0:30:Cymbal.wav
256,192,344682,128,0,344785:0:0:0:30:KicK.wav
329,192,344785,128,0,344888:0:0:0:0:
182,192,344785,128,0,344991:0:0:0:50:Synth.wav
256,192,344888,128,0,345093:0:0:0:50:Synth.wav
402,192,344888,128,0,344991:0:0:0:0:
329,192,344991,128,0,345196:0:0:0:50:Synth.wav
475,192,344991,128,0,345093:0:0:0:0:
182,192,345093,128,0,345196:0:0:0:0:
109,192,345093,1,0,0:0:0:30:Snare.wav
402,192,345093,128,0,345196:0:0:0:0:
109,192,345196,128,0,345401:0:0:0:50:Synth.wav
475,192,345196,128,0,345299:0:0:0:0:
402,192,345299,128,0,345504:0:0:0:50:Synth.wav
256,192,345299,128,0,345401:0:0:0:0:
329,192,345401,128,0,345607:0:0:0:50:Synth.wav
182,192,345401,128,0,345504:0:0:0:0:
256,192,345504,128,0,345710:0:0:0:50:Synth.wav
475,192,345504,1,0,0:0:0:30:KicK.wav
109,192,345504,128,0,345607:0:0:0:30:BeLL.wav
182,192,345607,128,0,345812:0:0:0:50:Synth.wav
402,192,345607,128,0,345710:0:0:0:0:
109,192,345710,128,0,345915:0:0:0:50:Synth.wav
329,192,345710,128,0,345812:0:0:0:0:
475,192,345812,128,0,346018:0:0:0:50:Synth.wav
256,192,345812,128,0,345915:0:0:0:0:
182,192,345915,128,0,346018:0:0:0:0:
402,192,345915,128,0,346018:0:0:0:30:BeLL.wav
329,192,345915,1,0,0:0:0:30:Snare.wav
329,192,346018,128,0,346223:0:0:0:50:Synth.wav
109,192,346018,128,0,346121:0:0:0:0:
256,192,346121,128,0,346326:0:0:0:50:Synth.wav
475,192,346121,128,0,346223:0:0:0:0:
182,192,346223,128,0,346429:0:0:0:50:Synth.wav
402,192,346223,128,0,346326:0:0:0:0:
36,192,346326,128,0,346532:0:0:0:50:Synth.wav
109,192,346326,128,0,346943:0:0:0:30:BeLL.wav
329,192,346326,128,0,346429:0:0:0:0:
475,192,346326,1,0,0:0:0:30:KicK.wav
256,192,346429,128,0,346634:0:0:0:50:Synth.wav
402,192,346429,128,0,346532:0:0:0:0:
475,192,346532,128,0,346634:0:0:0:0:
329,192,346532,128,0,346737:0:0:0:50:Synth.wav
402,192,346634,128,0,346840:0:0:0:50:Synth.wav
182,192,346634,128,0,346737:0:0:0:0:
475,192,346737,128,0,346840:0:0:0:0:
36,192,346737,128,0,346840:0:0:0:0:
256,192,346737,1,0,0:0:0:30:Snare.wav
182,192,346840,128,0,346943:0:0:0:0:
256,192,346840,128,0,347045:0:0:0:50:Synth.wav
475,192,346943,128,0,347456:0:0:0:30:BeLL.wav
36,192,346943,128,0,347045:0:0:0:0:
329,192,346943,128,0,347148:0:0:0:50:Synth.wav
402,192,347045,128,0,347251:0:0:0:50:Synth.wav
109,192,347045,128,0,347148:0:0:0:0:
182,192,347148,128,0,347251:0:0:0:0:
36,192,347148,128,0,347354:0:0:0:50:Synth.wav
256,192,347148,1,0,0:0:0:30:KicK.wav
329,192,347251,128,0,347354:0:0:0:0:
109,192,347251,128,0,347456:0:0:0:50:Synth.wav
256,192,347354,128,0,347456:0:0:0:0:
182,192,347354,128,0,347559:0:0:0:50:Synth.wav
329,192,347456,128,0,347559:0:0:0:0:
402,192,347456,128,0,347662:0:0:0:50:Synth.wav
109,192,347559,128,0,347867:0:0:0:30:BeLL.wav
36,192,347559,128,0,347662:0:0:0:0:
475,192,347559,1,0,0:0:0:30:Snare.wav
256,192,347559,128,0,347662:0:0:0:0:
475,192,347662,128,0,347765:0:0:0:0:
329,192,347662,128,0,347867:0:0:0:50:Synth.wav
256,192,347765,128,0,347970:0:0:0:50:Synth.wav
36,192,347765,128,0,347867:0:0:0:0:
402,192,347867,128,0,347970:0:0:0:0:
182,192,347867,128,0,348073:0:0:0:50:Synth.wav
475,192,347970,128,0,348689:0:0:0:30:BeLL.wav
329,192,347970,128,0,348073:0:0:0:0:
36,192,347970,1,0,0:0:0:30:KicK.wav
109,192,347970,128,0,348175:0:0:0:50:Synth.wav
402,192,348073,128,0,348175:0:0:0:0:
256,192,348073,128,0,348278:0:0:0:50:Synth.wav
36,192,348175,128,0,348278:0:0:0:0:
182,192,348175,128,0,348381:0:0:0:50:Synth.wav
329,192,348278,128,0,348381:0:0:0:0:
36,192,348381,128,0,348484:0:0:0:0:
402,192,348381,128,0,348484:0:0:0:0:
256,192,348381,128,0,348586:0:0:0:50:Synth.wav
109,192,348381,1,0,0:0:0:30:Snare.wav
109,192,348484,128,0,348586:0:0:0:0:
329,192,348586,128,0,348689:0:0:0:0:
182,192,348586,128,0,348792:0:0:0:50:Synth.wav
402,192,348689,128,0,348792:0:0:0:0:
256,192,348689,128,0,348895:0:0:0:50:Synth.wav
475,192,348792,1,0,0:0:0:30:KicK.wav
36,192,348792,128,0,349511:0:0:0:30:BeLL.wav
329,192,348792,128,0,348997:0:0:0:50:Synth.wav
109,192,348792,128,0,348895:0:0:0:0:
402,192,348895,128,0,348997:0:0:0:0:
182,192,348997,128,0,349203:0:0:0:50:Synth.wav
475,192,348997,128,0,349100:0:0:0:0:
109,192,349100,128,0,349306:0:0:0:50:Synth.wav
329,192,349100,128,0,349203:0:0:0:0:
475,192,349203,128,0,349306:0:0:0:0:
256,192,349203,128,0,349306:0:0:0:0:
402,192,349203,1,0,0:0:0:30:Snare.wav
182,192,349306,128,0,349511:0:0:0:50:Synth.wav
402,192,349306,128,0,349408:0:0:0:0:
329,192,349408,128,0,349511:0:0:0:0:
109,192,349408,128,0,349614:0:0:0:50:Synth.wav
475,192,349511,128,0,349614:0:0:0:0:
36,192,349614,1,0,0:0:0:30:KicK.wav
256,192,349614,128,0,350230:0:0:0:30:BeLL.wav
329,192,349614,128,0,349819:0:0:0:50:Synth.wav
182,192,349614,128,0,349717:0:0:0:0:
109,192,349717,128,0,349819:0:0:0:0:
475,192,349717,128,0,349922:0:0:0:50:Synth.wav
402,192,349819,128,0,350025:0:0:0:50:Synth.wav
36,192,349819,128,0,349922:0:0:0:0:
182,192,349922,128,0,350025:0:0:0:0:
329,192,349922,128,0,350128:0:0:0:50:Synth.wav
36,192,350025,128,0,350128:0:0:0:0:
475,192,350025,128,0,350128:0:0:0:0:
109,192,350025,1,0,0:0:0:30:Snare.wav
402,192,350128,128,0,350230:0:0:0:0:
109,192,350128,128,0,350333:0:0:0:50:Synth.wav
475,192,350230,128,0,350744:0:0:0:30:BeLL.wav
329,192,350230,128,0,350333:0:0:0:0:
182,192,350230,128,0,350436:0:0:0:50:Synth.wav
402,192,350333,128,0,350436:0:0:0:0:
256,192,350333,128,0,350538:0:0:0:50:Synth.wav
36,192,350436,1,0,0:0:0:30:KicK.wav
109,192,350436,128,0,350538:0:0:0:0:
329,192,350436,128,0,350641:0:0:0:50:Synth.wav
182,192,350538,128,0,350641:0:0:0:0:
402,192,350538,128,0,350744:0:0:0:50:Synth.wav
256,192,350641,128,0,350744:0:0:0:0:
36,192,350641,128,0,350847:0:0:0:50:Synth.wav
329,192,350744,128,0,350847:0:0:0:0:
475,192,350847,128,0,350949:0:0:0:50:Synth.wav
109,192,350847,128,0,351258:0:0:0:30:BeLL.wav
182,192,350847,1,0,0:0:0:30:Snare.wav
256,192,350847,128,0,350949:0:0:0:0:
402,192,350847,128,0,350949:0:0:0:0:
182,192,350949,128,0,351052:0:0:0:0:
256,192,351052,128,0,351155:0:0:0:0:
402,192,351052,128,0,351155:0:0:0:50:Synth.wav
475,192,351052,128,0,351155:0:0:0:0:
329,192,351155,128,0,351258:0:0:0:0:
256,192,351258,128,0,351360:0:0:0:0:
475,192,351258,128,0,352080:0:0:0:30:BeLL.wav
36,192,351258,1,0,0:0:0:30:KicK.wav
402,192,351258,128,0,351463:0:0:0:50:Synth.wav
182,192,351258,1,0,0:0:0:30:Cymbal.wav
329,192,351360,128,0,351566:0:0:0:50:Synth.wav
109,192,351360,128,0,351463:0:0:0:0:
182,192,351463,128,0,351566:0:0:0:0:
36,192,351566,128,0,351669:0:0:0:0:
256,192,351566,128,0,351771:0:0:0:50:Synth.wav
182,192,351669,128,0,351771:0:0:0:0:
402,192,351669,128,0,351771:0:0:0:0:
109,192,351669,1,0,0:0:0:30:Snare.wav
329,192,351771,128,0,351977:0:0:0:50:Synth.wav
109,192,351771,128,0,351874:0:0:0:0:
182,192,351874,128,0,351977:0:0:0:0:
402,192,351874,128,0,352080:0:0:0:50:Synth.wav
256,192,351977,128,0,352080:0:0:0:0:
36,192,352080,128,0,352285:0:0:0:50:Synth.wav
109,192,352080,1,0,0:0:0:30:KicK.wav
329,192,352080,128,0,352182:0:0:0:0:
402,192,352182,128,0,352285:0:0:0:0:
182,192,352217,128,0,352354:0:0:0:20:BeLL.wav
475,192,352285,128,0,352388:0:0:0:0:
329,192,352285,128,0,352491:0:0:0:50:Synth.wav
109,192,352354,128,0,352491:0:0:0:20:BeLL.wav
402,192,352388,128,0,352593:0:0:0:50:Synth.wav
256,192,352388,128,0,352491:0:0:0:0:
36,192,352491,128,0,352696:0:0:0:50:Synth.wav
182,192,352491,128,0,352628:0:0:0:20:BeLL.wav
475,192,352491,1,0,0:0:0:30:Snare.wav
475,192,352593,128,0,352696:0:0:0:0:
256,192,352628,128,0,352765:0:0:0:20:BeLL.wav
109,192,352696,128,0,352901:0:0:0:50:Synth.wav
402,192,352696,128,0,352799:0:0:0:0:
182,192,352765,128,0,352901:0:0:0:20:BeLL.wav
329,192,352799,128,0,352901:0:0:0:0:
475,192,352901,1,0,0:0:0:30:KicK.wav
36,192,352901,128,0,353518:0:0:0:30:BeLL.wav
402,192,352901,128,0,353107:0:0:0:50:Synth.wav
256,192,352901,128,0,353004:0:0:0:0:
182,192,353004,128,0,353107:0:0:0:0:
329,192,353004,128,0,353210:0:0:0:50:Synth.wav
109,192,353107,128,0,353210:0:0:0:0:
475,192,353210,128,0,353312:0:0:0:0:
256,192,353210,128,0,353415:0:0:0:50:Synth.wav
109,192,353312,128,0,353415:0:0:0:0:
402,192,353312,128,0,353415:0:0:0:0:
182,192,353312,1,0,0:0:0:30:Snare.wav
182,192,353415,128,0,353518:0:0:0:0:
329,192,353415,128,0,353621:0:0:0:50:Synth.wav
475,192,353518,128,0,354032:0:0:0:30:BeLL.wav
256,192,353518,128,0,353621:0:0:0:0:
402,192,353518,128,0,353723:0:0:0:50:Synth.wav
36,192,353621,128,0,353723:0:0:0:0:
182,192,353723,1,0,0:0:0:30:KicK.wav
109,192,353723,128,0,353826:0:0:0:0:
256,192,353723,128,0,353929:0:0:0:50:Synth.wav
36,192,353826,128,0,353929:0:0:0:0:
329,192,353826,128,0,354032:0:0:0:50:Synth.wav
182,192,353929,128,0,354032:0:0:0:0:
402,192,353929,128,0,354134:0:0:0:50:Synth.wav
109,192,354032,128,0,354134:0:0:0:0:
256,192,354032,128,0,354237:0:0:0:50:Synth.wav
329,192,354134,128,0,354237:0:0:0:0:
36,192,354134,128,0,354545:0:0:0:30:BeLL.wav
182,192,354134,128,0,354340:0:0:0:50:Synth.wav
475,192,354134,1,0,0:0:0:30:Snare.wav
475,192,354237,128,0,354340:0:0:0:0:
402,192,354340,128,0,354443:0:0:0:0:
109,192,354340,128,0,354545:0:0:0:50:Synth.wav
329,192,354443,128,0,354545:0:0:0:0:
256,192,354545,128,0,354648:0:0:0:30:Cymbal.wav
475,192,354545,128,0,355265:0:0:0:30:BeLL.wav
402,192,354545,128,0,354751:0:0:0:50:Synth.wav
182,192,354545,1,0,0:0:0:30:KicK.wav
109,192,354648,128,0,354751:0:0:0:0:
329,192,354648,128,0,354854:0:0:0:50:Synth.wav
182,192,354751,128,0,354854:0:0:0:0:
36,192,354854,128,0,354956:0:0:0:0:
256,192,354854,128,0,355059:0:0:0:50:Synth.wav
402,192,354956,128,0,355059:0:0:0:0:
182,192,354956,128,0,355059:0:0:0:0:
109,192,354956,1,0,0:0:0:30:Snare.wav
109,192,355059,128,0,355162:0:0:0:0:
329,192,355059,128,0,355265:0:0:0:50:Synth.wav
36,192,355162,128,0,355265:0:0:0:0:
402,192,355162,128,0,355367:0:0:0:50:Synth.wav
182,192,355265,128,0,355367:0:0:0:0:
475,192,355367,128,0,355573:0:0:0:50:Synth.wav
36,192,355367,128,0,355470:0:0:0:0:
256,192,355367,128,0,356086:0:0:0:30:BeLL.wav
329,192,355367,1,0,0:0:0:30:KicK.wav
109,192,355470,128,0,355573:0:0:0:0:
329,192,355573,128,0,355675:0:0:0:0:
182,192,355573,128,0,355778:0:0:0:50:Synth.wav
402,192,355675,128,0,355778:0:0:0:0:
109,192,355675,128,0,355881:0:0:0:50:Synth.wav
329,192,355778,128,0,355881:0:0:0:0:
36,192,355778,1,0,0:0:0:30:Snare.wav
475,192,355778,128,0,355984:0:0:0:50:Synth.wav
402,192,355881,128,0,356086:0:0:0:0:
36,192,355881,128,0,355984:0:0:0:50:Synth.wav
329,192,355984,128,0,356189:0:0:0:0:
109,192,355984,128,0,356086:0:0:0:50:Synth.wav
182,192,356086,128,0,356189:0:0:0:50:Synth.wav
109,192,356189,1,0,0:0:0:0:
402,192,356189,1,0,0:0:0:30:Cymbal.wav
36,192,356189,1,0,0:0:0:0:
256,192,356189,128,0,357730:0:0:0:30:KicK.wav
475,192,356189,1,0,0:0:0:0:
329,192,356292,1,0,0:0:0:0:
402,192,356395,1,0,0:0:0:0:
109,192,356497,1,0,0:0:0:0:
182,192,356497,1,0,0:0:0:0:
475,192,356497,1,0,0:0:0:0:
329,192,356600,1,0,0:0:0:0:
36,192,356703,1,0,0:0:0:0:
329,192,356806,1,0,0:0:0:0:
402,192,356806,1,0,0:0:0:0:
182,192,356806,1,0,0:0:0:0:
109,192,356908,1,0,0:0:0:0:
475,192,357011,1,0,0:0:0:0:
36,192,357011,1,0,0:0:0:0:
109,192,357114,1,0,0:0:0:0:
329,192,357114,1,0,0:0:0:0:
182,192,357217,1,0,0:0:0:0:
402,192,357217,1,0,0:0:0:0:
475,192,357319,1,0,0:0:0:0:
36,192,357319,1,0,0:0:0:0:
402,192,357422,1,0,0:0:0:0:
182,192,357422,1,0,0:0:0:0:
329,192,357525,1,0,0:0:0:0:
109,192,357525,1,0,0:0:0:0:
402,192,357628,1,0,0:0:0:0:
36,192,357628,1,0,0:0:0:0:
475,192,357628,1,0,0:0:0:30:KicK.wav
329,192,357730,1,0,0:0:0:0:
182,192,357730,1,0,0:0:0:0:
109,192,357833,1,0,0:0:0:0:
36,192,357833,1,0,0:0:0:30:Cymbal.wav
256,192,357833,128,0,357884:0:0:0:0:
475,192,357833,128,0,357884:0:0:0:0:
182,192,357936,128,0,357987:0:0:0:0:
402,192,357936,128,0,357987:0:0:0:0:
109,192,358038,128,0,358090:0:0:0:0:
329,192,358038,128,0,358090:0:0:0:0:
36,192,358141,128,0,358193:0:0:0:0:
256,192,358141,128,0,358193:0:0:0:0:
182,192,358244,1,0,0:0:0:30:Sub Rhythm-2.wav
109,192,358244,1,0,0:0:0:0:
475,192,358244,1,0,0:0:0:0:
329,192,358244,1,0,0:0:0:30:Snare.wav
256,192,358347,1,0,0:0:0:30:Sub Rhythm-2.wav
475,192,358347,1,0,0:0:0:0:
36,192,358449,1,0,0:0:0:0:
329,192,358449,1,0,0:0:0:30:Sub Rhythm-2.wav
402,192,358552,1,0,0:0:0:30:Sub Rhythm-2.wav
36,192,358552,1,0,0:0:0:0:
182,192,358655,1,0,0:0:0:0:
256,192,358655,1,0,0:0:0:30:Sub Rhythm-2.wav
475,192,358655,1,0,0:0:0:30:KicK.wav
109,192,358655,1,0,0:0:0:0:
402,192,358758,1,0,0:0:0:0:
329,192,358758,1,0,0:0:0:30:Main-1.wav
36,192,358758,1,0,0:0:0:0:
182,192,358860,1,0,0:0:0:0:
402,192,358963,1,0,0:0:0:0:
329,192,358963,1,0,0:0:0:30:Main-1.wav
36,192,358963,1,0,0:0:0:0:
256,192,359066,1,0,0:0:0:0:
475,192,359066,1,0,0:0:0:30:Snare.wav
109,192,359066,1,0,0:0:0:0:
182,192,359066,1,0,0:0:0:0:
402,192,359169,1,0,0:0:0:0:
109,192,359271,1,0,0:0:0:0:
329,192,359271,128,0,359374:0:0:0:30:Tick.wav
36,192,359271,1,0,0:0:0:30:Highlight.wav
402,192,359323,128,0,359425:0:0:0:30:Tick.wav
475,192,359374,128,0,359477:0:0:0:30:Tick.wav
182,192,359374,1,0,0:0:0:0:
329,192,359477,1,0,0:0:0:0:
256,192,359477,1,0,0:0:0:30:KicK.wav
109,192,359477,1,0,0:0:0:0:
36,192,359477,1,0,0:0:0:0:
402,192,359580,1,0,0:0:0:0:
182,192,359682,128,0,359785:0:0:0:30:Tick.wav
329,192,359682,1,0,0:0:0:0:
109,192,359734,128,0,359888:0:0:0:30:Tick.wav
256,192,359785,1,0,0:0:0:0:
475,192,359888,1,0,0:0:0:30:Snare.wav
36,192,359888,1,0,0:0:0:0:
329,192,359888,1,0,0:0:0:30:Sub Rhythm-2.wav
182,192,359888,1,0,0:0:0:0:
402,192,359991,1,0,0:0:0:30:Sub Rhythm-2.wav
182,192,359991,1,0,0:0:0:0:
109,192,360093,1,0,0:0:0:30:Sub Rhythm-2.wav
329,192,360093,1,0,0:0:0:0:
182,192,360196,1,0,0:0:0:30:Sub Rhythm-2.wav
329,192,360196,1,0,0:0:0:0:
475,192,360299,1,0,0:0:0:30:KicK.wav
256,192,360299,1,0,0:0:0:0:
402,192,360299,1,0,0:0:0:30:Sub Rhythm-2.wav
36,192,360299,1,0,0:0:0:0:
182,192,360401,1,0,0:0:0:0:
329,192,360401,1,0,0:0:0:0:
109,192,360401,1,0,0:0:0:30:Main-1.wav
475,192,360504,1,0,0:0:0:0:
109,192,360607,1,0,0:0:0:30:Main-1.wav
182,192,360607,1,0,0:0:0:0:
329,192,360607,1,0,0:0:0:0:
402,192,360710,1,0,0:0:0:0:
256,192,360710,1,0,0:0:0:0:
36,192,360710,1,0,0:0:0:0:
475,192,360710,1,0,0:0:0:30:Snare.wav
329,192,360812,1,0,0:0:0:0:
36,192,360915,1,0,0:0:0:0:
182,192,360915,128,0,361018:0:0:0:30:Tick.wav
475,192,360915,1,0,0:0:0:30:Highlight.wav
256,192,360967,128,0,361069:0:0:0:30:Tick.wav
109,192,361018,1,0,0:0:0:0:
329,192,361018,128,0,361121:0:0:0:30:Tick.wav
402,192,361121,1,0,0:0:0:0:
36,192,361121,1,0,0:0:0:0:
475,192,361121,1,0,0:0:0:30:KicK.wav
182,192,361121,1,0,0:0:0:0:
329,192,361223,1,0,0:0:0:0:
109,192,361326,128,0,361429:0:0:0:30:Tick.wav
256,192,361326,1,0,0:0:0:0:
36,192,361378,128,0,361532:0:0:0:30:Tick.wav
182,192,361429,1,0,0:0:0:0:
256,192,361532,1,0,0:0:0:30:Sub Rhythm-2.wav
402,192,361532,1,0,0:0:0:0:
475,192,361532,1,0,0:0:0:30:Snare.wav
109,192,361532,1,0,0:0:0:0:
329,192,361634,1,0,0:0:0:0:
109,192,361634,1,0,0:0:0:30:Sub Rhythm-2.wav
182,192,361737,1,0,0:0:0:30:Sub Rhythm-2.wav
402,192,361737,1,0,0:0:0:0:
402,192,361840,1,0,0:0:0:0:
256,192,361840,1,0,0:0:0:30:Sub Rhythm-2.wav
329,192,361943,1,0,0:0:0:30:Sub Rhythm-2.wav
182,192,361943,1,0,0:0:0:0:
475,192,361943,1,0,0:0:0:30:KicK.wav
36,192,361943,1,0,0:0:0:0:
402,192,362045,1,0,0:0:0:30:Main-1.wav
109,192,362045,1,0,0:0:0:0:
256,192,362045,1,0,0:0:0:0:
36,192,362148,1,0,0:0:0:0:
109,192,362251,1,0,0:0:0:0:
402,192,362251,1,0,0:0:0:30:Main-1.wav
256,192,362251,1,0,0:0:0:0:
329,192,362354,1,0,0:0:0:0:
475,192,362354,1,0,0:0:0:30:Snare.wav
182,192,362354,1,0,0:0:0:0:
36,192,362354,1,0,0:0:0:0:
256,192,362456,1,0,0:0:0:0:
402,192,362559,128,0,362662:0:0:0:30:Tick.wav
109,192,362559,1,0,0:0:0:0:
36,192,362559,1,0,0:0:0:30:Highlight.wav
329,192,362610,128,0,362713:0:0:0:30:Tick.wav
182,192,362662,1,0,0:0:0:0:
256,192,362662,128,0,362765:0:0:0:30:Tick.wav
402,192,362765,1,0,0:0:0:0:
36,192,362765,1,0,0:0:0:0:
475,192,362765,1,0,0:0:0:30:KicK.wav
109,192,362765,1,0,0:0:0:0:
329,192,362867,1,0,0:0:0:0:
402,192,362970,128,0,363073:0:0:0:30:Tick.wav
256,192,362970,1,0,0:0:0:0:
475,192,363021,128,0,363175:0:0:0:30:Tick.wav
182,192,363073,1,0,0:0:0:0:
36,192,363175,1,0,0:0:0:0:
402,192,363175,1,0,0:0:0:30:Sub Rhythm-2.wav
256,192,363175,1,0,0:0:0:30:Snare.wav
109,192,363175,1,0,0:0:0:0:
475,192,363278,1,0,0:0:0:30:Sub Rhythm-2.wav
256,192,363278,1,0,0:0:0:0:
402,192,363381,1,0,0:0:0:0:
109,192,363381,1,0,0:0:0:30:Sub Rhythm-2.wav
329,192,363484,1,0,0:0:0:30:Sub Rhythm-2.wav
109,192,363484,1,0,0:0:0:0:
36,192,363586,1,0,0:0:0:0:
402,192,363586,1,0,0:0:0:0:
256,192,363586,1,0,0:0:0:30:Sub Rhythm-2.wav
475,192,363586,1,0,0:0:0:30:KicK.wav
329,192,363689,1,0,0:0:0:0:
182,192,363689,1,0,0:0:0:0:
109,192,363689,1,0,0:0:0:30:Main-1.wav
475,192,363792,1,0,0:0:0:0:
329,192,363895,1,0,0:0:0:0:
182,192,363895,1,0,0:0:0:0:
109,192,363895,1,0,0:0:0:30:Main-1.wav
256,192,363997,1,0,0:0:0:0:
36,192,363997,128,0,364169:0:0:0:0:
402,192,363997,1,0,0:0:0:0:
475,192,363997,1,0,0:0:0:30:Snare.wav
109,192,364100,128,0,364271:0:0:0:0:
329,192,364100,1,0,0:0:0:0:
182,192,364203,128,0,364374:0:0:0:0:
402,192,364203,1,0,0:0:0:0:
256,192,364306,128,0,364477:0:0:0:0:
475,192,364306,1,0,0:0:0:0:
36,192,364408,1,0,0:0:0:0:
109,192,364408,128,0,364545:0:0:0:0:
402,192,364408,1,0,0:0:0:30:KicK.wav
329,192,364408,1,0,0:0:0:0:
182,192,364511,128,0,364648:0:0:0:0:
475,192,364511,1,0,0:0:0:0:
402,192,364614,1,0,0:0:0:0:
256,192,364614,128,0,364751:0:0:0:0:
36,192,364717,1,0,0:0:0:0:
329,192,364717,128,0,364854:0:0:0:0:
109,192,364819,1,0,0:0:0:0:
182,192,364819,128,0,364922:0:0:0:0:
402,192,364819,1,0,0:0:0:30:Sub Rhythm-2.wav
475,192,364819,1,0,0:0:0:30:Snare.wav
256,192,364922,128,0,365025:0:0:0:0:
36,192,364922,1,0,0:0:0:30:Sub Rhythm-2.wav
329,192,365025,128,0,365128:0:0:0:0:
109,192,365025,1,0,0:0:0:30:Sub Rhythm-2.wav
402,192,365128,128,0,365230:0:0:0:0:
182,192,365128,1,0,0:0:0:30:Sub Rhythm-2.wav
475,192,365230,1,0,0:0:0:30:KicK.wav
109,192,365230,1,0,0:0:0:30:Sub Rhythm-2.wav
256,192,365230,1,0,0:0:0:0:
36,192,365230,1,0,0:0:0:0:
402,192,365333,1,0,0:0:0:0:
182,192,365333,1,0,0:0:0:0:
329,192,365333,1,0,0:0:0:30:Main-1.wav
36,192,365436,1,0,0:0:0:0:
329,192,365538,1,0,0:0:0:30:Main-1.wav
182,192,365538,1,0,0:0:0:0:
402,192,365538,1,0,0:0:0:0:
36,192,365641,1,0,0:0:0:0:
475,192,365641,1,0,0:0:0:30:Snare.wav
256,192,365641,1,0,0:0:0:0:
109,192,365641,1,0,0:0:0:0:
329,192,365744,1,0,0:0:0:0:
475,192,365847,128,0,365949:0:0:0:30:Tick.wav
182,192,365847,1,0,0:0:0:0:
109,192,365847,1,0,0:0:0:30:Highlight.wav
402,192,365898,128,0,366001:0:0:0:30:Tick.wav
256,192,365949,1,0,0:0:0:0:
329,192,365949,128,0,366052:0:0:0:30:Tick.wav
182,192,366052,1,0,0:0:0:0:
109,192,366052,1,0,0:0:0:0:
36,192,366052,1,0,0:0:0:0:
475,192,366052,1,0,0:0:0:30:KicK.wav
402,192,366155,1,0,0:0:0:0:
182,192,366258,128,0,366360:0:0:0:30:Tick.wav
329,192,366258,1,0,0:0:0:0:
256,192,366309,128,0,366463:0:0:0:30:Tick.wav
402,192,366360,1,0,0:0:0:0:
475,192,366463,1,0,0:0:0:30:Snare.wav
36,192,366463,1,0,0:0:0:0:
109,192,366463,1,0,0:0:0:0:
329,192,366463,1,0,0:0:0:30:Sub Rhythm-2.wav
109,192,366566,1,0,0:0:0:30:Sub Rhythm-2.wav
256,192,366566,1,0,0:0:0:0:
402,192,366669,1,0,0:0:0:30:Sub Rhythm-2.wav
182,192,366669,1,0,0:0:0:0:
402,192,366771,1,0,0:0:0:30:Sub Rhythm-2.wav
256,192,366771,1,0,0:0:0:0:
475,192,366874,1,0,0:0:0:30:KicK.wav
109,192,366874,1,0,0:0:0:0:
36,192,366874,1,0,0:0:0:0:
329,192,366874,1,0,0:0:0:30:Sub Rhythm-2.wav
182,192,366977,1,0,0:0:0:30:Main-1.wav
402,192,366977,1,0,0:0:0:0:
256,192,366977,1,0,0:0:0:0:
36,192,367080,1,0,0:0:0:0:
402,192,367182,1,0,0:0:0:0:
182,192,367182,1,0,0:0:0:0:
256,192,367182,1,0,0:0:0:30:Main-1.wav
109,192,367285,1,0,0:0:0:0:
475,192,367285,1,0,0:0:0:30:Snare.wav
329,192,367285,1,0,0:0:0:0:
36,192,367285,1,0,0:0:0:0:
182,192,367388,1,0,0:0:0:0:
36,192,367491,128,0,367593:0:0:0:30:Tick.wav
475,192,367491,1,0,0:0:0:0:
256,192,367491,1,0,0:0:0:30:Highlight.wav
109,192,367542,128,0,367645:0:0:0:30:Tick.wav
182,192,367593,128,0,367696:0:0:0:30:Tick.wav
329,192,367593,1,0,0:0:0:0:
402,192,367696,1,0,0:0:0:30:KicK.wav
36,192,367696,1,0,0:0:0:0:
475,192,367696,1,0,0:0:0:0:
256,192,367696,1,0,0:0:0:0:
329,192,367799,1,0,0:0:0:0:
475,192,367901,1,0,0:0:0:0:
182,192,367901,128,0,368004:0:0:0:30:Tick.wav
109,192,367953,128,0,368107:0:0:0:30:Tick.wav
402,192,368004,1,0,0:0:0:0:
329,192,368107,1,0,0:0:0:0:
475,192,368107,1,0,0:0:0:30:Snare.wav
36,192,368107,1,0,0:0:0:0:
182,192,368107,1,0,0:0:0:30:Sub Rhythm-2.wav
256,192,368210,1,0,0:0:0:30:Sub Rhythm-2.wav
475,192,368210,1,0,0:0:0:0:
109,192,368312,1,0,0:0:0:30:Sub Rhythm-2.wav
402,192,368312,1,0,0:0:0:0:
109,192,368415,1,0,0:0:0:30:Sub Rhythm-2.wav
329,192,368415,1,0,0:0:0:0:
475,192,368518,1,0,0:0:0:30:KicK.wav
256,192,368518,1,0,0:0:0:0:
182,192,368518,1,0,0:0:0:30:Sub Rhythm-2.wav
402,192,368518,1,0,0:0:0:0:
109,192,368621,1,0,0:0:0:0:
36,192,368621,1,0,0:0:0:30:Main-1.wav
329,192,368621,1,0,0:0:0:0:
475,192,368723,1,0,0:0:0:0:
36,192,368826,1,0,0:0:0:30:Main-1.wav
329,192,368826,1,0,0:0:0:0:
109,192,368826,1,0,0:0:0:0:
256,192,368929,1,0,0:0:0:0:
402,192,368929,1,0,0:0:0:0:
475,192,368929,1,0,0:0:0:30:Snare.wav
182,192,368929,1,0,0:0:0:0:
36,192,369032,1,0,0:0:0:0:
256,192,369134,128,0,369237:0:0:0:30:Tick.wav
475,192,369134,1,0,0:0:0:0:
109,192,369134,1,0,0:0:0:30:Highlight.wav
329,192,369186,128,0,369288:0:0:0:30:Tick.wav
402,192,369237,128,0,369340:0:0:0:30:Tick.wav
182,192,369237,1,0,0:0:0:0:
475,192,369340,1,0,0:0:0:30:KicK.wav
256,192,369340,1,0,0:0:0:0:
109,192,369340,1,0,0:0:0:0:
36,192,369340,1,0,0:0:0:0:
402,192,369443,1,0,0:0:0:0:
329,192,369545,1,0,0:0:0:0:
36,192,369545,1,0,0:0:0:0:
182,192,369545,1,0,0:0:0:0:
402,192,369648,1,0,0:0:0:0:
109,192,369648,1,0,0:0:0:0:
256,192,369648,1,0,0:0:0:0:
475,192,369751,1,0,0:0:0:30:Snare.wav
329,192,369751,1,0,0:0:0:0:
182,192,369854,1,0,0:0:0:0:
36,192,369854,1,0,0:0:0:0:
109,192,369854,1,0,0:0:0:0:
329,192,369956,1,0,0:0:0:0:
475,192,369956,1,0,0:0:0:0:
402,192,369956,1,0,0:0:0:0:
256,192,370059,1,0,0:0:0:0:
109,192,370059,1,0,0:0:0:0:
36,192,370059,1,0,0:0:0:0:
182,192,370162,1,0,0:0:0:0:
402,192,370162,1,0,0:0:0:0:
475,192,370162,1,0,0:0:0:30:KicK.wav
329,192,370162,1,0,0:0:0:0:
109,192,370265,1,0,0:0:0:0:
256,192,370367,1,0,0:0:0:0:
475,192,370367,1,0,0:0:0:0:
36,192,370367,1,0,0:0:0:0:
329,192,370470,1,0,0:0:0:0:
109,192,370470,1,0,0:0:0:0:
402,192,370470,1,0,0:0:0:0:
182,192,370573,1,0,0:0:0:30:Snare.wav
475,192,370573,1,0,0:0:0:0:
109,192,370675,1,0,0:0:0:0:
36,192,370675,1,0,0:0:0:0:
256,192,370675,1,0,0:0:0:0:
182,192,370778,1,0,0:0:0:0:
475,192,370778,1,0,0:0:0:0:
402,192,370778,1,0,0:0:0:0:
329,192,370881,1,0,0:0:0:0:
109,192,370984,1,0,0:0:0:30:KicK.wav
36,192,370984,1,0,0:0:0:30:Cymbal.wav
475,192,370984,128,0,371035:0:0:0:0:
256,192,370984,128,0,371035:0:0:0:0:
402,192,371086,128,0,371138:0:0:0:0:
182,192,371086,128,0,371138:0:0:0:0:
109,192,371189,128,0,371241:0:0:0:0:
329,192,371189,128,0,371241:0:0:0:0:
36,192,371292,128,0,371343:0:0:0:0:
256,192,371292,128,0,371343:0:0:0:0:
475,192,371395,1,0,0:0:0:0:
109,192,371395,1,0,0:0:0:0:
329,192,371395,1,0,0:0:0:30:Sub Rhythm-2.wav
182,192,371395,1,0,0:0:0:30:Snare.wav
475,192,371497,1,0,0:0:0:30:Sub Rhythm-2.wav
36,192,371497,1,0,0:0:0:0:
182,192,371600,1,0,0:0:0:30:Sub Rhythm-2.wav
402,192,371600,1,0,0:0:0:0:
329,192,371703,1,0,0:0:0:0:
182,192,371703,1,0,0:0:0:30:Sub Rhythm-2.wav
475,192,371806,1,0,0:0:0:0:
109,192,371806,1,0,0:0:0:30:KicK.wav
256,192,371806,1,0,0:0:0:30:Sub Rhythm-2.wav
36,192,371806,1,0,0:0:0:0:
329,192,371908,1,0,0:0:0:0:
402,192,371908,1,0,0:0:0:30:Main-1.wav
182,192,371908,1,0,0:0:0:0:
36,192,372011,1,0,0:0:0:0:
402,192,372114,1,0,0:0:0:30:Main-1.wav
182,192,372114,1,0,0:0:0:0:
329,192,372114,1,0,0:0:0:0:
256,192,372217,1,0,0:0:0:0:
36,192,372217,1,0,0:0:0:0:
109,192,372217,1,0,0:0:0:30:Snare.wav
475,192,372217,1,0,0:0:0:0:
402,192,372319,1,0,0:0:0:0:
182,192,372422,128,0,372525:0:0:0:30:Tick.wav
329,192,372422,1,0,0:0:0:30:Highlight.wav
475,192,372422,1,0,0:0:0:0:
109,192,372473,128,0,372576:0:0:0:30:Tick.wav
36,192,372525,128,0,372628:0:0:0:30:Tick.wav
256,192,372525,1,0,0:0:0:0:
402,192,372628,1,0,0:0:0:30:KicK.wav
182,192,372628,1,0,0:0:0:0:
329,192,372628,1,0,0:0:0:0:
475,192,372628,1,0,0:0:0:0:
36,192,372730,1,0,0:0:0:0:
329,192,372833,128,0,372936:0:0:0:30:Tick.wav
109,192,372833,1,0,0:0:0:0:
402,192,372884,128,0,373038:0:0:0:30:Tick.wav
182,192,372936,1,0,0:0:0:0:
36,192,373038,1,0,0:0:0:0:
109,192,373038,1,0,0:0:0:0:
475,192,373038,1,0,0:0:0:30:Snare.wav
256,192,373038,1,0,0:0:0:30:Sub Rhythm-2.wav
256,192,373141,1,0,0:0:0:30:Sub Rhythm-2.wav
402,192,373141,1,0,0:0:0:0:
109,192,373244,1,0,0:0:0:0:
329,192,373244,1,0,0:0:0:30:Sub Rhythm-2.wav
109,192,373347,1,0,0:0:0:0:
256,192,373347,1,0,0:0:0:30:Sub Rhythm-2.wav
36,192,373449,1,0,0:0:0:30:KicK.wav
475,192,373449,1,0,0:0:0:0:
182,192,373449,1,0,0:0:0:30:Sub Rhythm-2.wav
402,192,373449,1,0,0:0:0:0:
329,192,373552,1,0,0:0:0:0:
109,192,373552,1,0,0:0:0:0:
256,192,373552,1,0,0:0:0:30:Main-1.wav
475,192,373655,1,0,0:0:0:0:
109,192,373758,1,0,0:0:0:0:
329,192,373758,1,0,0:0:0:0:
256,192,373758,1,0,0:0:0:30:Main-1.wav
36,192,373860,1,0,0:0:0:0:
475,192,373860,1,0,0:0:0:0:
182,192,373860,1,0,0:0:0:0:
402,192,373860,1,0,0:0:0:30:Snare.wav
256,192,373963,1,0,0:0:0:0:
109,192,374066,128,0,374169:0:0:0:30:Tick.wav
475,192,374066,1,0,0:0:0:30:Highlight.wav
329,192,374066,1,0,0:0:0:0:
182,192,374117,128,0,374220:0:0:0:30:Tick.wav
256,192,374169,128,0,374271:0:0:0:30:Tick.wav
402,192,374169,1,0,0:0:0:0:
329,192,374271,1,0,0:0:0:0:
475,192,374271,1,0,0:0:0:0:
109,192,374271,1,0,0:0:0:30:KicK.wav
36,192,374271,1,0,0:0:0:0:
182,192,374374,1,0,0:0:0:0:
475,192,374477,128,0,374580:0:0:0:30:Tick.wav
256,192,374477,1,0,0:0:0:0:
402,192,374528,128,0,374682:0:0:0:30:Tick.wav
182,192,374580,1,0,0:0:0:0:
329,192,374682,1,0,0:0:0:30:Snare.wav
475,192,374682,1,0,0:0:0:0:
36,192,374682,1,0,0:0:0:0:
109,192,374682,1,0,0:0:0:30:Sub Rhythm-2.wav
256,192,374785,1,0,0:0:0:0:
109,192,374785,1,0,0:0:0:30:Sub Rhythm-2.wav
402,192,374888,1,0,0:0:0:30:Sub Rhythm-2.wav
182,192,374888,1,0,0:0:0:0:
256,192,374991,1,0,0:0:0:30:Sub Rhythm-2.wav
402,192,374991,1,0,0:0:0:0:
475,192,375093,1,0,0:0:0:0:
329,192,375093,1,0,0:0:0:0:
109,192,375093,1,0,0:0:0:30:KicK.wav
36,192,375093,1,0,0:0:0:30:Sub Rhythm-2.wav
256,192,375196,1,0,0:0:0:0:
182,192,375196,1,0,0:0:0:30:Main-1.wav
402,192,375196,1,0,0:0:0:0:
36,192,375299,1,0,0:0:0:0:
256,192,375401,1,0,0:0:0:0:
402,192,375401,1,0,0:0:0:0:
182,192,375401,1,0,0:0:0:30:Main-1.wav
109,192,375504,1,0,0:0:0:0:
329,192,375504,1,0,0:0:0:30:Snare.wav
475,192,375504,1,0,0:0:0:0:
36,192,375504,1,0,0:0:0:0:
256,192,375607,1,0,0:0:0:0:
402,192,375710,128,0,375812:0:0:0:30:Tick.wav
475,192,375710,1,0,0:0:0:30:Highlight.wav
182,192,375710,1,0,0:0:0:0:
329,192,375761,128,0,375864:0:0:0:30:Tick.wav
256,192,375812,128,0,375915:0:0:0:30:Tick.wav
109,192,375812,1,0,0:0:0:0:
402,192,375915,1,0,0:0:0:0:
182,192,375915,1,0,0:0:0:30:KicK.wav
475,192,375915,1,0,0:0:0:0:
36,192,375915,1,0,0:0:0:0:
256,192,376018,1,0,0:0:0:0:
109,192,376121,128,0,376223:0:0:0:30:Tick.wav
329,192,376121,1,0,0:0:0:0:
182,192,376172,128,0,376326:0:0:0:30:Tick.wav
402,192,376223,1,0,0:0:0:0:
475,192,376326,1,0,0:0:0:30:Sub Rhythm-2.wav
329,192,376326,1,0,0:0:0:30:Snare.wav
109,192,376326,1,0,0:0:0:0:
36,192,376326,1,0,0:0:0:0:
475,192,376429,1,0,0:0:0:30:Sub Rhythm-2.wav
182,192,376429,1,0,0:0:0:0:
36,192,376532,1,0,0:0:0:0:
256,192,376532,1,0,0:0:0:30:Sub Rhythm-2.wav
36,192,376634,1,0,0:0:0:0:
329,192,376634,1,0,0:0:0:30:Sub Rhythm-2.wav
475,192,376737,1,0,0:0:0:0:
402,192,376737,1,0,0:0:0:30:Sub Rhythm-2.wav
109,192,376737,1,0,0:0:0:30:KicK.wav
256,192,376737,1,0,0:0:0:0:
182,192,376840,1,0,0:0:0:30:Main-1.wav
329,192,376840,1,0,0:0:0:0:
36,192,376840,1,0,0:0:0:0:
475,192,376943,1,0,0:0:0:0:
329,192,377045,1,0,0:0:0:0:
182,192,377045,1,0,0:0:0:30:Main-1.wav
36,192,377045,1,0,0:0:0:0:
109,192,377148,128,0,377319:0:0:0:0:
256,192,377148,1,0,0:0:0:0:
402,192,377148,1,0,0:0:0:0:
475,192,377148,1,0,0:0:0:30:Snare.wav
182,192,377251,128,0,377422:0:0:0:0:
329,192,377251,1,0,0:0:0:0:
402,192,377354,1,0,0:0:0:0:
256,192,377354,128,0,377525:0:0:0:0:
329,192,377456,128,0,377628:0:0:0:0:
475,192,377456,1,0,0:0:0:0:
402,192,377559,1,0,0:0:0:0:
109,192,377559,1,0,0:0:0:30:KicK.wav
182,192,377559,128,0,377696:0:0:0:0:
36,192,377559,1,0,0:0:0:30:Cymbal.wav
475,192,377662,1,0,0:0:0:0:
256,192,377662,128,0,377799:0:0:0:0:
36,192,377765,1,0,0:0:0:0:
329,192,377765,128,0,377901:0:0:0:0:
402,192,377867,128,0,378004:0:0:0:0:
109,192,377867,1,0,0:0:0:0:
256,192,377970,128,0,378073:0:0:0:0:
182,192,377970,1,0,0:0:0:30:Snare.wav
475,192,377970,1,0,0:0:0:0:
36,192,377970,1,0,0:0:0:30:Sub Rhythm-2.wav
329,192,378073,128,0,378175:0:0:0:0:
109,192,378073,1,0,0:0:0:30:Sub Rhythm-2.wav
402,192,378175,128,0,378278:0:0:0:0:
182,192,378175,1,0,0:0:0:30:Sub Rhythm-2.wav
475,192,378278,128,0,378381:0:0:0:0:
256,192,378278,1,0,0:0:0:30:Sub Rhythm-2.wav
182,192,378381,1,0,0:0:0:0:
329,192,378381,1,0,0:0:0:30:Sub Rhythm-2.wav
109,192,378381,1,0,0:0:0:30:KicK.wav
36,192,378381,1,0,0:0:0:0:
402,192,378484,1,0,0:0:0:30:Main-1.wav
475,192,378484,1,0,0:0:0:0:
256,192,378484,1,0,0:0:0:0:
109,192,378586,1,0,0:0:0:0:
402,192,378689,1,0,0:0:0:30:Main-1.wav
256,192,378689,1,0,0:0:0:0:
475,192,378689,1,0,0:0:0:0:
329,192,378792,1,0,0:0:0:30:Snare.wav
182,192,378792,1,0,0:0:0:0:
109,192,378792,1,0,0:0:0:0:
36,192,378792,1,0,0:0:0:0:
475,192,378895,1,0,0:0:0:0:
36,192,378997,128,0,379100:0:0:0:30:Tick.wav
402,192,378997,1,0,0:0:0:0:
256,192,378997,1,0,0:0:0:30:Highlight.wav
109,192,379049,128,0,379151:0:0:0:30:Tick.wav
182,192,379100,128,0,379203:0:0:0:30:Tick.wav
329,192,379100,1,0,0:0:0:0:
475,192,379203,1,0,0:0:0:0:
36,192,379203,1,0,0:0:0:0:
256,192,379203,1,0,0:0:0:30:KicK.wav
402,192,379203,1,0,0:0:0:0:
109,192,379306,1,0,0:0:0:0:
475,192,379408,128,0,379511:0:0:0:30:Tick.wav
182,192,379408,1,0,0:0:0:0:
402,192,379460,128,0,379614:0:0:0:30:Tick.wav
256,192,379511,1,0,0:0:0:0:
36,192,379614,1,0,0:0:0:0:
182,192,379614,1,0,0:0:0:0:
329,192,379614,1,0,0:0:0:30:Snare.wav
109,192,379614,1,0,0:0:0:30:Sub Rhythm-2.wav
329,192,379717,1,0,0:0:0:30:Sub Rhythm-2.wav
475,192,379717,1,0,0:0:0:0:
36,192,379819,1,0,0:0:0:30:Sub Rhythm-2.wav
182,192,379819,1,0,0:0:0:0:
329,192,379922,1,0,0:0:0:30:Sub Rhythm-2.wav
182,192,379922,1,0,0:0:0:0:
256,192,380025,1,0,0:0:0:30:KicK.wav
109,192,380025,1,0,0:0:0:0:
36,192,380025,1,0,0:0:0:0:
402,192,380025,1,0,0:0:0:30:Sub Rhythm-2.wav
182,192,380128,1,0,0:0:0:0:
475,192,380128,1,0,0:0:0:0:
329,192,380128,1,0,0:0:0:30:Main-1.wav
36,192,380230,1,0,0:0:0:0:
182,192,380333,1,0,0:0:0:0:
475,192,380333,1,0,0:0:0:0:
329,192,380333,1,0,0:0:0:30:Main-1.wav
256,192,380436,1,0,0:0:0:0:
402,192,380436,1,0,0:0:0:30:Snare.wav
36,192,380436,1,0,0:0:0:0:
109,192,380436,1,0,0:0:0:0:
329,192,380538,1,0,0:0:0:0:
182,192,380641,128,0,380744:0:0:0:30:Tick.wav
402,192,380641,1,0,0:0:0:0:
475,192,380641,1,0,0:0:0:30:Highlight.wav
256,192,380693,128,0,380795:0:0:0:30:Tick.wav
329,192,380744,128,0,380847:0:0:0:30:Tick.wav
36,192,380744,1,0,0:0:0:0:
475,192,380847,1,0,0:0:0:0:
182,192,380847,1,0,0:0:0:30:KicK.wav
402,192,380847,1,0,0:0:0:0:
109,192,380847,1,0,0:0:0:30:Cymbal.wav
256,192,380949,1,0,0:0:0:0:
402,192,381052,128,0,381155:0:0:0:30:Tick.wav
182,192,381052,1,0,0:0:0:0:
329,192,381104,128,0,381258:0:0:0:30:Tick.wav
109,192,381155,1,0,0:0:0:0:
36,192,381258,1,0,0:0:0:0:
475,192,381258,1,0,0:0:0:0:
182,192,381258,1,0,0:0:0:30:Sub Rhythm-2.wav
402,192,381258,1,0,0:0:0:30:Snare.wav
182,192,381360,1,0,0:0:0:0:
329,192,381360,1,0,0:0:0:30:Sub Rhythm-2.wav
36,192,381463,1,0,0:0:0:30:Sub Rhythm-2.wav
475,192,381463,1,0,0:0:0:0:
256,192,381566,1,0,0:0:0:0:
475,192,381566,1,0,0:0:0:30:Sub Rhythm-2.wav
329,192,381669,1,0,0:0:0:30:Sub Rhythm-2.wav
36,192,381669,1,0,0:0:0:0:
182,192,381669,1,0,0:0:0:30:KicK.wav
402,192,381669,1,0,0:0:0:0:
256,192,381771,1,0,0:0:0:30:Main-1.wav
475,192,381771,1,0,0:0:0:0:
109,192,381771,1,0,0:0:0:0:
329,192,381874,1,0,0:0:0:0:
475,192,381977,1,0,0:0:0:0:
109,192,381977,1,0,0:0:0:0:
256,192,381977,1,0,0:0:0:30:Main-1.wav
182,192,382080,1,0,0:0:0:0:
36,192,382080,1,0,0:0:0:0:
402,192,382080,1,0,0:0:0:0:
329,192,382080,1,0,0:0:0:30:Snare.wav
475,192,382182,1,0,0:0:0:0:
36,192,382285,128,0,382388:0:0:0:30:Tick.wav
402,192,382285,1,0,0:0:0:30:Highlight.wav
256,192,382285,1,0,0:0:0:0:
109,192,382336,128,0,382439:0:0:0:30:Tick.wav
182,192,382388,128,0,382491:0:0:0:30:Tick.wav
329,192,382388,1,0,0:0:0:0:
36,192,382491,1,0,0:0:0:0:
475,192,382491,1,0,0:0:0:0:
256,192,382491,1,0,0:0:0:30:Cymbal.wav
402,192,382491,1,0,0:0:0:30:KicK.wav
402,192,382696,128,0,382799:0:0:0:30:Tick.wav
329,192,382747,128,0,382901:0:0:0:30:Tick.wav
36,192,383004,1,0,0:0:0:0:
475,192,383107,1,0,0:0:0:0:
402,192,383158,1,0,0:0:0:0:
36,192,383210,1,0,0:0:0:0:
329,192,383210,1,0,0:0:0:0:
256,192,383261,1,0,0:0:0:0:
402,192,383312,1,0,0:0:0:0:
475,192,383312,1,0,0:0:0:0:
402,192,383415,1,0,0:0:0:0:
475,192,383415,1,0,0:0:0:0:
109,192,383415,1,0,0:0:0:0:
182,192,383415,1,0,0:0:0:0:
402,192,383621,1,0,0:0:0:0:
475,192,383621,1,0,0:0:0:0:
109,192,383621,1,0,0:0:0:0:
182,192,383621,1,0,0:0:0:0:
475,192,383826,1,0,0:0:0:0:
402,192,383826,1,0,0:0:0:0:
36,192,383826,1,0,0:0:0:0:
402,192,383929,1,0,0:0:0:0:
475,192,383929,1,0,0:0:0:0:
36,192,383929,1,0,0:0:0:0:
182,192,383929,128,0,384032:0:0:0:30:Tick.wav
256,192,383980,128,0,384083:0:0:0:30:Tick.wav
329,192,384032,128,0,384134:0:0:0:30:Tick.wav
109,192,384134,1,0,0:0:0:0:
36,192,384134,1,0,0:0:0:0:
182,192,384134,1,0,0:0:0:0:
475,192,384134,1,0,0:0:0:30:KicK.wav
402,192,384134,1,0,0:0:0:30:Cymbal.wav
402,192,384340,128,0,384443:0:0:0:30:Tick.wav
329,192,384391,128,0,384545:0:0:0:30:Tick.wav
402,192,384648,1,0,0:0:0:0:
402,192,384854,1,0,0:0:0:0:
109,192,385059,1,0,0:0:0:0:
36,192,385059,1,0,0:0:0:0:
36,192,385265,1,0,0:0:0:0:
109,192,385265,1,0,0:0:0:0:
182,192,385573,1,0,0:0:0:0:
256,192,385624,1,0,0:0:0:0:
329,192,385675,1,0,0:0:0:0:
402,192,385727,1,0,0:0:0:0:
475,192,385778,1,0,0:0:0:0:
109,192,385984,128,0,386086:0:0:0:30:Tick.wav
36,192,386035,128,0,386189:0:0:0:30:Tick.wav
329,192,386292,1,0,0:0:0:0:
329,192,386497,1,0,0:0:0:0:
182,192,386703,1,0,0:0:0:0:
109,192,386703,1,0,0:0:0:0:
109,192,386908,1,0,0:0:0:0:
182,192,386908,1,0,0:0:0:0:
36,192,387217,1,0,0:0:0:0:
475,192,387217,128,0,387422:0:0:0:0:
256,192,387268,1,0,0:0:0:0:
109,192,387319,1,0,0:0:0:0:
329,192,387371,1,0,0:0:0:0:
182,192,387422,1,0,0:0:0:0:
329,192,387628,128,0,387730:0:0:0:30:Tick.wav
256,192,387679,128,0,387833:0:0:0:30:Tick.wav
402,192,387936,1,0,0:0:0:0:
402,192,388141,1,0,0:0:0:0:
36,192,388347,1,0,0:0:0:0:
182,192,388347,1,0,0:0:0:0:
182,192,388552,1,0,0:0:0:0:
36,192,388552,1,0,0:0:0:0:
402,192,388860,1,0,0:0:0:0:
256,192,388912,1,0,0:0:0:0:
475,192,388963,1,0,0:0:0:0:
329,192,389015,1,0,0:0:0:0:
182,192,389066,1,0,0:0:0:0:
36,192,389271,128,0,389374:0:0:0:30:Tick.wav
109,192,389323,128,0,389477:0:0:0:30:Tick.wav
256,192,389580,1,0,0:0:0:0:
256,192,389785,1,0,0:0:0:0:
475,192,389991,1,0,0:0:0:0:
402,192,389991,1,0,0:0:0:0:
402,192,390196,1,0,0:0:0:0:
475,192,390196,1,0,0:0:0:0:
36,192,390299,1,0,0:0:0:0:
36,192,390401,1,0,0:0:0:0:
329,192,390504,1,0,0:0:0:0:
109,192,390504,1,0,0:0:0:0:
475,192,390556,1,0,0:0:0:0:
402,192,390607,1,0,0:0:0:0:
182,192,390607,1,0,0:0:0:0:
329,192,390658,1,0,0:0:0:0:
256,192,390710,1,0,0:0:0:0:
36,192,390710,1,0,0:0:0:0:
36,192,390812,1,0,0:0:0:0:
109,192,390915,1,0,0:0:0:0:
402,192,390915,128,0,391018:0:0:0:30:Tick.wav
329,192,390967,128,0,391121:0:0:0:30:Tick.wav
182,192,391018,1,0,0:0:0:0:
36,192,391121,1,0,0:0:0:0:
36,192,391223,1,0,0:0:0:0:
475,192,391223,1,0,0:0:0:0:
109,192,391326,1,0,0:0:0:0:
182,192,391429,1,0,0:0:0:0:
475,192,391429,1,0,0:0:0:0:
109,192,391634,1,0,0:0:0:0:
256,192,391634,1,0,0:0:0:0:
256,192,391840,1,0,0:0:0:0:
109,192,391840,1,0,0:0:0:0:
36,192,392148,1,0,0:0:0:0:
182,192,392199,1,0,0:0:0:0:
329,192,392251,1,0,0:0:0:0:
475,192,392302,1,0,0:0:0:0:
402,192,392354,1,0,0:0:0:0:
256,192,392559,128,0,392662:0:0:0:30:Tick.wav
182,192,392610,128,0,392765:0:0:0:30:Tick.wav
36,192,392867,1,0,0:0:0:0:
36,192,393073,1,0,0:0:0:0:
402,192,393278,1,0,0:0:0:0:
329,192,393278,1,0,0:0:0:0:
402,192,393484,1,0,0:0:0:0:
329,192,393484,1,0,0:0:0:0:
109,192,393792,128,0,393997:0:0:0:0:
475,192,393792,1,0,0:0:0:0:
329,192,393843,1,0,0:0:0:0:
182,192,393895,1,0,0:0:0:0:
402,192,393946,1,0,0:0:0:0:
256,192,393997,1,0,0:0:0:0:
329,192,394203,128,0,394306:0:0:0:30:Tick.wav
402,192,394254,128,0,394408:0:0:0:30:Tick.wav
36,192,394511,1,0,0:0:0:0:
36,192,394717,1,0,0:0:0:0:
109,192,394922,1,0,0:0:0:0:
256,192,394922,1,0,0:0:0:0:
109,192,395128,1,0,0:0:0:0:
256,192,395128,1,0,0:0:0:0:
182,192,395436,1,0,0:0:0:0:
329,192,395487,1,0,0:0:0:0:
256,192,395538,1,0,0:0:0:0:
402,192,395590,1,0,0:0:0:0:
36,192,395641,128,0,396874:0:0:0:0:
329,192,395641,1,0,0:0:0:0:
182,192,395847,128,0,395949:0:0:0:30:Tick.wav
109,192,395898,128,0,396052:0:0:0:30:Tick.wav
402,192,396155,1,0,0:0:0:0:
402,192,396360,1,0,0:0:0:0:
182,192,396566,1,0,0:0:0:0:
329,192,396566,1,0,0:0:0:0:
182,192,396771,1,0,0:0:0:0:
329,192,396771,1,0,0:0:0:0:
256,192,396874,1,0,0:0:0:30:KicK.wav
402,192,396874,1,0,0:0:0:30:Cymbal.wav
475,192,396874,1,0,0:0:0:0:
256,192,397080,1,0,0:0:0:30:KicK.wav
402,192,397080,1,0,0:0:0:30:Cymbal.wav
475,192,397080,1,0,0:0:0:0:
36,192,397080,1,0,0:0:0:30:Clap.wav
109,192,397131,1,0,0:0:0:0:
182,192,397182,1,0,0:0:0:0:
256,192,397234,1,0,0:0:0:0:
329,192,397285,1,0,0:0:0:0:
