osu file format v14

[General]
AudioFilename: audio.mp3
AudioLeadIn: 0
PreviewTime: -1
Countdown: 0
SampleSet: Soft
StackLeniency: 0.7
Mode: 3
LetterboxInBreaks: 0
SpecialStyle: 0
WidescreenStoryboard: 0

[Editor]
DistanceSpacing: 0.5
BeatDivisor: 16
GridSize: 4
TimelineZoom: 7.099996

[Metadata]
Title:Lapis (Cristierra ver.)
TitleUnicode:Lapis (Cristierra ver.)
Artist:SHIKI
ArtistUnicode:SHIKI
Creator:Kawai Milliye
Version:Lazuli
Source:Cristierra
Tags:SHIKI
BeatmapID:1331092
BeatmapSetID:630537

[Difficulty]
HPDrainRate:5
CircleSize:4
OverallDifficulty:6
ApproachRate:5
SliderMultiplier:1.4
SliderTickRate:1

[Events]
//Background and Video events
0,0,"1.jpg",0,0
//Break Periods
//Storyboard Layer 0 (Background)
//Storyboard Layer 1 (Fail)
//Storyboard Layer 2 (Pass)
//Storyboard Layer 3 (Foreground)
//Storyboard Sound Samples

[TimingPoints]
535,428.571428571429,4,2,0,40,1,0

[HitObjects]
192,192,535,5,0,0:0:0:0:
320,192,535,1,0,0:0:0:0:
448,192,535,1,0,0:0:0:0:
320,192,856,1,0,0:0:0:0:
64,192,856,1,0,0:0:0:0:
448,192,856,1,0,0:0:0:0:
64,192,1177,1,0,0:0:0:0:
192,192,1177,1,0,0:0:0:0:
448,192,1177,1,0,0:0:0:0:
320,192,1472,1,0,0:0:0:0:
192,192,1472,1,0,0:0:0:0:
64,192,1472,1,0,0:0:0:0:
448,192,1552,1,0,0:0:0:0:
448,192,1767,1,0,0:0:0:0:
192,192,1767,1,0,0:0:0:0:
64,192,1767,1,0,0:0:0:0:
448,192,1981,1,0,0:0:0:0:
64,192,1981,1,0,0:0:0:0:
320,192,1981,1,0,0:0:0:0:
320,192,2168,1,0,0:0:0:0:
448,192,2168,1,0,0:0:0:0:
192,192,2168,1,0,0:0:0:0:
64,192,2490,1,0,0:0:0:0:
320,192,2490,1,0,0:0:0:0:
448,192,2490,1,0,0:0:0:0:
64,192,2785,1,0,0:0:0:0:
448,192,2785,1,0,0:0:0:0:
192,192,2785,1,0,0:0:0:0:
64,192,3106,1,0,0:0:0:0:
320,192,3106,1,0,0:0:0:0:
192,192,3106,1,0,0:0:0:0:
448,192,3186,1,0,0:0:0:0:
64,192,3427,1,0,0:0:0:0:
192,192,3427,1,0,0:0:0:0:
448,192,3427,1,0,0:0:0:0:
64,192,3615,1,0,0:0:0:0:
448,192,3615,1,0,0:0:0:0:
320,192,3615,1,0,0:0:0:0:
192,192,3829,1,0,0:0:0:0:
320,192,3829,1,0,0:0:0:0:
448,192,3829,1,0,0:0:0:0:
448,192,4124,1,0,0:0:0:0:
64,192,4124,1,0,0:0:0:0:
320,192,4124,1,0,0:0:0:0:
64,192,4445,1,0,0:0:0:0:
192,192,4445,1,0,0:0:0:0:
448,192,4445,1,0,0:0:0:0:
64,192,4740,1,0,0:0:0:0:
192,192,4740,1,0,0:0:0:0:
320,192,4740,1,0,0:0:0:0:
448,192,4847,1,0,0:0:0:0:
64,192,5061,1,0,0:0:0:0:
192,192,5061,1,0,0:0:0:0:
448,192,5061,1,0,0:0:0:0:
64,192,5276,1,0,0:0:0:0:
320,192,5276,1,0,0:0:0:0:
448,192,5276,1,0,0:0:0:0:
192,192,5463,1,0,0:0:0:0:
320,192,5463,1,0,0:0:0:0:
448,192,5463,1,0,0:0:0:0:
64,192,5785,1,0,0:0:0:0:
320,192,5785,1,0,0:0:0:0:
448,192,5785,1,0,0:0:0:0:
64,192,6079,1,0,0:0:0:0:
192,192,6079,1,0,0:0:0:0:
448,192,6079,1,0,0:0:0:0:
64,192,6401,1,0,0:0:0:0:
192,192,6401,1,0,0:0:0:0:
320,192,6401,1,0,0:0:0:0:
448,192,6481,1,0,0:0:0:0:
64,192,6695,1,0,0:0:0:0:
192,192,6695,1,0,0:0:0:0:
448,192,6695,1,0,0:0:0:0:
64,192,6910,1,0,0:0:0:0:
320,192,6910,1,0,0:0:0:0:
448,192,6910,1,0,0:0:0:0:
192,192,7124,1,0,0:0:0:0:
320,192,7124,1,0,0:0:0:0:
448,192,7124,1,0,0:0:0:0:
64,192,7445,1,0,0:0:0:0:
320,192,7445,1,0,0:0:0:0:
448,192,7445,1,0,0:0:0:0:
64,192,7740,1,0,0:0:0:0:
192,192,7740,1,0,0:0:0:0:
448,192,7740,1,0,0:0:0:0:
64,192,8035,1,0,0:0:0:0:
192,192,8035,1,0,0:0:0:0:
320,192,8035,1,0,0:0:0:0:
448,192,8142,1,0,0:0:0:0:
192,192,8356,1,0,0:0:0:0:
64,192,8356,1,0,0:0:0:0:
448,192,8356,1,0,0:0:0:0:
64,192,8543,1,0,0:0:0:0:
320,192,8543,1,0,0:0:0:0:
448,192,8543,1,0,0:0:0:0:
192,192,8758,1,0,0:0:0:0:
320,192,8758,1,0,0:0:0:0:
448,192,8758,1,0,0:0:0:0:
320,192,9052,1,0,0:0:0:0:
448,192,9052,1,0,0:0:0:0:
64,192,9052,1,0,0:0:0:0:
64,192,9374,1,0,0:0:0:0:
448,192,9374,1,0,0:0:0:0:
192,192,9374,1,0,0:0:0:0:
64,192,9695,1,0,0:0:0:0:
192,192,9695,1,0,0:0:0:0:
320,192,9695,1,0,0:0:0:0:
448,192,9776,1,0,0:0:0:0:
64,192,9990,1,0,0:0:0:0:
192,192,9990,1,0,0:0:0:0:
448,192,9990,1,0,0:0:0:0:
64,192,10177,1,0,0:0:0:0:
320,192,10177,1,0,0:0:0:0:
448,192,10177,1,0,0:0:0:0:
320,192,10392,1,0,0:0:0:0:
448,192,10392,1,0,0:0:0:0:
192,192,10392,1,0,0:0:0:0:
64,192,10713,1,0,0:0:0:0:
320,192,10713,1,0,0:0:0:0:
448,192,10713,1,0,0:0:0:0:
64,192,11035,1,0,0:0:0:0:
192,192,11035,1,0,0:0:0:0:
448,192,11035,1,0,0:0:0:0:
64,192,11329,1,0,0:0:0:0:
192,192,11329,1,0,0:0:0:0:
320,192,11329,1,0,0:0:0:0:
448,192,11436,1,0,0:0:0:0:
64,192,11651,1,0,0:0:0:0:
192,192,11651,1,0,0:0:0:0:
448,192,11651,1,0,0:0:0:0:
64,192,11838,1,0,0:0:0:0:
448,192,11838,1,0,0:0:0:0:
320,192,11838,1,0,0:0:0:0:
192,192,12052,1,0,0:0:0:0:
320,192,12052,1,0,0:0:0:0:
448,192,12052,1,0,0:0:0:0:
64,192,12347,1,0,0:0:0:0:
320,192,12347,1,0,0:0:0:0:
448,192,12347,1,0,0:0:0:0:
64,192,12668,1,0,0:0:0:0:
192,192,12668,1,0,0:0:0:0:
448,192,12668,1,0,0:0:0:0:
64,192,12990,1,0,0:0:0:0:
192,192,12990,1,0,0:0:0:0:
320,192,12990,1,0,0:0:0:0:
448,192,13070,1,0,0:0:0:0:
64,192,13285,1,0,0:0:0:0:
192,192,13285,1,0,0:0:0:0:
448,192,13285,1,0,0:0:0:0:
64,192,13472,1,0,0:0:0:0:
320,192,13472,1,0,0:0:0:0:
448,192,13472,1,0,0:0:0:0:
192,192,13713,1,0,0:0:0:0:
320,192,13713,1,0,0:0:0:0:
448,192,13713,1,0,0:0:0:0:
64,192,26838,128,0,28499:0:0:0:0:
448,192,28499,128,0,29302:0:0:0:0:
320,192,29302,128,0,29704:0:0:0:0:
192,192,29704,128,0,30106:0:0:0:0:
320,192,30106,128,0,31740:0:0:0:0:
64,192,31740,128,0,33026:0:0:0:0:
320,192,33026,128,0,33401:0:0:0:0:
448,192,33401,128,0,35061:0:0:0:0:
320,192,35061,128,0,35892:0:0:0:0:
192,192,35892,128,0,36320:0:0:0:0:
448,192,36320,128,0,36722:0:0:0:0:
64,192,36722,128,0,37526:0:0:0:0:
320,192,37526,128,0,37954:0:0:0:0:
192,192,37954,128,0,38356:0:0:0:0:
64,192,38356,128,0,38972:0:0:0:0:
448,192,38972,128,0,39588:0:0:0:0:
320,192,39588,128,0,39990:0:0:0:0:
192,192,39990,128,0,41651:0:0:0:0:
448,192,41651,128,0,42481:0:0:0:0:
