osu file format v14

[General]
AudioFilename: audio.mp3
AudioLeadIn: 0
PreviewTime: 14824
Countdown: 0
SampleSet: Normal
StackLeniency: 0.7
Mode: 3
LetterboxInBreaks: 0
SpecialStyle: 0
WidescreenStoryboard: 0

[Editor]
Bookmarks: 14824,27975,54276,80578,94139,107289,120440
DistanceSpacing: 0.9
BeatDivisor: 8
GridSize: 8
TimelineZoom: 2.5

[Metadata]
Title:Lapis
TitleUnicode:Lapis
Artist:SHIKI
ArtistUnicode:SHIKI
Creator:-NoName-
Version:Black Another
Source:THE BMS OF FIGHTERS 2008 - Resurrection -
Tags:heaven punisher electronic instrumental trance trancer doll's dolls bof2008 video game RandomeLoL 友達なんか要りません Arcaea CHUNITHM Pokerizu Sparebeat Artcore bof
BeatmapID:3373265
BeatmapSetID:1652458

[Difficulty]
HPDrainRate:8.2
CircleSize:7
OverallDifficulty:8
ApproachRate:5
SliderMultiplier:1.4
SliderTickRate:1

[Events]
//Background and Video events
0,0,"bg.png",0,0
//Break Periods
//Storyboard Layer 0 (Background)
//Storyboard Layer 1 (Fail)
//Storyboard Layer 2 (Pass)
//Storyboard Layer 3 (Foreground)
//Storyboard Layer 4 (Overlay)
//Storyboard Sound Samples

[TimingPoints]
1674,410.958904109589,4,1,1,55,1,0
54379,-100,4,1,1,40,0,0
79961,-100,4,1,1,55,0,0
94139,-100,4,1,1,45,0,0
105645,-100,4,1,1,55,0,0

[HitObjects]
36,192,1674,5,0,0:0:0:0:
182,192,1674,1,0,0:0:0:0:
329,192,1674,1,0,0:0:0:0:
402,192,1674,1,0,0:0:0:0:
36,192,1982,1,0,0:0:0:0:
182,192,1982,1,0,0:0:0:0:
402,192,1982,1,0,0:0:0:0:
329,192,1982,1,0,0:0:0:0:
36,192,2290,1,0,0:0:0:0:
182,192,2290,1,0,0:0:0:0:
329,192,2290,1,0,0:0:0:0:
402,192,2290,1,0,0:0:0:0:
182,192,2598,1,0,0:0:0:0:
329,192,2598,1,0,0:0:0:0:
402,192,2598,1,0,0:0:0:0:
36,192,2701,1,0,0:0:0:0:
36,192,2906,1,0,0:0:0:0:
182,192,2906,1,0,0:0:0:0:
329,192,2906,1,0,0:0:0:0:
402,192,2906,1,0,0:0:0:0:
36,192,3112,1,0,0:0:0:0:
182,192,3112,1,0,0:0:0:0:
329,192,3112,1,0,0:0:0:0:
402,192,3112,1,0,0:0:0:0:
182,192,3317,1,0,0:0:0:0:
329,192,3317,1,0,0:0:0:0:
475,192,3317,1,0,0:0:0:0:
36,192,3317,1,0,0:0:0:0:
36,192,3626,1,0,0:0:0:0:
182,192,3626,1,0,0:0:0:0:
329,192,3626,1,0,0:0:0:0:
475,192,3626,1,0,0:0:0:0:
36,192,3934,1,0,0:0:0:0:
182,192,3934,1,0,0:0:0:0:
329,192,3934,1,0,0:0:0:0:
475,192,3934,1,0,0:0:0:0:
182,192,4242,1,0,0:0:0:0:
329,192,4242,1,0,0:0:0:0:
256,192,4242,1,0,0:0:0:0:
36,192,4345,1,0,0:0:0:0:
36,192,4550,1,0,0:0:0:0:
182,192,4550,1,0,0:0:0:0:
256,192,4550,1,0,0:0:0:0:
329,192,4550,1,0,0:0:0:0:
36,192,4756,1,0,0:0:0:0:
182,192,4756,1,0,0:0:0:0:
256,192,4756,1,0,0:0:0:0:
329,192,4756,1,0,0:0:0:0:
109,192,4961,1,0,0:0:0:0:
256,192,4961,1,0,0:0:0:0:
402,192,4961,1,0,0:0:0:0:
475,192,4961,1,0,0:0:0:0:
109,192,5269,1,0,0:0:0:0:
256,192,5269,1,0,0:0:0:0:
402,192,5269,1,0,0:0:0:0:
475,192,5269,1,0,0:0:0:0:
109,192,5578,1,0,0:0:0:0:
256,192,5578,1,0,0:0:0:0:
402,192,5578,1,0,0:0:0:0:
475,192,5578,1,0,0:0:0:0:
256,192,5886,1,0,0:0:0:0:
402,192,5886,1,0,0:0:0:0:
475,192,5886,1,0,0:0:0:0:
109,192,5989,1,0,0:0:0:0:
109,192,6194,1,0,0:0:0:0:
256,192,6194,1,0,0:0:0:0:
402,192,6194,1,0,0:0:0:0:
475,192,6194,1,0,0:0:0:0:
109,192,6400,1,0,0:0:0:0:
256,192,6400,1,0,0:0:0:0:
402,192,6400,1,0,0:0:0:0:
475,192,6400,1,0,0:0:0:0:
109,192,6605,1,0,0:0:0:0:
329,192,6605,1,0,0:0:0:0:
475,192,6605,1,0,0:0:0:0:
182,192,6605,1,0,0:0:0:0:
109,192,6913,1,0,0:0:0:0:
329,192,6913,1,0,0:0:0:0:
475,192,6913,1,0,0:0:0:0:
182,192,6913,1,0,0:0:0:0:
109,192,7221,1,0,0:0:0:0:
329,192,7221,1,0,0:0:0:0:
475,192,7221,1,0,0:0:0:0:
182,192,7221,1,0,0:0:0:0:
256,192,7530,1,0,0:0:0:0:
402,192,7530,1,0,0:0:0:0:
475,192,7530,1,0,0:0:0:0:
109,192,7632,1,0,0:0:0:0:
256,192,7838,1,0,0:0:0:0:
402,192,7838,1,0,0:0:0:0:
475,192,7838,1,0,0:0:0:0:
109,192,7838,1,0,0:0:0:0:
256,192,8043,1,0,0:0:0:0:
402,192,8043,1,0,0:0:0:0:
475,192,8043,1,0,0:0:0:0:
109,192,8043,1,0,0:0:0:0:
36,192,8249,1,0,0:0:0:0:
182,192,8249,1,0,0:0:0:0:
402,192,8249,1,0,0:0:0:0:
256,192,8249,1,0,0:0:0:0:
36,192,8557,1,0,0:0:0:0:
182,192,8557,1,0,0:0:0:0:
256,192,8557,1,0,0:0:0:0:
402,192,8557,1,0,0:0:0:0:
36,192,8865,1,0,0:0:0:0:
182,192,8865,1,0,0:0:0:0:
256,192,8865,1,0,0:0:0:0:
402,192,8865,1,0,0:0:0:0:
182,192,9174,1,0,0:0:0:0:
256,192,9174,1,0,0:0:0:0:
402,192,9174,1,0,0:0:0:0:
36,192,9276,1,0,0:0:0:0:
36,192,9482,1,0,0:0:0:0:
182,192,9482,1,0,0:0:0:0:
256,192,9482,1,0,0:0:0:0:
402,192,9482,1,0,0:0:0:0:
36,192,9687,1,0,0:0:0:0:
182,192,9687,1,0,0:0:0:0:
256,192,9687,1,0,0:0:0:0:
402,192,9687,1,0,0:0:0:0:
36,192,9893,1,0,0:0:0:0:
256,192,9893,1,0,0:0:0:0:
329,192,9893,1,0,0:0:0:0:
475,192,9893,1,0,0:0:0:0:
36,192,10201,1,0,0:0:0:0:
256,192,10201,1,0,0:0:0:0:
329,192,10201,1,0,0:0:0:0:
475,192,10201,1,0,0:0:0:0:
36,192,10509,1,0,0:0:0:0:
256,192,10509,1,0,0:0:0:0:
329,192,10509,1,0,0:0:0:0:
475,192,10509,1,0,0:0:0:0:
182,192,10817,1,0,0:0:0:0:
256,192,10817,1,0,0:0:0:0:
402,192,10817,1,0,0:0:0:0:
36,192,10920,1,0,0:0:0:0:
36,192,11126,1,0,0:0:0:0:
182,192,11126,1,0,0:0:0:0:
256,192,11126,1,0,0:0:0:0:
402,192,11126,1,0,0:0:0:0:
36,192,11331,1,0,0:0:0:0:
182,192,11331,1,0,0:0:0:0:
256,192,11331,1,0,0:0:0:0:
402,192,11331,1,0,0:0:0:0:
109,192,11537,1,0,0:0:0:0:
182,192,11537,1,0,0:0:0:0:
402,192,11537,1,0,0:0:0:0:
475,192,11537,1,0,0:0:0:0:
109,192,11845,1,0,0:0:0:0:
402,192,11845,1,0,0:0:0:0:
475,192,11845,1,0,0:0:0:0:
182,192,11845,1,0,0:0:0:0:
109,192,12153,1,0,0:0:0:0:
182,192,12153,1,0,0:0:0:0:
402,192,12153,1,0,0:0:0:0:
475,192,12153,1,0,0:0:0:0:
182,192,12461,1,0,0:0:0:0:
402,192,12461,1,0,0:0:0:0:
475,192,12461,1,0,0:0:0:0:
109,192,12564,1,0,0:0:0:0:
109,192,12769,1,0,0:0:0:0:
182,192,12769,1,0,0:0:0:0:
402,192,12769,1,0,0:0:0:0:
475,192,12769,1,0,0:0:0:0:
109,192,12975,1,0,0:0:0:0:
182,192,12975,1,0,0:0:0:0:
402,192,12975,1,0,0:0:0:0:
475,192,12975,1,0,0:0:0:0:
36,192,13180,1,0,0:0:0:0:
182,192,13180,1,0,0:0:0:0:
256,192,13180,1,0,0:0:0:0:
475,192,13180,1,0,0:0:0:0:
36,192,13489,1,0,0:0:0:0:
182,192,13489,1,0,0:0:0:0:
256,192,13489,1,0,0:0:0:0:
475,192,13489,1,0,0:0:0:0:
36,192,13797,1,0,0:0:0:0:
182,192,13797,1,0,0:0:0:0:
256,192,13797,1,0,0:0:0:0:
475,192,13797,1,0,0:0:0:0:
256,192,14105,1,0,0:0:0:0:
475,192,14105,1,0,0:0:0:0:
182,192,14105,1,0,0:0:0:0:
36,192,14208,1,0,0:0:0:0:
109,192,14413,1,0,0:0:0:0:
256,192,14413,1,0,0:0:0:0:
402,192,14413,1,0,0:0:0:0:
329,192,14516,1,0,0:0:0:0:
182,192,14516,1,0,0:0:0:0:
109,192,14619,1,0,0:0:0:0:
256,192,14619,1,0,0:0:0:0:
402,192,14619,1,0,0:0:0:0:
329,192,14721,1,0,0:0:0:0:
182,192,14721,1,0,0:0:0:0:
36,192,14824,1,0,0:0:0:0:
109,192,14824,1,0,0:0:0:0:
402,192,14824,1,0,0:0:0:0:
475,192,14824,1,0,0:0:0:0:
329,192,14927,1,0,0:0:0:0:
256,192,14927,1,0,0:0:0:0:
36,192,15030,1,0,0:0:0:0:
182,192,15030,1,0,0:0:0:0:
256,192,15132,1,0,0:0:0:0:
402,192,15132,1,0,0:0:0:0:
109,192,15235,1,0,0:0:0:0:
475,192,15235,1,0,0:0:0:0:
182,192,15235,1,0,0:0:0:0:
36,192,15338,1,0,0:0:0:0:
329,192,15338,1,0,0:0:0:0:
402,192,15441,1,0,0:0:0:0:
256,192,15441,1,0,0:0:0:0:
36,192,15543,1,0,0:0:0:0:
329,192,15543,1,0,0:0:0:0:
475,192,15646,1,0,0:0:0:0:
182,192,15646,1,0,0:0:0:0:
256,192,15646,1,0,0:0:0:0:
402,192,15749,1,0,0:0:0:0:
109,192,15749,1,0,0:0:0:0:
36,192,15852,1,0,0:0:0:0:
329,192,15852,1,0,0:0:0:0:
109,192,15954,1,0,0:0:0:0:
402,192,15954,1,0,0:0:0:0:
182,192,16057,1,0,0:0:0:0:
256,192,16057,1,0,0:0:0:0:
475,192,16057,1,0,0:0:0:0:
36,192,16160,1,0,0:0:0:0:
109,192,16160,1,0,0:0:0:0:
329,192,16263,1,0,0:0:0:0:
402,192,16263,1,0,0:0:0:0:
182,192,16365,1,0,0:0:0:0:
256,192,16365,1,0,0:0:0:0:
475,192,16468,1,0,0:0:0:0:
36,192,16468,1,0,0:0:0:0:
402,192,16468,1,0,0:0:0:0:
109,192,16571,1,0,0:0:0:0:
329,192,16571,1,0,0:0:0:0:
182,192,16674,1,0,0:0:0:0:
402,192,16674,1,0,0:0:0:0:
256,192,16776,1,0,0:0:0:0:
475,192,16776,1,0,0:0:0:0:
109,192,16879,1,0,0:0:0:0:
36,192,16879,1,0,0:0:0:0:
329,192,16879,1,0,0:0:0:0:
182,192,16982,1,0,0:0:0:0:
475,192,16982,1,0,0:0:0:0:
109,192,17084,1,0,0:0:0:0:
256,192,17084,1,0,0:0:0:0:
329,192,17187,1,0,0:0:0:0:
182,192,17187,1,0,0:0:0:0:
475,192,17290,1,0,0:0:0:0:
402,192,17290,1,0,0:0:0:0:
256,192,17290,1,0,0:0:0:0:
36,192,17393,1,0,0:0:0:0:
109,192,17393,1,0,0:0:0:0:
329,192,17495,1,0,0:0:0:0:
256,192,17495,1,0,0:0:0:0:
182,192,17598,1,0,0:0:0:0:
475,192,17598,1,0,0:0:0:0:
36,192,17701,1,0,0:0:0:0:
329,192,17701,1,0,0:0:0:0:
402,192,17701,1,0,0:0:0:0:
109,192,17804,1,0,0:0:0:0:
182,192,17804,1,0,0:0:0:0:
475,192,17906,1,0,0:0:0:0:
402,192,17906,1,0,0:0:0:0:
256,192,18009,1,0,0:0:0:0:
182,192,18009,1,0,0:0:0:0:
475,192,18112,1,0,0:0:0:0:
109,192,18112,1,0,0:0:0:0:
36,192,18112,1,0,0:0:0:0:
402,192,18163,1,0,0:0:0:0:
329,192,18215,1,0,0:0:0:0:
182,192,18215,1,0,0:0:0:0:
256,192,18266,1,0,0:0:0:0:
109,192,18317,1,0,0:0:0:0:
36,192,18317,1,0,0:0:0:0:
402,192,18420,1,0,0:0:0:0:
109,192,18523,1,0,0:0:0:0:
475,192,18523,1,0,0:0:0:0:
256,192,18523,1,0,0:0:0:0:
329,192,18626,1,0,0:0:0:0:
182,192,18626,1,0,0:0:0:0:
36,192,18728,1,0,0:0:0:0:
256,192,18831,1,0,0:0:0:0:
402,192,18831,1,0,0:0:0:0:
475,192,18934,1,0,0:0:0:0:
109,192,18934,1,0,0:0:0:0:
329,192,18934,1,0,0:0:0:0:
36,192,19037,1,0,0:0:0:0:
475,192,19139,1,0,0:0:0:0:
329,192,19139,1,0,0:0:0:0:
182,192,19242,1,0,0:0:0:0:
256,192,19242,1,0,0:0:0:0:
36,192,19345,1,0,0:0:0:0:
109,192,19345,1,0,0:0:0:0:
402,192,19345,1,0,0:0:0:0:
329,192,19447,1,0,0:0:0:0:
182,192,19447,1,0,0:0:0:0:
36,192,19550,1,0,0:0:0:0:
256,192,19550,1,0,0:0:0:0:
402,192,19653,1,0,0:0:0:0:
109,192,19756,1,0,0:0:0:0:
475,192,19756,1,0,0:0:0:0:
256,192,19756,1,0,0:0:0:0:
36,192,19858,1,0,0:0:0:0:
182,192,19858,1,0,0:0:0:0:
329,192,19961,1,0,0:0:0:0:
256,192,19961,1,0,0:0:0:0:
475,192,20064,1,0,0:0:0:0:
402,192,20064,1,0,0:0:0:0:
109,192,20167,1,0,0:0:0:0:
36,192,20167,1,0,0:0:0:0:
182,192,20167,1,0,0:0:0:0:
329,192,20269,1,0,0:0:0:0:
402,192,20269,1,0,0:0:0:0:
475,192,20372,1,0,0:0:0:0:
182,192,20372,1,0,0:0:0:0:
329,192,20475,1,0,0:0:0:0:
256,192,20475,1,0,0:0:0:0:
109,192,20578,1,0,0:0:0:0:
475,192,20578,1,0,0:0:0:0:
36,192,20578,1,0,0:0:0:0:
182,192,20629,1,0,0:0:0:0:
402,192,20680,1,0,0:0:0:0:
329,192,20732,1,0,0:0:0:0:
256,192,20783,1,0,0:0:0:0:
109,192,20783,1,0,0:0:0:0:
36,192,20886,1,0,0:0:0:0:
182,192,20989,1,0,0:0:0:0:
475,192,20989,1,0,0:0:0:0:
402,192,20989,1,0,0:0:0:0:
256,192,21091,1,0,0:0:0:0:
109,192,21194,1,0,0:0:0:0:
475,192,21194,1,0,0:0:0:0:
402,192,21297,1,0,0:0:0:0:
36,192,21400,1,0,0:0:0:0:
182,192,21400,1,0,0:0:0:0:
329,192,21400,1,0,0:0:0:0:
256,192,21502,1,0,0:0:0:0:
109,192,21502,1,0,0:0:0:0:
475,192,21605,1,0,0:0:0:0:
36,192,21708,1,0,0:0:0:0:
109,192,21708,1,0,0:0:0:0:
182,192,21810,1,0,0:0:0:0:
329,192,21810,1,0,0:0:0:0:
475,192,21810,1,0,0:0:0:0:
256,192,21913,1,0,0:0:0:0:
36,192,21913,1,0,0:0:0:0:
109,192,22016,1,0,0:0:0:0:
402,192,22016,1,0,0:0:0:0:
329,192,22119,1,0,0:0:0:0:
182,192,22221,1,0,0:0:0:0:
109,192,22221,1,0,0:0:0:0:
475,192,22221,1,0,0:0:0:0:
329,192,22324,1,0,0:0:0:0:
36,192,22427,1,0,0:0:0:0:
402,192,22427,1,0,0:0:0:0:
182,192,22495,1,0,0:0:0:0:
329,192,22564,1,0,0:0:0:0:
109,192,22632,1,0,0:0:0:0:
36,192,22632,1,0,0:0:0:0:
475,192,22632,1,0,0:0:0:0:
182,192,22735,1,0,0:0:0:0:
402,192,22838,1,0,0:0:0:0:
475,192,22838,1,0,0:0:0:0:
256,192,22941,1,0,0:0:0:0:
36,192,23043,1,0,0:0:0:0:
329,192,23043,1,0,0:0:0:0:
402,192,23043,1,0,0:0:0:0:
109,192,23146,1,0,0:0:0:0:
182,192,23146,1,0,0:0:0:0:
402,192,23249,1,0,0:0:0:0:
182,192,23352,1,0,0:0:0:0:
329,192,23352,1,0,0:0:0:0:
109,192,23454,1,0,0:0:0:0:
256,192,23454,1,0,0:0:0:0:
475,192,23454,1,0,0:0:0:0:
329,192,23557,1,0,0:0:0:0:
182,192,23660,1,0,0:0:0:0:
36,192,23660,1,0,0:0:0:0:
256,192,23763,1,0,0:0:0:0:
182,192,23865,1,0,0:0:0:0:
402,192,23865,1,0,0:0:0:0:
329,192,23865,1,0,0:0:0:0:
36,192,23968,1,0,0:0:0:0:
109,192,24071,1,0,0:0:0:0:
475,192,24071,1,0,0:0:0:0:
329,192,24139,1,0,0:0:0:0:
182,192,24208,1,0,0:0:0:0:
36,192,24276,1,0,0:0:0:0:
402,192,24276,1,0,0:0:0:0:
475,192,24276,1,0,0:0:0:0:
329,192,24379,1,0,0:0:0:0:
36,192,24482,1,0,0:0:0:0:
109,192,24482,1,0,0:0:0:0:
256,192,24584,1,0,0:0:0:0:
182,192,24687,1,0,0:0:0:0:
402,192,24687,1,0,0:0:0:0:
475,192,24687,1,0,0:0:0:0:
329,192,24790,1,0,0:0:0:0:
109,192,24790,1,0,0:0:0:0:
256,192,24893,1,0,0:0:0:0:
36,192,24995,1,0,0:0:0:0:
109,192,24995,1,0,0:0:0:0:
182,192,25098,1,0,0:0:0:0:
475,192,25098,1,0,0:0:0:0:
329,192,25098,1,0,0:0:0:0:
402,192,25201,1,0,0:0:0:0:
36,192,25201,1,0,0:0:0:0:
109,192,25304,1,0,0:0:0:0:
256,192,25304,1,0,0:0:0:0:
475,192,25406,1,0,0:0:0:0:
182,192,25509,1,0,0:0:0:0:
329,192,25509,1,0,0:0:0:0:
402,192,25509,1,0,0:0:0:0:
36,192,25612,1,0,0:0:0:0:
402,192,25715,1,0,0:0:0:0:
256,192,25715,1,0,0:0:0:0:
329,192,25766,1,0,0:0:0:0:
109,192,25817,1,0,0:0:0:0:
182,192,25869,1,0,0:0:0:0:
256,192,25920,1,0,0:0:0:0:
475,192,25920,1,0,0:0:0:0:
36,192,25920,1,0,0:0:0:0:
329,192,26023,1,0,0:0:0:0:
109,192,26126,1,0,0:0:0:0:
182,192,26126,1,0,0:0:0:0:
475,192,26228,1,0,0:0:0:0:
402,192,26331,1,0,0:0:0:0:
329,192,26331,1,0,0:0:0:0:
109,192,26331,1,0,0:0:0:0:
36,192,26434,1,0,0:0:0:0:
182,192,26537,1,0,0:0:0:0:
329,192,26537,1,0,0:0:0:0:
256,192,26639,1,0,0:0:0:0:
402,192,26639,1,0,0:0:0:0:
475,192,26742,1,0,0:0:0:0:
109,192,26742,1,0,0:0:0:0:
182,192,26742,1,0,0:0:0:0:
329,192,26845,1,0,0:0:0:0:
36,192,26947,1,0,0:0:0:0:
256,192,26947,1,0,0:0:0:0:
182,192,27050,1,0,0:0:0:0:
109,192,27153,1,0,0:0:0:0:
475,192,27153,1,0,0:0:0:0:
329,192,27153,1,0,0:0:0:0:
36,192,27256,1,0,0:0:0:0:
256,192,27358,1,0,0:0:0:0:
402,192,27358,1,0,0:0:0:0:
182,192,27427,1,0,0:0:0:0:
329,192,27495,1,0,0:0:0:0:
256,192,27564,1,0,0:0:0:0:
36,192,27564,1,0,0:0:0:0:
475,192,27564,1,0,0:0:0:0:
182,192,27667,1,0,0:0:0:0:
402,192,27769,1,0,0:0:0:0:
329,192,27769,1,0,0:0:0:0:
109,192,27872,1,0,0:0:0:0:
475,192,27975,1,0,0:0:0:0:
402,192,27975,1,0,0:0:0:0:
36,192,27975,1,0,0:0:0:0:
256,192,27975,1,0,0:0:0:0:
329,192,28078,1,0,0:0:0:0:
182,192,28078,1,0,0:0:0:0:
109,192,28180,1,0,0:0:0:0:
36,192,28180,1,0,0:0:0:0:
402,192,28283,1,0,0:0:0:0:
256,192,28283,1,0,0:0:0:0:
109,192,28386,1,0,0:0:0:0:
182,192,28386,1,0,0:0:0:0:
475,192,28386,1,0,0:0:0:0:
256,192,28489,1,0,0:0:0:0:
36,192,28489,1,0,0:0:0:0:
329,192,28591,1,0,0:0:0:0:
402,192,28591,1,0,0:0:0:0:
182,192,28694,1,0,0:0:0:0:
109,192,28694,1,0,0:0:0:0:
402,192,28797,1,0,0:0:0:0:
36,192,28797,1,0,0:0:0:0:
475,192,28797,1,0,0:0:0:0:
329,192,28900,1,0,0:0:0:0:
182,192,28900,1,0,0:0:0:0:
256,192,29002,1,0,0:0:0:0:
109,192,29002,1,0,0:0:0:0:
402,192,29105,1,0,0:0:0:0:
475,192,29105,1,0,0:0:0:0:
329,192,29208,1,0,0:0:0:0:
182,192,29208,1,0,0:0:0:0:
256,192,29208,1,0,0:0:0:0:
36,192,29310,1,0,0:0:0:0:
475,192,29310,1,0,0:0:0:0:
109,192,29413,1,0,0:0:0:0:
402,192,29413,1,0,0:0:0:0:
182,192,29516,1,0,0:0:0:0:
329,192,29516,1,0,0:0:0:0:
256,192,29619,1,0,0:0:0:0:
402,192,29619,1,0,0:0:0:0:
475,192,29619,1,0,0:0:0:0:
36,192,29619,1,0,0:0:0:0:
182,192,29721,1,0,0:0:0:0:
329,192,29721,1,0,0:0:0:0:
36,192,29824,1,0,0:0:0:0:
109,192,29824,1,0,0:0:0:0:
475,192,29927,1,0,0:0:0:0:
402,192,29927,1,0,0:0:0:0:
109,192,30030,1,0,0:0:0:0:
256,192,30030,1,0,0:0:0:0:
182,192,30030,1,0,0:0:0:0:
402,192,30132,1,0,0:0:0:0:
475,192,30132,1,0,0:0:0:0:
36,192,30235,1,0,0:0:0:0:
329,192,30235,1,0,0:0:0:0:
109,192,30338,1,0,0:0:0:0:
182,192,30338,1,0,0:0:0:0:
256,192,30441,1,0,0:0:0:0:
402,192,30441,1,0,0:0:0:0:
475,192,30441,1,0,0:0:0:0:
36,192,30441,1,0,0:0:0:0:
109,192,30543,1,0,0:0:0:0:
329,192,30543,1,0,0:0:0:0:
475,192,30646,1,0,0:0:0:0:
182,192,30646,1,0,0:0:0:0:
256,192,30749,1,0,0:0:0:0:
402,192,30749,1,0,0:0:0:0:
36,192,30852,1,0,0:0:0:0:
109,192,30852,1,0,0:0:0:0:
329,192,30852,1,0,0:0:0:0:
182,192,30852,1,0,0:0:0:0:
402,192,30954,1,0,0:0:0:0:
475,192,30954,1,0,0:0:0:0:
256,192,31057,1,0,0:0:0:0:
109,192,31057,1,0,0:0:0:0:
182,192,31160,1,0,0:0:0:0:
329,192,31160,1,0,0:0:0:0:
402,192,31263,1,0,0:0:0:0:
256,192,31263,1,0,0:0:0:0:
475,192,31263,1,0,0:0:0:0:
36,192,31263,1,0,0:0:0:0:
109,192,31314,1,0,0:0:0:0:
182,192,31365,1,0,0:0:0:0:
402,192,31417,1,0,0:0:0:0:
329,192,31468,1,0,0:0:0:0:
256,192,31468,1,0,0:0:0:0:
182,192,31571,1,0,0:0:0:0:
36,192,31571,1,0,0:0:0:0:
475,192,31674,1,0,0:0:0:0:
329,192,31674,1,0,0:0:0:0:
109,192,31674,1,0,0:0:0:0:
402,192,31776,1,0,0:0:0:0:
256,192,31776,1,0,0:0:0:0:
36,192,31879,1,0,0:0:0:0:
402,192,31982,1,0,0:0:0:0:
109,192,31982,1,0,0:0:0:0:
329,192,32084,1,0,0:0:0:0:
182,192,32084,1,0,0:0:0:0:
475,192,32084,1,0,0:0:0:0:
36,192,32187,1,0,0:0:0:0:
256,192,32290,1,0,0:0:0:0:
475,192,32290,1,0,0:0:0:0:
329,192,32393,1,0,0:0:0:0:
182,192,32393,1,0,0:0:0:0:
36,192,32495,1,0,0:0:0:0:
256,192,32495,1,0,0:0:0:0:
109,192,32495,1,0,0:0:0:0:
402,192,32598,1,0,0:0:0:0:
475,192,32598,1,0,0:0:0:0:
182,192,32701,1,0,0:0:0:0:
329,192,32701,1,0,0:0:0:0:
256,192,32804,1,0,0:0:0:0:
329,192,32906,1,0,0:0:0:0:
475,192,32906,1,0,0:0:0:0:
402,192,32906,1,0,0:0:0:0:
182,192,32906,1,0,0:0:0:0:
36,192,33009,1,0,0:0:0:0:
109,192,33009,1,0,0:0:0:0:
329,192,33112,1,0,0:0:0:0:
256,192,33112,1,0,0:0:0:0:
475,192,33215,1,0,0:0:0:0:
182,192,33215,1,0,0:0:0:0:
109,192,33317,1,0,0:0:0:0:
402,192,33317,1,0,0:0:0:0:
256,192,33317,1,0,0:0:0:0:
36,192,33420,1,0,0:0:0:0:
182,192,33420,1,0,0:0:0:0:
402,192,33523,1,0,0:0:0:0:
475,192,33523,1,0,0:0:0:0:
329,192,33626,1,0,0:0:0:0:
109,192,33626,1,0,0:0:0:0:
256,192,33728,1,0,0:0:0:0:
475,192,33728,1,0,0:0:0:0:
182,192,33728,1,0,0:0:0:0:
402,192,33780,1,0,0:0:0:0:
36,192,33831,1,0,0:0:0:0:
109,192,33882,1,0,0:0:0:0:
182,192,33934,1,0,0:0:0:0:
329,192,33934,1,0,0:0:0:0:
36,192,34037,1,0,0:0:0:0:
256,192,34139,1,0,0:0:0:0:
402,192,34139,1,0,0:0:0:0:
329,192,34139,1,0,0:0:0:0:
475,192,34139,1,0,0:0:0:0:
109,192,34242,1,0,0:0:0:0:
182,192,34345,1,0,0:0:0:0:
402,192,34345,1,0,0:0:0:0:
329,192,34447,1,0,0:0:0:0:
36,192,34550,1,0,0:0:0:0:
256,192,34550,1,0,0:0:0:0:
109,192,34550,1,0,0:0:0:0:
475,192,34550,1,0,0:0:0:0:
329,192,34653,1,0,0:0:0:0:
402,192,34653,1,0,0:0:0:0:
182,192,34756,1,0,0:0:0:0:
475,192,34858,1,0,0:0:0:0:
402,192,34858,1,0,0:0:0:0:
36,192,34961,1,0,0:0:0:0:
109,192,34961,1,0,0:0:0:0:
256,192,34961,1,0,0:0:0:0:
182,192,35064,1,0,0:0:0:0:
329,192,35064,1,0,0:0:0:0:
256,192,35167,1,0,0:0:0:0:
402,192,35167,1,0,0:0:0:0:
36,192,35269,1,0,0:0:0:0:
109,192,35372,1,0,0:0:0:0:
329,192,35372,1,0,0:0:0:0:
475,192,35372,1,0,0:0:0:0:
182,192,35475,1,0,0:0:0:0:
329,192,35578,1,0,0:0:0:0:
36,192,35578,1,0,0:0:0:0:
402,192,35646,1,0,0:0:0:0:
182,192,35715,1,0,0:0:0:0:
109,192,35783,1,0,0:0:0:0:
475,192,35783,1,0,0:0:0:0:
36,192,35783,1,0,0:0:0:0:
329,192,35886,1,0,0:0:0:0:
182,192,35989,1,0,0:0:0:0:
402,192,35989,1,0,0:0:0:0:
256,192,36091,1,0,0:0:0:0:
329,192,36194,1,0,0:0:0:0:
402,192,36194,1,0,0:0:0:0:
36,192,36194,1,0,0:0:0:0:
109,192,36194,1,0,0:0:0:0:
182,192,36297,1,0,0:0:0:0:
256,192,36297,1,0,0:0:0:0:
109,192,36400,1,0,0:0:0:0:
475,192,36502,1,0,0:0:0:0:
402,192,36502,1,0,0:0:0:0:
36,192,36605,1,0,0:0:0:0:
182,192,36605,1,0,0:0:0:0:
329,192,36605,1,0,0:0:0:0:
109,192,36708,1,0,0:0:0:0:
182,192,36810,1,0,0:0:0:0:
475,192,36810,1,0,0:0:0:0:
402,192,36913,1,0,0:0:0:0:
109,192,37016,1,0,0:0:0:0:
475,192,37016,1,0,0:0:0:0:
36,192,37016,1,0,0:0:0:0:
256,192,37016,1,0,0:0:0:0:
329,192,37119,1,0,0:0:0:0:
402,192,37221,1,0,0:0:0:0:
182,192,37221,1,0,0:0:0:0:
109,192,37290,1,0,0:0:0:0:
36,192,37358,1,0,0:0:0:0:
329,192,37427,1,0,0:0:0:0:
402,192,37427,1,0,0:0:0:0:
256,192,37427,1,0,0:0:0:0:
182,192,37427,1,0,0:0:0:0:
109,192,37530,1,0,0:0:0:0:
36,192,37530,1,0,0:0:0:0:
256,192,37632,1,0,0:0:0:0:
475,192,37632,1,0,0:0:0:0:
182,192,37735,1,0,0:0:0:0:
36,192,37838,1,0,0:0:0:0:
475,192,37838,1,0,0:0:0:0:
109,192,37838,1,0,0:0:0:0:
329,192,37838,1,0,0:0:0:0:
256,192,37941,1,0,0:0:0:0:
182,192,37941,1,0,0:0:0:0:
402,192,38043,1,0,0:0:0:0:
256,192,38146,1,0,0:0:0:0:
109,192,38146,1,0,0:0:0:0:
329,192,38249,1,0,0:0:0:0:
36,192,38249,1,0,0:0:0:0:
182,192,38249,1,0,0:0:0:0:
402,192,38352,1,0,0:0:0:0:
475,192,38352,1,0,0:0:0:0:
256,192,38454,1,0,0:0:0:0:
182,192,38454,1,0,0:0:0:0:
109,192,38557,1,0,0:0:0:0:
36,192,38660,1,0,0:0:0:0:
475,192,38660,1,0,0:0:0:0:
329,192,38660,1,0,0:0:0:0:
182,192,38660,1,0,0:0:0:0:
256,192,38763,1,0,0:0:0:0:
402,192,38865,1,0,0:0:0:0:
36,192,38865,1,0,0:0:0:0:
329,192,38917,1,0,0:0:0:0:
182,192,38968,1,0,0:0:0:0:
256,192,39019,1,0,0:0:0:0:
475,192,39071,1,0,0:0:0:0:
402,192,39071,1,0,0:0:0:0:
109,192,39071,1,0,0:0:0:0:
329,192,39071,1,0,0:0:0:0:
36,192,39173,1,0,0:0:0:0:
402,192,39276,1,0,0:0:0:0:
109,192,39276,1,0,0:0:0:0:
182,192,39379,1,0,0:0:0:0:
329,192,39379,1,0,0:0:0:0:
475,192,39482,1,0,0:0:0:0:
36,192,39482,1,0,0:0:0:0:
256,192,39482,1,0,0:0:0:0:
109,192,39482,1,0,0:0:0:0:
402,192,39584,1,0,0:0:0:0:
36,192,39687,1,0,0:0:0:0:
475,192,39687,1,0,0:0:0:0:
256,192,39790,1,0,0:0:0:0:
329,192,39790,1,0,0:0:0:0:
402,192,39893,1,0,0:0:0:0:
109,192,39893,1,0,0:0:0:0:
182,192,39893,1,0,0:0:0:0:
475,192,39995,1,0,0:0:0:0:
36,192,40098,1,0,0:0:0:0:
182,192,40098,1,0,0:0:0:0:
109,192,40098,1,0,0:0:0:0:
329,192,40098,1,0,0:0:0:0:
402,192,40201,1,0,0:0:0:0:
329,192,40304,1,0,0:0:0:0:
36,192,40304,1,0,0:0:0:0:
256,192,40304,1,0,0:0:0:0:
109,192,40406,1,0,0:0:0:0:
182,192,40406,1,0,0:0:0:0:
402,192,40509,1,0,0:0:0:0:
475,192,40509,1,0,0:0:0:0:
182,192,40578,1,0,0:0:0:0:
329,192,40646,1,0,0:0:0:0:
36,192,40715,1,0,0:0:0:0:
109,192,40715,1,0,0:0:0:0:
475,192,40715,1,0,0:0:0:0:
402,192,40817,1,0,0:0:0:0:
182,192,40920,1,0,0:0:0:0:
329,192,40920,1,0,0:0:0:0:
109,192,40920,1,0,0:0:0:0:
256,192,41023,1,0,0:0:0:0:
475,192,41126,1,0,0:0:0:0:
109,192,41126,1,0,0:0:0:0:
36,192,41126,1,0,0:0:0:0:
402,192,41126,1,0,0:0:0:0:
256,192,41228,1,0,0:0:0:0:
182,192,41228,1,0,0:0:0:0:
329,192,41331,1,0,0:0:0:0:
475,192,41331,1,0,0:0:0:0:
36,192,41434,1,0,0:0:0:0:
109,192,41434,1,0,0:0:0:0:
256,192,41537,1,0,0:0:0:0:
329,192,41537,1,0,0:0:0:0:
182,192,41537,1,0,0:0:0:0:
402,192,41639,1,0,0:0:0:0:
475,192,41639,1,0,0:0:0:0:
182,192,41742,1,0,0:0:0:0:
36,192,41742,1,0,0:0:0:0:
329,192,41845,1,0,0:0:0:0:
402,192,41845,1,0,0:0:0:0:
256,192,41947,1,0,0:0:0:0:
475,192,41947,1,0,0:0:0:0:
109,192,41947,1,0,0:0:0:0:
329,192,42050,1,0,0:0:0:0:
182,192,42050,1,0,0:0:0:0:
36,192,42153,1,0,0:0:0:0:
256,192,42153,1,0,0:0:0:0:
182,192,42256,1,0,0:0:0:0:
402,192,42256,1,0,0:0:0:0:
475,192,42358,1,0,0:0:0:0:
109,192,42358,1,0,0:0:0:0:
329,192,42358,1,0,0:0:0:0:
256,192,42461,1,0,0:0:0:0:
36,192,42461,1,0,0:0:0:0:
402,192,42564,1,0,0:0:0:0:
109,192,42564,1,0,0:0:0:0:
329,192,42667,1,0,0:0:0:0:
182,192,42667,1,0,0:0:0:0:
256,192,42769,1,0,0:0:0:0:
109,192,42769,1,0,0:0:0:0:
36,192,42769,1,0,0:0:0:0:
475,192,42769,1,0,0:0:0:0:
329,192,42872,1,0,0:0:0:0:
182,192,42872,1,0,0:0:0:0:
475,192,42975,1,0,0:0:0:0:
402,192,42975,1,0,0:0:0:0:
36,192,43078,1,0,0:0:0:0:
109,192,43078,1,0,0:0:0:0:
402,192,43180,1,0,0:0:0:0:
182,192,43180,1,0,0:0:0:0:
256,192,43180,1,0,0:0:0:0:
109,192,43283,1,0,0:0:0:0:
36,192,43283,1,0,0:0:0:0:
475,192,43386,1,0,0:0:0:0:
256,192,43386,1,0,0:0:0:0:
182,192,43489,1,0,0:0:0:0:
329,192,43489,1,0,0:0:0:0:
475,192,43591,1,0,0:0:0:0:
109,192,43591,1,0,0:0:0:0:
36,192,43591,1,0,0:0:0:0:
402,192,43591,1,0,0:0:0:0:
256,192,43694,1,0,0:0:0:0:
329,192,43694,1,0,0:0:0:0:
182,192,43797,1,0,0:0:0:0:
109,192,43797,1,0,0:0:0:0:
475,192,43900,1,0,0:0:0:0:
402,192,43900,1,0,0:0:0:0:
329,192,44002,1,0,0:0:0:0:
36,192,44002,1,0,0:0:0:0:
182,192,44002,1,0,0:0:0:0:
256,192,44002,1,0,0:0:0:0:
109,192,44105,1,0,0:0:0:0:
402,192,44105,1,0,0:0:0:0:
256,192,44208,1,0,0:0:0:0:
475,192,44208,1,0,0:0:0:0:
329,192,44310,1,0,0:0:0:0:
182,192,44310,1,0,0:0:0:0:
109,192,44413,1,0,0:0:0:0:
475,192,44413,1,0,0:0:0:0:
36,192,44413,1,0,0:0:0:0:
402,192,44413,1,0,0:0:0:0:
182,192,44465,1,0,0:0:0:0:
256,192,44516,1,0,0:0:0:0:
329,192,44567,1,0,0:0:0:0:
109,192,44619,1,0,0:0:0:0:
402,192,44619,1,0,0:0:0:0:
256,192,44721,1,0,0:0:0:0:
182,192,44721,1,0,0:0:0:0:
36,192,44824,1,0,0:0:0:0:
329,192,44824,1,0,0:0:0:0:
475,192,44824,1,0,0:0:0:0:
182,192,44927,1,0,0:0:0:0:
402,192,44927,1,0,0:0:0:0:
36,192,45030,1,0,0:0:0:0:
109,192,45132,1,0,0:0:0:0:
256,192,45132,1,0,0:0:0:0:
329,192,45235,1,0,0:0:0:0:
182,192,45235,1,0,0:0:0:0:
475,192,45235,1,0,0:0:0:0:
256,192,45338,1,0,0:0:0:0:
109,192,45441,1,0,0:0:0:0:
36,192,45441,1,0,0:0:0:0:
402,192,45543,1,0,0:0:0:0:
329,192,45543,1,0,0:0:0:0:
182,192,45646,1,0,0:0:0:0:
256,192,45646,1,0,0:0:0:0:
109,192,45646,1,0,0:0:0:0:
475,192,45749,1,0,0:0:0:0:
329,192,45749,1,0,0:0:0:0:
182,192,45852,1,0,0:0:0:0:
36,192,45852,1,0,0:0:0:0:
256,192,45954,1,0,0:0:0:0:
402,192,46057,1,0,0:0:0:0:
475,192,46057,1,0,0:0:0:0:
329,192,46057,1,0,0:0:0:0:
109,192,46057,1,0,0:0:0:0:
182,192,46160,1,0,0:0:0:0:
36,192,46160,1,0,0:0:0:0:
475,192,46263,1,0,0:0:0:0:
256,192,46263,1,0,0:0:0:0:
402,192,46365,1,0,0:0:0:0:
329,192,46365,1,0,0:0:0:0:
36,192,46468,1,0,0:0:0:0:
109,192,46468,1,0,0:0:0:0:
182,192,46468,1,0,0:0:0:0:
475,192,46571,1,0,0:0:0:0:
402,192,46571,1,0,0:0:0:0:
256,192,46673,1,0,0:0:0:0:
182,192,46673,1,0,0:0:0:0:
475,192,46776,1,0,0:0:0:0:
109,192,46776,1,0,0:0:0:0:
36,192,46879,1,0,0:0:0:0:
402,192,46879,1,0,0:0:0:0:
329,192,46879,1,0,0:0:0:0:
256,192,46930,1,0,0:0:0:0:
109,192,46982,1,0,0:0:0:0:
182,192,47033,1,0,0:0:0:0:
475,192,47084,1,0,0:0:0:0:
402,192,47084,1,0,0:0:0:0:
36,192,47187,1,0,0:0:0:0:
109,192,47290,1,0,0:0:0:0:
182,192,47290,1,0,0:0:0:0:
329,192,47290,1,0,0:0:0:0:
475,192,47290,1,0,0:0:0:0:
256,192,47393,1,0,0:0:0:0:
109,192,47495,1,0,0:0:0:0:
402,192,47495,1,0,0:0:0:0:
182,192,47598,1,0,0:0:0:0:
475,192,47701,1,0,0:0:0:0:
402,192,47701,1,0,0:0:0:0:
36,192,47701,1,0,0:0:0:0:
256,192,47701,1,0,0:0:0:0:
109,192,47804,1,0,0:0:0:0:
182,192,47804,1,0,0:0:0:0:
329,192,47906,1,0,0:0:0:0:
36,192,48009,1,0,0:0:0:0:
109,192,48009,1,0,0:0:0:0:
475,192,48112,1,0,0:0:0:0:
402,192,48112,1,0,0:0:0:0:
256,192,48112,1,0,0:0:0:0:
329,192,48215,1,0,0:0:0:0:
182,192,48215,1,0,0:0:0:0:
256,192,48317,1,0,0:0:0:0:
109,192,48317,1,0,0:0:0:0:
475,192,48420,1,0,0:0:0:0:
402,192,48523,1,0,0:0:0:0:
182,192,48523,1,0,0:0:0:0:
36,192,48523,1,0,0:0:0:0:
329,192,48626,1,0,0:0:0:0:
182,192,48728,1,0,0:0:0:0:
475,192,48728,1,0,0:0:0:0:
109,192,48797,1,0,0:0:0:0:
329,192,48865,1,0,0:0:0:0:
402,192,48934,1,0,0:0:0:0:
36,192,48934,1,0,0:0:0:0:
475,192,48934,1,0,0:0:0:0:
182,192,49037,1,0,0:0:0:0:
329,192,49139,1,0,0:0:0:0:
109,192,49139,1,0,0:0:0:0:
256,192,49242,1,0,0:0:0:0:
182,192,49345,1,0,0:0:0:0:
109,192,49345,1,0,0:0:0:0:
475,192,49345,1,0,0:0:0:0:
402,192,49345,1,0,0:0:0:0:
329,192,49447,1,0,0:0:0:0:
256,192,49447,1,0,0:0:0:0:
402,192,49550,1,0,0:0:0:0:
36,192,49653,1,0,0:0:0:0:
109,192,49653,1,0,0:0:0:0:
475,192,49756,1,0,0:0:0:0:
329,192,49756,1,0,0:0:0:0:
182,192,49756,1,0,0:0:0:0:
256,192,49858,1,0,0:0:0:0:
329,192,49961,1,0,0:0:0:0:
36,192,49961,1,0,0:0:0:0:
109,192,50064,1,0,0:0:0:0:
402,192,50167,1,0,0:0:0:0:
36,192,50167,1,0,0:0:0:0:
475,192,50167,1,0,0:0:0:0:
256,192,50167,1,0,0:0:0:0:
182,192,50269,1,0,0:0:0:0:
109,192,50372,1,0,0:0:0:0:
329,192,50372,1,0,0:0:0:0:
402,192,50441,1,0,0:0:0:0:
475,192,50509,1,0,0:0:0:0:
109,192,50578,1,0,0:0:0:0:
36,192,50578,1,0,0:0:0:0:
256,192,50578,1,0,0:0:0:0:
329,192,50578,1,0,0:0:0:0:
402,192,50680,1,0,0:0:0:0:
475,192,50680,1,0,0:0:0:0:
36,192,50783,1,0,0:0:0:0:
182,192,50783,1,0,0:0:0:0:
329,192,50886,1,0,0:0:0:0:
402,192,50886,1,0,0:0:0:0:
475,192,50989,1,0,0:0:0:0:
109,192,50989,1,0,0:0:0:0:
256,192,50989,1,0,0:0:0:0:
182,192,50989,1,0,0:0:0:0:
36,192,51091,1,0,0:0:0:0:
329,192,51091,1,0,0:0:0:0:
402,192,51194,1,0,0:0:0:0:
256,192,51297,1,0,0:0:0:0:
475,192,51297,1,0,0:0:0:0:
109,192,51400,1,0,0:0:0:0:
329,192,51400,1,0,0:0:0:0:
182,192,51400,1,0,0:0:0:0:
402,192,51502,1,0,0:0:0:0:
256,192,51502,1,0,0:0:0:0:
182,192,51605,1,0,0:0:0:0:
36,192,51605,1,0,0:0:0:0:
329,192,51708,1,0,0:0:0:0:
475,192,51810,1,0,0:0:0:0:
109,192,51810,1,0,0:0:0:0:
36,192,51810,1,0,0:0:0:0:
256,192,51810,1,0,0:0:0:0:
182,192,51913,1,0,0:0:0:0:
402,192,52016,1,0,0:0:0:0:
256,192,52016,1,0,0:0:0:0:
329,192,52067,1,0,0:0:0:0:
109,192,52119,1,0,0:0:0:0:
182,192,52170,1,0,0:0:0:0:
402,192,52221,1,0,0:0:0:0:
329,192,52221,1,0,0:0:0:0:
475,192,52221,1,0,0:0:0:0:
36,192,52221,1,0,0:0:0:0:
256,192,52324,1,0,0:0:0:0:
109,192,52427,1,0,0:0:0:0:
402,192,52427,1,0,0:0:0:0:
182,192,52530,1,0,0:0:0:0:
329,192,52530,1,0,0:0:0:0:
36,192,52632,1,0,0:0:0:0:
256,192,52632,1,0,0:0:0:0:
475,192,52632,1,0,0:0:0:0:
109,192,52632,1,0,0:0:0:0:
402,192,52735,1,0,0:0:0:0:
475,192,52838,1,0,0:0:0:0:
109,192,52838,1,0,0:0:0:0:
182,192,52838,1,0,0:0:0:0:
329,192,52941,1,0,0:0:0:0:
402,192,53043,1,0,0:0:0:0:
36,192,53043,1,0,0:0:0:0:
256,192,53043,1,0,0:0:0:0:
182,192,53146,1,0,0:0:0:0:
109,192,53249,1,0,0:0:0:0:
329,192,53249,1,0,0:0:0:0:
36,192,53249,1,0,0:0:0:0:
402,192,53249,1,0,0:0:0:0:
256,192,53352,1,0,0:0:0:0:
329,192,53454,1,0,0:0:0:0:
475,192,53454,1,0,0:0:0:0:
36,192,53454,1,0,0:0:0:0:
109,192,53557,1,0,0:0:0:0:
402,192,53660,1,0,0:0:0:0:
182,192,53660,1,0,0:0:0:0:
256,192,53763,1,0,0:0:0:0:
329,192,53763,1,0,0:0:0:0:
475,192,53865,1,0,0:0:0:0:
402,192,53865,1,0,0:0:0:0:
182,192,53865,1,0,0:0:0:0:
109,192,53865,1,0,0:0:0:0:
256,192,53968,1,0,0:0:0:0:
36,192,53968,1,0,0:0:0:0:
329,192,53968,1,0,0:0:0:0:
182,192,54071,1,0,0:0:0:0:
475,192,54071,1,0,0:0:0:0:
109,192,54071,1,0,0:0:0:0:
329,192,54173,1,0,0:0:0:0:
36,192,54173,1,0,0:0:0:0:
402,192,54173,1,0,0:0:0:0:
256,192,54276,1,0,0:0:0:0:
182,192,54276,1,0,0:0:0:0:
475,192,54276,1,0,0:0:0:0:
36,192,54687,1,0,0:0:0:0:
109,192,55098,1,0,0:0:0:0:
182,192,55509,1,0,0:0:0:0:
329,192,55920,1,0,0:0:0:0:
475,192,56537,1,0,0:0:0:0:
256,192,57153,1,0,0:0:0:0:
329,192,57564,1,0,0:0:0:0:
109,192,57975,1,0,0:0:0:0:
402,192,58386,1,0,0:0:0:0:
256,192,59208,1,0,0:0:0:0:
182,192,59824,1,0,0:0:0:0:
475,192,60441,1,0,0:0:0:0:
402,192,60852,1,0,0:0:0:0:
109,192,61673,1,0,0:0:0:0:
182,192,61810,1,0,0:0:0:0:
329,192,61947,1,0,0:0:0:0:
402,192,62084,1,0,0:0:0:0:
256,192,62221,1,0,0:0:0:0:
36,192,62358,1,0,0:0:0:0:
475,192,62495,1,0,0:0:0:0:
329,192,63112,1,0,0:0:0:0:
256,192,63728,1,0,0:0:0:0:
109,192,64139,1,0,0:0:0:0:
475,192,64961,1,0,0:0:0:0:
182,192,65783,1,0,0:0:0:0:
36,192,66605,1,0,0:0:0:0:
182,192,66674,1,0,0:0:0:0:
329,192,66742,1,0,0:0:0:0:
475,192,66810,1,0,0:0:0:0:
36,192,66879,1,0,0:0:0:0:
109,192,66947,1,0,0:0:0:0:
182,192,67016,1,0,0:0:0:0:
329,192,67084,1,0,0:0:0:0:
402,192,67153,1,0,0:0:0:0:
475,192,67221,1,0,0:0:0:0:
109,192,67290,1,0,0:0:0:0:
256,192,67358,1,0,0:0:0:0:
329,192,67427,1,0,0:0:0:0:
182,192,67427,1,0,0:0:0:0:
475,192,67427,1,0,0:0:0:0:
329,192,67632,1,0,0:0:0:0:
182,192,67632,1,0,0:0:0:0:
36,192,67838,1,0,0:0:0:0:
329,192,67838,1,0,0:0:0:0:
402,192,67838,1,0,0:0:0:0:
329,192,68043,1,0,0:0:0:0:
182,192,68043,1,0,0:0:0:0:
109,192,68249,1,0,0:0:0:0:
329,192,68249,1,0,0:0:0:0:
256,192,68249,1,0,0:0:0:0:
329,192,68454,1,0,0:0:0:0:
182,192,68660,1,0,0:0:0:0:
329,192,68660,1,0,0:0:0:0:
36,192,68660,1,0,0:0:0:0:
329,192,68865,1,0,0:0:0:0:
182,192,68865,1,0,0:0:0:0:
109,192,68968,1,0,0:0:0:0:
36,192,68968,1,0,0:0:0:0:
329,192,69071,1,0,0:0:0:0:
256,192,69071,1,0,0:0:0:0:
402,192,69071,1,0,0:0:0:0:
329,192,69276,1,0,0:0:0:0:
182,192,69276,1,0,0:0:0:0:
329,192,69482,1,0,0:0:0:0:
182,192,69482,1,0,0:0:0:0:
475,192,69687,1,0,0:0:0:0:
329,192,69687,1,0,0:0:0:0:
109,192,69687,1,0,0:0:0:0:
329,192,69893,1,0,0:0:0:0:
182,192,69893,1,0,0:0:0:0:
329,192,70098,1,0,0:0:0:0:
182,192,70098,1,0,0:0:0:0:
256,192,70304,1,0,0:0:0:0:
109,192,70304,1,0,0:0:0:0:
36,192,70304,1,0,0:0:0:0:
109,192,70509,1,0,0:0:0:0:
182,192,70509,1,0,0:0:0:0:
36,192,70715,1,0,0:0:0:0:
256,192,70715,1,0,0:0:0:0:
402,192,70715,1,0,0:0:0:0:
36,192,70920,1,0,0:0:0:0:
182,192,70920,1,0,0:0:0:0:
36,192,71126,1,0,0:0:0:0:
329,192,71126,1,0,0:0:0:0:
256,192,71126,1,0,0:0:0:0:
36,192,71331,1,0,0:0:0:0:
182,192,71331,1,0,0:0:0:0:
475,192,71537,1,0,0:0:0:0:
36,192,71537,1,0,0:0:0:0:
329,192,71537,1,0,0:0:0:0:
36,192,71742,1,0,0:0:0:0:
182,192,71742,1,0,0:0:0:0:
36,192,71947,1,0,0:0:0:0:
182,192,71947,1,0,0:0:0:0:
36,192,72153,1,0,0:0:0:0:
329,192,72153,1,0,0:0:0:0:
256,192,72256,1,0,0:0:0:0:
182,192,72256,1,0,0:0:0:0:
36,192,72358,1,0,0:0:0:0:
402,192,72358,1,0,0:0:0:0:
329,192,72358,1,0,0:0:0:0:
36,192,72564,1,0,0:0:0:0:
182,192,72564,1,0,0:0:0:0:
36,192,72769,1,0,0:0:0:0:
182,192,72769,1,0,0:0:0:0:
329,192,72975,1,0,0:0:0:0:
36,192,72975,1,0,0:0:0:0:
256,192,72975,1,0,0:0:0:0:
36,192,73180,1,0,0:0:0:0:
182,192,73180,1,0,0:0:0:0:
36,192,73386,1,0,0:0:0:0:
182,192,73386,1,0,0:0:0:0:
402,192,73591,1,0,0:0:0:0:
475,192,73591,1,0,0:0:0:0:
256,192,73591,1,0,0:0:0:0:
256,192,73797,1,0,0:0:0:0:
182,192,73797,1,0,0:0:0:0:
402,192,74002,1,0,0:0:0:0:
109,192,74002,1,0,0:0:0:0:
329,192,74002,1,0,0:0:0:0:
109,192,74208,1,0,0:0:0:0:
402,192,74208,1,0,0:0:0:0:
109,192,74413,1,0,0:0:0:0:
402,192,74413,1,0,0:0:0:0:
109,192,74619,1,0,0:0:0:0:
402,192,74619,1,0,0:0:0:0:
109,192,74824,1,0,0:0:0:0:
402,192,74824,1,0,0:0:0:0:
475,192,74824,1,0,0:0:0:0:
182,192,74961,1,0,0:0:0:0:
402,192,75030,1,0,0:0:0:0:
329,192,75030,1,0,0:0:0:0:
256,192,75098,1,0,0:0:0:0:
109,192,75235,1,0,0:0:0:0:
402,192,75235,1,0,0:0:0:0:
36,192,75235,1,0,0:0:0:0:
256,192,75372,1,0,0:0:0:0:
402,192,75441,1,0,0:0:0:0:
182,192,75441,1,0,0:0:0:0:
36,192,75509,1,0,0:0:0:0:
109,192,75543,1,0,0:0:0:0:
329,192,75543,1,0,0:0:0:0:
256,192,75646,1,0,0:0:0:0:
402,192,75646,1,0,0:0:0:0:
475,192,75646,1,0,0:0:0:0:
402,192,75852,1,0,0:0:0:0:
109,192,75852,1,0,0:0:0:0:
402,192,76057,1,0,0:0:0:0:
109,192,76057,1,0,0:0:0:0:
329,192,76263,1,0,0:0:0:0:
402,192,76263,1,0,0:0:0:0:
182,192,76263,1,0,0:0:0:0:
402,192,76468,1,0,0:0:0:0:
109,192,76468,1,0,0:0:0:0:
402,192,76673,1,0,0:0:0:0:
109,192,76673,1,0,0:0:0:0:
256,192,76879,1,0,0:0:0:0:
36,192,76879,1,0,0:0:0:0:
402,192,76879,1,0,0:0:0:0:
109,192,77084,1,0,0:0:0:0:
402,192,77084,1,0,0:0:0:0:
329,192,77290,1,0,0:0:0:0:
475,192,77290,1,0,0:0:0:0:
182,192,77290,1,0,0:0:0:0:
329,192,77495,1,0,0:0:0:0:
475,192,77495,1,0,0:0:0:0:
329,192,77701,1,0,0:0:0:0:
475,192,77701,1,0,0:0:0:0:
329,192,77906,1,0,0:0:0:0:
475,192,77906,1,0,0:0:0:0:
36,192,78112,1,0,0:0:0:0:
475,192,78112,1,0,0:0:0:0:
256,192,78112,1,0,0:0:0:0:
329,192,78317,1,0,0:0:0:0:
475,192,78317,1,0,0:0:0:0:
329,192,78523,1,0,0:0:0:0:
475,192,78523,1,0,0:0:0:0:
329,192,78728,1,0,0:0:0:0:
475,192,78728,1,0,0:0:0:0:
36,192,78831,1,0,0:0:0:0:
256,192,78831,1,0,0:0:0:0:
182,192,78934,1,0,0:0:0:0:
329,192,78934,1,0,0:0:0:0:
402,192,78934,1,0,0:0:0:0:
109,192,79550,1,0,0:0:0:0:
329,192,79961,1,0,0:0:0:0:
402,192,79961,1,0,0:0:0:0:
182,192,79961,1,0,0:0:0:0:
329,192,80064,1,0,0:0:0:0:
109,192,80064,1,0,0:0:0:0:
36,192,80064,1,0,0:0:0:0:
182,192,80167,1,0,0:0:0:0:
475,192,80269,1,0,0:0:0:0:
36,192,80269,1,0,0:0:0:0:
256,192,80269,1,0,0:0:0:0:
329,192,80475,1,0,0:0:0:0:
182,192,80475,1,0,0:0:0:0:
36,192,80578,1,0,0:0:0:0:
402,192,80578,1,0,0:0:0:0:
475,192,80578,1,0,0:0:0:0:
256,192,80578,1,0,0:0:0:0:
109,192,80680,1,0,0:0:0:0:
329,192,80680,1,0,0:0:0:0:
182,192,80783,1,0,0:0:0:0:
402,192,80783,1,0,0:0:0:0:
256,192,80886,1,0,0:0:0:0:
475,192,80886,1,0,0:0:0:0:
36,192,80989,1,0,0:0:0:0:
109,192,80989,1,0,0:0:0:0:
402,192,80989,1,0,0:0:0:0:
329,192,80989,1,0,0:0:0:0:
256,192,81091,1,0,0:0:0:0:
182,192,81091,1,0,0:0:0:0:
475,192,81194,1,0,0:0:0:0:
402,192,81194,1,0,0:0:0:0:
36,192,81297,1,0,0:0:0:0:
109,192,81297,1,0,0:0:0:0:
182,192,81400,1,0,0:0:0:0:
256,192,81400,1,0,0:0:0:0:
475,192,81400,1,0,0:0:0:0:
329,192,81400,1,0,0:0:0:0:
402,192,81502,1,0,0:0:0:0:
109,192,81502,1,0,0:0:0:0:
36,192,81605,1,0,0:0:0:0:
329,192,81605,1,0,0:0:0:0:
256,192,81708,1,0,0:0:0:0:
475,192,81708,1,0,0:0:0:0:
329,192,81810,1,0,0:0:0:0:
182,192,81810,1,0,0:0:0:0:
109,192,81810,1,0,0:0:0:0:
36,192,81810,1,0,0:0:0:0:
402,192,81913,1,0,0:0:0:0:
475,192,81913,1,0,0:0:0:0:
109,192,82016,1,0,0:0:0:0:
256,192,82016,1,0,0:0:0:0:
182,192,82119,1,0,0:0:0:0:
329,192,82119,1,0,0:0:0:0:
256,192,82221,1,0,0:0:0:0:
402,192,82221,1,0,0:0:0:0:
36,192,82221,1,0,0:0:0:0:
475,192,82221,1,0,0:0:0:0:
109,192,82324,1,0,0:0:0:0:
182,192,82324,1,0,0:0:0:0:
402,192,82427,1,0,0:0:0:0:
329,192,82427,1,0,0:0:0:0:
182,192,82530,1,0,0:0:0:0:
256,192,82530,1,0,0:0:0:0:
109,192,82632,1,0,0:0:0:0:
36,192,82632,1,0,0:0:0:0:
475,192,82632,1,0,0:0:0:0:
256,192,82735,1,0,0:0:0:0:
402,192,82735,1,0,0:0:0:0:
329,192,82838,1,0,0:0:0:0:
182,192,82838,1,0,0:0:0:0:
36,192,82838,1,0,0:0:0:0:
475,192,82941,1,0,0:0:0:0:
402,192,82941,1,0,0:0:0:0:
256,192,83043,1,0,0:0:0:0:
329,192,83043,1,0,0:0:0:0:
182,192,83043,1,0,0:0:0:0:
36,192,83146,1,0,0:0:0:0:
475,192,83146,1,0,0:0:0:0:
109,192,83249,1,0,0:0:0:0:
402,192,83249,1,0,0:0:0:0:
182,192,83352,1,0,0:0:0:0:
329,192,83352,1,0,0:0:0:0:
36,192,83454,1,0,0:0:0:0:
475,192,83454,1,0,0:0:0:0:
109,192,83454,1,0,0:0:0:0:
256,192,83454,1,0,0:0:0:0:
402,192,83557,1,0,0:0:0:0:
329,192,83557,1,0,0:0:0:0:
36,192,83660,1,0,0:0:0:0:
182,192,83660,1,0,0:0:0:0:
109,192,83763,1,0,0:0:0:0:
256,192,83763,1,0,0:0:0:0:
182,192,83865,1,0,0:0:0:0:
402,192,83865,1,0,0:0:0:0:
475,192,83865,1,0,0:0:0:0:
329,192,83865,1,0,0:0:0:0:
109,192,83968,1,0,0:0:0:0:
36,192,83968,1,0,0:0:0:0:
256,192,84071,1,0,0:0:0:0:
402,192,84173,1,0,0:0:0:0:
182,192,84173,1,0,0:0:0:0:
329,192,84276,1,0,0:0:0:0:
36,192,84276,1,0,0:0:0:0:
256,192,84276,1,0,0:0:0:0:
109,192,84276,1,0,0:0:0:0:
402,192,84379,1,0,0:0:0:0:
475,192,84379,1,0,0:0:0:0:
329,192,84482,1,0,0:0:0:0:
182,192,84482,1,0,0:0:0:0:
36,192,84584,1,0,0:0:0:0:
109,192,84584,1,0,0:0:0:0:
402,192,84687,1,0,0:0:0:0:
475,192,84687,1,0,0:0:0:0:
182,192,84687,1,0,0:0:0:0:
256,192,84687,1,0,0:0:0:0:
329,192,84790,1,0,0:0:0:0:
109,192,84893,1,0,0:0:0:0:
402,192,84893,1,0,0:0:0:0:
182,192,84995,1,0,0:0:0:0:
475,192,84995,1,0,0:0:0:0:
36,192,85098,1,0,0:0:0:0:
109,192,85098,1,0,0:0:0:0:
256,192,85098,1,0,0:0:0:0:
402,192,85201,1,0,0:0:0:0:
475,192,85201,1,0,0:0:0:0:
329,192,85304,1,0,0:0:0:0:
182,192,85304,1,0,0:0:0:0:
256,192,85406,1,0,0:0:0:0:
109,192,85406,1,0,0:0:0:0:
36,192,85509,1,0,0:0:0:0:
182,192,85509,1,0,0:0:0:0:
475,192,85509,1,0,0:0:0:0:
402,192,85509,1,0,0:0:0:0:
329,192,85612,1,0,0:0:0:0:
36,192,85715,1,0,0:0:0:0:
109,192,85715,1,0,0:0:0:0:
182,192,85817,1,0,0:0:0:0:
402,192,85817,1,0,0:0:0:0:
256,192,85920,1,0,0:0:0:0:
475,192,85920,1,0,0:0:0:0:
329,192,85920,1,0,0:0:0:0:
36,192,86023,1,0,0:0:0:0:
182,192,86023,1,0,0:0:0:0:
109,192,86126,1,0,0:0:0:0:
475,192,86126,1,0,0:0:0:0:
402,192,86126,1,0,0:0:0:0:
256,192,86228,1,0,0:0:0:0:
329,192,86228,1,0,0:0:0:0:
36,192,86331,1,0,0:0:0:0:
402,192,86331,1,0,0:0:0:0:
109,192,86331,1,0,0:0:0:0:
475,192,86434,1,0,0:0:0:0:
182,192,86434,1,0,0:0:0:0:
256,192,86537,1,0,0:0:0:0:
402,192,86639,1,0,0:0:0:0:
36,192,86639,1,0,0:0:0:0:
475,192,86742,1,0,0:0:0:0:
182,192,86742,1,0,0:0:0:0:
329,192,86742,1,0,0:0:0:0:
109,192,86742,1,0,0:0:0:0:
402,192,86845,1,0,0:0:0:0:
256,192,86845,1,0,0:0:0:0:
109,192,86947,1,0,0:0:0:0:
329,192,86947,1,0,0:0:0:0:
36,192,87050,1,0,0:0:0:0:
182,192,87050,1,0,0:0:0:0:
256,192,87153,1,0,0:0:0:0:
475,192,87153,1,0,0:0:0:0:
402,192,87153,1,0,0:0:0:0:
329,192,87153,1,0,0:0:0:0:
36,192,87256,1,0,0:0:0:0:
475,192,87358,1,0,0:0:0:0:
402,192,87358,1,0,0:0:0:0:
109,192,87461,1,0,0:0:0:0:
36,192,87461,1,0,0:0:0:0:
256,192,87564,1,0,0:0:0:0:
329,192,87564,1,0,0:0:0:0:
182,192,87564,1,0,0:0:0:0:
109,192,87667,1,0,0:0:0:0:
402,192,87667,1,0,0:0:0:0:
182,192,87769,1,0,0:0:0:0:
475,192,87769,1,0,0:0:0:0:
329,192,87872,1,0,0:0:0:0:
36,192,87975,1,0,0:0:0:0:
256,192,87975,1,0,0:0:0:0:
402,192,87975,1,0,0:0:0:0:
109,192,87975,1,0,0:0:0:0:
475,192,88078,1,0,0:0:0:0:
182,192,88112,1,0,0:0:0:0:
329,192,88180,1,0,0:0:0:0:
109,192,88180,1,0,0:0:0:0:
402,192,88249,1,0,0:0:0:0:
36,192,88283,1,0,0:0:0:0:
329,192,88386,1,0,0:0:0:0:
256,192,88386,1,0,0:0:0:0:
475,192,88386,1,0,0:0:0:0:
182,192,88386,1,0,0:0:0:0:
402,192,88489,1,0,0:0:0:0:
36,192,88523,1,0,0:0:0:0:
329,192,88591,1,0,0:0:0:0:
109,192,88591,1,0,0:0:0:0:
182,192,88694,1,0,0:0:0:0:
256,192,88728,1,0,0:0:0:0:
109,192,88797,1,0,0:0:0:0:
475,192,88797,1,0,0:0:0:0:
402,192,88797,1,0,0:0:0:0:
36,192,88797,1,0,0:0:0:0:
329,192,88900,1,0,0:0:0:0:
36,192,89002,1,0,0:0:0:0:
182,192,89002,1,0,0:0:0:0:
256,192,89105,1,0,0:0:0:0:
475,192,89105,1,0,0:0:0:0:
402,192,89208,1,0,0:0:0:0:
329,192,89208,1,0,0:0:0:0:
109,192,89208,1,0,0:0:0:0:
36,192,89310,1,0,0:0:0:0:
182,192,89310,1,0,0:0:0:0:
256,192,89413,1,0,0:0:0:0:
402,192,89413,1,0,0:0:0:0:
475,192,89413,1,0,0:0:0:0:
329,192,89516,1,0,0:0:0:0:
182,192,89516,1,0,0:0:0:0:
36,192,89619,1,0,0:0:0:0:
109,192,89619,1,0,0:0:0:0:
475,192,89619,1,0,0:0:0:0:
256,192,89721,1,0,0:0:0:0:
329,192,89721,1,0,0:0:0:0:
182,192,89824,1,0,0:0:0:0:
109,192,89927,1,0,0:0:0:0:
475,192,89927,1,0,0:0:0:0:
36,192,90030,1,0,0:0:0:0:
256,192,90030,1,0,0:0:0:0:
329,192,90030,1,0,0:0:0:0:
402,192,90030,1,0,0:0:0:0:
182,192,90132,1,0,0:0:0:0:
109,192,90132,1,0,0:0:0:0:
402,192,90235,1,0,0:0:0:0:
475,192,90235,1,0,0:0:0:0:
36,192,90338,1,0,0:0:0:0:
256,192,90338,1,0,0:0:0:0:
402,192,90441,1,0,0:0:0:0:
475,192,90441,1,0,0:0:0:0:
182,192,90441,1,0,0:0:0:0:
329,192,90441,1,0,0:0:0:0:
256,192,90543,1,0,0:0:0:0:
109,192,90543,1,0,0:0:0:0:
329,192,90646,1,0,0:0:0:0:
36,192,90646,1,0,0:0:0:0:
182,192,90749,1,0,0:0:0:0:
475,192,90749,1,0,0:0:0:0:
402,192,90852,1,0,0:0:0:0:
36,192,90852,1,0,0:0:0:0:
109,192,90852,1,0,0:0:0:0:
256,192,90954,1,0,0:0:0:0:
182,192,90954,1,0,0:0:0:0:
329,192,91057,1,0,0:0:0:0:
402,192,91057,1,0,0:0:0:0:
475,192,91160,1,0,0:0:0:0:
256,192,91160,1,0,0:0:0:0:
36,192,91263,1,0,0:0:0:0:
109,192,91263,1,0,0:0:0:0:
182,192,91263,1,0,0:0:0:0:
329,192,91263,1,0,0:0:0:0:
402,192,91365,1,0,0:0:0:0:
475,192,91365,1,0,0:0:0:0:
256,192,91468,1,0,0:0:0:0:
182,192,91571,1,0,0:0:0:0:
36,192,91571,1,0,0:0:0:0:
329,192,91673,1,0,0:0:0:0:
475,192,91673,1,0,0:0:0:0:
402,192,91673,1,0,0:0:0:0:
109,192,91776,1,0,0:0:0:0:
182,192,91776,1,0,0:0:0:0:
475,192,91879,1,0,0:0:0:0:
329,192,91879,1,0,0:0:0:0:
256,192,91982,1,0,0:0:0:0:
36,192,92084,1,0,0:0:0:0:
109,192,92084,1,0,0:0:0:0:
402,192,92084,1,0,0:0:0:0:
182,192,92187,1,0,0:0:0:0:
475,192,92290,1,0,0:0:0:0:
329,192,92290,1,0,0:0:0:0:
402,192,92393,1,0,0:0:0:0:
256,192,92393,1,0,0:0:0:0:
36,192,92495,1,0,0:0:0:0:
109,192,92495,1,0,0:0:0:0:
475,192,92598,1,0,0:0:0:0:
402,192,92598,1,0,0:0:0:0:
182,192,92701,1,0,0:0:0:0:
329,192,92701,1,0,0:0:0:0:
36,192,92804,1,0,0:0:0:0:
109,192,92804,1,0,0:0:0:0:
256,192,92906,1,0,0:0:0:0:
402,192,92906,1,0,0:0:0:0:
36,192,93009,1,0,0:0:0:0:
109,192,93009,1,0,0:0:0:0:
329,192,93112,1,0,0:0:0:0:
475,192,93112,1,0,0:0:0:0:
402,192,93112,1,0,0:0:0:0:
36,192,93215,1,0,0:0:0:0:
182,192,93215,1,0,0:0:0:0:
256,192,93317,1,0,0:0:0:0:
329,192,93317,1,0,0:0:0:0:
475,192,93317,1,0,0:0:0:0:
109,192,93420,1,0,0:0:0:0:
182,192,93420,1,0,0:0:0:0:
329,192,93523,1,0,0:0:0:0:
402,192,93523,1,0,0:0:0:0:
256,192,93523,1,0,0:0:0:0:
36,192,93626,1,0,0:0:0:0:
109,192,93626,1,0,0:0:0:0:
256,192,94139,1,0,0:0:0:0:
36,192,94139,1,0,0:0:0:0:
182,192,94139,1,0,0:0:0:0:
402,192,94139,1,0,0:0:0:0:
329,192,94242,1,0,0:0:0:0:
109,192,94345,1,0,0:0:0:0:
475,192,94447,1,0,0:0:0:0:
402,192,94447,1,0,0:0:0:0:
475,192,94653,1,0,0:0:0:0:
36,192,94756,1,0,0:0:0:0:
182,192,94858,1,0,0:0:0:0:
402,192,94961,1,0,0:0:0:0:
329,192,95064,1,0,0:0:0:0:
109,192,95167,1,0,0:0:0:0:
329,192,95269,1,0,0:0:0:0:
329,192,95475,1,0,0:0:0:0:
402,192,95578,1,0,0:0:0:0:
182,192,95680,1,0,0:0:0:0:
36,192,95783,1,0,0:0:0:0:
329,192,95783,1,0,0:0:0:0:
475,192,95783,1,0,0:0:0:0:
256,192,95886,1,0,0:0:0:0:
109,192,95989,1,0,0:0:0:0:
402,192,96091,1,0,0:0:0:0:
329,192,96091,1,0,0:0:0:0:
402,192,96297,1,0,0:0:0:0:
109,192,96400,1,0,0:0:0:0:
256,192,96502,1,0,0:0:0:0:
182,192,96605,1,0,0:0:0:0:
329,192,96605,1,0,0:0:0:0:
475,192,96605,1,0,0:0:0:0:
36,192,96708,1,0,0:0:0:0:
109,192,96810,1,0,0:0:0:0:
402,192,96913,1,0,0:0:0:0:
475,192,96913,1,0,0:0:0:0:
256,192,97016,1,0,0:0:0:0:
329,192,97016,1,0,0:0:0:0:
36,192,97016,1,0,0:0:0:0:
182,192,97119,1,0,0:0:0:0:
329,192,97221,1,0,0:0:0:0:
109,192,97324,1,0,0:0:0:0:
36,192,97324,1,0,0:0:0:0:
182,192,97427,1,0,0:0:0:0:
256,192,97427,1,0,0:0:0:0:
475,192,97427,1,0,0:0:0:0:
402,192,97478,1,0,0:0:0:0:
329,192,97530,1,0,0:0:0:0:
36,192,97581,1,0,0:0:0:0:
182,192,97632,1,0,0:0:0:0:
402,192,97735,1,0,0:0:0:0:
475,192,97735,1,0,0:0:0:0:
109,192,97838,1,0,0:0:0:0:
256,192,97941,1,0,0:0:0:0:
475,192,98043,1,0,0:0:0:0:
109,192,98146,1,0,0:0:0:0:
36,192,98249,1,0,0:0:0:0:
36,192,98454,1,0,0:0:0:0:
329,192,98557,1,0,0:0:0:0:
329,192,98763,1,0,0:0:0:0:
182,192,98865,1,0,0:0:0:0:
475,192,99071,1,0,0:0:0:0:
109,192,99071,1,0,0:0:0:0:
256,192,99071,1,0,0:0:0:0:
402,192,99173,1,0,0:0:0:0:
36,192,99276,1,0,0:0:0:0:
182,192,99379,1,0,0:0:0:0:
256,192,99379,1,0,0:0:0:0:
329,192,99584,1,0,0:0:0:0:
109,192,99687,1,0,0:0:0:0:
182,192,99790,1,0,0:0:0:0:
402,192,99893,1,0,0:0:0:0:
329,192,99944,1,0,0:0:0:0:
109,192,99995,1,0,0:0:0:0:
36,192,100047,1,0,0:0:0:0:
256,192,100098,1,0,0:0:0:0:
329,192,100304,1,0,0:0:0:0:
475,192,100304,1,0,0:0:0:0:
182,192,100304,1,0,0:0:0:0:
402,192,100509,1,0,0:0:0:0:
36,192,100715,1,0,0:0:0:0:
256,192,100715,1,0,0:0:0:0:
182,192,100715,1,0,0:0:0:0:
109,192,100817,1,0,0:0:0:0:
329,192,101023,1,0,0:0:0:0:
182,192,101023,1,0,0:0:0:0:
329,192,101228,1,0,0:0:0:0:
402,192,101331,1,0,0:0:0:0:
475,192,101537,1,0,0:0:0:0:
182,192,101742,1,0,0:0:0:0:
402,192,101810,1,0,0:0:0:0:
329,192,101879,1,0,0:0:0:0:
109,192,101947,1,0,0:0:0:0:
36,192,102153,1,0,0:0:0:0:
182,192,102358,1,0,0:0:0:0:
329,192,102358,1,0,0:0:0:0:
475,192,102358,1,0,0:0:0:0:
109,192,102461,1,0,0:0:0:0:
256,192,102667,1,0,0:0:0:0:
475,192,102667,1,0,0:0:0:0:
329,192,102975,1,0,0:0:0:0:
182,192,103180,1,0,0:0:0:0:
256,192,103180,1,0,0:0:0:0:
402,192,103180,1,0,0:0:0:0:
329,192,103386,1,0,0:0:0:0:
256,192,103454,1,0,0:0:0:0:
182,192,103489,1,0,0:0:0:0:
475,192,103489,1,0,0:0:0:0:
109,192,103523,1,0,0:0:0:0:
36,192,103591,1,0,0:0:0:0:
329,192,103591,1,0,0:0:0:0:
402,192,103591,1,0,0:0:0:0:
256,192,103797,1,0,0:0:0:0:
36,192,103900,1,0,0:0:0:0:
109,192,103900,1,0,0:0:0:0:
182,192,104002,1,0,0:0:0:0:
329,192,104002,1,0,0:0:0:0:
475,192,104002,1,0,0:0:0:0:
402,192,104105,1,0,0:0:0:0:
109,192,104208,1,0,0:0:0:0:
329,192,104310,1,0,0:0:0:0:
182,192,104310,1,0,0:0:0:0:
256,192,104516,1,0,0:0:0:0:
36,192,104619,1,0,0:0:0:0:
402,192,104824,1,0,0:0:0:0:
475,192,104824,1,0,0:0:0:0:
182,192,104824,1,0,0:0:0:0:
329,192,104927,1,0,0:0:0:0:
109,192,105030,1,0,0:0:0:0:
182,192,105081,1,0,0:0:0:0:
256,192,105132,1,0,0:0:0:0:
36,192,105184,1,0,0:0:0:0:
329,192,105235,1,0,0:0:0:0:
475,192,105235,1,0,0:0:0:0:
402,192,105235,1,0,0:0:0:0:
182,192,105441,1,0,0:0:0:0:
475,192,105543,1,0,0:0:0:0:
402,192,105543,1,0,0:0:0:0:
256,192,105646,1,0,0:0:0:0:
329,192,105646,1,0,0:0:0:0:
109,192,105646,1,0,0:0:0:0:
36,192,105646,1,0,0:0:0:0:
475,192,105852,1,0,0:0:0:0:
182,192,105852,1,0,0:0:0:0:
402,192,105903,1,0,0:0:0:0:
329,192,105954,1,0,0:0:0:0:
109,192,105954,1,0,0:0:0:0:
256,192,106006,1,0,0:0:0:0:
182,192,106057,1,0,0:0:0:0:
36,192,106057,1,0,0:0:0:0:
36,192,106263,1,0,0:0:0:0:
329,192,106263,1,0,0:0:0:0:
109,192,106314,1,0,0:0:0:0:
402,192,106365,1,0,0:0:0:0:
182,192,106365,1,0,0:0:0:0:
256,192,106417,1,0,0:0:0:0:
475,192,106468,1,0,0:0:0:0:
329,192,106468,1,0,0:0:0:0:
329,192,106673,1,0,0:0:0:0:
402,192,106673,1,0,0:0:0:0:
256,192,106776,1,0,0:0:0:0:
182,192,106776,1,0,0:0:0:0:
36,192,106879,1,0,0:0:0:0:
475,192,106879,1,0,0:0:0:0:
109,192,106879,1,0,0:0:0:0:
256,192,106982,1,0,0:0:0:0:
329,192,106982,1,0,0:0:0:0:
109,192,107084,1,0,0:0:0:0:
182,192,107084,1,0,0:0:0:0:
329,192,107187,1,0,0:0:0:0:
402,192,107187,1,0,0:0:0:0:
36,192,107290,1,0,0:0:0:0:
256,192,107290,1,0,0:0:0:0:
475,192,107290,1,0,0:0:0:0:
109,192,107290,1,0,0:0:0:0:
182,192,107290,1,0,0:0:0:0:
402,192,107393,1,0,0:0:0:0:
329,192,107393,1,0,0:0:0:0:
36,192,107495,1,0,0:0:0:0:
182,192,107495,1,0,0:0:0:0:
256,192,107598,1,0,0:0:0:0:
109,192,107598,1,0,0:0:0:0:
475,192,107701,1,0,0:0:0:0:
329,192,107701,1,0,0:0:0:0:
182,192,107701,1,0,0:0:0:0:
109,192,107804,1,0,0:0:0:0:
36,192,107804,1,0,0:0:0:0:
475,192,107906,1,0,0:0:0:0:
256,192,107906,1,0,0:0:0:0:
402,192,108009,1,0,0:0:0:0:
182,192,108009,1,0,0:0:0:0:
109,192,108112,1,0,0:0:0:0:
329,192,108112,1,0,0:0:0:0:
36,192,108112,1,0,0:0:0:0:
475,192,108215,1,0,0:0:0:0:
256,192,108215,1,0,0:0:0:0:
109,192,108317,1,0,0:0:0:0:
182,192,108317,1,0,0:0:0:0:
329,192,108420,1,0,0:0:0:0:
402,192,108420,1,0,0:0:0:0:
182,192,108523,1,0,0:0:0:0:
36,192,108523,1,0,0:0:0:0:
256,192,108523,1,0,0:0:0:0:
402,192,108626,1,0,0:0:0:0:
475,192,108626,1,0,0:0:0:0:
109,192,108728,1,0,0:0:0:0:
256,192,108728,1,0,0:0:0:0:
329,192,108831,1,0,0:0:0:0:
182,192,108831,1,0,0:0:0:0:
109,192,108934,1,0,0:0:0:0:
402,192,108934,1,0,0:0:0:0:
36,192,108934,1,0,0:0:0:0:
256,192,108934,1,0,0:0:0:0:
475,192,108934,1,0,0:0:0:0:
329,192,109037,1,0,0:0:0:0:
182,192,109037,1,0,0:0:0:0:
475,192,109139,1,0,0:0:0:0:
402,192,109139,1,0,0:0:0:0:
256,192,109242,1,0,0:0:0:0:
109,192,109242,1,0,0:0:0:0:
36,192,109345,1,0,0:0:0:0:
182,192,109345,1,0,0:0:0:0:
329,192,109345,1,0,0:0:0:0:
256,192,109447,1,0,0:0:0:0:
475,192,109447,1,0,0:0:0:0:
36,192,109550,1,0,0:0:0:0:
402,192,109550,1,0,0:0:0:0:
329,192,109653,1,0,0:0:0:0:
109,192,109653,1,0,0:0:0:0:
182,192,109756,1,0,0:0:0:0:
256,192,109756,1,0,0:0:0:0:
475,192,109756,1,0,0:0:0:0:
402,192,109756,1,0,0:0:0:0:
109,192,109858,1,0,0:0:0:0:
36,192,109858,1,0,0:0:0:0:
329,192,109961,1,0,0:0:0:0:
402,192,109961,1,0,0:0:0:0:
36,192,110064,1,0,0:0:0:0:
182,192,110064,1,0,0:0:0:0:
256,192,110167,1,0,0:0:0:0:
109,192,110167,1,0,0:0:0:0:
475,192,110167,1,0,0:0:0:0:
402,192,110167,1,0,0:0:0:0:
182,192,110269,1,0,0:0:0:0:
329,192,110269,1,0,0:0:0:0:
36,192,110372,1,0,0:0:0:0:
109,192,110372,1,0,0:0:0:0:
329,192,110475,1,0,0:0:0:0:
256,192,110475,1,0,0:0:0:0:
402,192,110578,1,0,0:0:0:0:
109,192,110578,1,0,0:0:0:0:
36,192,110578,1,0,0:0:0:0:
182,192,110578,1,0,0:0:0:0:
475,192,110578,1,0,0:0:0:0:
329,192,110629,1,0,0:0:0:0:
256,192,110680,1,0,0:0:0:0:
182,192,110732,1,0,0:0:0:0:
36,192,110783,1,0,0:0:0:0:
402,192,110783,1,0,0:0:0:0:
329,192,110886,1,0,0:0:0:0:
109,192,110886,1,0,0:0:0:0:
475,192,110989,1,0,0:0:0:0:
402,192,110989,1,0,0:0:0:0:
256,192,110989,1,0,0:0:0:0:
182,192,111091,1,0,0:0:0:0:
36,192,111091,1,0,0:0:0:0:
256,192,111194,1,0,0:0:0:0:
329,192,111194,1,0,0:0:0:0:
109,192,111297,1,0,0:0:0:0:
402,192,111297,1,0,0:0:0:0:
182,192,111400,1,0,0:0:0:0:
475,192,111400,1,0,0:0:0:0:
329,192,111400,1,0,0:0:0:0:
36,192,111502,1,0,0:0:0:0:
402,192,111605,1,0,0:0:0:0:
329,192,111605,1,0,0:0:0:0:
182,192,111708,1,0,0:0:0:0:
109,192,111708,1,0,0:0:0:0:
256,192,111810,1,0,0:0:0:0:
36,192,111810,1,0,0:0:0:0:
475,192,111810,1,0,0:0:0:0:
109,192,111913,1,0,0:0:0:0:
182,192,111913,1,0,0:0:0:0:
329,192,112016,1,0,0:0:0:0:
402,192,112016,1,0,0:0:0:0:
256,192,112119,1,0,0:0:0:0:
36,192,112221,1,0,0:0:0:0:
109,192,112221,1,0,0:0:0:0:
329,192,112221,1,0,0:0:0:0:
475,192,112221,1,0,0:0:0:0:
182,192,112221,1,0,0:0:0:0:
402,192,112324,1,0,0:0:0:0:
256,192,112324,1,0,0:0:0:0:
36,192,112427,1,0,0:0:0:0:
109,192,112427,1,0,0:0:0:0:
475,192,112530,1,0,0:0:0:0:
402,192,112530,1,0,0:0:0:0:
329,192,112632,1,0,0:0:0:0:
36,192,112632,1,0,0:0:0:0:
182,192,112632,1,0,0:0:0:0:
109,192,112735,1,0,0:0:0:0:
256,192,112735,1,0,0:0:0:0:
475,192,112838,1,0,0:0:0:0:
182,192,112838,1,0,0:0:0:0:
329,192,112941,1,0,0:0:0:0:
402,192,112941,1,0,0:0:0:0:
475,192,113043,1,0,0:0:0:0:
36,192,113043,1,0,0:0:0:0:
256,192,113043,1,0,0:0:0:0:
109,192,113095,1,0,0:0:0:0:
182,192,113146,1,0,0:0:0:0:
329,192,113146,1,0,0:0:0:0:
402,192,113197,1,0,0:0:0:0:
36,192,113249,1,0,0:0:0:0:
256,192,113249,1,0,0:0:0:0:
475,192,113352,1,0,0:0:0:0:
109,192,113454,1,0,0:0:0:0:
182,192,113454,1,0,0:0:0:0:
256,192,113454,1,0,0:0:0:0:
402,192,113454,1,0,0:0:0:0:
36,192,113557,1,0,0:0:0:0:
329,192,113660,1,0,0:0:0:0:
475,192,113660,1,0,0:0:0:0:
182,192,113763,1,0,0:0:0:0:
109,192,113865,1,0,0:0:0:0:
329,192,113865,1,0,0:0:0:0:
475,192,113865,1,0,0:0:0:0:
36,192,113865,1,0,0:0:0:0:
402,192,113865,1,0,0:0:0:0:
256,192,113968,1,0,0:0:0:0:
182,192,113968,1,0,0:0:0:0:
475,192,114071,1,0,0:0:0:0:
402,192,114173,1,0,0:0:0:0:
109,192,114173,1,0,0:0:0:0:
329,192,114276,1,0,0:0:0:0:
36,192,114276,1,0,0:0:0:0:
256,192,114276,1,0,0:0:0:0:
182,192,114379,1,0,0:0:0:0:
109,192,114379,1,0,0:0:0:0:
475,192,114482,1,0,0:0:0:0:
329,192,114482,1,0,0:0:0:0:
256,192,114584,1,0,0:0:0:0:
402,192,114687,1,0,0:0:0:0:
36,192,114687,1,0,0:0:0:0:
182,192,114687,1,0,0:0:0:0:
329,192,114790,1,0,0:0:0:0:
109,192,114893,1,0,0:0:0:0:
256,192,114893,1,0,0:0:0:0:
182,192,114961,1,0,0:0:0:0:
329,192,115030,1,0,0:0:0:0:
402,192,115098,1,0,0:0:0:0:
36,192,115098,1,0,0:0:0:0:
109,192,115098,1,0,0:0:0:0:
256,192,115201,1,0,0:0:0:0:
182,192,115304,1,0,0:0:0:0:
475,192,115304,1,0,0:0:0:0:
329,192,115406,1,0,0:0:0:0:
36,192,115509,1,0,0:0:0:0:
109,192,115509,1,0,0:0:0:0:
475,192,115509,1,0,0:0:0:0:
256,192,115509,1,0,0:0:0:0:
402,192,115509,1,0,0:0:0:0:
182,192,115612,1,0,0:0:0:0:
329,192,115612,1,0,0:0:0:0:
109,192,115715,1,0,0:0:0:0:
402,192,115817,1,0,0:0:0:0:
475,192,115817,1,0,0:0:0:0:
182,192,115920,1,0,0:0:0:0:
256,192,115920,1,0,0:0:0:0:
329,192,115920,1,0,0:0:0:0:
36,192,116023,1,0,0:0:0:0:
475,192,116126,1,0,0:0:0:0:
329,192,116126,1,0,0:0:0:0:
182,192,116228,1,0,0:0:0:0:
109,192,116331,1,0,0:0:0:0:
36,192,116331,1,0,0:0:0:0:
256,192,116331,1,0,0:0:0:0:
402,192,116331,1,0,0:0:0:0:
329,192,116434,1,0,0:0:0:0:
475,192,116537,1,0,0:0:0:0:
109,192,116537,1,0,0:0:0:0:
256,192,116605,1,0,0:0:0:0:
329,192,116674,1,0,0:0:0:0:
475,192,116742,1,0,0:0:0:0:
36,192,116742,1,0,0:0:0:0:
109,192,116742,1,0,0:0:0:0:
402,192,116742,1,0,0:0:0:0:
182,192,116845,1,0,0:0:0:0:
402,192,116947,1,0,0:0:0:0:
329,192,116947,1,0,0:0:0:0:
36,192,117050,1,0,0:0:0:0:
109,192,117153,1,0,0:0:0:0:
182,192,117153,1,0,0:0:0:0:
256,192,117153,1,0,0:0:0:0:
329,192,117153,1,0,0:0:0:0:
475,192,117153,1,0,0:0:0:0:
402,192,117256,1,0,0:0:0:0:
36,192,117256,1,0,0:0:0:0:
256,192,117358,1,0,0:0:0:0:
329,192,117461,1,0,0:0:0:0:
182,192,117461,1,0,0:0:0:0:
475,192,117564,1,0,0:0:0:0:
36,192,117564,1,0,0:0:0:0:
109,192,117564,1,0,0:0:0:0:
402,192,117667,1,0,0:0:0:0:
329,192,117667,1,0,0:0:0:0:
36,192,117769,1,0,0:0:0:0:
182,192,117769,1,0,0:0:0:0:
256,192,117872,1,0,0:0:0:0:
109,192,117975,1,0,0:0:0:0:
182,192,117975,1,0,0:0:0:0:
329,192,117975,1,0,0:0:0:0:
475,192,117975,1,0,0:0:0:0:
36,192,118078,1,0,0:0:0:0:
256,192,118180,1,0,0:0:0:0:
402,192,118180,1,0,0:0:0:0:
109,192,118232,1,0,0:0:0:0:
182,192,118283,1,0,0:0:0:0:
329,192,118334,1,0,0:0:0:0:
36,192,118386,1,0,0:0:0:0:
109,192,118386,1,0,0:0:0:0:
402,192,118386,1,0,0:0:0:0:
475,192,118386,1,0,0:0:0:0:
256,192,118489,1,0,0:0:0:0:
329,192,118591,1,0,0:0:0:0:
182,192,118591,1,0,0:0:0:0:
402,192,118694,1,0,0:0:0:0:
36,192,118797,1,0,0:0:0:0:
182,192,118797,1,0,0:0:0:0:
109,192,118797,1,0,0:0:0:0:
256,192,118797,1,0,0:0:0:0:
475,192,118797,1,0,0:0:0:0:
36,192,119002,1,0,0:0:0:0:
329,192,119002,1,0,0:0:0:0:
109,192,119054,1,0,0:0:0:0:
182,192,119105,1,0,0:0:0:0:
402,192,119105,1,0,0:0:0:0:
256,192,119156,1,0,0:0:0:0:
329,192,119208,1,0,0:0:0:0:
475,192,119208,1,0,0:0:0:0:
36,192,119310,1,0,0:0:0:0:
182,192,119413,1,0,0:0:0:0:
475,192,119413,1,0,0:0:0:0:
402,192,119465,1,0,0:0:0:0:
109,192,119516,1,0,0:0:0:0:
329,192,119516,1,0,0:0:0:0:
256,192,119567,1,0,0:0:0:0:
182,192,119619,1,0,0:0:0:0:
36,192,119619,1,0,0:0:0:0:
329,192,119721,1,0,0:0:0:0:
475,192,119824,1,0,0:0:0:0:
256,192,119824,1,0,0:0:0:0:
402,192,119927,1,0,0:0:0:0:
182,192,119927,1,0,0:0:0:0:
36,192,120030,1,0,0:0:0:0:
256,192,120030,1,0,0:0:0:0:
109,192,120030,1,0,0:0:0:0:
329,192,120030,1,0,0:0:0:0:
475,192,120132,1,0,0:0:0:0:
402,192,120132,1,0,0:0:0:0:
36,192,120235,1,0,0:0:0:0:
109,192,120235,1,0,0:0:0:0:
329,192,120338,1,0,0:0:0:0:
182,192,120338,1,0,0:0:0:0:
36,192,120441,1,0,0:0:0:0:
109,192,120441,1,0,0:0:0:0:
402,192,120441,1,0,0:0:0:0:
475,192,120441,1,0,0:0:0:0:
256,192,120441,1,0,0:0:0:0:
