osu file format v14

[General]
AudioFilename: audio.mp3
AudioLeadIn: 0
PreviewTime: 81062
Countdown: 0
SampleSet: Soft
StackLeniency: 0.5
Mode: 0
LetterboxInBreaks: 0
WidescreenStoryboard: 1

[Editor]
Bookmarks: 2158,15308,41610,54760,81062,107363,120514,127089,133664
DistanceSpacing: 1
BeatDivisor: 12
GridSize: 8
TimelineZoom: 2.999999

[Metadata]
Title:KLEINE
TitleUnicode:KLEINE
Artist:SHIKI
ArtistUnicode:SHIKI
Creator:Matrix
Version:Insane
Source:
Tags:HEAVEN PUNISHER Niva electronic trance instrumental trancer doll's dolls
BeatmapID:3123451
BeatmapSetID:1526035

[Difficulty]
HPDrainRate:5
CircleSize:6
OverallDifficulty:8
ApproachRate:8
SliderMultiplier:1.9
SliderTickRate:1

[Events]
//Background and Video events
0,0,"look at the bg name of jade star.jpg",0,0
//Break Periods
//Storyboard Layer 0 (Background)
//Storyboard Layer 1 (Fail)
//Storyboard Layer 2 (Pass)
//Storyboard Layer 3 (Foreground)
//Storyboard Layer 4 (Overlay)
//Storyboard Sound Samples

[TimingPoints]
2158,410.958904109589,4,2,1,70,1,0
54144,-90.9090909090909,4,2,1,70,0,0
81062,-83.3333333333333,4,2,1,70,0,0
107363,-83.3333333333333,4,2,1,85,0,1
120205,-83.3333333333333,4,2,1,100,0,1
133664,-83.3333333333333,4,2,1,100,0,0

[Colours]
Combo1 : 172,17,176
Combo2 : 58,156,177
Combo3 : 172,52,218
Combo4 : 100,124,170

[HitObjects]
90,130,15308,5,0,0:0:0:0:
59,38,15514,1,0,0:0:0:0:
146,0,15719,1,8,0:0:0:0:
176,92,15925,1,0,0:0:0:0:
113,182,16130,5,0,0:0:0:0:
19,119,16336,1,0,0:0:0:0:
123,84,16541,1,8,0:0:0:0:
217,146,16747,1,2,0:0:0:0:
222,174,16849,1,2,0:0:0:0:
220,204,16952,2,0,P|263:186|321:196,1,95,2|0,0:0|0:0,0:0:0:0:
335,205,17260,2,0,L|340:154,1,47.5,2|8,0:0|0:0,0:0:0:0:
469,71,17568,2,0,B|481:101|481:101|460:160,1,95,2|0,0:0|0:0,0:0:0:0:
440,143,17877,1,2,0:0:0:0:
339,157,18082,2,0,L|335:205,1,47.5,2|10,0:0|0:0,0:0:0:0:
394,327,18390,5,2,0:0:0:0:
395,311,18493,1,2,0:0:0:0:
396,294,18596,1,2,0:0:0:0:
512,259,18801,2,0,P|500:279|481:294,1,47.5,2|2,0:0|0:0,0:0:0:0:
280,343,19110,2,0,P|290:323|309:309,1,47.5,2|2,0:0|0:0,0:0:0:0:
99,363,19418,5,2,0:0:0:0:
126,381,19521,1,2,0:0:0:0:
158,382,19623,1,0,0:0:0:0:
185,363,19726,1,2,0:0:0:0:
196,331,19829,2,0,B|197:271|154:231,1,95,10|0,0:0|0:0,0:0:0:0:
0,179,20240,5,2,0:0:0:0:
14,210,20342,1,2,0:0:0:0:
23,244,20445,1,0,0:0:0:0:
46,220,20548,1,2,0:0:0:0:
76,205,20651,1,8,0:0:0:0:
64,101,20856,1,2,0:0:0:0:
161,147,21062,1,2,0:0:0:0:
161,147,21164,1,2,0:0:0:0:
263,123,21371,1,2,0:0:0:0:
251,91,21473,1,10,0:0:0:0:
229,64,21575,1,0,0:0:0:0:
197,50,21678,1,2,0:0:0:0:
231,55,21781,1,2,0:0:0:0:
261,41,21884,5,4,0:0:0:0:
333,115,22089,1,0,0:0:0:0:
435,96,22294,1,8,0:0:0:0:
365,17,22500,1,0,0:0:0:0:
216,177,22705,6,0,B|235:224|279:251,1,95
483,237,23116,2,0,B|432:230|387:255,1,95,8|0,0:0|0:0,0:0:0:0:
372,269,23425,1,0,0:0:0:0:
359,290,23527,1,2,0:0:0:0:
368,143,23733,1,0,0:0:0:0:
387,135,23836,2,0,B|427:109|446:61,1,95,2|0,0:0|0:0,0:0:0:0:
450,43,24144,1,2,0:0:0:0:
300,44,24349,2,0,P|322:51|345:53,1,47.5,0|2,0:0|0:0,0:0:0:0:
216,13,24658,2,0,P|195:7|167:5,1,47.5,0|10,0:0|0:0,0:0:0:0:
0,29,24966,5,2,0:0:0:0:
33,25,25069,1,2,0:0:0:0:
67,22,25171,2,0,B|84:45|84:45|72:115,1,95,2|2,0:0|0:0,0:0:0:0:
50,127,25479,2,0,L|38:189,1,47.5,2|8,0:0|0:0,0:0:0:0:
38,325,25788,2,0,B|31:284|31:284|84:235,1,95,2|2,0:0|0:0,0:0:0:0:
85,262,26096,1,2,0:0:0:0:
50,127,26302,2,0,L|38:189,1,47.5,2|10,0:0|0:0,0:0:0:0:
114,362,26610,6,0,P|136:358|163:335,1,47.5,2|2,0:0|0:0,0:0:0:0:
179,321,26815,1,2,0:0:0:0:
190,288,26918,1,2,0:0:0:0:
190,252,27021,1,0,0:0:0:0:
214,281,27123,1,2,0:0:0:0:
247,291,27226,1,8,0:0:0:0:
341,247,27431,1,2,0:0:0:0:
335,353,27637,1,2,0:0:0:0:
335,353,27740,1,2,0:0:0:0:
429,308,27945,1,2,0:0:0:0:
452,281,28048,1,10,0:0:0:0:
457,246,28151,1,0,0:0:0:0:
442,212,28253,1,2,0:0:0:0:
471,230,28356,1,2,0:0:0:0:
505,224,28459,5,4,0:0:0:0:
477,115,28664,1,0,0:0:0:0:
368,143,28870,1,8,0:0:0:0:
396,252,29075,1,0,0:0:0:0:
428,152,29281,5,0,0:0:0:0:
349,82,29486,1,0,0:0:0:0:
317,182,29692,1,8,0:0:0:0:
396,252,29897,5,2,0:0:0:0:
361,257,30000,1,2,0:0:0:0:
331,275,30103,1,2,0:0:0:0:
273,354,30308,1,0,0:0:0:0:
270,372,30411,1,2,0:0:0:0:
196,294,30616,1,0,0:0:0:0:
193,276,30719,1,2,0:0:0:0:
109,337,30925,2,0,L|98:384,1,47.5,0|2,0:0|0:0,0:0:0:0:
9,317,31233,2,0,L|0:266,1,47.5,0|10,0:0|0:0,0:0:0:0:
94,193,31541,5,2,0:0:0:0:
62,181,31644,1,2,0:0:0:0:
44,151,31747,1,2,0:0:0:0:
121,9,31952,1,2,0:0:0:0:
121,9,32055,2,0,B|112:35|112:35|136:118,1,95,2|2,0:0|0:0,0:0:0:0:
124,114,32363,2,0,L|231:142,1,95,2|2,0:0|0:0,0:0:0:0:
227,152,32671,1,2,0:0:0:0:
335,150,32877,2,0,P|345:172|346:203,1,47.5,2|10,0:0|0:0,0:0:0:0:
395,356,33185,2,0,P|385:334|384:303,1,47.5,2|2,0:0|0:0,0:0:0:0:
392,279,33390,5,2,0:0:0:0:
357,293,33493,1,0,0:0:0:0:
321,291,33596,1,2,0:0:0:0:
294,270,33699,1,2,0:0:0:0:
277,240,33801,1,8,0:0:0:0:
250,217,33904,1,2,0:0:0:0:
216,213,34007,1,2,0:0:0:0:
181,226,34110,1,0,0:0:0:0:
167,257,34212,2,0,B|159:286|179:315,1,47.5,2|2,0:0|0:0,0:0:0:0:
101,276,34418,2,0,B|79:254|44:257,1,47.5,2|2,0:0|0:0,0:0:0:0:
28,252,34623,5,10,0:0:0:0:
58,233,34726,1,2,0:0:0:0:
74,200,34829,1,2,0:0:0:0:
73,165,34931,1,2,0:0:0:0:
58,134,35034,1,6,0:0:0:0:
23,35,35240,1,0,0:0:0:0:
122,2,35445,1,8,0:0:0:0:
157,101,35651,1,0,0:0:0:0:
261,101,35856,1,0,0:0:0:0:
296,2,36062,1,0,0:0:0:0:
395,35,36267,1,8,0:0:0:0:
360,134,36473,5,2,0:0:0:0:
360,134,36575,1,2,0:0:0:0:
360,134,36678,1,2,0:0:0:0:
468,81,36884,2,0,L|426:101,1,47.5,0|2,0:0|0:0,0:0:0:0:
307,26,37192,2,0,L|327:68,1,47.5,0|2,0:0|0:0,0:0:0:0:
252,187,37500,2,0,L|294:167,1,47.5,0|2,0:0|0:0,0:0:0:0:
413,242,37808,2,0,L|393:200,1,47.5,0|10,0:0|0:0,0:0:0:0:
245,98,38116,5,2,0:0:0:0:
210,101,38219,1,2,0:0:0:0:
180,120,38322,2,0,P|156:171|162:224,1,95,2|2,0:0|0:0,0:0:0:0:
172,243,38630,1,2,0:0:0:0:
64,209,38836,1,2,0:0:0:0:
68,225,38939,1,2,0:0:0:0:
229,350,39144,1,2,0:0:0:0:
225,334,39247,1,2,0:0:0:0:
172,243,39452,2,0,L|132:309,1,47.5,2|10,0:0|0:0,0:0:0:0:
15,142,39760,2,0,L|39:101,1,47.5,2|2,0:0|0:0,0:0:0:0:
78,47,39966,5,2,0:0:0:0:
98,70,40068,1,2,0:0:0:0:
131,79,40171,1,2,0:0:0:0:
162,69,40274,1,0,0:0:0:0:
182,41,40377,1,10,0:0:0:0:
211,27,40479,1,0,0:0:0:0:
242,32,40582,1,2,0:0:0:0:
266,55,40685,1,2,0:0:0:0:
284,78,40788,1,0,0:0:0:0:
313,92,40890,1,2,0:0:0:0:
348,88,40993,1,0,0:0:0:0:
375,69,41096,1,2,0:0:0:0:
409,65,41199,1,10,0:0:0:0:
441,84,41301,1,2,0:0:0:0:
459,117,41404,1,2,0:0:0:0:
452,154,41507,1,2,0:0:0:0:
436,185,41610,6,0,B|399:257|451:322,1,142.5,6|0,0:0|0:0,0:0:0:0:
464,330,42021,1,2,0:0:0:0:
370,373,42226,1,0,0:0:0:0:
370,373,42329,1,2,0:0:0:0:
110,259,42740,5,0,0:0:0:0:
110,259,42842,2,0,P|109:228|92:198,1,47.5
40,239,43048,2,0,P|41:270|58:300,1,47.5
104,320,43253,2,0,B|161:320|161:320|180:313|180:313|255:313,1,142.5,2|0,0:0|0:0,0:0:0:0:
272,309,43664,2,0,B|266:328|266:328|288:373,2,47.5,2|0|2,0:0|0:0|0:0,0:0:0:0:
479,164,44384,5,0,0:0:0:0:
479,164,44486,2,0,P|479:133|490:110,1,47.5
401,89,44692,2,0,P|395:112|379:129,1,47.5
349,184,44897,2,0,B|383:201|418:179|418:179|434:226|486:229,1,142.5,2|0,0:0|0:0,0:0:0:0:
490,224,45308,1,2,0:0:0:0:
388,275,45514,1,0,0:0:0:0:
388,275,45616,1,2,0:0:0:0:
230,199,46027,5,0,0:0:0:0:
230,199,46130,2,0,L|160:199,1,47.5
260,263,46336,2,0,L|212:263,1,47.5
216,328,46541,2,0,B|159:328|159:328|140:335|140:335|65:335,1,142.5,2|0,0:0|0:0,0:0:0:0:
56,312,46952,2,0,B|62:331|62:331|39:376,2,47.5,2|0|2,0:0|0:0|0:0,0:0:0:0:
27,98,47671,5,0,0:0:0:0:
27,98,47774,2,0,L|23:41,1,47.5
87,106,47979,2,0,L|91:162,1,47.5
96,216,48185,2,0,B|128:200|128:200|201:234,1,95,2|0,0:0|0:0,0:0:0:0:
276,269,48596,2,0,B|305:281|305:281|394:260,1,95,2|0,0:0|0:0,0:0:0:0:
398,207,48904,2,0,B|369:195|369:195|280:216,1,95,2|0,0:0|0:0,0:0:0:0:
329,100,49315,5,0,0:0:0:0:
329,100,49418,2,0,L|341:54,1,47.5
275,50,49623,2,0,L|288:5,1,47.5
212,38,49829,2,0,B|178:55|143:33|143:33|127:80|75:83,1,142.5,2|0,0:0|0:0,0:0:0:0:
79,20,50240,2,0,B|56:10|56:10|20:18,2,47.5,2|0|2,0:0|0:0|0:0,0:0:0:0:
65,361,50959,5,0,0:0:0:0:
65,361,51062,2,0,P|37:354|16:357,1,47.5
123,341,51267,2,0,P|151:348|172:345,1,47.5
80,297,51473,2,0,B|80:233|80:233|72:217|72:217|72:145,1,142.5,2|0,0:0|0:0,0:0:0:0:
72,136,51884,1,2,0:0:0:0:
171,177,52089,1,0,0:0:0:0:
171,177,52192,1,2,0:0:0:0:
216,296,52603,5,0,0:0:0:0:
248,280,52705,1,0,0:0:0:0:
280,296,52808,1,0,0:0:0:0:
296,328,52911,1,0,0:0:0:0:
280,360,53014,1,0,0:0:0:0:
248,376,53116,2,0,L|320:376,2,47.5,10|8|10,0:0|0:0|0:0,0:0:0:0:
384,328,53527,1,10,0:0:0:0:
480,376,53733,1,10,0:0:0:0:
480,376,53836,2,0,P|499:344|496:310,1,47.5,8|0,0:0|0:0,0:0:0:0:
473,185,54144,5,2,0:0:0:0:
434,163,54247,1,0,0:0:0:0:
390,168,54349,1,2,0:0:0:0:
360,200,54452,1,2,0:0:0:0:
320,218,54555,1,0,0:0:0:0:
277,210,54658,1,2,0:0:0:0:
244,182,54760,2,0,B|194:155|121:178,1,104.500003189087,6|0,0:0|0:0,0:0:0:0:
64,233,55171,1,10,0:0:0:0:
93,352,55377,1,0,0:0:0:0:
93,352,55479,2,0,B|147:325|158:264,1,104.500003189087
77,101,55890,1,0,0:0:0:0:
77,101,55993,1,8,0:0:0:0:
192,23,56199,5,2,0:0:0:0:
204,54,56301,1,2,0:0:0:0:
227,78,56404,2,0,B|273:103|329:86,1,104.500003189087,2|0,0:0|0:0,0:0:0:0:
511,126,56815,2,0,B|449:120|405:180,1,104.500003189087,8|0,0:0|0:0,0:0:0:0:
406,193,57123,1,0,0:0:0:0:
408,224,57226,1,0,0:0:0:0:
266,342,57431,5,2,0:0:0:0:
290,304,57534,1,0,0:0:0:0:
288,260,57637,1,10,0:0:0:0:
259,226,57740,1,2,0:0:0:0:
215,230,57842,1,0,0:0:0:0:
194,268,57945,1,2,0:0:0:0:
214,306,58048,2,0,B|271:309|312:254,1,104.500003189087,2|0,0:0|0:0,0:0:0:0:
290,117,58459,2,0,P|262:122|233:149,2,52.2500015945435,8|0|0,0:0|0:0|0:0,0:0:0:0:
131,176,58870,5,2,0:0:0:0:
136,187,58973,1,2,0:0:0:0:
46,103,59178,1,2,0:0:0:0:
42,116,59281,1,10,0:0:0:0:
98,1,59486,1,2,0:0:0:0:
229,14,59692,1,2,0:0:0:0:
215,16,59794,2,0,B|194:68|226:123,1,104.500003189087,2|0,0:0|0:0,0:0:0:0:
244,137,60103,1,8,0:0:0:0:
297,282,60308,2,0,B|318:334|286:389,1,104.500003189087,2|0,0:0|0:0,0:0:0:0:
213,283,60719,5,2,0:0:0:0:
222,238,60822,1,0,0:0:0:0:
256,207,60925,1,10,0:0:0:0:
301,197,61027,1,2,0:0:0:0:
347,205,61130,1,0,0:0:0:0:
389,186,61233,1,2,0:0:0:0:
414,147,61336,2,0,B|434:89|406:31,1,104.500003189087,2|0,0:0|0:0,0:0:0:0:
302,5,61747,5,8,0:0:0:0:
209,72,61952,1,0,0:0:0:0:
209,72,62055,2,0,B|154:94|96:60,1,104.500003189087
13,5,62466,1,0,0:0:0:0:
13,5,62568,1,8,0:0:0:0:
3,163,62774,1,2,0:0:0:0:
30,147,62877,1,2,0:0:0:0:
62,144,62979,2,0,P|113:160|153:214,1,104.500003189087,2|0,0:0|0:0,0:0:0:0:
244,158,63390,5,8,0:0:0:0:
50,244,63596,1,0,0:0:0:0:
50,244,63699,2,0,B|12:289|35:355,1,104.500003189087
59,376,64007,1,2,0:0:0:0:
105,384,64110,1,0,0:0:0:0:
148,365,64212,1,10,0:0:0:0:
172,325,64315,1,2,0:0:0:0:
215,308,64418,1,0,0:0:0:0:
257,326,64521,1,2,0:0:0:0:
285,362,64623,2,0,B|334:381|398:364,1,104.500003189087,2|0,0:0|0:0,0:0:0:0:
482,302,65034,2,0,L|488:353,1,52.2500015945435,8|0,0:0|0:0,0:0:0:0:
392,233,65342,5,2,0:0:0:0:
388,219,65445,1,2,0:0:0:0:
272,200,65651,1,2,0:0:0:0:
277,213,65753,2,0,B|216:217|172:278,1,104.500003189087,2|0,0:0|0:0,0:0:0:0:
173,288,66062,1,2,0:0:0:0:
55,299,66267,2,0,B|99:324|108:385,2,104.500003189087,2|0|8,0:0|0:0|0:0,0:0:0:0:
53,183,66884,2,0,B|8:157|0:96,1,104.500003189087,2|0,0:0|0:0,0:0:0:0:
166,0,67294,5,2,0:0:0:0:
190,38,67397,1,0,0:0:0:0:
188,82,67500,1,10,0:0:0:0:
159,116,67603,1,2,0:0:0:0:
115,112,67705,1,0,0:0:0:0:
94,74,67808,1,2,0:0:0:0:
114,36,67911,2,0,B|176:31|224:82,1,104.500003189087,2|0,0:0|0:0,0:0:0:0:
327,96,68322,2,0,B|394:98|447:48,1,104.500003189087,8|0,0:0|0:0,0:0:0:0:
439,53,68630,5,0,0:0:0:0:
454,167,68836,1,0,0:0:0:0:
357,227,69041,1,0,0:0:0:0:
357,227,69144,1,8,0:0:0:0:
262,162,69349,1,2,0:0:0:0:
240,187,69452,1,2,0:0:0:0:
231,219,69555,2,0,B|228:276|273:319,1,104.500003189087,2|0,0:0|0:0,0:0:0:0:
371,353,69966,1,8,0:0:0:0:
156,355,70171,1,0,0:0:0:0:
156,355,70274,2,0,B|128:309|56:310,1,104.500003189087
18,324,70582,5,2,0:0:0:0:
45,290,70685,1,0,0:0:0:0:
57,249,70788,1,10,0:0:0:0:
47,208,70890,1,2,0:0:0:0:
26,170,70993,1,0,0:0:0:0:
25,126,71096,1,2,0:0:0:0:
46,87,71199,2,0,B|83:43|146:46,1,104.500003189087,2|0,0:0|0:0,0:0:0:0:
239,101,71610,1,8,0:0:0:0:
228,215,71815,1,0,0:0:0:0:
312,322,72021,5,2,0:0:0:0:
308,307,72123,2,0,B|350:269|349:198,1,104.500003189087,2|2,0:0|0:0,0:0:0:0:
349,182,72431,1,8,0:0:0:0:
228,215,72637,1,2,0:0:0:0:
158,105,72842,1,2,0:0:0:0:
162,120,72945,2,0,B|116:147|104:205,1,104.500003189087,2|0,0:0|0:0,0:0:0:0:
104,234,73253,1,8,0:0:0:0:
141,324,73459,2,0,P|164:340|207:349,2,52.2500015945435,2|0|0,0:0|0:0|0:0,0:0:0:0:
361,321,73870,5,2,0:0:0:0:
337,283,73973,1,0,0:0:0:0:
339,239,74076,1,10,0:0:0:0:
368,205,74179,1,2,0:0:0:0:
412,209,74281,1,0,0:0:0:0:
433,247,74384,1,2,0:0:0:0:
413,285,74486,2,0,B|351:286|315:233,1,104.500003189087,2|0,0:0|0:0,0:0:0:0:
176,145,74897,6,0,B|109:133|63:175,1,104.500003189087,8|0,0:0|0:0,0:0:0:0:
61,189,75205,1,0,0:0:0:0:
212,238,75411,2,0,P|250:195|269:138,1,104.500003189087
272,118,75719,1,8,0:0:0:0:
147,19,75925,1,2,0:0:0:0:
174,35,76027,1,2,0:0:0:0:
206,42,76130,2,0,B|257:46|304:5,1,104.500003189087,2|0,0:0|0:0,0:0:0:0:
422,4,76541,1,8,0:0:0:0:
482,101,76747,1,0,0:0:0:0:
473,131,76849,1,0,0:0:0:0:
448,150,76952,1,0,0:0:0:0:
263,166,77157,5,2,0:0:0:0:
279,124,77260,1,0,0:0:0:0:
322,112,77363,1,10,0:0:0:0:
362,130,77466,1,2,0:0:0:0:
372,172,77568,1,0,0:0:0:0:
350,208,77671,1,2,0:0:0:0:
310,224,77774,2,0,B|251:239|219:294,1,104.500003189087,2|0,0:0|0:0,0:0:0:0:
154,377,78185,5,8,0:0:0:0:
40,361,78390,1,0,0:0:0:0:
4,254,78596,1,2,0:0:0:0:
6,267,78699,1,2,0:0:0:0:
80,167,78904,1,2,0:0:0:0:
78,180,79007,1,10,0:0:0:0:
194,176,79212,2,0,P|227:182|253:175,1,52.2500015945435,2|0,0:0|0:0,0:0:0:0:
273,168,79418,5,14,0:0:0:0:
294,149,79521,1,0,0:0:0:0:
306,120,79623,1,0,0:0:0:0:
291,5,79829,1,8,0:0:0:0:
397,48,80034,1,2,0:0:0:0:
413,77,80137,1,0,0:0:0:0:
412,110,80240,1,8,0:0:0:0:
377,219,80445,1,0,0:0:0:0:
391,333,80651,1,8,0:0:0:0:
409,361,80753,1,0,0:0:0:0:
439,374,80856,1,0,0:0:0:0:
290,332,81062,6,0,B|241:300|169:323,1,113.999996520996,6|0,0:0|0:0,0:0:0:0:
114,346,81370,1,0,0:0:0:0:
116,339,81473,1,8,0:0:0:0:
118,332,81575,1,0,0:0:0:0:
120,325,81678,1,0,0:0:0:0:
20,248,81884,1,2,0:0:0:0:
135,199,82089,1,0,0:0:0:0:
137,192,82192,1,0,0:0:0:0:
32,123,82397,1,0,0:0:0:0:
34,116,82500,1,0,0:0:0:0:
188,29,82705,6,0,B|206:92|148:140,1,113.999996520996,2|0,0:0|0:0,0:0:0:0:
137,192,83014,1,0,0:0:0:0:
301,148,83219,1,0,0:0:0:0:
301,148,83322,2,0,B|237:132|224:57,1,113.999996520996,2|0,0:0|0:0,0:0:0:0:
188,29,83630,1,0,0:0:0:0:
32,216,83836,1,0,0:0:0:0:
32,216,83938,2,0,B|77:168|148:195,1,113.999996520996,10|0,0:0|0:0,0:0:0:0:
298,345,84349,6,0,B|217:301|183:336|145:378|61:316,1,227.999993041992,2|8,0:0|0:0,0:0:0:0:
254,248,84966,1,0,0:0:0:0:
254,248,85171,2,0,P|222:246|180:258,2,56.9999982604981
35,206,85582,6,0,B|97:176|97:176|137:196,1,113.999996520996,8|0,0:0|0:0,0:0:0:0:
197,251,85993,1,0,0:0:0:0:
235,185,86199,1,0,0:0:0:0:
139,196,86404,1,8,0:0:0:0:
180,125,86610,2,0,B|172:57|172:57|216:16,2,113.999996520996
235,185,87226,1,8,0:0:0:0:
367,81,87431,5,0,0:0:0:0:
369,74,87534,1,0,0:0:0:0:
371,67,87637,2,0,B|430:41|481:75,1,113.999996520996,2|0,0:0|0:0,0:0:0:0:
357,189,88048,1,8,0:0:0:0:
235,185,88253,1,0,0:0:0:0:
239,57,88459,1,2,0:0:0:0:
237,64,88562,1,0,0:0:0:0:
235,71,88665,2,0,B|176:97|124:62,1,113.999996520996,0|8,0:0|0:0,0:0:0:0:
18,0,89075,5,0,0:0:0:0:
14,125,89281,1,2,0:0:0:0:
16,132,89384,1,0,0:0:0:0:
18,139,89486,1,0,0:0:0:0:
20,146,89589,1,0,0:0:0:0:
22,153,89692,1,8,0:0:0:0:
11,277,89897,6,0,B|79:252|79:252|117:276,1,113.999996520996,2|0,0:0|0:0,0:0:0:0:
112,290,90205,1,0,0:0:0:0:
223,263,90411,1,0,0:0:0:0:
231,278,90514,2,0,B|253:340|210:386,1,113.999996520996,10|0,0:0|0:0,0:0:0:0:
195,176,90925,2,0,B|285:161|306:206|328:258|427:228,1,227.999993041992,2|8,0:0|0:0,0:0:0:0:
491,213,91541,1,0,0:0:0:0:
433,324,91747,5,2,0:0:0:0:
379,144,92055,1,2,0:0:0:0:
248,280,92363,1,2,0:0:0:0:
195,176,92568,1,2,0:0:0:0:
142,72,92774,1,0,0:0:0:0:
144,65,92877,1,0,0:0:0:0:
146,58,92979,1,0,0:0:0:0:
9,23,93185,2,0,B|42:61|42:61|17:136,1,113.999996520996,2|0,0:0|0:0,0:0:0:0:
76,226,93596,5,2,0:0:0:0:
195,176,93801,1,10,0:0:0:0:
356,218,94007,1,2,0:0:0:0:
437,370,94212,5,6,0:0:0:0:
439,363,94315,1,0,0:0:0:0:
441,356,94418,1,0,0:0:0:0:
443,349,94521,1,0,0:0:0:0:
445,342,94623,1,8,0:0:0:0:
356,218,94829,1,0,0:0:0:0:
224,280,95034,1,2,0:0:0:0:
222,287,95137,1,0,0:0:0:0:
220,294,95240,2,0,B|158:291|109:315,2,113.999996520996,0|8|0,0:0|0:0|0:0,0:0:0:0:
17,187,95856,6,0,B|77:199|129:183,1,113.999996520996,2|0,0:0|0:0,0:0:0:0:
131,176,96164,1,0,0:0:0:0:
133,169,96267,1,8,0:0:0:0:
238,37,96473,2,0,B|177:24|125:40,1,113.999996520996,2|0,0:0|0:0,0:0:0:0:
123,48,96781,1,0,0:0:0:0:
121,55,96884,1,0,0:0:0:0:
241,131,97089,1,10,0:0:0:0:
248,133,97192,1,0,0:0:0:0:
255,135,97294,1,0,0:0:0:0:
370,50,97500,6,0,B|358:87|358:87|382:169,1,113.999996520996,2|0,0:0|0:0,0:0:0:0:
397,164,97808,1,0,0:0:0:0:
459,262,98014,1,0,0:0:0:0:
452,260,98116,1,0,0:0:0:0:
353,338,98322,1,0,0:0:0:0:
355,331,98425,1,0,0:0:0:0:
357,324,98527,1,0,0:0:0:0:
359,317,98630,1,0,0:0:0:0:
361,310,98733,6,0,L|248:327,1,113.999996520996,8|0,0:0|0:0,0:0:0:0:
131,373,99144,1,0,0:0:0:0:
167,302,99350,1,0,0:0:0:0:
72,324,99555,1,8,0:0:0:0:
104,249,99761,2,0,B|110:190|110:190|63:149,2,113.999996520996
72,324,100377,1,8,0:0:0:0:
167,302,100582,1,0,0:0:0:0:
169,295,100685,1,0,0:0:0:0:
171,287,100788,6,0,B|310:226|381:360,1,227.999993041992,2|8,0:0|0:0,0:0:0:0:
255,365,101404,1,0,0:0:0:0:
377,207,101610,1,2,0:0:0:0:
384,205,101712,1,0,0:0:0:0:
391,203,101815,1,0,0:0:0:0:
398,201,101918,1,0,0:0:0:0:
405,199,102021,1,8,0:0:0:0:
418,74,102226,1,0,0:0:0:0:
300,29,102431,6,0,B|314:74|314:74|272:160,1,113.999996520996,2|0,0:0|0:0,0:0:0:0:
268,138,102740,1,0,0:0:0:0:
165,69,102945,1,0,0:0:0:0:
165,69,103048,2,0,L|42:55,1,113.999996520996,2|0,0:0|0:0,0:0:0:0:
36,65,103356,1,0,0:0:0:0:
18,179,103562,1,0,0:0:0:0:
18,179,103664,2,0,B|47:194|47:194|58:283,1,113.999996520996,10|0,0:0|0:0,0:0:0:0:
165,337,104075,5,0,0:0:0:0:
256,252,104281,1,0,0:0:0:0:
256,245,104384,1,0,0:0:0:0:
256,238,104486,1,8,0:0:0:0:
347,337,104692,1,0,0:0:0:0:
184,272,104897,5,2,0:0:0:0:
256,96,105205,1,2,0:0:0:0:
328,272,105514,1,2,0:0:0:0:
146,109,105719,5,10,0:0:0:0:
146,116,105822,1,8,0:0:0:0:
146,123,105924,1,8,0:0:0:0:
30,167,106130,1,8,0:0:0:0:
146,217,106336,1,8,0:0:0:0:
146,224,106438,1,8,0:0:0:0:
256,167,106644,1,8,0:0:0:0:
256,174,106746,1,8,0:0:0:0:
366,116,106952,1,8,0:0:0:0:
482,164,107157,1,8,0:0:0:0:
366,213,107363,5,14,0:0:0:0:
374,203,107466,2,0,B|387:224|387:224|383:265,2,56.9999982604981,0|2|2,0:0|0:0|0:0,0:0:0:0:
196,342,107877,1,2,0:0:0:0:
220,318,107979,1,2,0:0:0:0:
196,294,108082,1,0,0:0:0:0:
172,318,108185,2,0,B|246:334|280:263,1,113.999996520996,2|2,0:0|0:0,0:0:0:0:
277,263,108493,1,2,0:0:0:0:
30,314,108699,5,2,0:0:0:0:
22,306,108801,2,0,B|12:329|12:329|21:375,2,56.9999982604981,0|2|2,0:0|0:0|0:0,0:0:0:0:
104,216,109212,1,2,0:0:0:0:
110,226,109315,2,0,B|137:189|137:189|137:168|137:168|108:130,1,113.999996520996,2|2,0:0|0:0,0:0:0:0:
54,87,109623,1,2,0:0:0:0:
46,79,109726,1,0,0:0:0:0:
38,71,109829,2,0,B|79:45|79:45|166:61,1,113.999996520996,2|2,0:0|0:0,0:0:0:0:
157,67,110137,1,2,0:0:0:0:
271,29,110342,5,2,0:0:0:0:
279,37,110445,2,0,B|306:43|306:43|351:29,2,56.9999982604981,2|0|2,0:0|0:0|0:0,0:0:0:0:
240,156,110856,1,2,0:0:0:0:
248,148,110959,1,2,0:0:0:0:
424,202,111164,1,2,0:0:0:0:
400,178,111266,1,2,0:0:0:0:
424,154,111369,1,0,0:0:0:0:
448,178,111472,2,0,B|379:196|342:134,1,113.999996520996,2|2,0:0|0:0,0:0:0:0:
344,126,111780,1,2,0:0:0:0:
448,280,111986,5,2,0:0:0:0:
432,312,112089,1,0,0:0:0:0:
416,344,112192,1,2,0:0:0:0:
400,304,112294,1,2,0:0:0:0:
384,264,112397,1,0,0:0:0:0:
368,296,112500,1,2,0:0:0:0:
352,328,112603,2,0,B|323:320|323:320|277:349|277:349|240:335,1,113.999996520996,2|2,0:0|0:0,0:0:0:0:
239,352,112911,2,0,B|173:329|173:329|128:345,1,113.999996520996,2|2,0:0|0:0,0:0:0:0:
15,384,113322,1,2,0:0:0:0:
15,384,113425,1,2,0:0:0:0:
39,261,113630,5,2,0:0:0:0:
47,269,113733,2,0,B|58:235|58:235|47:201,2,56.9999982604981,2|0|2,0:0|0:0|0:0,0:0:0:0:
120,176,114144,1,2,0:0:0:0:
112,168,114247,2,0,B|168:149|168:149|237:181,1,113.999996520996,2|2,0:0|0:0,0:0:0:0:
275,197,114555,2,0,L|357:182,1,56.9999982604981,2|0,0:0|0:0,0:0:0:0:
295,136,114760,2,0,L|319:276,1,113.999996520996,2|2,0:0|0:0,0:0:0:0:
317,265,115068,1,2,0:0:0:0:
445,132,115274,5,2,0:0:0:0:
437,140,115376,2,0,B|427:112|427:112|436:71,2,56.9999982604981,2|0|2,0:0|0:0|0:0,0:0:0:0:
343,55,115788,1,2,0:0:0:0:
351,47,115891,2,0,B|295:28|295:28|226:60,1,113.999996520996,2|2,0:0|0:0,0:0:0:0:
188,76,116199,2,0,L|106:61,1,56.9999982604981,2|0,0:0|0:0,0:0:0:0:
168,15,116404,2,0,L|144:155,1,113.999996520996,2|2,0:0|0:0,0:0:0:0:
146,144,116712,1,2,0:0:0:0:
40,208,116918,5,2,0:0:0:0:
32,200,117021,2,0,B|22:227|22:227|30:278,2,56.9999982604981,2|0|2,0:0|0:0|0:0,0:0:0:0:
136,296,117431,1,2,0:0:0:0:
127,287,117534,2,0,B|195:278|195:278|241:309,1,113.999996520996,2|2,0:0|0:0,0:0:0:0:
248,333,117842,2,0,B|274:339|274:339|304:324,2,56.9999982604981,2|0|2,0:0|0:0|0:0,0:0:0:0:
427,346,118253,1,2,0:0:0:0:
419,354,118356,1,2,0:0:0:0:
387,232,118562,5,2,0:0:0:0:
419,208,118665,1,0,0:0:0:0:
451,184,118768,1,2,0:0:0:0:
411,176,118870,1,2,0:0:0:0:
371,168,118973,1,0,0:0:0:0:
403,144,119076,1,2,0:0:0:0:
435,120,119179,2,0,B|406:128|406:128|360:99|360:99|314:106,1,113.999996520996,2|2,0:0|0:0,0:0:0:0:
307,109,119486,1,2,0:0:0:0:
213,25,119692,1,2,0:0:0:0:
91,41,119897,1,2,0:0:0:0:
91,41,120000,1,2,0:0:0:0:
80,200,120205,5,2,0:0:0:0:
72,152,120308,1,0,0:0:0:0:
24,160,120411,1,2,0:0:0:0:
32,208,120514,1,2,0:0:0:0:
80,200,120616,1,0,0:0:0:0:
128,192,120719,1,2,0:0:0:0:
120,144,120822,2,0,B|188:135|188:135|234:166,1,113.999996520996,2|2,0:0|0:0,0:0:0:0:
270,198,121131,1,2,0:0:0:0:
318,190,121233,1,0,0:0:0:0:
366,182,121336,1,2,0:0:0:0:
477,225,121541,1,2,0:0:0:0:
477,225,121644,1,2,0:0:0:0:
336,297,121849,5,2,0:0:0:0:
344,345,121952,1,0,0:0:0:0:
392,337,122055,1,2,0:0:0:0:
384,289,122157,1,2,0:0:0:0:
336,297,122260,1,0,0:0:0:0:
288,305,122363,1,2,0:0:0:0:
296,353,122466,2,0,B|228:362|228:362|182:331,1,113.999996520996,2|2,0:0|0:0,0:0:0:0:
147,301,122774,1,2,0:0:0:0:
99,309,122877,1,0,0:0:0:0:
51,317,122979,1,2,0:0:0:0:
82,213,123185,1,2,0:0:0:0:
82,213,123288,1,2,0:0:0:0:
208,28,123493,5,2,0:0:0:0:
192,32,123596,2,0,B|183:60|183:60|200:96,2,56.9999982604981,2|0|2,0:0|0:0|0:0,0:0:0:0:
320,64,124007,1,2,0:0:0:0:
312,112,124110,1,2,0:0:0:0:
432,104,124315,1,2,0:0:0:0:
424,152,124418,1,0,0:0:0:0:
416,200,124521,1,2,0:0:0:0:
464,184,124623,2,0,B|381:198|381:198|345:235,1,113.999996520996,2|2,0:0|0:0,0:0:0:0:
351,234,124931,1,2,0:0:0:0:
200,352,125137,5,2,0:0:0:0:
192,304,125240,1,0,0:0:0:0:
184,256,125342,1,2,0:0:0:0:
147,287,125445,2,0,B|114:287|114:287|83:271,2,56.9999982604981,2|0|2,0:0|0:0|0:0,0:0:0:0:
184,256,125753,2,0,B|257:256|257:256|305:217,1,113.999996520996,2|2,0:0|0:0,0:0:0:0:
301,218,126062,1,2,0:0:0:0:
259,103,126267,1,2,0:0:0:0:
144,151,126473,1,2,0:0:0:0:
144,151,126575,1,2,0:0:0:0:
18,99,126781,5,2,0:0:0:0:
42,59,126884,1,0,0:0:0:0:
66,19,126986,1,2,0:0:0:0:
120,64,127089,5,2,0:0:0:0:
127,62,127192,1,0,0:0:0:0:
134,60,127294,1,2,0:0:0:0:
141,58,127397,1,2,0:0:0:0:
259,99,127603,1,2,0:0:0:0:
272,96,127705,1,0,0:0:0:0:
287,75,127808,1,2,0:0:0:0:
300,72,127911,2,0,B|295:133|295:133|291:200,1,113.999996520996,2|2,0:0|0:0,0:0:0:0:
290,202,128219,1,2,0:0:0:0:
440,24,128425,5,2,0:0:0:0:
464,64,128527,1,0,0:0:0:0:
488,104,128630,1,2,0:0:0:0:
422,131,128733,5,2,0:0:0:0:
415,129,128836,1,0,0:0:0:0:
408,127,128938,1,2,0:0:0:0:
401,125,129041,1,2,0:0:0:0:
458,237,129247,1,2,0:0:0:0:
445,234,129349,2,0,B|440:254|440:254|453:290,2,56.9999982604981,2|0|2,0:0|0:0|0:0,0:0:0:0:
362,329,129760,1,2,0:0:0:0:
349,326,129863,2,0,B|303:360|303:360|241:343,1,113.999996520996,2|2,0:0|0:0,0:0:0:0:
204,330,130171,1,2,0:0:0:0:
160,315,130274,1,0,0:0:0:0:
98,338,130377,5,2,0:0:0:0:
96,345,130480,1,0,0:0:0:0:
94,352,130582,1,2,0:0:0:0:
92,359,130685,1,2,0:0:0:0:
38,211,130890,1,2,0:0:0:0:
40,204,130993,1,0,0:0:0:0:
42,197,131095,1,2,0:0:0:0:
44,190,131199,2,0,B|96:216|96:216|160:199,1,113.999996520996,2|2,0:0|0:0,0:0:0:0:
163,185,131507,1,2,0:0:0:0:
212,55,131712,5,2,0:0:0:0:
236,95,131815,1,0,0:0:0:0:
260,135,131918,1,2,0:0:0:0:
310,86,132021,5,2,0:0:0:0:
317,84,132123,1,0,0:0:0:0:
324,82,132226,1,2,0:0:0:0:
331,80,132329,1,2,0:0:0:0:
440,104,132534,1,2,0:0:0:0:
442,111,132637,1,2,0:0:0:0:
432,224,132842,1,2,0:0:0:0:
320,200,133048,1,2,0:0:0:0:
313,202,133151,1,2,0:0:0:0:
232,298,133356,5,2,0:0:0:0:
293,311,133459,1,0,0:0:0:0:
354,324,133562,1,2,0:0:0:0:
313,371,133664,1,6,0:0:0:0:
