osu file format v14

[General]
AudioFilename: audio.mp3
AudioLeadIn: 0
PreviewTime: 64718
Countdown: 0
SampleSet: Soft
StackLeniency: 0.7
Mode: 0
LetterboxInBreaks: 0
EpilepsyWarning: 1
WidescreenStoryboard: 1

[Editor]
Bookmarks: 1561,14192,26824,52087,64718,89982,115245
DistanceSpacing: 1
BeatDivisor: 4
GridSize: 4
TimelineZoom: 2.5

[Metadata]
Title:Jade Star
TitleUnicode:Jade Star
Artist:SHIKI
ArtistUnicode:SHIKI
Creator:Matrix
Version:LMT's Hard
Source:
Tags:Trancer Doll's LMT mithew bms instrumental video game trance
BeatmapID:2226072
BeatmapSetID:1009328

[Difficulty]
HPDrainRate:5
CircleSize:4
OverallDifficulty:6
ApproachRate:7
SliderMultiplier:1.4
SliderTickRate:1

[Events]
//Background and Video events
Video,1084,"jade star.mp4"
0,0,"watchv=Qa9YW7dIxlI.jpg",0,0
//Break Periods
//Storyboard Layer 0 (Background)
//Storyboard Layer 1 (Fail)
//Storyboard Layer 2 (Pass)
//Storyboard Layer 3 (Foreground)
//Storyboard Layer 4 (Overlay)
//Storyboard Sound Samples

[TimingPoints]
1561,394.736842105263,4,2,1,45,1,0
7876,-100,4,2,1,45,0,0
14192,-100,4,1,1,55,0,0
26825,-100,4,2,1,55,0,0
43797,-100,4,2,1,55,0,0
52087,-100,4,2,1,55,0,1
64718,-100,4,2,1,55,0,0
89982,-100,4,2,1,55,0,1
93929,-100,4,2,1,55,0,1
94718,-100,4,2,1,55,0,1
99455,-100,4,2,1,55,0,1
110311,-100,4,2,1,55,0,1
111692,-100,4,2,1,55,0,1
112087,-100,4,2,1,55,0,1
115245,-100,4,2,1,55,0,0

[Colours]
Combo1 : 104,104,179
Combo2 : 0,236,124
Combo3 : 102,168,149
Combo4 : 65,173,205

[HitObjects]
133,105,1561,6,0,L|141:157,1,35,0|0,0:0|0:0,0:0:0:0:
205,161,1858,1,0,0:0:0:0:
286,227,2154,6,0,L|270:288,1,35,0|0,0:0|0:0,0:0:0:0:
207,271,2450,2,0,L|223:385,1,105,2|0,0:2|0:0,0:0:0:0:
359,350,3140,6,0,L|373:300,1,35,0|0,0:0|0:0,0:0:0:0:
435,293,3436,1,0,0:0:0:0:
486,201,3733,6,0,L|480:145,1,35,0|0,0:0|0:0,0:0:0:0:
431,117,4029,2,0,L|463:9,1,105,0|0,0:0|0:0,0:0:0:0:
329,62,4719,6,0,B|313:53|313:53|279:67,1,35,2|0,0:3|0:0,0:0:0:0:
235,92,5015,1,0,0:0:0:0:
162,167,5311,6,0,B|146:176|146:176|112:162,1,35,0|0,0:0|0:0,0:0:0:0:
68,137,5607,1,2,0:2:0:0:
4,220,5904,2,0,L|17:296,1,70,0|2,0:0|0:2,0:0:0:0:
85,291,6298,6,0,L|76:352,1,35,0|0,0:0|0:0,0:0:0:0:
136,366,6594,1,0,0:0:0:0:
216,298,6890,2,0,L|208:244,1,35,0|0,0:0|0:0,0:0:0:0:
266,219,7186,1,0,0:0:0:0:
353,278,7483,2,0,B|337:300|337:300|354:349,1,70,0|0,0:0|0:0,0:0:0:0:
418,358,7877,6,0,L|473:353,1,35,2|0,0:3|0:0,0:0:0:0:
498,301,8173,1,0,0:0:0:0:
427,222,8469,2,0,L|481:218,1,35,0|0,0:0|0:0,0:0:0:0:
501,161,8765,1,2,0:2:0:0:
416,98,9061,1,0,0:0:0:0:
416,98,9259,1,2,0:2:0:0:
360,50,9456,6,0,L|313:39,1,35,0|0,0:0|0:0,0:0:0:0:
263,73,9752,1,0,0:0:0:0:
159,91,10048,2,0,L|104:77,1,35,0|0,0:0|0:0,0:0:0:0:
81,27,10344,1,0,0:0:0:0:
32,120,10640,1,0,0:0:0:0:
32,120,10838,1,0,0:0:0:0:
83,167,11035,5,2,0:3:0:0:
76,201,11134,2,0,L|91:301,1,70,0|0,0:0|0:0,0:0:0:0:
190,284,11627,1,0,0:0:0:0:
171,313,11726,2,0,L|179:383,1,70,0|2,0:0|0:2,0:0:0:0:
281,360,12219,1,0,0:0:0:0:
281,360,12417,1,2,0:2:0:0:
331,311,12614,5,0,0:0:0:0:
338,277,12713,2,0,L|323:177,1,70,0|0,0:0|0:0,0:0:0:0:
230,168,13206,1,0,0:0:0:0:
220,134,13305,1,0,0:0:0:0:
271,86,13502,6,0,P|306:53|377:46,1,105,8|8,0:3|0:3,0:0:0:0:
429,54,13996,1,4,0:3:0:0:
438,87,14094,1,0,0:0:0:0:
446,120,14193,5,6,0:0:0:0:
367,236,14588,1,8,0:0:0:0:
145,236,14983,1,0,0:0:0:0:
66,120,15376,1,8,0:0:0:0:
254,0,15772,5,0,0:0:0:0:
257,124,16167,1,8,0:0:0:0:
259,246,16561,1,0,0:0:0:0:
259,281,16660,1,2,0:3:0:0:
263,382,16956,1,8,0:0:0:0:
105,360,17351,5,2,0:0:0:0:
141,236,17746,1,8,0:0:0:0:
23,124,18140,1,0,0:0:0:0:
60,4,18535,1,8,0:0:0:0:
382,6,18930,5,0,0:0:0:0:
360,137,19325,1,8,0:0:0:0:
473,246,19719,1,0,0:0:0:0:
465,280,19818,1,2,0:3:0:0:
447,383,20114,1,8,0:0:0:0:
257,324,20509,5,2,0:0:0:0:
126,270,20904,1,8,0:0:0:0:
123,130,21298,1,0,0:0:0:0:
254,76,21693,1,8,0:0:0:0:
255,324,22088,5,0,0:0:0:0:
386,270,22483,1,8,0:0:0:0:
386,129,22877,1,0,0:0:0:0:
361,103,22976,1,2,0:3:0:0:
254,76,23272,1,8,0:0:0:0:
112,195,23667,5,2,0:0:0:0:
112,195,24061,1,8,0:0:0:0:
112,195,24456,1,0,0:0:0:0:
112,195,24851,1,8,0:0:0:0:
257,193,25246,5,0,0:0:0:0:
257,193,25640,1,8,0:0:0:0:
257,193,26134,5,4,0:2:0:0:
385,281,26825,6,0,L|441:289,2,35,0|0|2,1:0|0:0|0:0,0:0:0:0:
375,206,27219,1,8,0:1:0:0:
411,139,27417,1,0,0:0:0:0:
337,85,27614,5,0,1:0:0:0:
261,78,27811,1,2,0:0:0:0:
187,71,28009,1,8,0:1:0:0:
49,189,28404,5,2,1:2:0:0:
83,182,28502,1,0,0:0:0:0:
117,176,28601,1,2,0:0:0:0:
189,166,28798,1,8,0:1:0:0:
260,154,28996,1,0,0:0:0:0:
260,245,29193,5,0,1:0:0:0:
348,217,29390,1,2,0:0:0:0:
433,261,29588,5,8,0:1:0:0:
259,331,29785,1,2,0:0:0:0:
87,265,29983,1,2,1:2:0:0:
87,265,30575,1,2,0:0:0:0:
83,231,30673,1,2,0:0:0:0:
77,196,30772,6,0,B|133:163|133:163|204:180|204:180|255:88|255:88|307:180|307:180|375:159|375:159|458:197,1,490,0|2,1:0|0:0,0:0:0:0:
469,203,32252,1,0,0:0:0:0:
499,221,32351,1,2,1:2:0:0:
501,294,32548,1,2,0:0:0:0:
442,341,32746,1,8,0:1:0:0:
366,334,32943,1,2,0:0:0:0:
270,293,33140,6,0,L|279:350,3,35,0|2|0|2,1:0|0:0|0:0|0:0,0:0:0:0:
259,255,33535,1,8,0:1:0:0:
237,227,33633,1,2,0:0:0:0:
209,206,33732,1,2,0:0:0:0:
176,195,33831,1,2,0:0:0:0:
141,193,33930,2,0,L|88:213,2,35,2|2|2,1:2|0:0|0:0,0:0:0:0:
132,119,34325,5,8,0:1:0:0:
167,110,34423,1,2,0:0:0:0:
202,99,34522,1,2,0:0:0:0:
243,39,34718,6,0,B|233:23|233:23|198:10,3,35,2|0|2|0,1:2|0:0|0:0|0:0,0:0:0:0:
262,62,35114,1,8,0:1:0:0:
280,85,35213,1,2,0:0:0:0:
301,103,35311,1,2,0:2:0:0:
327,92,35410,1,2,0:0:0:0:
353,74,35509,2,0,B|372:66|372:66|412:71,2,35,2|2|2,1:2|0:0|0:0,0:0:0:0:
376,153,35904,5,8,0:1:0:0:
368,192,36002,1,2,0:0:0:0:
360,231,36101,1,2,0:0:0:0:
302,288,36298,5,0,1:0:0:0:
169,325,36594,1,8,0:0:0:0:
47,271,36890,2,0,L|12:252,2,35,10|0|2,0:0|0:0|1:2,0:0:0:0:
91,204,37285,5,2,0:0:0:0:
172,247,37483,1,8,0:1:0:0:
256,204,37680,1,2,0:0:0:0:
174,145,37877,5,2,1:2:0:0:
244,121,38075,1,2,0:0:0:0:
273,110,38173,1,2,0:0:0:0:
301,100,38272,1,8,0:1:0:0:
369,74,38469,1,2,0:0:0:0:
354,176,38667,5,0,1:0:0:0:
420,146,38864,1,2,0:0:0:0:
448,131,38963,1,2,0:0:0:0:
478,119,39061,2,0,L|515:98,2,35,8|2|2,0:1|0:0|0:0,0:0:0:0:
503,192,39456,5,2,1:2:0:0:
492,225,39555,1,2,0:0:0:0:
482,258,39654,1,2,0:0:0:0:
413,269,39851,1,8,0:1:0:0:
343,277,40048,1,0,0:0:0:0:
253,331,40246,5,0,1:2:0:0:
254,258,40443,1,2,0:2:0:0:
259,184,40640,1,8,0:1:0:0:
34,128,41035,5,2,1:2:0:0:
45,95,41134,1,2,0:0:0:0:
55,62,41233,1,2,0:0:0:0:
124,51,41430,1,8,0:1:0:0:
194,43,41627,1,0,0:0:0:0:
264,107,41825,5,0,1:0:0:0:
350,76,42022,1,2,0:0:0:0:
274,22,42219,5,8,0:1:0:0:
256,188,42417,1,2,0:0:0:0:
236,351,42614,1,2,1:0:0:0:
236,351,43205,1,2,0:0:0:0:
192,354,43304,1,2,0:0:0:0:
146,356,43403,6,0,B|127:292|127:292|59:265|59:265|49:223|49:223|11:190|11:190|49:150|49:150|60:107|60:107|140:83|140:83|167:1,1,490,2|2,1:0|0:0,0:0:0:0:
201,14,44884,1,2,0:0:0:0:
240,17,44983,1,0,1:0:0:0:
290,76,45180,1,2,0:0:0:0:
364,68,45377,1,8,0:1:0:0:
438,62,45575,1,2,0:0:0:0:
449,142,45772,6,0,L|507:126,3,35,0|2|2|2,1:0|0:0|0:0|0:0,0:0:0:0:
422,158,46167,1,8,0:1:0:0:
394,179,46265,1,2,0:0:0:0:
372,207,46364,1,2,0:0:0:0:
357,238,46463,1,2,0:0:0:0:
349,272,46561,2,0,L|340:317,2,35,0|2|2,1:0|0:0|0:0,0:0:0:0:
254,281,46956,5,8,0:1:0:0:
255,320,47055,1,2,0:0:0:0:
257,354,47154,1,0,0:0:0:0:
172,352,47351,6,0,B|157:363|157:363|119:362,3,35,2|2|2|2,1:2|0:0|0:0|0:0,0:0:0:0:
177,317,47746,1,8,0:1:0:0:
173,279,47844,1,2,0:0:0:0:
167,242,47943,1,2,0:0:0:0:
125,227,48042,1,2,0:0:0:0:
80,227,48140,2,0,B|59:234|59:234|46:267,2,35,2|2|2,1:2|0:0|0:0,0:0:0:0:
94,149,48535,5,8,0:1:0:0:
99,113,48634,1,2,0:0:0:0:
102,72,48733,1,2,0:0:0:0:
158,30,48930,5,10,1:2:0:0:
272,71,49226,1,8,0:0:0:0:
388,33,49522,2,0,L|439:14,2,35,10|0|2,0:0|0:0|1:2,0:0:0:0:
354,106,49917,5,2,0:0:0:0:
274,150,50114,1,8,0:0:0:0:
193,99,50311,1,2,0:0:0:0:
145,158,50509,5,0,1:0:0:0:
205,203,50706,1,2,0:0:0:0:
231,222,50805,1,2,0:0:0:0:
258,240,50904,1,8,0:1:0:0:
331,217,51101,1,2,0:0:0:0:
404,186,51298,5,0,1:0:0:0:
404,186,51693,1,8,0:1:0:0:
482,288,52088,5,4,1:1:0:0:
420,321,52285,1,0,3:1:0:0:
360,358,52483,1,8,3:1:0:0:
307,311,52680,5,0,3:1:0:0:
278,290,52779,1,0,3:1:0:0:
216,322,52976,1,0,3:1:0:0:
153,353,53173,1,0,3:1:0:0:
129,326,53272,2,0,L|72:263,1,70,8|0,3:1|3:1,0:0:0:0:
27,190,53667,5,0,1:1:0:0:
84,149,53864,1,0,3:1:0:0:
142,110,54061,1,8,3:1:0:0:
193,157,54259,5,0,3:1:0:0:
221,136,54358,1,0,3:1:0:0:
278,95,54555,1,0,3:1:0:0:
345,111,54752,1,0,3:1:0:0:
373,89,54851,2,0,L|453:32,1,70,8|0,3:1|3:1,0:0:0:0:
475,115,55246,5,0,1:1:0:0:
448,179,55443,1,0,3:1:0:0:
420,243,55640,1,8,3:1:0:0:
350,220,55838,5,0,3:1:0:0:
337,252,55936,1,0,3:1:0:0:
266,253,56134,1,0,3:1:0:0:
196,253,56331,1,0,3:1:0:0:
181,285,56430,2,0,L|139:366,1,70,8|0,3:1|3:1,0:0:0:0:
71,278,56825,5,0,1:1:0:0:
67,203,57022,1,0,3:1:0:0:
61,131,57219,1,8,3:1:0:0:
57,54,57417,1,0,3:1:0:0:
139,13,57614,5,0,1:1:0:0:
143,47,57713,1,0,3:1:0:0:
154,115,57910,2,0,B|190:131|190:131|270:99,1,105,0|0,3:1|3:1,0:0:0:0:
319,24,58404,5,0,1:1:0:0:
352,85,58601,1,0,3:1:0:0:
388,144,58798,1,8,3:1:0:0:
457,154,58996,5,0,3:1:0:0:
450,188,59094,1,0,3:1:0:0:
439,257,59292,1,0,3:1:0:0:
429,326,59489,1,0,3:1:0:0:
421,360,59588,2,0,B|393:368|393:368|341:348,1,70,8|0,3:1|3:1,0:0:0:0:
252,356,59983,5,0,1:1:0:0:
240,288,60180,1,0,3:1:0:0:
232,220,60377,1,8,3:1:0:0:
160,216,60575,5,0,3:1:0:0:
156,180,60673,1,0,3:1:0:0:
91,152,60871,1,0,3:1:0:0:
25,127,61068,1,0,3:1:0:0:
20,92,61167,2,0,L|14:-2,1,70,8|0,3:1|3:1,0:0:0:0:
125,19,61561,5,0,1:1:0:0:
194,12,61759,1,0,3:1:0:0:
263,6,61956,1,8,3:1:0:0:
280,73,62154,5,0,3:1:0:0:
314,67,62252,1,0,3:1:0:0:
382,51,62450,1,0,3:1:0:0:
449,33,62647,1,0,3:1:0:0:
482,23,62746,2,0,L|480:113,1,70,8|0,3:1|3:1,0:0:0:0:
256,192,63140,12,0,64325,0:0:0:0:
258,188,64719,5,4,0:0:0:0:
258,188,65311,1,2,0:0:0:0:
254,222,65410,1,0,0:0:0:0:
251,257,65509,1,2,0:0:0:0:
82,299,66890,5,2,0:0:0:0:
91,265,66989,1,2,0:0:0:0:
100,231,67088,2,0,L|117:169,2,35,2|0|2,0:0|0:0|0:0,0:0:0:0:
36,200,67483,5,2,0:0:0:0:
44,166,67581,1,2,0:0:0:0:
53,132,67680,1,2,0:0:0:0:
62,98,67779,1,2,0:0:0:0:
70,64,67877,1,2,0:0:0:0:
248,175,68469,5,2,0:0:0:0:
254,140,68568,1,0,0:0:0:0:
260,105,68667,1,2,0:0:0:0:
481,46,69456,5,2,0:0:0:0:
384,189,70048,1,2,0:0:0:0:
477,330,70640,1,2,0:0:0:0:
254,348,71035,5,2,0:0:0:0:
254,348,72614,2,0,L|245:398,2,35,2|2|2,0:0|0:0|0:0,0:0:0:0:
211,291,73009,1,2,0:0:0:0:
222,258,73107,1,2,0:0:0:0:
234,225,73206,1,2,0:0:0:0:
246,192,73305,1,2,0:0:0:0:
258,159,73404,2,0,L|281:109,2,35,2|2|2,0:0|0:0|0:0,0:0:0:0:
198,124,73798,5,2,0:0:0:0:
167,140,73896,1,2,0:0:0:0:
133,148,73996,1,2,0:0:0:0:
98,145,74094,1,2,0:0:0:0:
66,132,74192,5,2,0:0:0:0:
255,39,74785,1,2,0:0:0:0:
448,119,75377,1,2,0:0:0:0:
256,191,75772,5,2,0:0:0:0:
139,239,76068,1,2,0:0:0:0:
28,188,76364,1,2,0:0:0:0:
79,134,76561,1,2,0:0:0:0:
256,65,77351,5,2,0:0:0:0:
256,65,77746,1,0,0:0:0:0:
313,116,77943,5,2,0:0:0:0:
309,150,78042,1,0,0:0:0:0:
305,184,78140,1,2,0:0:0:0:
409,277,78535,5,0,0:0:0:0:
409,277,79325,1,0,0:0:0:0:
343,300,79522,5,2,0:0:0:0:
308,294,79621,1,0,0:0:0:0:
273,290,79719,2,0,L|214:280,2,35,2|0|2,0:0|0:0|0:0,0:0:0:0:
239,213,80114,1,2,0:0:0:0:
204,206,80212,1,0,0:0:0:0:
170,200,80311,1,2,0:0:0:0:
135,194,80410,1,0,0:0:0:0:
101,188,80508,5,2,0:0:0:0:
94,32,80903,1,0,0:0:0:0:
82,116,81101,5,2,0:0:0:0:
47,110,81199,1,0,0:0:0:0:
12,105,81298,1,2,0:0:0:0:
23,230,81693,1,0,0:0:0:0:
94,32,82088,5,2,0:0:0:0:
246,48,82483,1,0,0:0:0:0:
258,120,82680,1,2,0:0:0:0:
432,130,83272,1,2,0:0:0:0:
330,226,83667,5,2,0:0:0:0:
330,226,84061,1,0,0:0:0:0:
330,226,84851,1,0,0:0:0:0:
198,245,85246,5,2,0:0:0:0:
163,237,85344,1,2,0:0:0:0:
128,228,85443,1,2,0:0:0:0:
93,220,85542,1,2,0:0:0:0:
59,211,85640,2,0,L|9:199,2,35,2|2|2,0:0|0:0|0:0,0:0:0:0:
39,278,86035,2,0,L|26:328,2,35,2|2|2,0:0|0:0|0:0,0:0:0:0:
105,301,86430,1,2,0:0:0:0:
138,309,86528,1,2,0:0:0:0:
172,317,86627,1,2,0:0:0:0:
206,326,86726,1,2,0:0:0:0:
240,334,86825,5,2,0:0:0:0:
254,209,87219,1,0,0:0:0:0:
260,136,87417,1,2,0:0:0:0:
271,0,88009,1,2,0:0:0:0:
395,41,88404,5,2,0:0:0:0:
423,109,88601,1,0,0:0:0:0:
435,141,88700,1,2,0:0:0:0:
480,235,88996,1,2,3:2:0:0:
403,255,89193,5,2,3:2:0:0:
416,287,89292,1,0,1:0:0:0:
428,319,89390,1,2,0:3:0:0:
359,333,89588,1,4,0:0:0:0:
290,344,89785,1,2,0:3:0:0:
220,355,89983,6,0,B|184:315|184:315|71:298,1,140,2|8,1:2|0:2,0:0:0:0:
101,232,90575,1,2,0:2:0:0:
66,225,90673,1,2,0:2:0:0:
31,220,90772,2,0,L|16:142,1,70,2|2,1:2|0:2,0:0:0:0:
91,93,91167,5,10,0:2:0:0:
117,115,91265,1,2,0:2:0:0:
150,123,91364,1,2,0:2:0:0:
185,120,91463,1,2,0:2:0:0:
214,101,91561,2,0,B|226:87|226:87|380:74,1,140,0|8,1:2|0:2,0:0:0:0:
387,135,92154,5,2,0:2:0:0:
421,129,92252,1,2,0:2:0:0:
455,122,92351,2,0,L|507:109,2,35,2|2|2,1:2|0:2|0:2,0:0:0:0:
465,191,92746,5,10,0:2:0:0:
430,197,92844,1,2,0:2:0:0:
396,203,92943,1,2,0:2:0:0:
361,209,93042,1,2,0:2:0:0:
327,215,93140,2,0,B|299:225|299:225|275:352,1,140,2|10,1:2|0:2,0:0:0:0:
206,299,93733,1,2,0:2:0:0:
202,333,93831,1,2,0:2:0:0:
196,367,93930,2,0,L|34:351,1,140,2|10,1:2|0:2,0:0:0:0:
0,238,94522,5,2,0:2:0:0:
32,224,94621,1,2,0:2:0:0:
64,213,94719,2,0,B|158:196|158:196|222:222,1,140,0|8,1:2|0:2,0:0:0:0:
254,169,95311,2,0,L|342:218,1,70,2|0,0:2|1:2,0:0:0:0:
346,186,95608,1,0,1:0:0:0:
420,112,95904,2,0,L|496:144,1,70,10|0,0:2|0:0,0:0:0:0:
483,40,96298,6,0,B|394:6|394:6|344:14,1,140,2|10,1:2|0:2,0:0:0:0:
296,58,96890,1,2,0:2:0:0:
264,42,96989,1,2,0:2:0:0:
232,26,97088,1,2,1:2:0:0:
166,50,97285,1,2,0:2:0:0:
132,60,97384,2,0,B|93:68|93:68|20:34,1,105,8|8,0:0|0:2,0:0:0:0:
8,128,97877,5,2,1:2:0:0:
37,146,97976,1,2,0:2:0:0:
61,171,98075,1,2,0:2:0:0:
78,200,98173,1,2,0:2:0:0:
88,233,98272,2,0,L|75:295,2,35,10|2|2,0:2|0:2|0:2,0:0:0:0:
157,244,98667,2,0,L|144:296,2,35,2|2|2,1:2|0:2|0:2,0:0:0:0:
201,190,99061,5,10,0:2:0:0:
219,160,99159,1,2,0:2:0:0:
247,139,99258,1,2,0:2:0:0:
280,128,99357,1,2,0:2:0:0:
315,129,99456,2,0,B|400:158|400:158|453:142,1,140,0|8,1:2|0:2,0:0:0:0:
492,207,100048,2,0,L|408:234,2,70,2|0|0,0:2|1:2|0:2,0:0:0:0:
508,283,100640,2,0,L|428:307,1,70,10|0,0:2|0:2,0:0:0:0:
344,268,101035,6,0,L|256:296,1,70,2|0,1:2|0:0,0:0:0:0:
252,264,101331,2,0,L|136:293,1,105,2|2,0:2|0:2,0:0:0:0:
95,245,101825,5,6,1:2:0:0:
95,210,101923,1,4,0:2:0:0:
47,158,102121,1,4,0:2:0:0:
52,88,102318,1,4,0:2:0:0:
109,48,102515,5,4,0:2:0:0:
113,13,102614,2,0,B|194:8|194:8|267:39,1,140,2|8,1:2|0:2,0:0:0:0:
302,75,103206,1,2,0:2:0:0:
336,67,103305,1,2,0:2:0:0:
369,56,103404,2,0,B|414:80|414:80|502:69,1,140,2|10,1:2|0:2,0:0:0:0:
502,139,103996,1,2,0:2:0:0:
495,208,104193,2,0,L|472:362,1,140,0|8,1:2|0:2,0:0:0:0:
364,288,104785,5,2,0:2:0:0:
330,279,104884,1,2,0:2:0:0:
296,268,104983,2,0,L|243:250,2,35,2|2|2,1:2|0:2|0:2,0:0:0:0:
261,331,105377,5,10,0:2:0:0:
227,320,105475,1,2,0:2:0:0:
194,309,105574,1,2,0:2:0:0:
161,298,105673,1,2,0:2:0:0:
128,287,105772,2,0,B|119:185|119:185|83:149,1,140,0|8,1:2|0:2,0:0:0:0:
134,102,106364,1,2,0:2:0:0:
109,76,106463,1,2,0:2:0:0:
83,52,106561,2,0,L|-8:44,1,70,2|2,1:2|0:2,0:0:0:0:
163,9,106956,5,10,0:2:0:0:
189,31,107054,1,2,0:2:0:0:
221,45,107153,1,2,0:2:0:0:
256,47,107252,1,2,0:2:0:0:
290,41,107351,2,0,B|328:16|328:16|450:8,1,140,0|8,1:2|0:2,0:0:0:0:
457,83,107943,2,0,L|365:91,1,70,2|0,0:2|1:2,0:0:0:0:
361,113,108239,1,0,1:0:0:0:
425,195,108535,2,0,L|505:190,1,70,10|0,0:2|0:2,0:0:0:0:
443,289,108930,5,2,1:2:0:0:
410,277,109029,1,2,0:2:0:0:
375,280,109127,1,2,0:2:0:0:
345,297,109226,1,2,0:2:0:0:
324,324,109324,1,10,0:2:0:0:
259,281,109522,5,2,0:2:0:0:
236,308,109621,1,0,0:2:0:0:
216,336,109719,2,0,L|184:371,2,35,2|0|2,1:2|0:2|0:2,0:0:0:0:
162,290,110114,2,0,L|126:329,2,35,8|2|0,0:2|0:2|0:2,0:0:0:0:
82,201,110509,5,2,1:2:0:0:
116,203,110607,1,2,0:2:0:0:
149,190,110706,1,2,0:2:0:0:
173,165,110805,1,2,0:2:0:0:
184,132,110904,2,0,L|180:79,2,35,10|2|2,0:2|0:2|0:2,0:0:0:0:
252,123,111298,2,0,L|250:69,2,35,2|2|2,1:2|0:2|0:2,0:0:0:0:
322,124,111693,5,10,0:2:0:0:
330,90,111791,1,2,0:2:0:0:
352,63,111890,1,2,0:2:0:0:
383,48,111989,1,2,0:2:0:0:
418,47,112088,6,0,L|401:209,1,140,0|8,1:2|0:2,0:0:0:0:
349,231,112680,2,0,B|343:281|343:281|356:309,2,70,2|0|0,0:2|1:2|0:0,0:0:0:0:
268,297,113272,2,0,L|278:205,1,70,10|0,0:2|0:0,0:0:0:0:
217,188,113667,5,2,1:2:0:0:
149,168,113864,1,0,1:0:0:0:
116,155,113963,2,0,B|56:137|56:137|18:84,1,105,2|2,1:2|1:2,0:0:0:0:
147,46,114456,5,2,1:2:0:0:
179,59,114555,1,0,1:0:0:0:
210,74,114654,1,0,1:0:0:0:
276,51,114851,1,8,0:2:0:0:
339,79,115048,1,0,1:0:0:0:
343,149,115246,5,0,1:2:0:0:
