osu file format v14

[General]
AudioFilename: audio.mp3
AudioLeadIn: 0
PreviewTime: 64718
Countdown: 0
SampleSet: Soft
StackLeniency: 0.7
Mode: 0
LetterboxInBreaks: 0
EpilepsyWarning: 1
WidescreenStoryboard: 1

[Editor]
Bookmarks: 1561,14192,26824,52087,64718,89982,115245
DistanceSpacing: 0.9
BeatDivisor: 4
GridSize: 4
TimelineZoom: 2.2

[Metadata]
Title:Jade Star
TitleUnicode:Jade Star
Artist:SHIKI
ArtistUnicode:SHIKI
Creator:Matrix
Version:LMT's Easy
Source:
Tags:Trancer Doll's LMT mithew bms instrumental video game trance
BeatmapID:2229537
BeatmapSetID:1009328

[Difficulty]
HPDrainRate:2
CircleSize:3
OverallDifficulty:2
ApproachRate:4
SliderMultiplier:0.9
SliderTickRate:1

[Events]
//Background and Video events
Video,1084,"jade star.mp4"
0,0,"watchv=Qa9YW7dIxlI.jpg",0,0
//Break Periods
//Storyboard Layer 0 (Background)
//Storyboard Layer 1 (Fail)
//Storyboard Layer 2 (Pass)
//Storyboard Layer 3 (Foreground)
//Storyboard Layer 4 (Overlay)
//Storyboard Sound Samples

[TimingPoints]
1561,394.736842105263,4,2,1,45,1,0
7876,-100,4,2,1,45,0,0
14192,-100,4,1,1,55,0,0
26825,-100,4,2,1,55,0,0
43797,-100,4,2,1,55,0,0
52087,-100,4,2,1,55,0,1
64718,-100,4,2,1,55,0,0
89982,-100,4,2,1,55,0,1
93929,-100,4,2,1,55,0,1
94718,-100,4,2,1,55,0,1
99455,-100,4,2,1,55,0,1
110311,-100,4,2,1,55,0,1
111692,-100,4,2,1,55,0,1
112087,-100,4,2,1,55,0,1
115245,-100,4,2,1,55,0,0

[Colours]
Combo1 : 104,104,179
Combo2 : 0,236,124
Combo3 : 102,168,149
Combo4 : 65,173,205

[HitObjects]
142,230,1561,6,0,B|82:204|82:204|12:227,2,135,0|0|0,0:0|0:0|0:0,0:0:0:0:
185,298,3139,1,0,0:0:0:0:
296,346,3732,1,0,0:0:0:0:
414,318,4324,1,0,0:0:0:0:
479,270,4718,6,0,B|445:240|445:240|345:218,1,135,2|0,0:3|0:0,0:0:0:0:
324,103,5903,1,0,0:0:0:0:
243,112,6297,1,0,0:0:0:0:
142,43,6889,1,0,0:0:0:0:
37,105,7482,1,0,0:0:0:0:
107,145,7876,6,0,L|89:289,2,135,2|0|0,0:3|0:0|0:0,0:0:0:0:
187,151,9455,1,0,0:0:0:0:
305,178,10047,1,0,0:0:0:0:
424,199,10639,1,0,0:0:0:0:
470,132,11034,5,2,0:3:0:0:
401,31,11626,1,0,0:0:0:0:
282,57,12218,1,0,0:0:0:0:
337,123,12613,1,0,0:0:0:0:
225,211,14192,6,0,L|121:201,1,90,6|0,0:0|0:0,0:0:0:0:
54,193,14982,1,0,0:0:0:0:
120,340,15771,2,0,L|224:330,1,90,0|0,0:0|0:0,0:0:0:0:
290,321,16560,1,0,0:0:0:0:
442,267,17350,5,2,0:0:0:0:
420,188,17745,1,0,0:0:0:0:
432,108,18139,1,0,0:0:0:0:
289,196,18929,5,0,0:0:0:0:
226,144,19324,1,0,0:0:0:0:
148,121,19718,1,0,0:0:0:0:
49,277,20508,6,0,L|62:376,2,90,2|0|0,0:0|0:0|0:0,0:0:0:0:
207,245,22087,2,0,L|217:343,2,90,0|0|0,0:0|0:0|0:0,0:0:0:0:
363,202,23666,5,2,0:0:0:0:
337,42,24455,1,0,0:0:0:0:
176,64,25245,1,0,0:0:0:0:
64,151,26824,5,0,1:0:0:0:
174,269,27613,2,0,L|167:316,2,45,0|2|8,1:0|0:0|0:1,0:0:0:0:
235,215,28403,1,2,1:2:0:0:
379,287,29192,2,0,L|370:335,2,45,0|2|8,1:0|0:0|0:1,0:0:0:0:
438,231,29982,2,0,P|430:196|302:171,2,180,2|0|0,1:2|1:0|1:0,0:0:0:0:
299,315,32350,1,2,1:2:0:0:
226,170,33139,6,0,L|236:76,1,90,0|8,1:0|0:1,0:0:0:0:
154,71,33929,2,0,L|143:172,1,90,0|8,1:0|0:1,0:0:0:0:
136,241,34718,1,2,1:2:0:0:
129,321,35113,1,8,0:1:0:0:
209,329,35508,1,2,1:2:0:0:
221,248,35903,1,8,0:1:0:0:
294,213,36297,6,0,B|329:190|329:190|438:189,1,135,0|2,1:0|0:0,0:0:0:0:
507,102,37482,1,8,0:1:0:0:
426,94,37876,2,0,L|322:86,1,90,2|8,1:2|0:1,0:0:0:0:
263,51,38666,2,0,L|157:43,1,90,0|8,1:0|0:1,0:0:0:0:
100,9,39455,5,2,1:2:0:0:
85,170,40245,2,0,L|77:226,2,45,0|2|8,1:2|0:2|0:1,0:0:0:0:
164,156,41034,1,2,1:2:0:0:
139,316,41824,2,0,L|131:368,2,45,0|2|8,1:0|0:0|0:1,0:0:0:0:
204,267,42613,2,0,B|310:232|290:303|396:265,2,180,2|2|0,1:0|1:0|1:0,0:0:0:0:
59,193,44982,1,0,1:0:0:0:
161,67,45771,6,0,B|203:51|203:51|251:69,1,90,0|8,1:0|0:1,0:0:0:0:
321,95,46560,2,0,B|362:111|362:111|410:93,1,90,0|8,1:0|0:1,0:0:0:0:
441,168,47350,5,2,1:2:0:0:
364,193,47745,1,8,0:1:0:0:
286,170,48139,1,0,1:0:0:0:
214,207,48534,1,8,0:1:0:0:
170,275,48929,6,0,P|113:310|40:291,2,135,2|2|8,1:2|0:0|0:1,0:0:0:0:
235,322,50508,1,0,1:0:0:0:
299,272,50903,1,8,0:1:0:0:
378,257,51297,1,0,1:0:0:0:
471,124,52087,5,4,1:1:0:0:
392,105,52482,2,0,L|274:77,1,112.5,8|0,3:1|1:0,0:0:0:0:
226,103,53271,1,8,3:1:0:0:
251,179,53666,5,0,1:1:0:0:
328,201,54060,2,0,L|441:229,1,112.5,8|0,3:1|1:1,0:0:0:0:
478,273,54850,1,8,3:1:0:0:
438,343,55245,5,0,1:1:0:0:
361,315,55639,2,0,L|239:283,1,112.5,8|0,3:1|1:1,0:0:0:0:
194,304,56429,1,8,3:1:0:0:
116,279,56824,5,0,1:1:0:0:
59,127,57613,1,0,1:1:0:0:
214,80,58403,5,0,1:1:0:0:
288,48,58797,2,0,B|298:79|298:79|273:167,1,112.5,8|0,3:1|1:1,0:0:0:0:
315,202,59587,1,8,3:1:0:0:
377,150,59982,5,0,1:1:0:0:
456,164,60376,2,0,B|439:238|439:238|457:278,1,112.5,8|0,3:1|1:1,0:0:0:0:
507,300,61166,1,8,3:1:0:0:
453,361,61560,5,0,1:1:0:0:
375,338,61955,2,0,B|343:326|343:326|257:337,1,112.5,8|0,3:1|1:1,0:0:0:0:
208,357,62745,1,8,3:1:0:0:
101,166,64718,5,4,0:0:0:0:
101,166,67876,1,2,0:0:0:0:
101,166,69455,1,2,0:0:0:0:
219,141,70047,1,2,0:0:0:0:
326,198,70639,1,2,0:0:0:0:
400,165,71034,5,2,0:0:0:0:
400,165,72613,1,2,0:0:0:0:
339,110,73008,1,2,0:0:0:0:
261,86,73403,1,2,0:0:0:0:
180,96,73797,1,2,0:0:0:0:
103,122,74192,5,2,0:0:0:0:
32,220,74784,1,2,0:0:0:0:
91,326,75376,1,2,0:0:0:0:
161,286,75771,1,2,0:0:0:0:
293,378,76560,1,2,0:0:0:0:
435,300,77350,5,2,0:0:0:0:
376,243,77745,1,4,0:3:0:0:
402,83,78534,1,4,0:3:0:0:
240,64,79324,1,4,0:3:0:0:
218,224,80113,1,4,0:3:0:0:
150,179,80508,5,2,0:0:0:0:
76,212,80903,1,4,0:3:0:0:
183,333,81692,1,4,0:3:0:0:
312,235,82482,1,4,0:3:0:0:
437,336,83271,1,4,0:3:0:0:
475,264,83666,5,2,0:0:0:0:
459,184,84060,1,4,0:3:0:0:
306,130,84850,1,4,0:3:0:0:
153,185,85639,1,4,0:3:0:0:
28,81,86429,1,4,0:3:0:0:
98,41,86824,5,2,0:0:0:0:
165,85,87218,1,4,0:3:0:0:
291,185,88008,1,4,0:3:0:0:
351,130,88403,5,4,0:0:0:0:
489,213,89192,1,4,3:2:0:0:
348,293,89982,6,0,P|314:312|252:296,1,90,2|8,1:2|0:2,0:0:0:0:
197,259,90771,2,0,L|177:67,1,180,2|0,1:2|1:2,0:0:0:0:
330,23,92350,1,2,1:2:0:0:
322,103,92745,1,10,0:2:0:0:
317,183,93139,6,0,P|364:225|401:220,1,90,2|10,1:2|0:2,0:0:0:0:
468,232,93929,2,0,P|496:288|416:364,1,180,2|0,1:2|1:2,0:0:0:0:
325,294,95310,1,2,0:2:0:0:
208,329,95903,1,10,0:2:0:0:
130,305,96297,6,0,L|103:115,1,180,2|2,1:2|1:2,0:0:0:0:
243,39,97876,1,2,1:2:0:0:
323,32,98271,1,10,0:2:0:0:
401,52,98666,1,2,1:2:0:0:
451,114,99060,1,10,0:2:0:0:
482,188,99455,6,0,P|462:250|395:255,1,135,0|2,1:2|0:2,0:0:0:0:
300,187,100639,1,10,0:2:0:0:
230,229,101034,2,0,P|162:195|48:203,1,180,2|6,1:2|1:2,0:0:0:0:
34,38,102613,6,0,L|126:20,1,90,2|4,1:2|1:2,0:0:0:0:
274,76,103797,1,10,0:2:0:0:
309,149,104192,2,0,L|288:334,1,180,0|2,1:2|1:2,0:0:0:0:
366,350,105376,1,10,0:2:0:0:
442,323,105771,6,0,L|452:220,1,90,0|8,1:2|0:2,0:0:0:0:
393,173,106560,2,0,B|406:46|406:46|356:-2,1,180,2|0,1:2|1:2,0:0:0:0:
256,57,107942,1,2,0:2:0:0:
143,12,108534,1,10,0:2:0:0:
69,45,108929,6,0,L|54:143,1,90,2|10,1:2|0:2,0:0:0:0:
111,192,109718,2,0,L|97:293,1,90,2|8,1:2|0:2,0:0:0:0:
163,330,110508,1,2,1:2:0:0:
241,348,110903,1,10,0:2:0:0:
321,341,111297,1,2,1:2:0:0:
397,314,111692,1,10,0:2:0:0:
439,245,112087,5,0,1:2:0:0:
332,187,112679,1,2,0:2:0:0:
217,226,113271,1,10,0:2:0:0:
155,172,113666,2,0,P|104:158|3:241,1,180,2|2,1:2|1:2,0:0:0:0:
60,286,114850,1,8,0:2:0:0:
23,358,115245,1,0,1:2:0:0:
