osu file format v14

[General]
AudioFilename: audio.mp3
AudioLeadIn: 0
PreviewTime: 64718
Countdown: 0
SampleSet: Soft
StackLeniency: 0.2
Mode: 0
LetterboxInBreaks: 0
EpilepsyWarning: 1
WidescreenStoryboard: 1

[Editor]
Bookmarks: 1561,14192,26824,52087,64718,89982,115245
DistanceSpacing: 0.8
BeatDivisor: 4
GridSize: 4
TimelineZoom: 2.5

[Metadata]
Title:Jade Star
TitleUnicode:Jade Star
Artist:SHIKI
ArtistUnicode:SHIKI
Creator:Matrix
Version:Insane
Source:
Tags:Trancer Doll's LMT mithew bms instrumental video game trance
BeatmapID:2226666
BeatmapSetID:1009328

[Difficulty]
HPDrainRate:5
CircleSize:5
OverallDifficulty:8
ApproachRate:8
SliderMultiplier:1.8
SliderTickRate:1

[Events]
//Background and Video events
Video,1084,"jade star.mp4"
0,0,"watchv=Qa9YW7dIxlI.jpg",0,0
//Break Periods
//Storyboard Layer 0 (Background)
//Storyboard Layer 1 (Fail)
//Storyboard Layer 2 (Pass)
//Storyboard Layer 3 (Foreground)
//Storyboard Layer 4 (Overlay)
//Storyboard Sound Samples

[TimingPoints]
1561,394.736842105263,4,2,1,45,1,0
7876,-100,4,2,1,45,0,0
14192,-83.3333333333333,4,1,1,55,0,0
26825,-83.3333333333333,4,2,1,55,0,0
52087,-83.3333333333333,4,2,1,55,0,1
64718,-100,4,2,1,55,0,0
89982,-76.9230769230769,4,2,1,55,0,1
93929,-100,4,2,1,55,0,1
94718,-76.9230769230769,4,2,1,55,0,1
96297,-666.666666666667,4,2,1,55,0,1
97087,-76.9230769230769,4,2,1,55,0,1
99455,-76.9230769230769,4,2,1,55,0,1
105771,-85.4700854700855,4,2,1,55,0,1
106264,-76.9230769230769,4,2,1,55,0,1
112087,-83.3333333333333,4,2,1,55,0,1
115245,-83.3333333333333,4,2,1,55,0,0

[Colours]
Combo1 : 104,104,179
Combo2 : 0,236,124
Combo3 : 102,168,149
Combo4 : 65,173,205

[HitObjects]
176,152,1561,6,0,B|138:147|138:147|162:208|162:208|214:218,1,135,0|0,0:0|0:0,0:0:0:0:
337,229,2153,2,0,B|375:234|375:234|351:173|351:173|320:168,1,135,0|2,0:0|0:2,0:0:0:0:
244,76,2745,1,0,0:0:0:0:
256,192,2942,1,2,0:2:0:0:
268,308,3139,2,0,L|416:332,1,135,0|0,0:0|0:0,0:0:0:0:
470,250,3732,2,0,L|336:228,1,135,0|0,0:0|0:0,0:0:0:0:
72,236,4324,5,0,0:0:0:0:
144,284,4521,1,0,0:0:0:0:
148,196,4718,2,0,B|120:168|120:168|180:164|216:96,1,135,2|0,0:3|0:0,0:0:0:0:
180,12,5310,2,0,B|208:39|208:39|148:43|112:112,1,135,0|2,0:0|0:2,0:0:0:0:
68,228,5903,5,0,0:0:0:0:
64,312,6100,1,2,0:2:0:0:
140,276,6297,2,0,B|168:304|168:304|228:304|228:304|260:336,1,135,0|0,0:0|0:0,0:0:0:0:
360,108,6889,2,0,B|332:80|332:80|272:80|272:80|240:48,1,135,0|0,0:0|0:0,0:0:0:0:
199,177,7482,5,0,0:0:0:0:
303,205,7679,1,0,0:0:0:0:
347,301,7876,2,0,B|375:329|375:329|395:282|395:282|459:273,1,135,2|0,0:3|0:0,0:0:0:0:
495,165,8468,2,0,B|467:137|467:137|447:184|447:184|383:193,1,135,0|2,0:0|0:2,0:0:0:0:
124,228,9060,5,0,0:0:0:0:
71,112,9258,1,2,0:2:0:0:
182,187,9455,2,0,B|208:205|208:205|269:181|269:181|240:158,1,135,0|0,0:0|0:0,0:0:0:0:
131,73,10047,2,0,B|102:50|102:50|163:26|163:26|194:48,1,135,0|0,0:0|0:0,0:0:0:0:
262,83,10639,5,0,0:0:0:0:
187,116,10837,1,0,0:0:0:0:
113,149,11034,1,2,0:3:0:0:
78,265,11330,1,0,0:0:0:0:
224,195,11626,1,0,0:0:0:0:
370,125,11922,1,2,0:2:0:0:
334,246,12218,1,0,0:0:0:0:
259,279,12416,1,2,0:2:0:0:
185,312,12613,1,0,0:0:0:0:
183,321,12712,2,0,B|171:352|171:352|91:372,1,90,0|0,0:0|0:0,0:0:0:0:
20,267,13205,1,0,0:0:0:0:
22,258,13304,2,0,B|34:227|34:227|114:207,1,90,0|8,0:0|0:3,0:0:0:0:
196,187,13797,5,8,0:3:0:0:
284,249,13995,1,4,0:3:0:0:
372,311,14192,1,6,0:0:0:0:
381,306,14291,2,0,B|426:281|426:281|452:199,1,107.999996704102,0|2,0:0|0:3,0:0:0:0:
480,72,14784,2,0,B|402:112|402:112|376:200,1,161.999995056153,0|2,0:3|0:3,0:0:0:0:
464,159,15376,1,8,0:0:0:0:
354,56,15574,1,2,0:2:0:0:
288,224,15771,2,0,B|313:140|313:140|268:60,1,161.999995056153,0|2,0:0|0:3,0:0:0:0:
224,4,16363,2,0,B|198:87|198:87|243:167,1,161.999995056153,0|2,0:0|0:3,0:0:0:0:
117,384,16955,5,8,0:0:0:0:
157,206,17153,1,0,0:0:0:0:
41,311,17350,1,2,0:0:0:0:
37,319,17449,1,0,0:0:0:0:
233,263,17646,1,2,0:3:0:0:
237,255,17745,1,0,0:0:0:0:
155,285,17942,2,0,B|176:330|176:330|233:352|233:352|289:324,1,161.999995056153,0|2,0:0|0:3,0:0:0:0:
273,166,18534,1,8,0:0:0:0:
241,247,18732,1,2,0:2:0:0:
359,128,18929,2,0,B|338:83|338:83|281:61|281:61|225:89,1,161.999995056153,0|2,0:0|0:3,0:0:0:0:
105,179,19521,2,0,B|168:179|168:179|209:207|209:207|285:207,1,161.999995056153,0|2,0:0|0:3,0:0:0:0:
336,125,20113,5,8,0:0:0:0:
368,233,20310,1,0,0:0:0:0:
451,151,20508,1,2,0:0:0:0:
453,158,20607,1,0,0:0:0:0:
484,253,20804,1,2,0:3:0:0:
488,261,20903,1,0,0:0:0:0:
400,340,21100,1,0,0:0:0:0:
291,309,21297,2,0,B|258:338|258:338|170:319,1,107.999996704102,0|2,0:0|0:0,0:0:0:0:
112,300,21692,6,0,B|69:288|69:288|36:205,1,107.999996704102,8|2,0:0|0:0,0:0:0:0:
148,128,22087,1,0,0:0:0:0:
364,128,22383,1,2,0:3:0:0:
256,244,22679,1,0,0:0:0:0:
256,234,22778,1,0,0:0:0:0:
256,135,22975,1,2,0:3:0:0:
256,125,23074,1,0,0:0:0:0:
256,24,23271,5,8,0:0:0:0:
152,24,23468,1,0,0:0:0:0:
136,30,23567,1,0,0:0:0:0:
121,36,23666,2,0,B|73:52|73:52|73:116|73:116|129:140,1,161.999995056153,2|2,0:0|0:3,0:0:0:0:
395,134,24258,2,0,B|439:116|439:116|439:52|439:52|391:36,1,161.999995056153,0|2,0:0|0:3,0:0:0:0:
256,32,24850,5,8,0:0:0:0:
256,120,25047,1,2,0:2:0:0:
256,208,25245,1,0,0:0:0:0:
136,252,25541,1,2,0:3:0:0:
141,261,25639,1,0,0:0:0:0:
238,336,25837,2,0,B|290:336|290:336|334:364|334:364|392:364,1,161.999995056153,2|4,0:2|0:2,0:0:0:0:
396,356,26232,5,2,2:2:0:0:
400,348,26330,1,2,2:2:0:0:
404,340,26429,1,2,2:3:0:0:
408,332,26528,1,2,2:2:0:0:
412,324,26626,1,2,2:2:0:0:
416,316,26725,1,2,2:2:0:0:
420,308,26824,6,0,B|436:264|436:264|408:196,1,107.999996704102,0|2,1:0|0:0,0:0:0:0:
310,173,27218,1,8,0:1:0:0:
206,141,27416,1,0,0:0:0:0:
176,36,27613,1,0,1:0:0:0:
168,28,27712,1,0,0:0:0:0:
160,20,27810,1,2,0:0:0:0:
44,0,28008,2,0,B|64:40|64:40|40:120,1,107.999996704102,8|0,0:1|0:0,0:0:0:0:
16,216,28403,6,0,B|68:240|68:240|88:320,1,107.999996704102,2|2,1:2|0:0,0:0:0:0:
0,292,28797,1,8,0:1:0:0:
148,256,28995,1,0,0:0:0:0:
224,352,29192,1,0,1:0:0:0:
228,344,29291,1,0,0:0:0:0:
232,336,29389,1,2,0:0:0:0:
276,232,29587,1,8,0:1:0:0:
364,320,29784,1,2,0:0:0:0:
280,224,29982,2,0,B|284:252|284:252|340:204|340:204|336:144|336:144|392:100,1,215.999993408203,2|8,1:2|0:1,0:0:0:0:
450,51,30574,1,2,0:0:0:0:
459,43,30672,1,2,0:0:0:0:
468,36,30771,1,0,1:0:0:0:
88,220,31166,5,8,0:1:0:0:
168,88,31363,1,0,0:0:0:0:
32,144,31560,5,0,1:0:0:0:
20,148,31659,1,0,0:0:0:0:
176,180,31857,1,0,0:0:0:0:
184,188,31955,1,8,0:1:0:0:
76,64,32153,1,2,0:0:0:0:
68,55,32251,1,0,0:0:0:0:
60,44,32350,2,0,B|44:20|44:20|130:28,1,107.999996704102,2|2,1:2|0:0,0:0:0:0:
272,44,32745,2,0,B|352:52|352:52|332:72,1,107.999996704102,8|2,0:1|0:0,0:0:0:0:
259,149,33139,6,0,L|195:209,1,53.9999983520508,0|2,1:0|0:0,0:0:0:0:
159,156,33337,2,0,L|95:216,1,53.9999983520508,0|2,0:0|0:0,0:0:0:0:
173,242,33534,2,0,L|109:302,1,53.9999983520508,8|2,0:1|0:0,0:0:0:0:
71,244,33732,2,0,L|7:304,1,53.9999983520508,0|2,0:0|0:0,0:0:0:0:
16,352,33929,5,0,1:0:0:0:
20,360,34028,1,2,0:0:0:0:
24,368,34126,2,0,L|88:360,1,53.9999983520508,0|2,0:0|0:0,0:0:0:0:
156,360,34324,1,8,0:1:0:0:
160,352,34422,1,2,0:0:0:0:
164,344,34521,2,0,L|228:352,1,53.9999983520508,0|2,0:0|0:0,0:0:0:0:
312,352,34718,6,0,L|292:300,1,53.9999983520508,2|0,1:2|0:0,0:0:0:0:
268,228,34916,2,0,L|324:220,1,53.9999983520508,2|0,0:0|0:0,0:0:0:0:
400,208,35113,2,0,L|378:158,1,53.9999983520508,8|0,0:1|0:0,0:0:0:0:
356,84,35310,2,0,L|412:76,2,53.9999983520508,2|0|2,0:2|0:0|1:2,0:0:0:0:
244,112,35705,5,2,0:0:0:0:
176,216,35903,1,8,0:1:0:0:
232,320,36100,1,2,0:0:0:0:
84,368,36297,6,0,B|104:312|104:312|152:292,1,107.999996704102,0|2,1:0|0:0,0:0:0:0:
256,240,36692,1,8,0:1:0:0:
344,324,36889,2,0,B|382:353|382:353|441:342,2,107.999996704102,2|2|2,0:0|1:2|0:0,0:0:0:0:
256,248,37482,5,8,0:1:0:0:
256,152,37679,1,0,0:0:0:0:
257,144,37778,1,0,0:0:0:0:
258,136,37876,2,0,B|264:87|264:87|225:42,2,107.999996704102,2|2|8,1:2|0:0|0:1,0:0:0:0:
180,248,38468,1,2,0:0:0:0:
336,248,38666,1,0,1:0:0:0:
416,344,38863,1,2,0:0:0:0:
256,344,39060,1,8,0:1:0:0:
100,344,39258,1,2,0:0:0:0:
96,336,39357,1,0,0:0:0:0:
92,328,39455,6,0,B|76:292|76:292|80:257|80:257|63:211,1,107.999996704102,2|2,1:2|0:0,0:0:0:0:
117,115,39850,1,8,0:1:0:0:
252,176,40047,1,0,0:0:0:0:
158,208,40245,1,0,1:2:0:0:
162,200,40343,1,0,0:0:0:0:
166,192,40442,1,2,0:2:0:0:
204,100,40639,2,0,B|212:68|232:52|232:52|252:36|260:-4,1,107.999996704102,8|0,0:1|0:0,0:0:0:0:
343,229,41034,6,0,B|311:221|295:201|295:201|279:181|239:173,1,107.999996704102,2|2,1:2|0:0,0:0:0:0:
367,132,41429,1,8,0:1:0:0:
499,84,41626,1,0,0:0:0:0:
460,180,41824,1,0,1:0:0:0:
456,171,41922,1,0,0:0:0:0:
453,163,42021,1,2,0:0:0:0:
412,52,42218,5,8,0:1:0:0:
280,100,42416,1,2,0:0:0:0:
148,148,42613,2,0,B|152:112|152:112|88:152|88:152|84:196|84:196|28:236,1,215.999993408203,2|8,1:0|0:1,0:0:0:0:
33,304,43205,1,2,0:0:0:0:
31,316,43304,1,0,0:0:0:0:
29,330,43403,2,0,B|25:366|25:366|89:326|89:326|93:282|93:282|141:247,1,215.999993408203,2|8,1:0|0:1,0:0:0:0:
239,178,43995,5,0,0:0:0:0:
252,296,44192,1,0,1:0:0:0:
253,307,44291,1,0,0:0:0:0:
348,225,44488,1,0,0:0:0:0:
358,229,44587,1,8,0:1:0:0:
335,108,44784,1,2,0:0:0:0:
345,100,44883,1,2,0:0:0:0:
355,93,44982,2,0,B|335:40|335:40|283:31,1,107.999996704102,0|2,1:0|0:0,0:0:0:0:
176,31,45376,2,0,B|124:40|124:40|104:95,1,107.999996704102,8|2,0:1|0:0,0:0:0:0:
120,212,45771,6,0,L|188:228,1,53.9999983520508,0|2,1:0|0:0,0:0:0:0:
244,232,45968,2,0,L|223:165,1,53.9999983520508,0|2,0:0|0:0,0:0:0:0:
164,148,46166,2,0,L|200:108,1,53.9999983520508,8|2,0:1|0:0,0:0:0:0:
248,56,46363,1,0,0:0:0:0:
256,48,46462,1,2,0:0:0:0:
264,40,46560,2,0,L|332:56,1,53.9999983520508,0|2,1:0|0:0,0:0:0:0:
388,72,46758,2,0,L|340:122,1,53.9999983520508,0|2,0:0|0:0,0:0:0:0:
284,116,46955,1,8,0:1:0:0:
288,128,47054,1,2,0:0:0:0:
292,140,47153,2,0,L|307:191,1,53.9999983520508,0|2,0:0|0:0,0:0:0:0:
338,269,47350,6,0,L|399:207,1,53.9999983520508,2|0,1:2|0:0,0:0:0:0:
294,332,47547,2,0,L|376:356,1,53.9999983520508,2|0,0:0|0:0,0:0:0:0:
214,330,47745,2,0,L|233:413,1,53.9999983520508,8|0,0:1|0:0,0:0:0:0:
181,256,47942,2,0,L|117:315,1,53.9999983520508,2|0,0:0|0:0,0:0:0:0:
226,189,48139,2,0,L|142:163,1,53.9999983520508,0|0,1:0|0:0,0:0:0:0:
306,192,48337,2,0,L|285:106,1,53.9999983520508,2|0,0:0|0:0,0:0:0:0:
278,76,48534,5,8,0:1:0:0:
167,25,48732,1,2,0:0:0:0:
40,18,48929,2,0,B|96:56|96:56|109:104,1,107.999996704102,2|2,1:2|0:0,0:0:0:0:
212,108,49324,1,8,0:1:0:0:
216,100,49422,1,0,0:0:0:0:
220,92,49521,2,0,B|236:60|236:60|323:31,1,107.999996704102,2|2,0:0|1:2,0:0:0:0:
420,72,49916,1,0,0:0:0:0:
336,156,50113,1,8,0:1:0:0:
448,196,50310,1,0,0:0:0:0:
452,204,50409,1,2,0:0:0:0:
456,212,50508,2,0,B|436:248|436:248|472:316,1,107.999996704102,0|2,1:0|0:0,0:0:0:0:
376,376,50903,5,8,0:1:0:0:
320,272,51100,1,2,0:0:0:0:
312,276,51199,1,2,0:0:0:0:
304,280,51297,2,0,B|256:308|256:308|244:364,1,107.999996704102,0|2,1:0|0:0,0:0:0:0:
68,360,51692,2,0,B|116:332|116:332|128:276,1,107.999996704102,8|2,0:1|0:0,0:0:0:0:
160,104,52087,5,4,1:1:0:0:
200,200,52284,1,0,3:1:0:0:
276,136,52482,1,8,3:1:0:0:
316,228,52679,1,0,3:1:0:0:
320,236,52778,1,0,3:1:0:0:
360,328,52975,1,0,3:1:0:0:
451,260,53172,1,0,3:1:0:0:
454,268,53271,1,8,3:1:0:0:
457,276,53370,1,0,3:1:0:0:
460,284,53468,1,0,3:1:0:0:
420,112,53666,6,0,B|389:125|389:125|423:205,1,107.999996704102,0|0,1:1|3:1,0:0:0:0:
312,38,54060,1,8,3:1:0:0:
197,59,54258,1,0,3:1:0:0:
193,67,54357,1,0,3:1:0:0:
147,168,54554,1,0,3:1:0:0:
37,191,54751,2,0,L|16:241,1,53.9999983520508,0|8,3:1|3:1,0:0:0:0:
79,327,54949,2,0,L|101:278,1,53.9999983520508,0|0,3:1|3:1,0:0:0:0:
212,260,55245,5,0,1:1:0:0:
328,243,55442,1,0,3:1:0:0:
375,132,55639,1,8,3:1:0:0:
258,153,55837,1,0,3:1:0:0:
262,145,55935,1,0,3:1:0:0:
312,38,56133,1,0,3:1:0:0:
427,12,56330,1,0,3:1:0:0:
424,20,56429,1,8,3:1:0:0:
421,28,56528,1,0,3:1:0:0:
418,36,56626,1,0,3:1:0:0:
432,167,56824,5,0,1:1:0:0:
316,103,57021,1,0,3:1:0:0:
316,227,57218,1,8,3:1:0:0:
308,111,57416,1,0,3:1:0:0:
424,175,57613,1,0,1:1:0:0:
416,183,57712,1,0,3:1:0:0:
308,235,57909,1,0,3:1:0:0:
300,243,58008,2,0,B|272:223|272:223|246:300,1,107.999996704102,8|0,3:1|3:1,0:0:0:0:
220,384,58403,5,0,1:1:0:0:
112,340,58600,1,0,3:1:0:0:
4,296,58797,1,8,3:1:0:0:
92,216,58995,1,0,3:1:0:0:
90,212,59093,1,0,3:1:0:0:
88,208,59192,1,0,1:1:0:0:
86,204,59291,1,0,3:1:0:0:
40,85,59488,1,0,3:1:0:0:
55,90,59587,1,8,3:1:0:0:
71,96,59685,1,0,3:1:0:0:
86,101,59784,1,0,3:1:0:0:
196,140,59982,5,0,1:1:0:0:
240,32,60179,1,0,3:1:0:0:
284,140,60376,1,8,3:1:0:0:
328,32,60574,1,0,3:1:0:0:
332,24,60672,1,0,3:1:0:0:
412,108,60870,1,0,3:1:0:0:
359,236,61067,1,0,3:1:0:0:
361,232,61166,1,8,3:1:0:0:
363,228,61264,1,0,3:1:0:0:
365,224,61363,1,0,3:1:0:0:
408,116,61560,5,0,1:1:0:0:
452,8,61758,1,0,3:1:0:0:
324,40,61955,1,8,3:1:0:0:
280,148,62153,1,0,3:1:0:0:
276,156,62251,1,0,3:1:0:0:
320,48,62449,1,0,3:1:0:0:
204,64,62646,1,0,3:1:0:0:
200,72,62745,1,8,3:1:0:0:
196,80,62843,1,0,3:1:0:0:
192,88,62942,2,0,B|160:68|160:68|144:160,1,107.999996704102,0|0,3:1|1:1,0:0:0:0:
32,88,63337,5,0,3:1:0:0:
9,267,63534,1,8,3:1:0:0:
72,184,63732,1,0,3:1:0:0:
152,376,63929,1,0,1:1:0:0:
155,384,64028,1,0,3:1:0:0:
112,280,64225,1,0,3:1:0:0:
301,197,64521,1,0,3:1:0:0:
205,237,64718,5,4,0:0:0:0:
484,124,65310,1,2,0:0:0:0:
480,112,65409,1,0,0:0:0:0:
476,100,65508,2,0,B|456:48|456:48|384:36|384:36|412:120,1,180,2|0,0:0|0:0,0:0:0:0:
120,320,66889,5,2,0:0:0:0:
120,304,66988,1,0,0:0:0:0:
104,288,67087,1,2,0:0:0:0:
104,272,67185,1,0,0:0:0:0:
120,256,67284,1,2,0:0:0:0:
120,240,67383,1,0,0:0:0:0:
104,224,67482,1,2,0:0:0:0:
104,208,67580,1,0,0:0:0:0:
120,192,67679,1,2,0:0:0:0:
120,176,67778,1,0,0:0:0:0:
120,160,67876,6,0,B|76:152|76:152|56:108|56:108|76:68|76:68|140:56,1,180,2|0,0:0|0:0,0:0:0:0:
360,56,68468,1,2,0:0:0:0:
376,56,68567,1,0,0:0:0:0:
390,56,68666,2,0,B|434:64|434:64|454:108|454:108|434:148|434:148|393:156,1,180,2|0,0:0|0:0,0:0:0:0:
257,111,69455,5,2,0:0:0:0:
172,260,70047,1,2,0:0:0:0:
343,260,70639,1,2,0:0:0:0:
256,200,71034,1,2,0:0:0:0:
226,312,72613,5,2,0:0:0:0:
203,344,72712,1,2,0:0:0:0:
164,332,72810,1,2,0:0:0:0:
164,291,72909,1,2,0:0:0:0:
203,279,73008,1,2,0:0:0:0:
203,263,73107,1,2,0:0:0:0:
203,247,73205,1,2,0:0:0:0:
203,231,73304,1,2,0:0:0:0:
203,215,73403,5,2,0:0:0:0:
226,247,73501,1,2,0:0:0:0:
265,235,73600,1,2,0:0:0:0:
265,194,73699,1,2,0:0:0:0:
226,182,73797,1,2,0:0:0:0:
187,188,73896,1,2,0:0:0:0:
168,152,73995,1,2,0:0:0:0:
197,123,74093,1,2,0:0:0:0:
233,142,74192,6,0,B|277:113|277:113|152:68,1,180,2|0,0:0|0:0,0:0:0:0:
8,56,74784,2,0,B|50:31|50:31|88:45,1,90,2|0,0:0|0:0,0:0:0:0:
187,188,75376,2,0,B|145:213|145:213|107:199,1,90,2|0,0:0|0:0,0:0:0:0:
6,151,75771,1,2,0:0:0:0:
10,159,75870,1,0,0:0:0:0:
102,207,76067,1,2,0:0:0:0:
98,215,76166,1,0,0:0:0:0:
14,263,76363,1,2,0:0:0:0:
109,323,76560,2,0,B|89:359|89:359|237:319,1,180,2|0,0:0|0:0,0:0:0:0:
304,144,77350,5,2,0:0:0:0:
428,112,77942,1,2,0:0:0:0:
432,104,78041,1,0,0:0:0:0:
436,96,78139,2,0,B|476:80|476:80|332:24,1,180,2|0,0:0|0:0,0:0:0:0:
224,232,79521,5,2,0:0:0:0:
232,187,79620,1,0,0:0:0:0:
198,156,79718,1,2,0:0:0:0:
155,172,79817,1,0,0:0:0:0:
147,217,79916,1,2,0:0:0:0:
181,248,80014,1,0,0:0:0:0:
224,232,80113,5,2,0:0:0:0:
228,244,80212,1,0,0:0:0:0:
232,256,80310,1,2,0:0:0:0:
236,268,80409,1,0,0:0:0:0:
240,280,80508,6,0,B|256:319|256:319|293:241|293:241|352:233,1,180,2|0,0:0|0:0,0:0:0:0:
456,140,81100,1,2,0:0:0:0:
460,132,81199,1,0,0:0:0:0:
464,124,81297,2,0,B|484:75|484:75|346:100,1,180,2|0,0:0|0:0,0:0:0:0:
181,133,82087,6,0,P|137:189|153:317,1,180,2|0,0:0|0:0,0:0:0:0:
197,377,82679,2,0,P|241:321|225:193,1,180,2|0,0:0|0:0,0:0:0:0:
139,293,83271,2,0,P|81:285|37:301,1,90,2|0,0:0|0:0,0:0:0:0:
238,216,83666,2,0,P|296:224|340:208,1,90,2|0,0:0|0:0,0:0:0:0:
48,332,85245,5,2,0:0:0:0:
59,320,85343,1,2,0:0:0:0:
59,298,85442,1,2,0:0:0:0:
70,286,85541,1,2,0:0:0:0:
93,286,85639,1,2,0:0:0:0:
104,275,85738,1,2,0:0:0:0:
104,252,85837,1,2,0:0:0:0:
115,241,85935,1,2,0:0:0:0:
138,241,86034,1,2,0:0:0:0:
149,230,86133,1,2,0:0:0:0:
149,207,86232,1,2,0:0:0:0:
161,196,86330,1,2,0:0:0:0:
183,196,86429,1,2,0:0:0:0:
195,184,86528,1,2,0:0:0:0:
195,162,86626,1,2,0:0:0:0:
206,150,86725,1,2,0:0:0:0:
217,138,86824,6,0,B|285:162|285:162|380:82,1,180,2|0,0:0|0:0,0:0:0:0:
496,140,87416,2,0,B|464:132|464:132|405:183,1,90,2|0,0:0|0:0,0:0:0:0:
320,256,88008,5,2,0:0:0:0:
216,306,88403,1,2,0:0:0:0:
212,296,88501,1,0,3:0:0:0:
120,232,88699,1,2,0:0:0:0:
124,222,88797,1,0,3:0:0:0:
232,188,88995,1,2,3:2:0:0:
142,116,89192,2,0,B|154:76|154:76|59:124|59:124|70:82,1,180,2|4,3:2|0:0,0:0:0:0:
331,313,89982,6,0,B|401:300|401:300|467:330,2,116.999994644165,2|0|8,1:2|0:2|0:2,0:0:0:0:
176,244,90574,5,2,0:2:0:0:
172,236,90672,1,2,0:2:0:0:
168,228,90771,2,0,L|112:276,1,58.4999973220826,2|0,1:2|0:2,0:0:0:0:
96,184,90968,2,0,L|22:178,1,58.4999973220826,2|0,0:2|0:2,0:0:0:0:
168,140,91166,2,0,L|119:84,1,58.4999973220826,10|0,0:2|0:2,0:0:0:0:
248,72,91363,2,0,L|243:130,1,58.4999973220826,2|0,0:2|0:2,0:0:0:0:
316,140,91560,2,0,B|432:116|432:116|356:20,1,233.999989288331,0|8,1:2|0:2,0:0:0:0:
472,344,92153,5,2,0:2:0:0:
464,340,92251,1,2,0:2:0:0:
456,336,92350,2,2,L|440:276,1,58.4999973220826,2|2,1:2|0:2,0:0:0:0:
404,196,92547,1,2,0:2:0:0:
396,200,92646,1,2,0:2:0:0:
388,204,92745,2,2,L|372:264,1,58.4999973220826,10|2,0:2|0:2,0:0:0:0:
336,348,92942,1,2,0:2:0:0:
328,344,93041,1,2,0:2:0:0:
320,340,93139,2,0,B|296:224|296:224|200:300,1,233.999989288331,2|10,1:2|0:2,0:0:0:0:
7,355,93732,5,2,0:2:0:0:
15,347,93830,1,2,0:2:0:0:
23,339,93929,2,0,L|39:287,1,45,2|0,1:2|0:2,0:0:0:0:
98,314,94126,2,0,L|114:262,1,45,2|0,0:2|0:2,0:0:0:0:
90,164,94324,2,0,L|106:216,1,45,10|0,0:2|0:2,0:0:0:0:
165,189,94521,2,0,L|181:241,1,45,2|0,0:2|0:2,0:0:0:0:
205,295,94718,2,0,B|276:362|399:279|316:157,1,233.999989288331,0|8,1:2|0:2,0:0:0:0:
260,212,95310,5,2,0:2:0:0:
260,224,95409,1,0,0:2:0:0:
260,236,95508,1,0,1:2:0:0:
456,312,95903,1,10,0:2:0:0:
456,300,96001,1,0,0:2:0:0:
455,130,96297,5,2,1:2:0:0:
452,127,96396,1,0,0:2:0:0:
449,124,96495,1,2,0:2:0:0:
446,121,96593,1,0,0:2:0:0:
443,118,96692,1,10,0:2:0:0:
440,115,96791,1,0,0:2:0:0:
437,112,96889,1,2,0:2:0:0:
434,109,96988,1,0,0:2:0:0:
408,80,97087,5,2,1:2:0:0:
368,88,97185,1,0,0:2:0:0:
328,96,97284,1,2,0:2:0:0:
341,57,97383,1,0,0:2:0:0:
354,18,97482,2,0,L|414:4,2,58.4999973220826,10|0|0,0:2|0:2|0:2,0:0:0:0:
389,197,97876,5,2,1:2:0:0:
387,202,97975,1,2,0:2:0:0:
385,208,98074,1,2,0:2:0:0:
383,213,98172,1,2,0:2:0:0:
346,278,98271,5,10,0:2:0:0:
338,268,98370,1,2,0:2:0:0:
330,259,98468,1,2,0:2:0:0:
322,250,98567,1,2,0:2:0:0:
312,182,98666,5,2,1:2:0:0:
292,185,98764,1,2,0:2:0:0:
272,188,98863,1,2,0:2:0:0:
253,191,98962,1,2,0:2:0:0:
213,243,99060,5,10,0:2:0:0:
159,234,99159,1,2,0:2:0:0:
150,183,99258,1,2,0:2:0:0:
197,157,99357,1,2,0:2:0:0:
234,194,99455,6,0,B|284:184|284:184|296:142|296:142|264:113|264:113|277:71|277:71|334:60,1,233.999989288331,0|8,1:2|0:2,0:0:0:0:
466,44,100047,1,2,0:2:0:0:
463,56,100146,1,0,0:2:0:0:
460,68,100245,2,0,L|430:190,1,116.999994644165,0|0,1:2|0:2,0:0:0:0:
453,272,100639,2,0,L|336:329,1,116.999994644165,10|0,0:2|0:2,0:0:0:0:
222,362,101034,5,2,1:2:0:0:
218,354,101133,1,0,0:2:0:0:
107,316,101330,1,2,0:2:0:0:
103,308,101429,1,8,0:2:0:0:
141,197,101626,1,2,0:2:0:0:
37,119,101824,5,6,1:2:0:0:
41,127,101922,1,4,0:2:0:0:
297,85,102120,1,4,0:2:0:0:
146,204,102317,1,4,0:2:0:0:
394,176,102514,1,4,0:2:0:0:
398,184,102613,2,0,B|442:232|442:232|315:244|293:346,1,233.999989288331,2|8,1:2|0:2,0:0:0:0:
98,343,103205,5,2,0:2:0:0:
102,334,103304,1,2,0:2:0:0:
106,325,103403,2,0,L|134:256,1,58.4999973220826,2|0,1:2|0:2,0:0:0:0:
166,170,103600,2,0,L|194:101,1,58.4999973220826,2|0,0:2|0:2,0:0:0:0:
250,262,103797,2,0,L|181:233,1,58.4999973220826,10|0,0:2|0:2,0:0:0:0:
97,201,103995,2,0,L|28:172,1,58.4999973220826,2|0,0:2|0:2,0:0:0:0:
91,118,104192,2,0,B|205:76|205:76|255:193,1,233.999989288331,0|8,1:2|0:2,0:0:0:0:
146,221,104784,5,2,0:2:0:0:
166,272,104883,1,2,0:2:0:0:
186,323,104982,1,2,1:2:0:0:
135,343,105080,1,0,0:0:0:0:
115,292,105179,1,2,0:2:0:0:
166,272,105278,1,2,0:2:0:0:
217,252,105376,1,10,0:2:0:0:
268,232,105475,1,2,0:2:0:0:
248,181,105574,1,2,0:2:0:0:
197,201,105672,1,2,0:2:0:0:
217,252,105771,2,0,B|238:300|238:300|292:280,1,105.300000401688,0|0,1:2|0:2,0:0:0:0:
382,240,106166,1,8,0:2:0:0:
482,303,106363,5,2,0:2:0:0:
482,287,106462,1,2,0:2:0:0:
466,271,106560,1,2,1:2:0:0:
466,255,106659,1,0,0:2:0:0:
482,239,106758,1,2,0:2:0:0:
482,223,106857,1,0,0:2:0:0:
466,207,106955,1,10,0:2:0:0:
466,191,107054,1,0,0:2:0:0:
482,175,107153,1,2,0:2:0:0:
482,159,107251,1,0,0:2:0:0:
482,143,107350,6,0,B|485:32|336:10|314:139,1,233.999989288331,0|8,1:2|0:2,0:0:0:0:
315,187,107942,2,0,B|235:171|242:75,1,116.999994644165,2|0,0:2|1:2,0:0:0:0:
334,18,108534,2,0,B|414:34|407:130,1,116.999994644165,10|0,0:2|0:2,0:0:0:0:
372,248,108929,5,2,1:2:0:0:
368,256,109028,1,0,0:2:0:0:
364,264,109126,1,2,0:2:0:0:
360,272,109225,1,0,0:2:0:0:
284,272,109324,1,10,0:2:0:0:
280,264,109422,1,0,0:2:0:0:
276,256,109521,1,2,0:2:0:0:
272,248,109620,1,0,0:2:0:0:
200,248,109718,1,2,1:2:0:0:
196,256,109817,1,0,0:2:0:0:
192,264,109916,1,2,0:2:0:0:
144,240,110014,5,2,0:2:0:0:
120,288,110113,1,8,0:2:0:0:
96,336,110212,2,0,L|12:296,1,58.4999973220826,2|0,0:2|0:2,0:0:0:0:
88,184,110508,5,2,1:2:0:0:
89,181,110607,1,2,0:2:0:0:
90,178,110705,1,2,0:2:0:0:
91,175,110804,1,2,0:2:0:0:
48,104,110903,5,10,0:2:0:0:
51,105,111001,1,2,0:2:0:0:
54,106,111100,1,2,0:2:0:0:
57,107,111199,1,2,0:2:0:0:
128,64,111297,5,2,1:2:0:0:
127,67,111396,1,2,0:2:0:0:
126,70,111495,1,2,0:2:0:0:
125,73,111593,1,2,0:2:0:0:
168,144,111692,5,10,0:2:0:0:
165,143,111791,1,2,0:2:0:0:
162,142,111889,1,2,0:2:0:0:
159,141,111988,1,2,0:2:0:0:
109,127,112087,6,0,B|154:223|154:223|285:223,1,215.999993408203,0|8,1:2|0:2,0:0:0:0:
155,221,112679,2,0,L|102:316,1,107.999996704102,2|0,0:2|1:2,0:0:0:0:
245,346,113271,6,0,B|199:298|199:298|350:298,1,215.999993408203,10|2,0:2|1:2,0:0:0:0:
475,299,113962,1,2,0:2:0:0:
479,307,114060,1,8,0:2:0:0:
314,368,114258,1,2,0:2:0:0:
337,195,114455,1,2,1:2:0:0:
449,141,114850,2,0,B|495:189|495:189|346:189,1,215.999993408203,8|0,0:2|1:2,0:0:0:0:
