osu file format v14

[General]
AudioFilename: audio.mp3
AudioLeadIn: 0
PreviewTime: 26824
Countdown: 0
SampleSet: Normal
StackLeniency: 0.7
Mode: 3
LetterboxInBreaks: 0
SpecialStyle: 0
WidescreenStoryboard: 1

[Editor]
Bookmarks: 14192,26824,52087,64718,89982,115245
DistanceSpacing: 0.8
BeatDivisor: 4
GridSize: 4
TimelineZoom: 2

[Metadata]
Title:Jade Star
TitleUnicode:Jade Star
Artist:SHIKI
ArtistUnicode:SHIKI
Creator:-NoName-
Version:Black Another
Source:戦 [sen-goku] 國 〜夏の陣〜
Tags:trancer doll's bms instrumental video game trance Natsu no Jin yahweh electronic CRTS-0003 Link to you? Doujin Indie M3-21 M3 2008春 Media-Mix Market Spring CHUNITHM CRYSTAL PLUS
BeatmapID:3367019
BeatmapSetID:1649612

[Difficulty]
HPDrainRate:8.2
CircleSize:7
OverallDifficulty:8.2
ApproachRate:5
SliderMultiplier:1.4
SliderTickRate:1

[Events]
//Background and Video events
0,0,"bg.jpg",0,0
//Break Periods
//Storyboard Layer 0 (Background)
//Storyboard Layer 1 (Fail)
//Storyboard Layer 2 (Pass)
//Storyboard Layer 3 (Foreground)
//Storyboard Layer 4 (Overlay)
//Storyboard Sound Samples

[TimingPoints]
1561,394.736842105263,4,1,1,40,1,0
14192,-100,4,1,1,45,0,0
26824,-100,4,1,1,50,0,1
52087,-100,4,1,1,45,0,0
64718,-100,4,1,1,40,0,0
77350,-100,4,1,1,45,0,0
89982,-100,4,1,1,50,0,1
115245,-100,4,1,1,50,0,0

[HitObjects]
182,192,1561,5,0,0:0:0:0:
182,192,1857,1,0,0:0:0:0:
182,192,2153,1,0,0:0:0:0:
182,192,2449,1,0,0:0:0:0:
182,192,2745,1,0,0:0:0:0:
182,192,2942,1,0,0:0:0:0:
182,192,3139,1,0,0:0:0:0:
182,192,3435,1,0,0:0:0:0:
182,192,3732,1,0,0:0:0:0:
182,192,4028,1,0,0:0:0:0:
182,192,4324,1,0,0:0:0:0:
182,192,4521,1,0,0:0:0:0:
329,192,4718,1,0,0:0:0:0:
329,192,5014,1,0,0:0:0:0:
329,192,5310,1,0,0:0:0:0:
329,192,5607,1,0,0:0:0:0:
329,192,5903,1,0,0:0:0:0:
329,192,6100,1,0,0:0:0:0:
329,192,6297,1,0,0:0:0:0:
329,192,6593,1,0,0:0:0:0:
329,192,6889,1,0,0:0:0:0:
329,192,7185,1,0,0:0:0:0:
329,192,7482,1,0,0:0:0:0:
329,192,7679,1,0,0:0:0:0:
36,192,7876,1,0,0:0:0:0:
36,192,8172,1,0,0:0:0:0:
36,192,8468,1,0,0:0:0:0:
36,192,8764,1,0,0:0:0:0:
36,192,9060,1,0,0:0:0:0:
36,192,9258,1,0,0:0:0:0:
36,192,9455,1,0,0:0:0:0:
36,192,9751,1,0,0:0:0:0:
36,192,10047,1,0,0:0:0:0:
36,192,10343,1,0,0:0:0:0:
36,192,10639,1,0,0:0:0:0:
36,192,10837,1,0,0:0:0:0:
475,192,11034,1,0,0:0:0:0:
475,192,11330,1,0,0:0:0:0:
475,192,11626,1,0,0:0:0:0:
475,192,11922,1,0,0:0:0:0:
475,192,12218,1,0,0:0:0:0:
475,192,12416,1,0,0:0:0:0:
109,192,12613,1,0,0:0:0:0:
109,192,12909,1,0,0:0:0:0:
109,192,13205,1,0,0:0:0:0:
475,192,13501,1,0,0:0:0:0:
256,192,13501,1,0,0:0:0:0:
329,192,13797,1,0,0:0:0:0:
109,192,13797,1,0,0:0:0:0:
36,192,13797,1,0,0:0:0:0:
256,192,13995,1,0,0:0:0:0:
402,192,13995,1,0,0:0:0:0:
329,192,14093,1,0,0:0:0:0:
182,192,14093,1,0,0:0:0:0:
475,192,14192,1,0,0:0:0:0:
109,192,14192,1,0,0:0:0:0:
402,192,14192,1,0,0:0:0:0:
36,192,14192,1,0,0:0:0:0:
182,192,14291,1,0,0:0:0:0:
329,192,14389,1,0,0:0:0:0:
256,192,14488,1,0,0:0:0:0:
109,192,14488,1,0,0:0:0:0:
402,192,14587,1,0,0:0:0:0:
329,192,14587,1,0,0:0:0:0:
475,192,14587,1,0,0:0:0:0:
36,192,14587,1,0,0:0:0:0:
182,192,14685,1,0,0:0:0:0:
475,192,14784,1,0,0:0:0:0:
109,192,14784,1,0,0:0:0:0:
402,192,14883,1,0,0:0:0:0:
329,192,14982,1,0,0:0:0:0:
36,192,14982,1,0,0:0:0:0:
256,192,14982,1,0,0:0:0:0:
109,192,15080,1,0,0:0:0:0:
182,192,15080,1,0,0:0:0:0:
402,192,15179,1,0,0:0:0:0:
329,192,15278,1,0,0:0:0:0:
36,192,15376,1,0,0:0:0:0:
256,192,15376,1,0,0:0:0:0:
109,192,15376,1,0,0:0:0:0:
475,192,15376,1,0,0:0:0:0:
402,192,15475,1,0,0:0:0:0:
109,192,15574,1,0,0:0:0:0:
329,192,15574,1,0,0:0:0:0:
182,192,15672,1,0,0:0:0:0:
256,192,15771,1,0,0:0:0:0:
36,192,15771,1,0,0:0:0:0:
475,192,15771,1,0,0:0:0:0:
109,192,15870,1,0,0:0:0:0:
182,192,15968,1,0,0:0:0:0:
475,192,16067,1,0,0:0:0:0:
329,192,16067,1,0,0:0:0:0:
402,192,16166,1,0,0:0:0:0:
256,192,16166,1,0,0:0:0:0:
109,192,16166,1,0,0:0:0:0:
182,192,16166,1,0,0:0:0:0:
36,192,16264,1,0,0:0:0:0:
402,192,16363,1,0,0:0:0:0:
475,192,16363,1,0,0:0:0:0:
182,192,16462,1,0,0:0:0:0:
36,192,16560,1,0,0:0:0:0:
329,192,16560,1,0,0:0:0:0:
256,192,16560,1,0,0:0:0:0:
475,192,16659,1,0,0:0:0:0:
109,192,16659,1,0,0:0:0:0:
402,192,16659,1,0,0:0:0:0:
329,192,16758,1,0,0:0:0:0:
182,192,16857,1,0,0:0:0:0:
36,192,16955,1,0,0:0:0:0:
109,192,16955,1,0,0:0:0:0:
475,192,16955,1,0,0:0:0:0:
256,192,16955,1,0,0:0:0:0:
402,192,17054,1,0,0:0:0:0:
36,192,17153,1,0,0:0:0:0:
329,192,17153,1,0,0:0:0:0:
109,192,17251,1,0,0:0:0:0:
182,192,17350,1,0,0:0:0:0:
256,192,17350,1,0,0:0:0:0:
402,192,17350,1,0,0:0:0:0:
329,192,17449,1,0,0:0:0:0:
109,192,17547,1,0,0:0:0:0:
329,192,17646,1,0,0:0:0:0:
182,192,17646,1,0,0:0:0:0:
475,192,17745,1,0,0:0:0:0:
256,192,17745,1,0,0:0:0:0:
36,192,17745,1,0,0:0:0:0:
109,192,17745,1,0,0:0:0:0:
402,192,17843,1,0,0:0:0:0:
182,192,17942,1,0,0:0:0:0:
329,192,17942,1,0,0:0:0:0:
109,192,18041,1,0,0:0:0:0:
256,192,18139,1,0,0:0:0:0:
475,192,18139,1,0,0:0:0:0:
402,192,18139,1,0,0:0:0:0:
36,192,18238,1,0,0:0:0:0:
182,192,18238,1,0,0:0:0:0:
329,192,18337,1,0,0:0:0:0:
256,192,18435,1,0,0:0:0:0:
109,192,18534,1,0,0:0:0:0:
402,192,18534,1,0,0:0:0:0:
475,192,18534,1,0,0:0:0:0:
36,192,18534,1,0,0:0:0:0:
182,192,18633,1,0,0:0:0:0:
402,192,18732,1,0,0:0:0:0:
256,192,18732,1,0,0:0:0:0:
475,192,18830,1,0,0:0:0:0:
329,192,18929,1,0,0:0:0:0:
109,192,18929,1,0,0:0:0:0:
36,192,18929,1,0,0:0:0:0:
182,192,19028,1,0,0:0:0:0:
402,192,19126,1,0,0:0:0:0:
329,192,19225,1,0,0:0:0:0:
109,192,19225,1,0,0:0:0:0:
475,192,19324,1,0,0:0:0:0:
402,192,19324,1,0,0:0:0:0:
256,192,19324,1,0,0:0:0:0:
182,192,19324,1,0,0:0:0:0:
36,192,19422,1,0,0:0:0:0:
109,192,19521,1,0,0:0:0:0:
329,192,19521,1,0,0:0:0:0:
256,192,19620,1,0,0:0:0:0:
182,192,19718,1,0,0:0:0:0:
402,192,19718,1,0,0:0:0:0:
475,192,19718,1,0,0:0:0:0:
36,192,19817,1,0,0:0:0:0:
109,192,19817,1,0,0:0:0:0:
329,192,19817,1,0,0:0:0:0:
402,192,19916,1,0,0:0:0:0:
182,192,20014,1,0,0:0:0:0:
36,192,20113,1,0,0:0:0:0:
256,192,20113,1,0,0:0:0:0:
475,192,20113,1,0,0:0:0:0:
329,192,20113,1,0,0:0:0:0:
109,192,20212,1,0,0:0:0:0:
475,192,20310,1,0,0:0:0:0:
182,192,20310,1,0,0:0:0:0:
329,192,20409,1,0,0:0:0:0:
36,192,20508,1,0,0:0:0:0:
109,192,20508,1,0,0:0:0:0:
402,192,20508,1,0,0:0:0:0:
182,192,20607,1,0,0:0:0:0:
329,192,20705,1,0,0:0:0:0:
256,192,20804,1,0,0:0:0:0:
402,192,20804,1,0,0:0:0:0:
475,192,20903,1,0,0:0:0:0:
182,192,20903,1,0,0:0:0:0:
36,192,20903,1,0,0:0:0:0:
109,192,20903,1,0,0:0:0:0:
329,192,21001,1,0,0:0:0:0:
109,192,21100,1,0,0:0:0:0:
402,192,21100,1,0,0:0:0:0:
36,192,21199,1,0,0:0:0:0:
256,192,21297,1,0,0:0:0:0:
182,192,21297,1,0,0:0:0:0:
475,192,21297,1,0,0:0:0:0:
329,192,21396,1,0,0:0:0:0:
402,192,21396,1,0,0:0:0:0:
109,192,21495,1,0,0:0:0:0:
256,192,21593,1,0,0:0:0:0:
475,192,21692,1,0,0:0:0:0:
329,192,21692,1,0,0:0:0:0:
182,192,21692,1,0,0:0:0:0:
36,192,21692,1,0,0:0:0:0:
109,192,21791,1,0,0:0:0:0:
402,192,21889,1,0,0:0:0:0:
329,192,21889,1,0,0:0:0:0:
256,192,21988,1,0,0:0:0:0:
182,192,22087,1,0,0:0:0:0:
475,192,22087,1,0,0:0:0:0:
109,192,22087,1,0,0:0:0:0:
402,192,22185,1,0,0:0:0:0:
36,192,22284,1,0,0:0:0:0:
329,192,22383,1,0,0:0:0:0:
182,192,22383,1,0,0:0:0:0:
256,192,22482,1,0,0:0:0:0:
402,192,22482,1,0,0:0:0:0:
475,192,22482,1,0,0:0:0:0:
109,192,22482,1,0,0:0:0:0:
36,192,22580,1,0,0:0:0:0:
329,192,22679,1,0,0:0:0:0:
475,192,22679,1,0,0:0:0:0:
256,192,22778,1,0,0:0:0:0:
182,192,22876,1,0,0:0:0:0:
36,192,22876,1,0,0:0:0:0:
329,192,22876,1,0,0:0:0:0:
109,192,22975,1,0,0:0:0:0:
475,192,22975,1,0,0:0:0:0:
402,192,22975,1,0,0:0:0:0:
256,192,23074,1,0,0:0:0:0:
402,192,23172,1,0,0:0:0:0:
36,192,23271,1,0,0:0:0:0:
329,192,23271,1,0,0:0:0:0:
256,192,23271,1,0,0:0:0:0:
182,192,23271,1,0,0:0:0:0:
475,192,23370,1,0,0:0:0:0:
329,192,23468,1,0,0:0:0:0:
109,192,23468,1,0,0:0:0:0:
182,192,23567,1,0,0:0:0:0:
36,192,23666,1,0,0:0:0:0:
475,192,23666,1,0,0:0:0:0:
402,192,23666,1,0,0:0:0:0:
329,192,23764,1,0,0:0:0:0:
109,192,23863,1,0,0:0:0:0:
182,192,23962,1,0,0:0:0:0:
402,192,23962,1,0,0:0:0:0:
256,192,24060,1,0,0:0:0:0:
329,192,24060,1,0,0:0:0:0:
36,192,24060,1,0,0:0:0:0:
109,192,24060,1,0,0:0:0:0:
475,192,24159,1,0,0:0:0:0:
182,192,24258,1,0,0:0:0:0:
329,192,24258,1,0,0:0:0:0:
402,192,24357,1,0,0:0:0:0:
256,192,24455,1,0,0:0:0:0:
475,192,24455,1,0,0:0:0:0:
182,192,24455,1,0,0:0:0:0:
36,192,24554,1,0,0:0:0:0:
109,192,24554,1,0,0:0:0:0:
402,192,24653,1,0,0:0:0:0:
329,192,24751,1,0,0:0:0:0:
475,192,24850,1,0,0:0:0:0:
256,192,24850,1,0,0:0:0:0:
182,192,24850,1,0,0:0:0:0:
36,192,24850,1,0,0:0:0:0:
402,192,24949,1,0,0:0:0:0:
329,192,25047,1,0,0:0:0:0:
182,192,25047,1,0,0:0:0:0:
109,192,25146,1,0,0:0:0:0:
36,192,25245,1,0,0:0:0:0:
256,192,25245,1,0,0:0:0:0:
475,192,25245,1,0,0:0:0:0:
329,192,25343,1,0,0:0:0:0:
182,192,25442,1,0,0:0:0:0:
402,192,25541,1,0,0:0:0:0:
256,192,25541,1,0,0:0:0:0:
329,192,25639,1,0,0:0:0:0:
475,192,25639,1,0,0:0:0:0:
109,192,25639,1,0,0:0:0:0:
36,192,25639,1,0,0:0:0:0:
182,192,25738,1,0,0:0:0:0:
402,192,25837,1,0,0:0:0:0:
329,192,25837,1,0,0:0:0:0:
109,192,25935,1,0,0:0:0:0:
402,192,26034,1,0,0:0:0:0:
36,192,26133,1,0,0:0:0:0:
329,192,26133,1,0,0:0:0:0:
182,192,26133,1,0,0:0:0:0:
109,192,26232,1,0,0:0:0:0:
256,192,26232,1,0,0:0:0:0:
329,192,26330,1,0,0:0:0:0:
475,192,26330,1,0,0:0:0:0:
36,192,26429,1,0,0:0:0:0:
109,192,26429,1,0,0:0:0:0:
182,192,26429,1,0,0:0:0:0:
475,192,26528,1,0,0:0:0:0:
256,192,26528,1,0,0:0:0:0:
329,192,26626,1,0,0:0:0:0:
182,192,26626,1,0,0:0:0:0:
109,192,26725,1,0,0:0:0:0:
402,192,26725,1,0,0:0:0:0:
36,192,26824,1,0,0:0:0:0:
256,192,26824,1,0,0:0:0:0:
329,192,26824,1,0,0:0:0:0:
475,192,26824,1,0,0:0:0:0:
182,192,26922,1,0,0:0:0:0:
109,192,26922,1,0,0:0:0:0:
402,192,27021,1,0,0:0:0:0:
329,192,27021,1,0,0:0:0:0:
256,192,27021,1,0,0:0:0:0:
182,192,27120,1,0,0:0:0:0:
475,192,27218,1,0,0:0:0:0:
36,192,27218,1,0,0:0:0:0:
109,192,27218,1,0,0:0:0:0:
402,192,27218,1,0,0:0:0:0:
329,192,27317,1,0,0:0:0:0:
36,192,27416,1,0,0:0:0:0:
256,192,27416,1,0,0:0:0:0:
475,192,27416,1,0,0:0:0:0:
402,192,27514,1,0,0:0:0:0:
329,192,27613,1,0,0:0:0:0:
256,192,27613,1,0,0:0:0:0:
109,192,27613,1,0,0:0:0:0:
182,192,27613,1,0,0:0:0:0:
475,192,27712,1,0,0:0:0:0:
36,192,27810,1,0,0:0:0:0:
182,192,27810,1,0,0:0:0:0:
402,192,27810,1,0,0:0:0:0:
329,192,27909,1,0,0:0:0:0:
109,192,28008,1,0,0:0:0:0:
402,192,28008,1,0,0:0:0:0:
475,192,28008,1,0,0:0:0:0:
36,192,28008,1,0,0:0:0:0:
256,192,28107,1,0,0:0:0:0:
329,192,28205,1,0,0:0:0:0:
182,192,28205,1,0,0:0:0:0:
109,192,28304,1,0,0:0:0:0:
36,192,28403,1,0,0:0:0:0:
256,192,28403,1,0,0:0:0:0:
402,192,28403,1,0,0:0:0:0:
475,192,28403,1,0,0:0:0:0:
182,192,28501,1,0,0:0:0:0:
329,192,28501,1,0,0:0:0:0:
109,192,28600,1,0,0:0:0:0:
475,192,28600,1,0,0:0:0:0:
402,192,28600,1,0,0:0:0:0:
182,192,28699,1,0,0:0:0:0:
256,192,28797,1,0,0:0:0:0:
402,192,28797,1,0,0:0:0:0:
36,192,28797,1,0,0:0:0:0:
109,192,28797,1,0,0:0:0:0:
475,192,28896,1,0,0:0:0:0:
329,192,28995,1,0,0:0:0:0:
36,192,28995,1,0,0:0:0:0:
182,192,28995,1,0,0:0:0:0:
256,192,29093,1,0,0:0:0:0:
475,192,29192,1,0,0:0:0:0:
182,192,29192,1,0,0:0:0:0:
402,192,29192,1,0,0:0:0:0:
329,192,29192,1,0,0:0:0:0:
36,192,29291,1,0,0:0:0:0:
109,192,29291,1,0,0:0:0:0:
256,192,29389,1,0,0:0:0:0:
402,192,29389,1,0,0:0:0:0:
475,192,29389,1,0,0:0:0:0:
329,192,29488,1,0,0:0:0:0:
182,192,29587,1,0,0:0:0:0:
109,192,29587,1,0,0:0:0:0:
475,192,29587,1,0,0:0:0:0:
36,192,29587,1,0,0:0:0:0:
256,192,29685,1,0,0:0:0:0:
109,192,29784,1,0,0:0:0:0:
182,192,29784,1,0,0:0:0:0:
402,192,29784,1,0,0:0:0:0:
329,192,29883,1,0,0:0:0:0:
36,192,29982,1,0,0:0:0:0:
256,192,29982,1,0,0:0:0:0:
475,192,29982,1,0,0:0:0:0:
109,192,29982,1,0,0:0:0:0:
402,192,30080,1,0,0:0:0:0:
329,192,30179,1,0,0:0:0:0:
109,192,30278,1,0,0:0:0:0:
182,192,30278,1,0,0:0:0:0:
402,192,30376,1,0,0:0:0:0:
475,192,30376,1,0,0:0:0:0:
256,192,30376,1,0,0:0:0:0:
36,192,30376,1,0,0:0:0:0:
109,192,30475,1,0,0:0:0:0:
182,192,30574,1,0,0:0:0:0:
329,192,30574,1,0,0:0:0:0:
402,192,30574,1,0,0:0:0:0:
475,192,30672,1,0,0:0:0:0:
256,192,30672,1,0,0:0:0:0:
36,192,30771,1,0,0:0:0:0:
109,192,30771,1,0,0:0:0:0:
329,192,30771,1,0,0:0:0:0:
182,192,30771,1,0,0:0:0:0:
402,192,30870,1,0,0:0:0:0:
475,192,30870,1,0,0:0:0:0:
256,192,30968,1,0,0:0:0:0:
182,192,31067,1,0,0:0:0:0:
329,192,31166,1,0,0:0:0:0:
402,192,31166,1,0,0:0:0:0:
475,192,31166,1,0,0:0:0:0:
109,192,31166,1,0,0:0:0:0:
256,192,31264,1,0,0:0:0:0:
36,192,31363,1,0,0:0:0:0:
182,192,31363,1,0,0:0:0:0:
402,192,31462,1,0,0:0:0:0:
329,192,31560,1,0,0:0:0:0:
109,192,31560,1,0,0:0:0:0:
256,192,31560,1,0,0:0:0:0:
475,192,31659,1,0,0:0:0:0:
182,192,31758,1,0,0:0:0:0:
109,192,31857,1,0,0:0:0:0:
329,192,31857,1,0,0:0:0:0:
256,192,31955,1,0,0:0:0:0:
36,192,31955,1,0,0:0:0:0:
402,192,31955,1,0,0:0:0:0:
475,192,31955,1,0,0:0:0:0:
182,192,32054,1,0,0:0:0:0:
109,192,32153,1,0,0:0:0:0:
256,192,32153,1,0,0:0:0:0:
329,192,32153,1,0,0:0:0:0:
475,192,32251,1,0,0:0:0:0:
402,192,32251,1,0,0:0:0:0:
36,192,32350,1,0,0:0:0:0:
329,192,32350,1,0,0:0:0:0:
109,192,32350,1,0,0:0:0:0:
256,192,32350,1,0,0:0:0:0:
182,192,32449,1,0,0:0:0:0:
475,192,32449,1,0,0:0:0:0:
402,192,32547,1,0,0:0:0:0:
36,192,32547,1,0,0:0:0:0:
109,192,32547,1,0,0:0:0:0:
329,192,32646,1,0,0:0:0:0:
256,192,32745,1,0,0:0:0:0:
402,192,32745,1,0,0:0:0:0:
475,192,32745,1,0,0:0:0:0:
182,192,32745,1,0,0:0:0:0:
109,192,32843,1,0,0:0:0:0:
36,192,32942,1,0,0:0:0:0:
182,192,32942,1,0,0:0:0:0:
329,192,32942,1,0,0:0:0:0:
256,192,33041,1,0,0:0:0:0:
402,192,33139,1,0,0:0:0:0:
475,192,33139,1,0,0:0:0:0:
109,192,33139,1,0,0:0:0:0:
329,192,33238,1,0,0:0:0:0:
256,192,33238,1,0,0:0:0:0:
36,192,33337,1,0,0:0:0:0:
109,192,33337,1,0,0:0:0:0:
182,192,33337,1,0,0:0:0:0:
402,192,33435,1,0,0:0:0:0:
329,192,33435,1,0,0:0:0:0:
182,192,33534,1,0,0:0:0:0:
475,192,33534,1,0,0:0:0:0:
109,192,33534,1,0,0:0:0:0:
256,192,33534,1,0,0:0:0:0:
402,192,33633,1,0,0:0:0:0:
329,192,33633,1,0,0:0:0:0:
36,192,33732,1,0,0:0:0:0:
256,192,33732,1,0,0:0:0:0:
109,192,33732,1,0,0:0:0:0:
182,192,33830,1,0,0:0:0:0:
402,192,33830,1,0,0:0:0:0:
329,192,33929,1,0,0:0:0:0:
36,192,33929,1,0,0:0:0:0:
109,192,33929,1,0,0:0:0:0:
182,192,34028,1,0,0:0:0:0:
256,192,34028,1,0,0:0:0:0:
402,192,34126,1,0,0:0:0:0:
475,192,34126,1,0,0:0:0:0:
329,192,34126,1,0,0:0:0:0:
36,192,34225,1,0,0:0:0:0:
109,192,34225,1,0,0:0:0:0:
475,192,34324,1,0,0:0:0:0:
256,192,34324,1,0,0:0:0:0:
402,192,34324,1,0,0:0:0:0:
182,192,34324,1,0,0:0:0:0:
36,192,34422,1,0,0:0:0:0:
109,192,34422,1,0,0:0:0:0:
402,192,34521,1,0,0:0:0:0:
182,192,34521,1,0,0:0:0:0:
329,192,34521,1,0,0:0:0:0:
475,192,34620,1,0,0:0:0:0:
109,192,34620,1,0,0:0:0:0:
36,192,34718,1,0,0:0:0:0:
182,192,34718,1,0,0:0:0:0:
256,192,34718,1,0,0:0:0:0:
402,192,34817,1,0,0:0:0:0:
329,192,34817,1,0,0:0:0:0:
475,192,34916,1,0,0:0:0:0:
36,192,34916,1,0,0:0:0:0:
109,192,34916,1,0,0:0:0:0:
329,192,35014,1,0,0:0:0:0:
182,192,35014,1,0,0:0:0:0:
256,192,35113,1,0,0:0:0:0:
109,192,35113,1,0,0:0:0:0:
36,192,35113,1,0,0:0:0:0:
475,192,35113,1,0,0:0:0:0:
182,192,35212,1,0,0:0:0:0:
402,192,35212,1,0,0:0:0:0:
36,192,35310,1,0,0:0:0:0:
109,192,35310,1,0,0:0:0:0:
329,192,35310,1,0,0:0:0:0:
182,192,35409,1,0,0:0:0:0:
256,192,35409,1,0,0:0:0:0:
329,192,35508,1,0,0:0:0:0:
402,192,35508,1,0,0:0:0:0:
475,192,35508,1,0,0:0:0:0:
109,192,35607,1,0,0:0:0:0:
36,192,35607,1,0,0:0:0:0:
256,192,35705,1,0,0:0:0:0:
329,192,35705,1,0,0:0:0:0:
475,192,35705,1,0,0:0:0:0:
36,192,35804,1,0,0:0:0:0:
109,192,35804,1,0,0:0:0:0:
475,192,35903,1,0,0:0:0:0:
182,192,35903,1,0,0:0:0:0:
329,192,35903,1,0,0:0:0:0:
402,192,35903,1,0,0:0:0:0:
109,192,36001,1,0,0:0:0:0:
256,192,36001,1,0,0:0:0:0:
475,192,36100,1,0,0:0:0:0:
402,192,36100,1,0,0:0:0:0:
329,192,36100,1,0,0:0:0:0:
109,192,36199,1,0,0:0:0:0:
36,192,36199,1,0,0:0:0:0:
182,192,36297,1,0,0:0:0:0:
256,192,36297,1,0,0:0:0:0:
402,192,36297,1,0,0:0:0:0:
36,192,36396,1,0,0:0:0:0:
109,192,36396,1,0,0:0:0:0:
475,192,36495,1,0,0:0:0:0:
402,192,36495,1,0,0:0:0:0:
329,192,36495,1,0,0:0:0:0:
182,192,36593,1,0,0:0:0:0:
36,192,36692,1,0,0:0:0:0:
475,192,36692,1,0,0:0:0:0:
109,192,36692,1,0,0:0:0:0:
329,192,36692,1,0,0:0:0:0:
256,192,36791,1,0,0:0:0:0:
109,192,36889,1,0,0:0:0:0:
402,192,36889,1,0,0:0:0:0:
36,192,36889,1,0,0:0:0:0:
182,192,36988,1,0,0:0:0:0:
329,192,36988,1,0,0:0:0:0:
475,192,37087,1,0,0:0:0:0:
256,192,37087,1,0,0:0:0:0:
36,192,37087,1,0,0:0:0:0:
109,192,37185,1,0,0:0:0:0:
182,192,37284,1,0,0:0:0:0:
402,192,37284,1,0,0:0:0:0:
329,192,37284,1,0,0:0:0:0:
256,192,37383,1,0,0:0:0:0:
109,192,37482,1,0,0:0:0:0:
329,192,37482,1,0,0:0:0:0:
182,192,37482,1,0,0:0:0:0:
475,192,37482,1,0,0:0:0:0:
36,192,37580,1,0,0:0:0:0:
402,192,37679,1,0,0:0:0:0:
475,192,37679,1,0,0:0:0:0:
182,192,37679,1,0,0:0:0:0:
256,192,37778,1,0,0:0:0:0:
109,192,37876,1,0,0:0:0:0:
329,192,37876,1,0,0:0:0:0:
36,192,37876,1,0,0:0:0:0:
475,192,37876,1,0,0:0:0:0:
182,192,37975,1,0,0:0:0:0:
256,192,37975,1,0,0:0:0:0:
109,192,38074,1,0,0:0:0:0:
402,192,38074,1,0,0:0:0:0:
329,192,38074,1,0,0:0:0:0:
36,192,38172,1,0,0:0:0:0:
182,192,38271,1,0,0:0:0:0:
475,192,38271,1,0,0:0:0:0:
402,192,38271,1,0,0:0:0:0:
256,192,38271,1,0,0:0:0:0:
36,192,38370,1,0,0:0:0:0:
182,192,38468,1,0,0:0:0:0:
402,192,38468,1,0,0:0:0:0:
329,192,38468,1,0,0:0:0:0:
109,192,38567,1,0,0:0:0:0:
256,192,38567,1,0,0:0:0:0:
36,192,38666,1,0,0:0:0:0:
182,192,38666,1,0,0:0:0:0:
475,192,38666,1,0,0:0:0:0:
402,192,38764,1,0,0:0:0:0:
329,192,38863,1,0,0:0:0:0:
182,192,38863,1,0,0:0:0:0:
256,192,38863,1,0,0:0:0:0:
36,192,38962,1,0,0:0:0:0:
109,192,38962,1,0,0:0:0:0:
256,192,39060,1,0,0:0:0:0:
402,192,39060,1,0,0:0:0:0:
329,192,39060,1,0,0:0:0:0:
36,192,39159,1,0,0:0:0:0:
182,192,39159,1,0,0:0:0:0:
475,192,39258,1,0,0:0:0:0:
329,192,39258,1,0,0:0:0:0:
402,192,39258,1,0,0:0:0:0:
109,192,39357,1,0,0:0:0:0:
256,192,39357,1,0,0:0:0:0:
475,192,39455,1,0,0:0:0:0:
36,192,39455,1,0,0:0:0:0:
402,192,39455,1,0,0:0:0:0:
329,192,39554,1,0,0:0:0:0:
182,192,39554,1,0,0:0:0:0:
402,192,39653,1,0,0:0:0:0:
256,192,39653,1,0,0:0:0:0:
109,192,39653,1,0,0:0:0:0:
329,192,39751,1,0,0:0:0:0:
36,192,39850,1,0,0:0:0:0:
475,192,39850,1,0,0:0:0:0:
256,192,39850,1,0,0:0:0:0:
182,192,39850,1,0,0:0:0:0:
402,192,39949,1,0,0:0:0:0:
109,192,40047,1,0,0:0:0:0:
329,192,40047,1,0,0:0:0:0:
36,192,40047,1,0,0:0:0:0:
256,192,40146,1,0,0:0:0:0:
475,192,40245,1,0,0:0:0:0:
182,192,40245,1,0,0:0:0:0:
402,192,40245,1,0,0:0:0:0:
329,192,40245,1,0,0:0:0:0:
36,192,40343,1,0,0:0:0:0:
475,192,40442,1,0,0:0:0:0:
256,192,40442,1,0,0:0:0:0:
109,192,40442,1,0,0:0:0:0:
182,192,40541,1,0,0:0:0:0:
402,192,40639,1,0,0:0:0:0:
109,192,40639,1,0,0:0:0:0:
36,192,40639,1,0,0:0:0:0:
475,192,40639,1,0,0:0:0:0:
256,192,40738,1,0,0:0:0:0:
182,192,40837,1,0,0:0:0:0:
329,192,40837,1,0,0:0:0:0:
402,192,40935,1,0,0:0:0:0:
475,192,41034,1,0,0:0:0:0:
256,192,41034,1,0,0:0:0:0:
109,192,41034,1,0,0:0:0:0:
36,192,41034,1,0,0:0:0:0:
329,192,41133,1,0,0:0:0:0:
182,192,41133,1,0,0:0:0:0:
402,192,41232,1,0,0:0:0:0:
36,192,41232,1,0,0:0:0:0:
109,192,41232,1,0,0:0:0:0:
329,192,41330,1,0,0:0:0:0:
256,192,41429,1,0,0:0:0:0:
182,192,41429,1,0,0:0:0:0:
109,192,41429,1,0,0:0:0:0:
475,192,41429,1,0,0:0:0:0:
36,192,41528,1,0,0:0:0:0:
182,192,41626,1,0,0:0:0:0:
475,192,41626,1,0,0:0:0:0:
329,192,41626,1,0,0:0:0:0:
256,192,41725,1,0,0:0:0:0:
36,192,41824,1,0,0:0:0:0:
329,192,41824,1,0,0:0:0:0:
109,192,41824,1,0,0:0:0:0:
182,192,41824,1,0,0:0:0:0:
475,192,41922,1,0,0:0:0:0:
402,192,41922,1,0,0:0:0:0:
256,192,42021,1,0,0:0:0:0:
109,192,42021,1,0,0:0:0:0:
36,192,42021,1,0,0:0:0:0:
182,192,42120,1,0,0:0:0:0:
329,192,42218,1,0,0:0:0:0:
36,192,42218,1,0,0:0:0:0:
475,192,42218,1,0,0:0:0:0:
109,192,42218,1,0,0:0:0:0:
256,192,42317,1,0,0:0:0:0:
402,192,42416,1,0,0:0:0:0:
329,192,42416,1,0,0:0:0:0:
109,192,42416,1,0,0:0:0:0:
182,192,42514,1,0,0:0:0:0:
475,192,42613,1,0,0:0:0:0:
256,192,42613,1,0,0:0:0:0:
36,192,42613,1,0,0:0:0:0:
402,192,42613,1,0,0:0:0:0:
109,192,42712,1,0,0:0:0:0:
402,192,42810,1,0,0:0:0:0:
329,192,42909,1,0,0:0:0:0:
182,192,42909,1,0,0:0:0:0:
109,192,43008,1,0,0:0:0:0:
36,192,43008,1,0,0:0:0:0:
256,192,43008,1,0,0:0:0:0:
475,192,43008,1,0,0:0:0:0:
402,192,43107,1,0,0:0:0:0:
329,192,43205,1,0,0:0:0:0:
182,192,43205,1,0,0:0:0:0:
109,192,43205,1,0,0:0:0:0:
36,192,43304,1,0,0:0:0:0:
256,192,43304,1,0,0:0:0:0:
475,192,43403,1,0,0:0:0:0:
402,192,43403,1,0,0:0:0:0:
182,192,43403,1,0,0:0:0:0:
329,192,43403,1,0,0:0:0:0:
109,192,43501,1,0,0:0:0:0:
36,192,43501,1,0,0:0:0:0:
256,192,43600,1,0,0:0:0:0:
329,192,43699,1,0,0:0:0:0:
182,192,43797,1,0,0:0:0:0:
109,192,43797,1,0,0:0:0:0:
36,192,43797,1,0,0:0:0:0:
402,192,43797,1,0,0:0:0:0:
256,192,43896,1,0,0:0:0:0:
475,192,43995,1,0,0:0:0:0:
329,192,43995,1,0,0:0:0:0:
109,192,44093,1,0,0:0:0:0:
182,192,44192,1,0,0:0:0:0:
402,192,44192,1,0,0:0:0:0:
256,192,44192,1,0,0:0:0:0:
36,192,44291,1,0,0:0:0:0:
329,192,44389,1,0,0:0:0:0:
402,192,44488,1,0,0:0:0:0:
182,192,44488,1,0,0:0:0:0:
256,192,44587,1,0,0:0:0:0:
475,192,44587,1,0,0:0:0:0:
109,192,44587,1,0,0:0:0:0:
36,192,44587,1,0,0:0:0:0:
329,192,44685,1,0,0:0:0:0:
402,192,44784,1,0,0:0:0:0:
256,192,44784,1,0,0:0:0:0:
182,192,44784,1,0,0:0:0:0:
36,192,44883,1,0,0:0:0:0:
109,192,44883,1,0,0:0:0:0:
475,192,44982,1,0,0:0:0:0:
182,192,44982,1,0,0:0:0:0:
402,192,44982,1,0,0:0:0:0:
256,192,44982,1,0,0:0:0:0:
329,192,45080,1,0,0:0:0:0:
36,192,45080,1,0,0:0:0:0:
109,192,45179,1,0,0:0:0:0:
475,192,45179,1,0,0:0:0:0:
402,192,45179,1,0,0:0:0:0:
182,192,45278,1,0,0:0:0:0:
109,192,45376,1,0,0:0:0:0:
36,192,45376,1,0,0:0:0:0:
402,192,45376,1,0,0:0:0:0:
256,192,45376,1,0,0:0:0:0:
329,192,45475,1,0,0:0:0:0:
256,192,45574,1,0,0:0:0:0:
182,192,45574,1,0,0:0:0:0:
475,192,45574,1,0,0:0:0:0:
402,192,45672,1,0,0:0:0:0:
109,192,45771,1,0,0:0:0:0:
36,192,45771,1,0,0:0:0:0:
329,192,45771,1,0,0:0:0:0:
182,192,45870,1,0,0:0:0:0:
256,192,45870,1,0,0:0:0:0:
475,192,45968,1,0,0:0:0:0:
402,192,45968,1,0,0:0:0:0:
329,192,45968,1,0,0:0:0:0:
109,192,46067,1,0,0:0:0:0:
182,192,46067,1,0,0:0:0:0:
475,192,46166,1,0,0:0:0:0:
36,192,46166,1,0,0:0:0:0:
402,192,46166,1,0,0:0:0:0:
256,192,46166,1,0,0:0:0:0:
109,192,46264,1,0,0:0:0:0:
182,192,46264,1,0,0:0:0:0:
475,192,46363,1,0,0:0:0:0:
256,192,46363,1,0,0:0:0:0:
402,192,46363,1,0,0:0:0:0:
109,192,46462,1,0,0:0:0:0:
329,192,46462,1,0,0:0:0:0:
182,192,46560,1,0,0:0:0:0:
256,192,46560,1,0,0:0:0:0:
402,192,46560,1,0,0:0:0:0:
475,192,46659,1,0,0:0:0:0:
329,192,46659,1,0,0:0:0:0:
109,192,46758,1,0,0:0:0:0:
36,192,46758,1,0,0:0:0:0:
182,192,46758,1,0,0:0:0:0:
329,192,46857,1,0,0:0:0:0:
256,192,46857,1,0,0:0:0:0:
36,192,46955,1,0,0:0:0:0:
402,192,46955,1,0,0:0:0:0:
109,192,46955,1,0,0:0:0:0:
475,192,46955,1,0,0:0:0:0:
329,192,47054,1,0,0:0:0:0:
256,192,47054,1,0,0:0:0:0:
402,192,47153,1,0,0:0:0:0:
182,192,47153,1,0,0:0:0:0:
109,192,47153,1,0,0:0:0:0:
36,192,47251,1,0,0:0:0:0:
256,192,47251,1,0,0:0:0:0:
475,192,47350,1,0,0:0:0:0:
329,192,47350,1,0,0:0:0:0:
182,192,47350,1,0,0:0:0:0:
109,192,47449,1,0,0:0:0:0:
256,192,47449,1,0,0:0:0:0:
36,192,47547,1,0,0:0:0:0:
475,192,47547,1,0,0:0:0:0:
402,192,47547,1,0,0:0:0:0:
182,192,47646,1,0,0:0:0:0:
329,192,47646,1,0,0:0:0:0:
402,192,47745,1,0,0:0:0:0:
109,192,47745,1,0,0:0:0:0:
36,192,47745,1,0,0:0:0:0:
256,192,47745,1,0,0:0:0:0:
182,192,47843,1,0,0:0:0:0:
329,192,47843,1,0,0:0:0:0:
475,192,47942,1,0,0:0:0:0:
402,192,47942,1,0,0:0:0:0:
109,192,47942,1,0,0:0:0:0:
329,192,48041,1,0,0:0:0:0:
256,192,48041,1,0,0:0:0:0:
182,192,48139,1,0,0:0:0:0:
109,192,48139,1,0,0:0:0:0:
36,192,48139,1,0,0:0:0:0:
475,192,48238,1,0,0:0:0:0:
402,192,48238,1,0,0:0:0:0:
109,192,48337,1,0,0:0:0:0:
256,192,48337,1,0,0:0:0:0:
36,192,48337,1,0,0:0:0:0:
182,192,48435,1,0,0:0:0:0:
329,192,48435,1,0,0:0:0:0:
475,192,48534,1,0,0:0:0:0:
36,192,48534,1,0,0:0:0:0:
402,192,48534,1,0,0:0:0:0:
256,192,48534,1,0,0:0:0:0:
109,192,48633,1,0,0:0:0:0:
182,192,48633,1,0,0:0:0:0:
402,192,48732,1,0,0:0:0:0:
475,192,48732,1,0,0:0:0:0:
329,192,48732,1,0,0:0:0:0:
36,192,48830,1,0,0:0:0:0:
109,192,48830,1,0,0:0:0:0:
182,192,48929,1,0,0:0:0:0:
475,192,48929,1,0,0:0:0:0:
329,192,48929,1,0,0:0:0:0:
402,192,49028,1,0,0:0:0:0:
256,192,49028,1,0,0:0:0:0:
36,192,49126,1,0,0:0:0:0:
109,192,49126,1,0,0:0:0:0:
182,192,49126,1,0,0:0:0:0:
329,192,49225,1,0,0:0:0:0:
402,192,49324,1,0,0:0:0:0:
36,192,49324,1,0,0:0:0:0:
256,192,49324,1,0,0:0:0:0:
109,192,49324,1,0,0:0:0:0:
182,192,49422,1,0,0:0:0:0:
402,192,49521,1,0,0:0:0:0:
109,192,49521,1,0,0:0:0:0:
475,192,49521,1,0,0:0:0:0:
329,192,49620,1,0,0:0:0:0:
256,192,49620,1,0,0:0:0:0:
36,192,49718,1,0,0:0:0:0:
475,192,49718,1,0,0:0:0:0:
182,192,49718,1,0,0:0:0:0:
402,192,49817,1,0,0:0:0:0:
329,192,49916,1,0,0:0:0:0:
109,192,49916,1,0,0:0:0:0:
182,192,49916,1,0,0:0:0:0:
256,192,50014,1,0,0:0:0:0:
109,192,50113,1,0,0:0:0:0:
36,192,50113,1,0,0:0:0:0:
182,192,50113,1,0,0:0:0:0:
402,192,50113,1,0,0:0:0:0:
475,192,50212,1,0,0:0:0:0:
109,192,50310,1,0,0:0:0:0:
36,192,50310,1,0,0:0:0:0:
329,192,50310,1,0,0:0:0:0:
256,192,50409,1,0,0:0:0:0:
402,192,50508,1,0,0:0:0:0:
182,192,50508,1,0,0:0:0:0:
475,192,50508,1,0,0:0:0:0:
36,192,50508,1,0,0:0:0:0:
329,192,50607,1,0,0:0:0:0:
256,192,50607,1,0,0:0:0:0:
402,192,50705,1,0,0:0:0:0:
109,192,50705,1,0,0:0:0:0:
182,192,50705,1,0,0:0:0:0:
475,192,50804,1,0,0:0:0:0:
36,192,50903,1,0,0:0:0:0:
109,192,50903,1,0,0:0:0:0:
256,192,50903,1,0,0:0:0:0:
329,192,50903,1,0,0:0:0:0:
402,192,51001,1,0,0:0:0:0:
256,192,51100,1,0,0:0:0:0:
36,192,51100,1,0,0:0:0:0:
182,192,51100,1,0,0:0:0:0:
475,192,51199,1,0,0:0:0:0:
402,192,51199,1,0,0:0:0:0:
256,192,51297,1,0,0:0:0:0:
182,192,51297,1,0,0:0:0:0:
329,192,51297,1,0,0:0:0:0:
109,192,51396,1,0,0:0:0:0:
36,192,51396,1,0,0:0:0:0:
109,192,51495,1,0,0:0:0:0:
36,192,51495,1,0,0:0:0:0:
475,192,51593,1,0,0:0:0:0:
329,192,51593,1,0,0:0:0:0:
402,192,51692,1,0,0:0:0:0:
182,192,51692,1,0,0:0:0:0:
109,192,51692,1,0,0:0:0:0:
256,192,51791,1,0,0:0:0:0:
475,192,51889,1,0,0:0:0:0:
402,192,51889,1,0,0:0:0:0:
475,192,51988,1,0,0:0:0:0:
402,192,51988,1,0,0:0:0:0:
36,192,52087,1,0,0:0:0:0:
109,192,52087,1,0,0:0:0:0:
256,192,52087,1,0,0:0:0:0:
182,192,52087,1,0,0:0:0:0:
329,192,52087,1,0,0:0:0:0:
109,192,52284,1,0,0:0:0:0:
475,192,52284,1,0,0:0:0:0:
402,192,52284,1,0,0:0:0:0:
36,192,52482,1,0,0:0:0:0:
475,192,52482,1,0,0:0:0:0:
182,192,52482,1,0,0:0:0:0:
256,192,52482,1,0,0:0:0:0:
36,192,52679,1,0,0:0:0:0:
329,192,52679,1,0,0:0:0:0:
109,192,52679,1,0,0:0:0:0:
402,192,52778,1,0,0:0:0:0:
182,192,52778,1,0,0:0:0:0:
329,192,52876,1,0,0:0:0:0:
475,192,52876,1,0,0:0:0:0:
36,192,52975,1,0,0:0:0:0:
109,192,52975,1,0,0:0:0:0:
182,192,52975,1,0,0:0:0:0:
256,192,52975,1,0,0:0:0:0:
329,192,53172,1,0,0:0:0:0:
36,192,53172,1,0,0:0:0:0:
109,192,53271,1,0,0:0:0:0:
402,192,53271,1,0,0:0:0:0:
475,192,53271,1,0,0:0:0:0:
182,192,53271,1,0,0:0:0:0:
329,192,53370,1,0,0:0:0:0:
256,192,53370,1,0,0:0:0:0:
109,192,53468,1,0,0:0:0:0:
36,192,53468,1,0,0:0:0:0:
329,192,53666,1,0,0:0:0:0:
475,192,53666,1,0,0:0:0:0:
256,192,53666,1,0,0:0:0:0:
402,192,53863,1,0,0:0:0:0:
329,192,53863,1,0,0:0:0:0:
182,192,53863,1,0,0:0:0:0:
36,192,54060,1,0,0:0:0:0:
109,192,54060,1,0,0:0:0:0:
256,192,54060,1,0,0:0:0:0:
475,192,54060,1,0,0:0:0:0:
182,192,54258,1,0,0:0:0:0:
329,192,54258,1,0,0:0:0:0:
402,192,54258,1,0,0:0:0:0:
256,192,54357,1,0,0:0:0:0:
109,192,54357,1,0,0:0:0:0:
402,192,54455,1,0,0:0:0:0:
475,192,54455,1,0,0:0:0:0:
36,192,54554,1,0,0:0:0:0:
182,192,54554,1,0,0:0:0:0:
329,192,54554,1,0,0:0:0:0:
256,192,54554,1,0,0:0:0:0:
475,192,54751,1,0,0:0:0:0:
109,192,54751,1,0,0:0:0:0:
182,192,54850,1,0,0:0:0:0:
402,192,54850,1,0,0:0:0:0:
36,192,54850,1,0,0:0:0:0:
256,192,54850,1,0,0:0:0:0:
329,192,54949,1,0,0:0:0:0:
475,192,54949,1,0,0:0:0:0:
109,192,55047,1,0,0:0:0:0:
182,192,55047,1,0,0:0:0:0:
475,192,55245,1,0,0:0:0:0:
256,192,55245,1,0,0:0:0:0:
329,192,55245,1,0,0:0:0:0:
256,192,55442,1,0,0:0:0:0:
182,192,55442,1,0,0:0:0:0:
109,192,55442,1,0,0:0:0:0:
36,192,55639,1,0,0:0:0:0:
329,192,55639,1,0,0:0:0:0:
402,192,55639,1,0,0:0:0:0:
475,192,55639,1,0,0:0:0:0:
109,192,55837,1,0,0:0:0:0:
256,192,55837,1,0,0:0:0:0:
182,192,55837,1,0,0:0:0:0:
329,192,55935,1,0,0:0:0:0:
475,192,55935,1,0,0:0:0:0:
109,192,56034,1,0,0:0:0:0:
402,192,56034,1,0,0:0:0:0:
256,192,56133,1,0,0:0:0:0:
36,192,56133,1,0,0:0:0:0:
329,192,56133,1,0,0:0:0:0:
182,192,56133,1,0,0:0:0:0:
36,192,56330,1,0,0:0:0:0:
109,192,56330,1,0,0:0:0:0:
182,192,56429,1,0,0:0:0:0:
329,192,56429,1,0,0:0:0:0:
402,192,56429,1,0,0:0:0:0:
475,192,56429,1,0,0:0:0:0:
256,192,56528,1,0,0:0:0:0:
109,192,56528,1,0,0:0:0:0:
475,192,56626,1,0,0:0:0:0:
329,192,56626,1,0,0:0:0:0:
36,192,56824,1,0,0:0:0:0:
182,192,56824,1,0,0:0:0:0:
402,192,56824,1,0,0:0:0:0:
182,192,57021,1,0,0:0:0:0:
109,192,57021,1,0,0:0:0:0:
329,192,57021,1,0,0:0:0:0:
256,192,57218,1,0,0:0:0:0:
402,192,57218,1,0,0:0:0:0:
475,192,57218,1,0,0:0:0:0:
36,192,57218,1,0,0:0:0:0:
402,192,57416,1,0,0:0:0:0:
329,192,57416,1,0,0:0:0:0:
109,192,57416,1,0,0:0:0:0:
256,192,57613,1,0,0:0:0:0:
475,192,57613,1,0,0:0:0:0:
182,192,57613,1,0,0:0:0:0:
329,192,57712,1,0,0:0:0:0:
109,192,57712,1,0,0:0:0:0:
36,192,57712,1,0,0:0:0:0:
475,192,57909,1,0,0:0:0:0:
182,192,57909,1,0,0:0:0:0:
109,192,57909,1,0,0:0:0:0:
36,192,58008,1,0,0:0:0:0:
256,192,58008,1,0,0:0:0:0:
329,192,58008,1,0,0:0:0:0:
402,192,58008,1,0,0:0:0:0:
182,192,58205,1,0,0:0:0:0:
329,192,58205,1,0,0:0:0:0:
475,192,58403,1,0,0:0:0:0:
402,192,58403,1,0,0:0:0:0:
109,192,58403,1,0,0:0:0:0:
402,192,58600,1,0,0:0:0:0:
329,192,58600,1,0,0:0:0:0:
182,192,58600,1,0,0:0:0:0:
475,192,58797,1,0,0:0:0:0:
36,192,58797,1,0,0:0:0:0:
109,192,58797,1,0,0:0:0:0:
256,192,58797,1,0,0:0:0:0:
475,192,58995,1,0,0:0:0:0:
182,192,58995,1,0,0:0:0:0:
402,192,58995,1,0,0:0:0:0:
109,192,59093,1,0,0:0:0:0:
329,192,59093,1,0,0:0:0:0:
182,192,59192,1,0,0:0:0:0:
36,192,59192,1,0,0:0:0:0:
475,192,59291,1,0,0:0:0:0:
402,192,59291,1,0,0:0:0:0:
329,192,59291,1,0,0:0:0:0:
256,192,59291,1,0,0:0:0:0:
182,192,59488,1,0,0:0:0:0:
475,192,59488,1,0,0:0:0:0:
402,192,59587,1,0,0:0:0:0:
109,192,59587,1,0,0:0:0:0:
36,192,59587,1,0,0:0:0:0:
329,192,59587,1,0,0:0:0:0:
182,192,59685,1,0,0:0:0:0:
256,192,59685,1,0,0:0:0:0:
329,192,59784,1,0,0:0:0:0:
402,192,59784,1,0,0:0:0:0:
182,192,59982,1,0,0:0:0:0:
36,192,59982,1,0,0:0:0:0:
475,192,59982,1,0,0:0:0:0:
109,192,60179,1,0,0:0:0:0:
182,192,60179,1,0,0:0:0:0:
329,192,60179,1,0,0:0:0:0:
475,192,60376,1,0,0:0:0:0:
402,192,60376,1,0,0:0:0:0:
256,192,60376,1,0,0:0:0:0:
36,192,60376,1,0,0:0:0:0:
329,192,60574,1,0,0:0:0:0:
182,192,60574,1,0,0:0:0:0:
109,192,60574,1,0,0:0:0:0:
256,192,60672,1,0,0:0:0:0:
402,192,60672,1,0,0:0:0:0:
109,192,60771,1,0,0:0:0:0:
36,192,60771,1,0,0:0:0:0:
475,192,60870,1,0,0:0:0:0:
329,192,60870,1,0,0:0:0:0:
182,192,60870,1,0,0:0:0:0:
256,192,60870,1,0,0:0:0:0:
36,192,61067,1,0,0:0:0:0:
402,192,61067,1,0,0:0:0:0:
329,192,61166,1,0,0:0:0:0:
109,192,61166,1,0,0:0:0:0:
475,192,61166,1,0,0:0:0:0:
256,192,61166,1,0,0:0:0:0:
182,192,61264,1,0,0:0:0:0:
36,192,61264,1,0,0:0:0:0:
402,192,61363,1,0,0:0:0:0:
329,192,61363,1,0,0:0:0:0:
36,192,61560,1,0,0:0:0:0:
256,192,61560,1,0,0:0:0:0:
182,192,61560,1,0,0:0:0:0:
256,192,61758,1,0,0:0:0:0:
329,192,61758,1,0,0:0:0:0:
402,192,61758,1,0,0:0:0:0:
475,192,61955,5,0,0:0:0:0:
182,192,61955,1,0,0:0:0:0:
109,192,61955,1,0,0:0:0:0:
36,192,61955,1,0,0:0:0:0:
402,192,62153,1,0,0:0:0:0:
256,192,62153,1,0,0:0:0:0:
329,192,62153,1,0,0:0:0:0:
182,192,62251,1,0,0:0:0:0:
36,192,62251,1,0,0:0:0:0:
109,192,62350,1,0,0:0:0:0:
402,192,62350,1,0,0:0:0:0:
256,192,62449,1,0,0:0:0:0:
182,192,62449,1,0,0:0:0:0:
329,192,62449,1,0,0:0:0:0:
475,192,62449,1,0,0:0:0:0:
475,192,62646,1,0,0:0:0:0:
402,192,62646,1,0,0:0:0:0:
329,192,62745,1,0,0:0:0:0:
182,192,62745,1,0,0:0:0:0:
109,192,62745,1,0,0:0:0:0:
36,192,62745,1,0,0:0:0:0:
256,192,62843,1,0,0:0:0:0:
402,192,62843,1,0,0:0:0:0:
36,192,62942,1,0,0:0:0:0:
182,192,62942,1,0,0:0:0:0:
109,192,63139,1,0,0:0:0:0:
256,192,63139,1,0,0:0:0:0:
109,192,63337,1,0,0:0:0:0:
329,192,63337,1,0,0:0:0:0:
256,192,63534,1,0,0:0:0:0:
182,192,63534,1,0,0:0:0:0:
402,192,63534,1,0,0:0:0:0:
402,192,63732,1,0,0:0:0:0:
475,192,63732,1,0,0:0:0:0:
256,192,63929,1,0,0:0:0:0:
329,192,63929,1,0,0:0:0:0:
182,192,64028,1,0,0:0:0:0:
36,192,64028,1,0,0:0:0:0:
109,192,64028,1,0,0:0:0:0:
402,192,64225,1,0,0:0:0:0:
256,192,64225,1,0,0:0:0:0:
329,192,64324,1,0,0:0:0:0:
182,192,64324,1,0,0:0:0:0:
36,192,64324,1,0,0:0:0:0:
256,192,64521,1,0,0:0:0:0:
109,192,64521,1,0,0:0:0:0:
182,192,64718,1,0,0:0:0:0:
402,192,64718,1,0,0:0:0:0:
475,192,64718,1,0,0:0:0:0:
256,192,64718,1,0,0:0:0:0:
402,192,65310,1,0,0:0:0:0:
329,192,65409,1,0,0:0:0:0:
256,192,65508,1,0,0:0:0:0:
36,192,66889,1,0,0:0:0:0:
109,192,66988,1,0,0:0:0:0:
256,192,67087,1,0,0:0:0:0:
109,192,67185,1,0,0:0:0:0:
256,192,67284,1,0,0:0:0:0:
109,192,67383,1,0,0:0:0:0:
329,192,67482,1,0,0:0:0:0:
109,192,67580,1,0,0:0:0:0:
402,192,67679,1,0,0:0:0:0:
475,192,67778,1,0,0:0:0:0:
329,192,67876,1,0,0:0:0:0:
36,192,67876,1,0,0:0:0:0:
182,192,67876,1,0,0:0:0:0:
329,192,68468,1,0,0:0:0:0:
256,192,68567,1,0,0:0:0:0:
182,192,68666,1,0,0:0:0:0:
475,192,69455,1,0,0:0:0:0:
329,192,70047,1,0,0:0:0:0:
182,192,70639,1,0,0:0:0:0:
36,192,71034,1,0,0:0:0:0:
329,192,71034,1,0,0:0:0:0:
402,192,71034,1,0,0:0:0:0:
36,192,72613,1,0,0:0:0:0:
109,192,72712,1,0,0:0:0:0:
256,192,72810,1,0,0:0:0:0:
109,192,72909,1,0,0:0:0:0:
256,192,73008,1,0,0:0:0:0:
182,192,73107,1,0,0:0:0:0:
329,192,73205,1,0,0:0:0:0:
182,192,73304,1,0,0:0:0:0:
402,192,73403,1,0,0:0:0:0:
182,192,73501,1,0,0:0:0:0:
256,192,73600,1,0,0:0:0:0:
329,192,73699,1,0,0:0:0:0:
402,192,73797,1,0,0:0:0:0:
182,192,73896,1,0,0:0:0:0:
329,192,73995,1,0,0:0:0:0:
475,192,74093,1,0,0:0:0:0:
402,192,74192,1,0,0:0:0:0:
109,192,74192,1,0,0:0:0:0:
256,192,74192,1,0,0:0:0:0:
329,192,74784,1,0,0:0:0:0:
182,192,75376,1,0,0:0:0:0:
109,192,75771,1,0,0:0:0:0:
329,192,75771,1,0,0:0:0:0:
402,192,75771,1,0,0:0:0:0:
182,192,76067,1,0,0:0:0:0:
475,192,76363,1,0,0:0:0:0:
36,192,76560,1,0,0:0:0:0:
182,192,76560,1,0,0:0:0:0:
402,192,76560,1,0,0:0:0:0:
182,192,77350,1,0,0:0:0:0:
475,192,77350,1,0,0:0:0:0:
36,192,77350,1,0,0:0:0:0:
182,192,77646,1,0,0:0:0:0:
36,192,77745,1,0,0:0:0:0:
475,192,77942,1,0,0:0:0:0:
182,192,77942,1,0,0:0:0:0:
402,192,78041,1,0,0:0:0:0:
329,192,78139,1,0,0:0:0:0:
182,192,78238,1,0,0:0:0:0:
182,192,78534,1,0,0:0:0:0:
36,192,78534,1,0,0:0:0:0:
182,192,78732,1,0,0:0:0:0:
182,192,78929,1,0,0:0:0:0:
182,192,79225,1,0,0:0:0:0:
36,192,79324,1,0,0:0:0:0:
402,192,79521,1,0,0:0:0:0:
329,192,79521,1,0,0:0:0:0:
109,192,79620,1,0,0:0:0:0:
256,192,79718,1,0,0:0:0:0:
109,192,79817,1,0,0:0:0:0:
475,192,79817,1,0,0:0:0:0:
329,192,79916,1,0,0:0:0:0:
109,192,80014,1,0,0:0:0:0:
329,192,80113,1,0,0:0:0:0:
475,192,80113,1,0,0:0:0:0:
256,192,80113,1,0,0:0:0:0:
109,192,80212,1,0,0:0:0:0:
402,192,80310,1,0,0:0:0:0:
182,192,80310,1,0,0:0:0:0:
475,192,80409,1,0,0:0:0:0:
329,192,80508,1,0,0:0:0:0:
36,192,80508,1,0,0:0:0:0:
256,192,80508,1,0,0:0:0:0:
36,192,80804,1,0,0:0:0:0:
182,192,80903,1,0,0:0:0:0:
402,192,81100,1,0,0:0:0:0:
36,192,81100,1,0,0:0:0:0:
329,192,81199,1,0,0:0:0:0:
256,192,81297,1,0,0:0:0:0:
36,192,81396,1,0,0:0:0:0:
36,192,81692,1,0,0:0:0:0:
182,192,81692,1,0,0:0:0:0:
36,192,81889,1,0,0:0:0:0:
475,192,82087,1,0,0:0:0:0:
36,192,82087,1,0,0:0:0:0:
36,192,82383,1,0,0:0:0:0:
182,192,82482,1,0,0:0:0:0:
329,192,82679,1,0,0:0:0:0:
36,192,82679,1,0,0:0:0:0:
36,192,82975,1,0,0:0:0:0:
182,192,83271,1,0,0:0:0:0:
36,192,83271,1,0,0:0:0:0:
256,192,83271,1,0,0:0:0:0:
36,192,83468,1,0,0:0:0:0:
402,192,83666,1,0,0:0:0:0:
109,192,83666,1,0,0:0:0:0:
329,192,83666,1,0,0:0:0:0:
329,192,83962,1,0,0:0:0:0:
475,192,84060,1,0,0:0:0:0:
329,192,84258,1,0,0:0:0:0:
329,192,84554,1,0,0:0:0:0:
329,192,84850,1,0,0:0:0:0:
475,192,84850,1,0,0:0:0:0:
329,192,85047,1,0,0:0:0:0:
36,192,85245,1,0,0:0:0:0:
329,192,85245,1,0,0:0:0:0:
109,192,85343,1,0,0:0:0:0:
256,192,85442,1,0,0:0:0:0:
109,192,85541,1,0,0:0:0:0:
475,192,85541,1,0,0:0:0:0:
256,192,85639,1,0,0:0:0:0:
402,192,85639,1,0,0:0:0:0:
182,192,85738,1,0,0:0:0:0:
329,192,85837,1,0,0:0:0:0:
36,192,85837,1,0,0:0:0:0:
182,192,85935,1,0,0:0:0:0:
402,192,86034,1,0,0:0:0:0:
182,192,86133,1,0,0:0:0:0:
475,192,86133,1,0,0:0:0:0:
256,192,86232,1,0,0:0:0:0:
329,192,86330,1,0,0:0:0:0:
402,192,86429,1,0,0:0:0:0:
109,192,86429,1,0,0:0:0:0:
475,192,86429,1,0,0:0:0:0:
182,192,86528,1,0,0:0:0:0:
329,192,86626,1,0,0:0:0:0:
36,192,86626,1,0,0:0:0:0:
475,192,86725,1,0,0:0:0:0:
402,192,86824,1,0,0:0:0:0:
256,192,86824,1,0,0:0:0:0:
182,192,86824,1,0,0:0:0:0:
402,192,87120,1,0,0:0:0:0:
109,192,87218,1,0,0:0:0:0:
256,192,87416,1,0,0:0:0:0:
402,192,87416,1,0,0:0:0:0:
402,192,87712,1,0,0:0:0:0:
182,192,88008,1,0,0:0:0:0:
402,192,88008,1,0,0:0:0:0:
109,192,88008,1,0,0:0:0:0:
402,192,88205,1,0,0:0:0:0:
329,192,88403,1,0,0:0:0:0:
256,192,88403,1,0,0:0:0:0:
36,192,88403,1,0,0:0:0:0:
109,192,88600,1,0,0:0:0:0:
402,192,88600,1,0,0:0:0:0:
182,192,88600,1,0,0:0:0:0:
329,192,88699,1,0,0:0:0:0:
36,192,88797,1,0,0:0:0:0:
475,192,88797,1,0,0:0:0:0:
182,192,88797,1,0,0:0:0:0:
109,192,88995,1,0,0:0:0:0:
329,192,88995,1,0,0:0:0:0:
402,192,88995,1,0,0:0:0:0:
182,192,89093,1,0,0:0:0:0:
256,192,89093,1,0,0:0:0:0:
36,192,89192,1,0,0:0:0:0:
475,192,89192,1,0,0:0:0:0:
402,192,89192,1,0,0:0:0:0:
329,192,89291,1,0,0:0:0:0:
256,192,89291,1,0,0:0:0:0:
109,192,89389,1,0,0:0:0:0:
182,192,89389,1,0,0:0:0:0:
402,192,89587,1,0,0:0:0:0:
256,192,89587,1,0,0:0:0:0:
329,192,89784,1,0,0:0:0:0:
182,192,89784,1,0,0:0:0:0:
182,192,89883,1,0,0:0:0:0:
329,192,89883,1,0,0:0:0:0:
36,192,89982,1,0,0:0:0:0:
256,192,89982,1,0,0:0:0:0:
475,192,89982,1,0,0:0:0:0:
109,192,89982,1,0,0:0:0:0:
402,192,89982,1,0,0:0:0:0:
182,192,90080,1,0,0:0:0:0:
402,192,90179,1,0,0:0:0:0:
329,192,90278,1,0,0:0:0:0:
36,192,90376,1,0,0:0:0:0:
109,192,90376,1,0,0:0:0:0:
182,192,90376,1,0,0:0:0:0:
475,192,90376,1,0,0:0:0:0:
256,192,90475,1,0,0:0:0:0:
329,192,90574,1,0,0:0:0:0:
475,192,90574,1,0,0:0:0:0:
36,192,90574,1,0,0:0:0:0:
402,192,90672,1,0,0:0:0:0:
182,192,90672,1,0,0:0:0:0:
329,192,90771,1,0,0:0:0:0:
109,192,90771,1,0,0:0:0:0:
256,192,90771,1,0,0:0:0:0:
36,192,90870,1,0,0:0:0:0:
475,192,90870,1,0,0:0:0:0:
182,192,90968,1,0,0:0:0:0:
109,192,90968,1,0,0:0:0:0:
402,192,91067,1,0,0:0:0:0:
329,192,91067,1,0,0:0:0:0:
36,192,91166,1,0,0:0:0:0:
475,192,91166,1,0,0:0:0:0:
256,192,91166,1,0,0:0:0:0:
109,192,91232,1,0,0:0:0:0:
329,192,91232,1,0,0:0:0:0:
182,192,91297,1,0,0:0:0:0:
402,192,91297,1,0,0:0:0:0:
36,192,91363,1,0,0:0:0:0:
256,192,91363,1,0,0:0:0:0:
109,192,91429,1,0,0:0:0:0:
329,192,91429,1,0,0:0:0:0:
182,192,91495,1,0,0:0:0:0:
402,192,91495,1,0,0:0:0:0:
475,192,91560,1,0,0:0:0:0:
256,192,91560,1,0,0:0:0:0:
36,192,91560,1,0,0:0:0:0:
329,192,91659,1,0,0:0:0:0:
182,192,91758,1,0,0:0:0:0:
256,192,91857,1,0,0:0:0:0:
36,192,91955,1,0,0:0:0:0:
109,192,91955,1,0,0:0:0:0:
402,192,91955,1,0,0:0:0:0:
475,192,91955,1,0,0:0:0:0:
182,192,92054,1,0,0:0:0:0:
256,192,92153,1,0,0:0:0:0:
109,192,92153,1,0,0:0:0:0:
329,192,92153,1,0,0:0:0:0:
475,192,92251,1,0,0:0:0:0:
402,192,92251,1,0,0:0:0:0:
36,192,92350,1,0,0:0:0:0:
182,192,92350,1,0,0:0:0:0:
256,192,92350,1,0,0:0:0:0:
329,192,92449,1,0,0:0:0:0:
109,192,92449,1,0,0:0:0:0:
182,192,92547,1,0,0:0:0:0:
475,192,92547,1,0,0:0:0:0:
402,192,92547,1,0,0:0:0:0:
329,192,92646,1,0,0:0:0:0:
256,192,92646,1,0,0:0:0:0:
36,192,92745,1,0,0:0:0:0:
182,192,92745,1,0,0:0:0:0:
109,192,92745,1,0,0:0:0:0:
475,192,92745,1,0,0:0:0:0:
256,192,92843,1,0,0:0:0:0:
402,192,92843,1,0,0:0:0:0:
36,192,92942,1,0,0:0:0:0:
182,192,92942,1,0,0:0:0:0:
329,192,92942,1,0,0:0:0:0:
402,192,93041,1,0,0:0:0:0:
475,192,93041,1,0,0:0:0:0:
329,192,93139,1,0,0:0:0:0:
36,192,93139,1,0,0:0:0:0:
109,192,93139,1,0,0:0:0:0:
256,192,93139,1,0,0:0:0:0:
182,192,93238,1,0,0:0:0:0:
402,192,93337,1,0,0:0:0:0:
329,192,93435,1,0,0:0:0:0:
256,192,93534,1,0,0:0:0:0:
475,192,93534,1,0,0:0:0:0:
36,192,93534,1,0,0:0:0:0:
109,192,93534,1,0,0:0:0:0:
182,192,93633,1,0,0:0:0:0:
36,192,93732,1,0,0:0:0:0:
329,192,93732,1,0,0:0:0:0:
256,192,93732,1,0,0:0:0:0:
109,192,93830,1,0,0:0:0:0:
402,192,93830,1,0,0:0:0:0:
182,192,93929,1,0,0:0:0:0:
475,192,93929,1,0,0:0:0:0:
329,192,93929,1,0,0:0:0:0:
36,192,94028,1,0,0:0:0:0:
256,192,94028,1,0,0:0:0:0:
402,192,94126,1,0,0:0:0:0:
329,192,94126,1,0,0:0:0:0:
182,192,94126,1,0,0:0:0:0:
109,192,94225,1,0,0:0:0:0:
36,192,94225,1,0,0:0:0:0:
475,192,94324,1,0,0:0:0:0:
402,192,94324,1,0,0:0:0:0:
256,192,94324,1,0,0:0:0:0:
182,192,94324,1,0,0:0:0:0:
109,192,94422,1,0,0:0:0:0:
36,192,94422,1,0,0:0:0:0:
475,192,94521,1,0,0:0:0:0:
329,192,94521,1,0,0:0:0:0:
256,192,94521,1,0,0:0:0:0:
402,192,94620,1,0,0:0:0:0:
109,192,94620,1,0,0:0:0:0:
182,192,94718,1,0,0:0:0:0:
329,192,94718,1,0,0:0:0:0:
256,192,94718,1,0,0:0:0:0:
36,192,94718,1,0,0:0:0:0:
475,192,94817,1,0,0:0:0:0:
109,192,94916,1,0,0:0:0:0:
182,192,95014,1,0,0:0:0:0:
36,192,95113,1,0,0:0:0:0:
329,192,95113,1,0,0:0:0:0:
256,192,95113,1,0,0:0:0:0:
475,192,95113,1,0,0:0:0:0:
109,192,95212,1,0,0:0:0:0:
182,192,95310,1,0,0:0:0:0:
329,192,95310,1,0,0:0:0:0:
402,192,95310,1,0,0:0:0:0:
256,192,95409,1,0,0:0:0:0:
475,192,95508,1,0,0:0:0:0:
36,192,95508,1,0,0:0:0:0:
109,192,95508,1,0,0:0:0:0:
402,192,95607,1,0,0:0:0:0:
329,192,95607,1,0,0:0:0:0:
182,192,95705,1,0,0:0:0:0:
256,192,95804,1,0,0:0:0:0:
36,192,95903,1,0,0:0:0:0:
475,192,95903,1,0,0:0:0:0:
329,192,95903,1,0,0:0:0:0:
109,192,95903,1,0,0:0:0:0:
182,192,96001,1,0,0:0:0:0:
402,192,96100,1,0,0:0:0:0:
256,192,96199,1,0,0:0:0:0:
329,192,96297,1,0,0:0:0:0:
182,192,96297,1,0,0:0:0:0:
36,192,96297,1,0,0:0:0:0:
109,192,96297,1,0,0:0:0:0:
475,192,96396,1,0,0:0:0:0:
402,192,96396,1,0,0:0:0:0:
36,192,96495,1,0,0:0:0:0:
182,192,96495,1,0,0:0:0:0:
256,192,96495,1,0,0:0:0:0:
109,192,96593,1,0,0:0:0:0:
402,192,96593,1,0,0:0:0:0:
475,192,96692,1,0,0:0:0:0:
36,192,96692,1,0,0:0:0:0:
256,192,96692,1,0,0:0:0:0:
329,192,96692,1,0,0:0:0:0:
402,192,96791,1,0,0:0:0:0:
109,192,96791,1,0,0:0:0:0:
256,192,96889,1,0,0:0:0:0:
182,192,96889,1,0,0:0:0:0:
475,192,96889,1,0,0:0:0:0:
36,192,96988,1,0,0:0:0:0:
109,192,96988,1,0,0:0:0:0:
402,192,97087,1,0,0:0:0:0:
329,192,97087,1,0,0:0:0:0:
182,192,97087,1,0,0:0:0:0:
256,192,97087,1,0,0:0:0:0:
36,192,97185,1,0,0:0:0:0:
475,192,97185,1,0,0:0:0:0:
109,192,97284,1,0,0:0:0:0:
256,192,97284,1,0,0:0:0:0:
402,192,97284,1,0,0:0:0:0:
329,192,97383,1,0,0:0:0:0:
182,192,97383,1,0,0:0:0:0:
36,192,97482,1,0,0:0:0:0:
109,192,97482,1,0,0:0:0:0:
402,192,97482,1,0,0:0:0:0:
475,192,97482,1,0,0:0:0:0:
182,192,97580,1,0,0:0:0:0:
329,192,97580,1,0,0:0:0:0:
256,192,97679,1,0,0:0:0:0:
475,192,97679,1,0,0:0:0:0:
402,192,97679,1,0,0:0:0:0:
109,192,97876,1,0,0:0:0:0:
182,192,97876,1,0,0:0:0:0:
256,192,97876,1,0,0:0:0:0:
402,192,97876,1,0,0:0:0:0:
329,192,97975,1,0,0:0:0:0:
475,192,97975,1,0,0:0:0:0:
36,192,98074,1,0,0:0:0:0:
109,192,98074,1,0,0:0:0:0:
182,192,98074,1,0,0:0:0:0:
329,192,98172,1,0,0:0:0:0:
256,192,98172,1,0,0:0:0:0:
36,192,98271,1,0,0:0:0:0:
402,192,98271,1,0,0:0:0:0:
475,192,98271,1,0,0:0:0:0:
182,192,98271,1,0,0:0:0:0:
256,192,98370,1,0,0:0:0:0:
109,192,98370,1,0,0:0:0:0:
475,192,98468,1,0,0:0:0:0:
402,192,98468,1,0,0:0:0:0:
329,192,98468,1,0,0:0:0:0:
36,192,98567,1,0,0:0:0:0:
182,192,98567,1,0,0:0:0:0:
475,192,98666,1,0,0:0:0:0:
402,192,98666,1,0,0:0:0:0:
256,192,98666,1,0,0:0:0:0:
36,192,98764,1,0,0:0:0:0:
109,192,98764,1,0,0:0:0:0:
329,192,98764,1,0,0:0:0:0:
182,192,98863,1,0,0:0:0:0:
256,192,98863,1,0,0:0:0:0:
402,192,98962,1,0,0:0:0:0:
475,192,98962,1,0,0:0:0:0:
329,192,99060,1,0,0:0:0:0:
182,192,99060,1,0,0:0:0:0:
109,192,99060,1,0,0:0:0:0:
36,192,99060,1,0,0:0:0:0:
402,192,99159,1,0,0:0:0:0:
475,192,99159,1,0,0:0:0:0:
36,192,99258,1,0,0:0:0:0:
109,192,99258,1,0,0:0:0:0:
182,192,99258,1,0,0:0:0:0:
256,192,99357,1,0,0:0:0:0:
402,192,99357,1,0,0:0:0:0:
36,192,99455,1,0,0:0:0:0:
475,192,99455,1,0,0:0:0:0:
182,192,99455,1,0,0:0:0:0:
329,192,99455,1,0,0:0:0:0:
109,192,99554,1,0,0:0:0:0:
402,192,99653,1,0,0:0:0:0:
329,192,99751,1,0,0:0:0:0:
36,192,99850,1,0,0:0:0:0:
109,192,99850,1,0,0:0:0:0:
402,192,99850,1,0,0:0:0:0:
256,192,99850,1,0,0:0:0:0:
182,192,99949,1,0,0:0:0:0:
329,192,100047,1,0,0:0:0:0:
36,192,100047,1,0,0:0:0:0:
475,192,100047,1,0,0:0:0:0:
109,192,100146,1,0,0:0:0:0:
182,192,100245,1,0,0:0:0:0:
402,192,100245,1,0,0:0:0:0:
256,192,100245,1,0,0:0:0:0:
329,192,100343,1,0,0:0:0:0:
36,192,100442,1,0,0:0:0:0:
182,192,100541,1,0,0:0:0:0:
109,192,100639,1,0,0:0:0:0:
256,192,100639,1,0,0:0:0:0:
329,192,100639,1,0,0:0:0:0:
402,192,100639,1,0,0:0:0:0:
36,192,100738,1,0,0:0:0:0:
475,192,100837,1,0,0:0:0:0:
329,192,100935,1,0,0:0:0:0:
109,192,101034,1,0,0:0:0:0:
182,192,101034,1,0,0:0:0:0:
36,192,101034,1,0,0:0:0:0:
402,192,101034,1,0,0:0:0:0:
256,192,101133,1,0,0:0:0:0:
36,192,101232,1,0,0:0:0:0:
109,192,101330,1,0,0:0:0:0:
402,192,101330,1,0,0:0:0:0:
182,192,101429,1,0,0:0:0:0:
475,192,101429,1,0,0:0:0:0:
256,192,101429,1,0,0:0:0:0:
329,192,101429,1,0,0:0:0:0:
36,192,101528,1,0,0:0:0:0:
475,192,101626,1,0,0:0:0:0:
402,192,101626,1,0,0:0:0:0:
329,192,101626,1,0,0:0:0:0:
36,192,101725,1,0,0:0:0:0:
182,192,101824,1,0,0:0:0:0:
402,192,101824,1,0,0:0:0:0:
109,192,101824,1,0,0:0:0:0:
329,192,101824,1,0,0:0:0:0:
402,192,101922,1,0,0:0:0:0:
329,192,101922,1,0,0:0:0:0:
109,192,101922,1,0,0:0:0:0:
182,192,101922,1,0,0:0:0:0:
109,192,102120,1,0,0:0:0:0:
182,192,102120,1,0,0:0:0:0:
402,192,102120,1,0,0:0:0:0:
329,192,102120,1,0,0:0:0:0:
109,192,102317,1,0,0:0:0:0:
329,192,102317,1,0,0:0:0:0:
402,192,102317,1,0,0:0:0:0:
182,192,102317,1,0,0:0:0:0:
109,192,102514,1,0,0:0:0:0:
182,192,102514,1,0,0:0:0:0:
402,192,102514,1,0,0:0:0:0:
329,192,102514,1,0,0:0:0:0:
475,192,102613,1,0,0:0:0:0:
256,192,102613,1,0,0:0:0:0:
36,192,102613,1,0,0:0:0:0:
329,192,102712,1,0,0:0:0:0:
109,192,102810,1,0,0:0:0:0:
256,192,102909,1,0,0:0:0:0:
475,192,103008,1,0,0:0:0:0:
402,192,103008,1,0,0:0:0:0:
329,192,103008,1,0,0:0:0:0:
36,192,103008,1,0,0:0:0:0:
182,192,103008,1,0,0:0:0:0:
256,192,103107,1,0,0:0:0:0:
109,192,103205,1,0,0:0:0:0:
36,192,103205,1,0,0:0:0:0:
475,192,103205,1,0,0:0:0:0:
182,192,103304,1,0,0:0:0:0:
329,192,103304,1,0,0:0:0:0:
109,192,103403,1,0,0:0:0:0:
402,192,103403,1,0,0:0:0:0:
256,192,103403,1,0,0:0:0:0:
475,192,103501,1,0,0:0:0:0:
36,192,103501,1,0,0:0:0:0:
329,192,103600,1,0,0:0:0:0:
402,192,103600,1,0,0:0:0:0:
109,192,103699,1,0,0:0:0:0:
182,192,103699,1,0,0:0:0:0:
475,192,103797,1,0,0:0:0:0:
36,192,103797,1,0,0:0:0:0:
256,192,103797,1,0,0:0:0:0:
402,192,103863,1,0,0:0:0:0:
182,192,103863,1,0,0:0:0:0:
329,192,103929,1,0,0:0:0:0:
109,192,103929,1,0,0:0:0:0:
475,192,103995,1,0,0:0:0:0:
256,192,103995,1,0,0:0:0:0:
402,192,104060,1,0,0:0:0:0:
182,192,104060,1,0,0:0:0:0:
329,192,104126,1,0,0:0:0:0:
109,192,104126,1,0,0:0:0:0:
36,192,104192,1,0,0:0:0:0:
256,192,104192,1,0,0:0:0:0:
475,192,104192,1,0,0:0:0:0:
182,192,104291,1,0,0:0:0:0:
329,192,104389,1,0,0:0:0:0:
256,192,104488,1,0,0:0:0:0:
475,192,104587,1,0,0:0:0:0:
402,192,104587,1,0,0:0:0:0:
109,192,104587,1,0,0:0:0:0:
36,192,104587,1,0,0:0:0:0:
329,192,104685,1,0,0:0:0:0:
256,192,104784,1,0,0:0:0:0:
402,192,104784,1,0,0:0:0:0:
182,192,104784,1,0,0:0:0:0:
36,192,104883,1,0,0:0:0:0:
109,192,104883,1,0,0:0:0:0:
475,192,104982,1,0,0:0:0:0:
329,192,104982,1,0,0:0:0:0:
256,192,104982,1,0,0:0:0:0:
182,192,105080,1,0,0:0:0:0:
402,192,105080,1,0,0:0:0:0:
256,192,105179,1,0,0:0:0:0:
36,192,105179,1,0,0:0:0:0:
329,192,105179,1,0,0:0:0:0:
182,192,105278,1,0,0:0:0:0:
109,192,105278,1,0,0:0:0:0:
475,192,105376,1,0,0:0:0:0:
402,192,105376,1,0,0:0:0:0:
36,192,105376,1,0,0:0:0:0:
329,192,105376,1,0,0:0:0:0:
109,192,105475,1,0,0:0:0:0:
256,192,105475,1,0,0:0:0:0:
475,192,105574,1,0,0:0:0:0:
182,192,105574,1,0,0:0:0:0:
402,192,105574,1,0,0:0:0:0:
36,192,105672,1,0,0:0:0:0:
256,192,105672,1,0,0:0:0:0:
475,192,105771,1,0,0:0:0:0:
402,192,105771,1,0,0:0:0:0:
329,192,105771,1,0,0:0:0:0:
109,192,105771,1,0,0:0:0:0:
182,192,105870,1,0,0:0:0:0:
329,192,105968,1,0,0:0:0:0:
256,192,106067,1,0,0:0:0:0:
36,192,106166,1,0,0:0:0:0:
475,192,106166,1,0,0:0:0:0:
402,192,106166,1,0,0:0:0:0:
109,192,106166,1,0,0:0:0:0:
329,192,106264,1,0,0:0:0:0:
475,192,106363,1,0,0:0:0:0:
182,192,106363,1,0,0:0:0:0:
256,192,106363,1,0,0:0:0:0:
402,192,106462,1,0,0:0:0:0:
109,192,106462,1,0,0:0:0:0:
329,192,106560,1,0,0:0:0:0:
36,192,106560,1,0,0:0:0:0:
182,192,106560,1,0,0:0:0:0:
402,192,106659,1,0,0:0:0:0:
256,192,106659,1,0,0:0:0:0:
109,192,106758,1,0,0:0:0:0:
36,192,106758,1,0,0:0:0:0:
475,192,106758,1,0,0:0:0:0:
182,192,106857,1,0,0:0:0:0:
256,192,106857,1,0,0:0:0:0:
36,192,106955,1,0,0:0:0:0:
329,192,106955,1,0,0:0:0:0:
475,192,106955,1,0,0:0:0:0:
402,192,106955,1,0,0:0:0:0:
182,192,107054,1,0,0:0:0:0:
109,192,107054,1,0,0:0:0:0:
36,192,107153,1,0,0:0:0:0:
475,192,107153,1,0,0:0:0:0:
329,192,107153,1,0,0:0:0:0:
402,192,107251,1,0,0:0:0:0:
256,192,107251,1,0,0:0:0:0:
329,192,107350,1,0,0:0:0:0:
182,192,107350,1,0,0:0:0:0:
109,192,107350,1,0,0:0:0:0:
475,192,107350,1,0,0:0:0:0:
36,192,107449,1,0,0:0:0:0:
402,192,107547,1,0,0:0:0:0:
329,192,107646,1,0,0:0:0:0:
475,192,107745,1,0,0:0:0:0:
109,192,107745,1,0,0:0:0:0:
256,192,107745,1,0,0:0:0:0:
36,192,107745,1,0,0:0:0:0:
402,192,107843,1,0,0:0:0:0:
329,192,107942,1,0,0:0:0:0:
36,192,107942,1,0,0:0:0:0:
182,192,107942,1,0,0:0:0:0:
256,192,108041,1,0,0:0:0:0:
329,192,108139,1,0,0:0:0:0:
475,192,108139,1,0,0:0:0:0:
402,192,108139,1,0,0:0:0:0:
109,192,108238,1,0,0:0:0:0:
36,192,108238,1,0,0:0:0:0:
256,192,108337,1,0,0:0:0:0:
329,192,108435,1,0,0:0:0:0:
475,192,108534,1,0,0:0:0:0:
36,192,108534,1,0,0:0:0:0:
402,192,108534,1,0,0:0:0:0:
182,192,108534,1,0,0:0:0:0:
329,192,108633,1,0,0:0:0:0:
109,192,108732,1,0,0:0:0:0:
182,192,108830,1,0,0:0:0:0:
329,192,108929,1,0,0:0:0:0:
475,192,108929,1,0,0:0:0:0:
402,192,108929,1,0,0:0:0:0:
256,192,108929,1,0,0:0:0:0:
36,192,109028,1,0,0:0:0:0:
109,192,109028,1,0,0:0:0:0:
475,192,109126,1,0,0:0:0:0:
402,192,109126,1,0,0:0:0:0:
256,192,109126,1,0,0:0:0:0:
329,192,109225,1,0,0:0:0:0:
109,192,109225,1,0,0:0:0:0:
36,192,109324,1,0,0:0:0:0:
475,192,109324,1,0,0:0:0:0:
402,192,109324,1,0,0:0:0:0:
182,192,109324,1,0,0:0:0:0:
256,192,109422,1,0,0:0:0:0:
329,192,109422,1,0,0:0:0:0:
182,192,109521,1,0,0:0:0:0:
109,192,109521,1,0,0:0:0:0:
36,192,109521,1,0,0:0:0:0:
475,192,109620,1,0,0:0:0:0:
402,192,109620,1,0,0:0:0:0:
109,192,109718,1,0,0:0:0:0:
182,192,109718,1,0,0:0:0:0:
329,192,109718,1,0,0:0:0:0:
256,192,109718,1,0,0:0:0:0:
402,192,109817,1,0,0:0:0:0:
36,192,109817,1,0,0:0:0:0:
329,192,109916,1,0,0:0:0:0:
109,192,109916,1,0,0:0:0:0:
182,192,109916,1,0,0:0:0:0:
256,192,110014,1,0,0:0:0:0:
475,192,110014,1,0,0:0:0:0:
402,192,110113,1,0,0:0:0:0:
329,192,110113,1,0,0:0:0:0:
109,192,110113,1,0,0:0:0:0:
36,192,110113,1,0,0:0:0:0:
256,192,110212,1,0,0:0:0:0:
475,192,110212,1,0,0:0:0:0:
182,192,110310,1,0,0:0:0:0:
36,192,110310,1,0,0:0:0:0:
109,192,110310,1,0,0:0:0:0:
402,192,110508,1,0,0:0:0:0:
329,192,110508,1,0,0:0:0:0:
256,192,110508,1,0,0:0:0:0:
182,192,110508,1,0,0:0:0:0:
109,192,110607,1,0,0:0:0:0:
36,192,110607,1,0,0:0:0:0:
475,192,110705,1,0,0:0:0:0:
256,192,110705,1,0,0:0:0:0:
329,192,110705,1,0,0:0:0:0:
182,192,110804,1,0,0:0:0:0:
402,192,110804,1,0,0:0:0:0:
475,192,110903,1,0,0:0:0:0:
36,192,110903,1,0,0:0:0:0:
109,192,110903,1,0,0:0:0:0:
329,192,110903,1,0,0:0:0:0:
402,192,111001,1,0,0:0:0:0:
182,192,111001,1,0,0:0:0:0:
36,192,111100,1,0,0:0:0:0:
109,192,111100,1,0,0:0:0:0:
256,192,111100,1,0,0:0:0:0:
402,192,111199,1,0,0:0:0:0:
475,192,111199,1,0,0:0:0:0:
329,192,111297,1,0,0:0:0:0:
182,192,111297,1,0,0:0:0:0:
109,192,111297,1,0,0:0:0:0:
402,192,111396,1,0,0:0:0:0:
36,192,111396,1,0,0:0:0:0:
256,192,111495,1,0,0:0:0:0:
182,192,111495,1,0,0:0:0:0:
475,192,111495,1,0,0:0:0:0:
109,192,111593,1,0,0:0:0:0:
36,192,111593,1,0,0:0:0:0:
182,192,111692,1,0,0:0:0:0:
329,192,111692,1,0,0:0:0:0:
402,192,111692,1,0,0:0:0:0:
475,192,111692,1,0,0:0:0:0:
109,192,111791,1,0,0:0:0:0:
36,192,111791,1,0,0:0:0:0:
475,192,111889,1,0,0:0:0:0:
402,192,111889,1,0,0:0:0:0:
256,192,111889,1,0,0:0:0:0:
329,192,111988,1,0,0:0:0:0:
182,192,111988,1,0,0:0:0:0:
475,192,112087,1,0,0:0:0:0:
36,192,112087,1,0,0:0:0:0:
256,192,112087,1,0,0:0:0:0:
109,192,112087,1,0,0:0:0:0:
402,192,112185,1,0,0:0:0:0:
109,192,112284,1,0,0:0:0:0:
182,192,112383,1,0,0:0:0:0:
402,192,112482,1,0,0:0:0:0:
109,192,112482,1,0,0:0:0:0:
256,192,112482,1,0,0:0:0:0:
36,192,112482,1,0,0:0:0:0:
329,192,112580,1,0,0:0:0:0:
182,192,112679,1,0,0:0:0:0:
475,192,112679,1,0,0:0:0:0:
36,192,112679,1,0,0:0:0:0:
402,192,112778,1,0,0:0:0:0:
329,192,112876,1,0,0:0:0:0:
109,192,112876,1,0,0:0:0:0:
256,192,112876,1,0,0:0:0:0:
182,192,112975,1,0,0:0:0:0:
475,192,113074,1,0,0:0:0:0:
329,192,113172,1,0,0:0:0:0:
402,192,113271,1,0,0:0:0:0:
256,192,113271,1,0,0:0:0:0:
182,192,113271,1,0,0:0:0:0:
109,192,113271,1,0,0:0:0:0:
475,192,113370,1,0,0:0:0:0:
36,192,113468,1,0,0:0:0:0:
182,192,113567,1,0,0:0:0:0:
402,192,113666,1,0,0:0:0:0:
329,192,113666,1,0,0:0:0:0:
475,192,113666,1,0,0:0:0:0:
109,192,113666,1,0,0:0:0:0:
256,192,113764,1,0,0:0:0:0:
36,192,113863,1,0,0:0:0:0:
402,192,113863,1,0,0:0:0:0:
109,192,113863,1,0,0:0:0:0:
256,192,113962,1,0,0:0:0:0:
329,192,113962,1,0,0:0:0:0:
182,192,113962,1,0,0:0:0:0:
475,192,114060,1,0,0:0:0:0:
402,192,114060,1,0,0:0:0:0:
109,192,114060,1,0,0:0:0:0:
36,192,114159,1,0,0:0:0:0:
475,192,114258,1,0,0:0:0:0:
329,192,114258,1,0,0:0:0:0:
256,192,114258,1,0,0:0:0:0:
109,192,114357,1,0,0:0:0:0:
36,192,114357,1,0,0:0:0:0:
256,192,114455,1,0,0:0:0:0:
182,192,114455,1,0,0:0:0:0:
329,192,114455,1,0,0:0:0:0:
475,192,114554,1,0,0:0:0:0:
402,192,114554,1,0,0:0:0:0:
402,192,114653,1,0,0:0:0:0:
475,192,114653,1,0,0:0:0:0:
256,192,114751,1,0,0:0:0:0:
475,192,114850,1,0,0:0:0:0:
36,192,114850,1,0,0:0:0:0:
182,192,114850,1,0,0:0:0:0:
329,192,114850,1,0,0:0:0:0:
402,192,114949,1,0,0:0:0:0:
36,192,115047,1,0,0:0:0:0:
109,192,115047,1,0,0:0:0:0:
36,192,115146,1,0,0:0:0:0:
109,192,115146,1,0,0:0:0:0:
256,192,115245,1,0,0:0:0:0:
402,192,115245,1,0,0:0:0:0:
475,192,115245,1,0,0:0:0:0:
182,192,115245,1,0,0:0:0:0:
329,192,115245,1,0,0:0:0:0:
