osu file format v14

[General]
AudioFilename: audio.mp3
AudioLeadIn: 0
PreviewTime: 212227
Countdown: 0
SampleSet: Drum
StackLeniency: 0.5
Mode: 0
LetterboxInBreaks: 1
WidescreenStoryboard: 1

[Editor]
Bookmarks: 89560,271785
DistanceSpacing: 0.8
BeatDivisor: 4
GridSize: 32
TimelineZoom: 2.399999

[Metadata]
Title:Himitsu
TitleUnicode:秘密
Artist:SHIKI
ArtistUnicode:SHIKI
Creator:Yugu
Version:Insane
Source:
Tags:japanese pop j-pop jpop はるまきごはん Harumaki Gohan cover ふたりの vocaloid 初音ミク Hatsune Miku TtmnZk TT Mouse TT_Mouse
BeatmapID:3559941
BeatmapSetID:1707540

[Difficulty]
HPDrainRate:6
CircleSize:4
OverallDifficulty:8
ApproachRate:9
SliderMultiplier:1.6
SliderTickRate:1

[Events]
//Background and Video events
0,0,"lily.jpg",0,0
//Break Periods
2,120856,126511
//Storyboard Layer 0 (Background)
//Storyboard Layer 1 (Fail)
//Storyboard Layer 2 (Pass)
//Storyboard Layer 3 (Foreground)
//Storyboard Layer 4 (Overlay)
//Storyboard Sound Samples

[TimingPoints]
1561,444.444444444444,4,2,2,50,1,0
1561,-125,4,2,2,50,0,0
15783,-100,4,2,3,75,0,0
19116,-100,4,2,3,50,0,0
19338,-100,4,2,3,75,0,0
24783,-100,4,2,2,35,0,0
26005,-100,4,2,2,20,0,0
28227,-100,4,2,2,15,0,0
28449,-100,4,2,2,20,0,0
28672,-100,4,2,2,50,0,0
28894,-100,4,2,2,25,0,0
29116,-100,4,2,2,55,0,0
29338,-100,4,2,2,35,0,0
29560,-125,4,2,2,85,0,0
30005,-100,4,2,4,78,0,0
36449,-100,4,2,4,78,0,0
36672,-100,4,2,4,90,0,0
36783,-100,4,2,4,78,0,0
37116,-83.3333333333333,4,2,4,78,0,0
43783,-83.3333333333333,4,3,5,78,0,0
44227,-83.3333333333333,4,2,4,78,0,0
46894,-83.3333333333333,4,2,6,50,0,0
47005,-83.3333333333333,4,2,6,70,0,0
47338,-83.3333333333333,4,2,4,78,0,0
49560,-66.6666666666667,4,3,2,75,0,0
49783,-66.6666666666667,4,3,2,65,0,0
49894,-76.9230769230769,4,3,2,75,0,0
50560,-76.9230769230769,4,3,2,70,0,0
50672,-76.9230769230769,4,3,4,70,0,0
50894,-76.9230769230769,4,3,4,75,0,0
51116,-76.9230769230769,4,3,2,75,0,0
51338,-76.9230769230769,4,1,2,83,0,0
51560,-76.9230769230769,4,1,2,30,0,0
51672,-76.9230769230769,4,1,2,68,0,0
51894,-76.9230769230769,4,1,2,30,0,0
52005,-333.333333333333,4,1,2,50,0,0
54783,-333.333333333333,4,3,2,5,0,0
54894,-100,4,3,2,63,0,0
55116,-100,4,3,2,30,0,0
55227,-100,4,3,2,63,0,0
55449,-100,4,3,2,30,0,0
55560,-125,4,1,2,75,0,0
55857,-125,4,1,2,60,0,0
56153,-125,4,1,2,40,0,0
56449,-125,4,1,2,20,0,0
56672,-100,4,3,2,75,0,0
56894,-100,4,3,4,75,0,0
57560,-100,4,3,2,75,0,0
58005,-100,4,3,2,75,0,0
58449,-100,4,3,2,75,0,0
58894,-100,4,3,2,80,0,0
59338,-100,4,3,2,85,0,0
59783,-100,4,3,2,90,0,0
60227,-100,4,3,2,90,0,0
60672,-100,4,3,4,90,0,0
63783,-66.6666666666667,4,3,2,68,0,0
64005,-66.6666666666667,4,3,2,20,0,0
64227,-66.6666666666667,4,3,2,68,0,0
64449,-66.6666666666667,4,3,2,20,0,0
64672,-83.3333333333333,4,3,4,68,0,0
65449,-83.3333333333333,4,3,2,5,0,0
65560,-76.9230769230769,4,2,5,95,0,0
67672,-66.6666666666667,4,2,5,95,0,0
68005,-76.9230769230769,4,2,5,95,0,0
68227,-76.9230769230769,4,2,5,95,0,0
71227,-76.9230769230769,4,2,5,95,0,0
71560,-76.9230769230769,4,2,5,95,0,0
71783,-76.9230769230769,4,2,5,95,0,0
79560,-76.9230769230769,4,3,4,95,0,0
79783,-100,4,2,5,95,0,0
80227,-76.9230769230769,4,2,5,95,0,0
80560,-76.9230769230769,4,2,5,95,0,0
81894,-66.6666666666667,4,2,5,95,0,0
82227,-76.9230769230769,4,2,5,95,0,0
82449,-66.6666666666667,4,2,5,95,0,0
82783,-66.6666666666667,4,2,5,5,0,0
82894,-66.6666666666667,4,2,5,95,0,0
83227,-66.6666666666667,4,2,5,5,0,0
83338,-76.9230769230769,4,2,5,100,0,0
83783,-76.9230769230769,4,2,5,100,0,0
84227,-76.9230769230769,4,2,5,100,0,0
84672,-76.9230769230769,4,2,5,100,0,0
85116,-76.9230769230769,4,2,5,95,0,0
86005,-76.9230769230769,4,2,5,95,0,0
86227,-83.3333333333333,4,2,5,95,0,0
86449,-90.9090909090909,4,2,5,95,0,0
86672,-100,4,2,5,85,0,0
86894,-83.3333333333333,4,2,5,85,0,0
94005,-83.3333333333333,4,2,6,95,0,0
94338,-76.9230769230769,4,2,6,20,0,0
94449,-66.6666666666667,4,2,6,95,0,0
94783,-66.6666666666667,4,2,6,40,0,0
94894,-83.3333333333333,4,2,6,95,0,0
95672,-83.3333333333333,4,2,6,40,0,0
95783,-83.3333333333333,4,2,6,95,0,0
96116,-83.3333333333333,4,2,6,40,0,0
96227,-83.3333333333333,4,2,6,95,0,0
96560,-83.3333333333333,4,2,6,40,0,0
96671,-83.3333333333333,4,2,6,85,0,0
97338,-83.3333333333333,4,2,5,65,0,0
97560,-83.3333333333333,4,2,6,85,0,0
97894,-83.3333333333333,4,2,6,40,0,0
98005,-66.6666666666667,4,2,6,85,0,0
98338,-66.6666666666667,4,2,6,40,0,0
98449,-83.3333333333333,4,2,6,85,0,0
99116,-83.3333333333333,4,2,5,70,0,0
99338,-83.3333333333333,4,2,6,70,0,0
100227,-83.3333333333333,4,2,6,70,0,0
100449,-83.3333333333333,4,2,4,70,0,0
100672,-83.3333333333333,4,2,6,70,0,0
101116,-83.3333333333333,4,2,6,95,0,0
101449,-83.3333333333333,4,2,6,20,0,0
101560,-66.6666666666667,4,2,6,95,0,0
101894,-66.6666666666667,4,2,6,40,0,0
102005,-83.3333333333333,4,2,6,95,0,0
102783,-83.3333333333333,4,2,6,40,0,0
102894,-83.3333333333333,4,2,6,95,0,0
103227,-83.3333333333333,4,2,6,40,0,0
103338,-83.3333333333333,4,2,6,95,0,0
103672,-83.3333333333333,4,2,6,40,0,0
103783,-83.3333333333333,4,2,6,85,0,0
104449,-83.3333333333333,4,2,6,65,0,0
104672,-83.3333333333333,4,2,6,85,0,0
105005,-83.3333333333333,4,2,6,40,0,0
105116,-66.6666666666667,4,2,6,85,0,0
105449,-83.3333333333333,4,2,6,40,0,0
105560,-83.3333333333333,4,3,2,85,0,0
105783,-83.3333333333333,4,3,2,50,0,0
106005,-83.3333333333333,4,3,2,68,0,0
106338,-83.3333333333333,4,3,2,85,0,0
106449,-100,4,3,2,85,0,0
106672,-100,4,3,2,85,0,0
106894,-90.9090909090909,4,3,2,85,0,0
107116,-90.9090909090909,4,3,2,85,0,0
107338,-83.3333333333333,4,1,2,85,0,0
107560,-83.3333333333333,4,1,2,85,0,0
107783,-76.9230769230769,4,1,5,85,0,0
108005,-76.9230769230769,4,1,2,85,0,0
108227,466.92607003891,4,2,2,80,1,0
108920,483.870967741935,4,2,2,80,1,0
109655,510.63829787234,4,2,2,80,1,0
109910,550.45871559633,4,2,2,80,1,0
110473,570.071258907363,4,2,2,76,1,0
110758,685.714285714286,4,2,2,72,1,0
111418,821.917808219178,4,2,2,68,1,0
112239,983.606557377049,4,2,2,64,1,0
113450,888.888888888889,4,2,2,60,1,0
113450,-100,4,2,2,50,0,0
113561,886.917960088692,4,2,2,50,1,0
113782,-100,4,2,2,50,0,0
113838,-100,4,2,22,5,0,0
116221,-100,4,2,2,6,0,0
116332,-100,4,2,22,7,0,0
116443,-100,4,2,2,8,0,0
116609,-100,4,2,22,9,0,0
116665,-100,4,2,2,10,0,0
116776,-100,4,2,22,11,0,0
116886,-100,4,2,2,12,0,0
116997,-100,4,2,22,13,0,0
117108,-100,4,2,2,14,0,0
117219,-100,4,2,22,15,0,0
117330,-100,4,2,2,16,0,0
117441,-100,4,2,22,17,0,0
117552,-100,4,2,2,18,0,0
117662,-100,4,2,22,20,0,0
117773,-100,4,2,2,22,0,0
117884,-100,4,2,22,24,0,0
117995,-100,4,2,22,30,0,0
120656,-100,4,2,2,60,0,0
127111,444.444444444444,4,2,2,15,1,0
127777,444.444444444444,4,2,2,50,1,0
127777,-125,4,2,2,50,0,0
133110,-125,4,2,2,50,0,0
134443,-100,4,2,2,50,0,0
134888,-100,4,2,4,50,0,0
140221,-90.9090909090909,4,2,4,50,0,0
141332,-83.3333333333333,4,2,2,75,0,0
141554,-83.3333333333333,4,2,4,85,0,0
141999,-83.3333333333333,4,2,4,75,0,0
148221,-83.3333333333333,4,3,5,70,0,0
148443,-83.3333333333333,4,3,2,70,0,0
148665,-83.3333333333333,4,2,4,70,0,0
148776,-83.3333333333333,4,2,2,65,0,0
149110,-83.3333333333333,4,2,4,92,0,0
154443,-66.6666666666667,4,3,2,75,0,0
154610,-66.6666666666667,4,3,2,5,0,0
154665,-66.6666666666667,4,3,2,75,0,0
154776,-76.9230769230769,4,3,2,75,0,0
155388,-76.9230769230769,4,3,2,5,0,0
155443,-76.9230769230769,4,3,2,70,0,0
155554,-76.9230769230769,4,3,2,70,0,0
155776,-76.9230769230769,4,3,4,70,0,0
155999,-76.9230769230769,4,3,4,80,0,0
156221,-76.9230769230769,4,1,2,83,0,0
156443,-76.9230769230769,4,1,2,30,0,0
156554,-76.9230769230769,4,1,2,68,0,0
156776,-76.9230769230769,4,1,2,30,0,0
156888,-222.222222222222,4,1,2,50,0,0
159665,-222.222222222222,4,3,2,5,0,0
159776,-100,4,3,2,83,0,0
159999,-100,4,3,2,30,0,0
160110,-100,4,3,2,68,0,0
160332,-100,4,3,2,30,0,0
160443,-125,4,1,2,75,0,0
160739,-125,4,1,2,60,0,0
161035,-125,4,1,2,40,0,0
161331,-125,4,1,2,20,0,0
161554,-100,4,3,2,75,0,0
161776,-100,4,3,4,90,0,0
162442,-100,4,3,2,75,0,0
162887,-100,4,3,2,75,0,0
163332,-100,4,3,2,75,0,0
163776,-100,4,3,2,80,0,0
164221,-100,4,3,2,85,0,0
164665,-100,4,3,2,90,0,0
165110,-100,4,3,2,90,0,0
165554,-100,4,3,4,90,0,0
168665,-66.6666666666667,4,3,2,50,0,0
169554,-83.3333333333333,4,3,2,50,0,0
170332,-83.3333333333333,4,3,2,5,0,0
170443,-76.9230769230769,4,2,5,70,0,0
170665,-76.9230769230769,4,2,5,95,0,0
172554,-66.6666666666667,4,2,5,95,0,0
172887,-76.9230769230769,4,2,5,95,0,0
173109,-76.9230769230769,4,2,5,95,0,0
176110,-76.9230769230769,4,2,5,95,0,0
176443,-76.9230769230769,4,2,5,95,0,0
176665,-76.9230769230769,4,2,5,95,0,0
183110,-66.6666666666667,4,3,5,70,0,0
183443,-71.4285714285714,4,3,5,60,0,0
183776,-76.9230769230769,4,3,4,60,0,0
184221,-166.666666666667,4,3,5,95,0,0
184665,-100,4,3,5,95,0,0
184999,-100,4,3,5,5,0,0
185110,-76.9230769230769,4,2,5,95,0,0
185554,-76.9230769230769,4,2,5,95,0,0
186665,-76.9230769230769,4,2,5,70,0,0
186888,-76.9230769230769,4,2,5,80,0,0
187110,-76.9230769230769,4,2,5,80,0,0
187332,-76.9230769230769,4,2,5,95,0,0
187665,-76.9230769230769,4,2,5,5,0,0
187776,-76.9230769230769,4,2,5,95,0,0
188109,-76.9230769230769,4,2,5,5,0,0
188221,-83.3333333333333,4,2,5,95,0,0
191332,-66.6666666666667,4,2,5,85,0,0
191776,-100,4,2,2,55,0,0
191832,-100,4,2,2,5,0,0
193554,-100,4,2,2,50,0,0
195332,-100,4,2,2,50,0,0
195388,-100,4,2,2,5,0,0
197110,-100,4,2,2,50,0,0
198888,-100,4,1,2,80,0,0
199776,-100,4,2,2,45,0,0
203332,-100,4,2,2,30,0,0
203776,-100,4,2,2,15,0,0
205099,431.654676258993,4,2,2,50,1,0
205099,-100,4,2,3,45,0,0
206005,444.444444444444,4,3,4,45,1,0
206005,-100,4,3,4,45,0,0
206227,-100,4,3,4,45,0,0
206449,-100,4,3,4,45,0,0
206671,-100,4,3,4,50,0,0
206893,-100,4,3,4,55,0,0
207116,-100,4,3,4,65,0,0
207338,-100,4,3,4,70,0,0
207560,-100,4,3,4,75,0,0
207782,-100,4,3,4,80,0,0
208005,-100,4,3,2,80,0,0
208171,-100,4,3,2,5,0,0
208227,-100,4,3,4,75,0,0
208393,-100,4,3,2,5,0,0
208449,-100,4,3,4,65,0,0
208671,-100,4,3,2,90,0,0
208838,-100,4,3,2,5,0,0
208894,-100,4,3,4,80,0,0
209060,-100,4,3,2,5,0,0
209116,-100,4,3,2,70,0,0
209338,-100,4,3,2,70,0,0
209505,-100,4,3,2,5,0,0
209560,-100,4,3,2,70,0,0
210005,-100,4,3,2,80,0,0
210449,-100,4,3,2,90,0,0
210893,-100,4,3,2,90,0,0
211338,-57.1428571428571,4,3,2,90,0,0
211560,-57.1428571428571,4,3,2,5,0,0
211782,-57.1428571428571,4,3,2,90,0,0
212004,-57.1428571428571,4,3,2,5,0,0
212227,-129.87012987013,4,2,3,75,0,0
213005,-125,4,2,2,50,0,0
213116,-175.438596491228,4,2,2,75,0,0
215782,-83.3333333333333,4,3,6,86,0,0
216227,-100,4,3,6,86,0,0
216671,-125,4,3,6,86,0,0
217116,-100,4,3,6,70,0,0
217338,-100,4,3,6,70,0,0
217560,-100,4,3,6,75,0,0
217782,-100,4,3,6,75,0,0
218005,-100,4,3,6,80,0,0
218227,-100,4,3,6,80,0,0
218449,-66.6666666666667,4,3,6,80,0,0
218782,-71.4285714285714,4,3,6,75,0,0
219116,-76.9230769230769,4,3,6,80,0,0
219449,-83.3333333333333,4,3,6,80,0,0
220227,-76.9230769230769,4,2,5,85,0,0
227227,-76.9230769230769,4,3,4,85,0,0
227338,-100,4,2,5,85,0,0
227782,-76.9230769230769,4,2,5,85,0,0
228227,-76.9230769230769,4,2,5,85,0,0
229449,-66.6666666666667,4,2,5,85,0,0
229782,-76.9230769230769,4,2,5,85,0,0
230004,-66.6666666666667,4,2,5,85,0,0
230338,-66.6666666666667,4,2,5,5,0,0
230449,-66.6666666666667,4,2,5,85,0,0
230782,-66.6666666666667,4,2,5,5,0,0
230893,-76.9230769230769,4,2,5,85,0,0
231338,-76.9230769230769,4,2,5,85,0,0
231782,-76.9230769230769,4,2,5,85,0,0
232227,-76.9230769230769,4,2,5,85,0,0
232671,-76.9230769230769,4,2,5,85,0,0
233560,-76.9230769230769,4,3,5,80,0,0
233782,-83.3333333333333,4,3,5,70,0,0
234004,-90.9090909090909,4,3,5,50,0,0
234227,-100,4,3,4,50,0,0
234449,-100,4,2,6,75,0,0
234782,-100,4,2,6,60,0,0
235116,-100,4,2,6,50,0,0
235338,-133.333333333333,4,2,6,85,0,0
236004,-100,4,2,5,85,0,0
236227,-100,4,2,6,75,0,0
236560,-100,4,2,6,65,0,0
237116,-133.333333333333,4,2,6,65,0,0
238004,-100,4,2,6,65,0,0
238893,-133.333333333333,4,2,6,65,0,0
239782,-100,4,2,6,65,0,0
240671,-133.333333333333,4,2,2,50,0,0
242004,-200,4,2,2,50,0,0
244227,-100,4,2,2,50,0,0
244449,-100,4,2,2,75,0,0
244671,-100,4,2,2,85,0,0
244893,-100,4,2,2,90,0,0
245116,-83.3333333333333,4,2,4,75,0,0
248671,-83.3333333333333,4,3,4,75,0,0
249338,-83.3333333333333,4,3,6,85,0,0
249782,-83.3333333333333,4,2,6,85,0,0
249893,-83.3333333333333,4,2,6,5,0,0
250004,-83.3333333333333,4,2,6,85,0,0
250449,-83.3333333333333,4,2,4,85,0,0
251338,-83.3333333333333,4,2,6,85,0,0
252227,-83.3333333333333,4,2,4,95,0,0
256449,-83.3333333333333,4,2,4,60,0,0
256671,-83.3333333333333,4,2,4,95,0,0
257338,-83.3333333333333,4,2,4,75,0,0
257560,-100,4,3,2,50,0,0
257782,-95.2380952380952,4,3,2,55,0,0
258004,-90.9090909090909,4,3,2,65,0,0
258227,-86.9565217391304,4,3,2,70,0,0
258449,-83.3333333333333,4,3,2,75,0,0
258671,-80,4,3,2,80,0,0
258893,-76.9230769230769,4,3,2,85,0,0
259116,-74.0740740740741,4,3,2,90,0,0
259408,506.329113924051,4,2,2,80,1,0
259661,452.830188679245,4,2,2,80,1,0
260113,476.190476190476,4,2,2,76,1,0
260351,533.333333333333,4,2,2,72,1,0
260617,512.820512820513,4,2,2,68,1,0
260873,540.540540540541,4,2,2,64,1,0
261143,555.555555555556,4,2,2,64,1,0
261420,439.56043956044,4,2,2,60,1,0
261639,536.912751677852,4,2,2,56,1,0
262175,652.173913043478,4,2,2,52,1,0
262501,727.272727272727,4,2,2,50,1,0
262864,842.105263157895,4,2,2,50,1,0
263285,944.88188976378,4,2,2,50,1,0
264566,888.888888888889,4,2,2,50,1,0
264566,-50,4,2,2,35,0,0
264880,986.436498150431,4,2,2,50,1,0
264880,-100,4,2,2,50,0,0
264941,-100,4,2,22,5,0,0
267161,-100,4,2,2,6,0,0
267284,-100,4,2,22,7,0,0
267407,-100,4,2,2,8,0,0
267531,-100,4,2,22,9,0,0
267654,-100,4,2,2,10,0,0
267777,-100,4,2,22,11,0,0
267900,-100,4,2,2,12,0,0
268024,-100,4,2,22,13,0,0
268147,-100,4,2,2,14,0,0
268270,-100,4,2,22,15,0,0
268394,-100,4,2,2,16,0,0
268517,-100,4,2,22,17,0,0
268640,-100,4,2,2,18,0,0
268764,-100,4,2,22,20,0,0
268887,-100,4,2,2,22,0,0
269010,-100,4,2,22,24,0,0
269134,-100,4,2,22,30,0,0
271785,-100,4,2,2,30,0,0

[Colours]
Combo1 : 223,223,223
Combo2 : 244,79,79
Combo3 : 88,103,235
Combo4 : 255,255,128

[HitObjects]
0,100,1338,5,0,0:0:0:0:
78,70,1561,2,0,P|119:95|243:100,1,160,0|0,0:0|0:0,0:0:0:0:
228,104,2227,1,2,0:0:0:0:
306,74,2449,2,0,P|347:49|471:44,1,160,0|0,0:0|0:0,0:0:0:0:
456,39,3116,5,0,0:0:0:0:
362,143,3338,1,0,0:0:0:0:
500,173,3560,1,2,0:0:0:0:
392,221,3783,5,0,0:0:0:0:
467,304,4005,1,0,0:0:0:0:
356,328,4227,1,2,0:0:0:0:
426,375,4449,21,0,0:0:0:0:
467,304,4672,1,2,0:0:0:0:
356,328,4894,1,2,0:0:0:0:
264,278,5116,6,0,B|163:265|205:358|81:342,1,192,0|0,0:0|0:0,0:0:0:0:
29,229,6005,2,0,P|75:230|108:264,1,96,0|0,0:0|0:0,0:0:0:0:
108,264,6449,1,0,0:0:0:0:
153,176,6672,1,0,0:0:0:0:
29,229,6894,6,0,P|20:167|60:120,1,128,0|2,0:0|0:0,0:0:0:0:
116,19,7560,1,0,0:0:0:0:
203,104,7783,1,0,0:0:0:0:
256,43,8005,1,2,0:0:0:0:
309,104,8227,1,0,0:0:0:0:
396,19,8450,1,2,0:0:0:0:
457,92,8672,22,0,P|445:171|439:250,1,160,0|0,0:0|0:0,0:0:0:0:
439,250,9338,1,2,0:0:0:0:
387,320,9560,2,0,P|307:308|228:302,1,160,0|0,0:0|0:0,0:0:0:0:
228,302,10226,1,0,0:0:0:0:
157,344,10449,6,0,P|146:283|182:232,1,128,0|0,0:0|0:0,0:0:0:0:
251,126,11116,1,2,0:0:0:0:
134,160,11338,1,0,0:0:0:0:
58,129,11560,1,2,0:0:0:0:
182,232,11783,1,2,0:0:0:0:
182,232,12005,1,2,0:0:0:0:
326,173,12227,6,0,B|430:173|387:250|515:250,1,192,0|0,0:0|0:0,0:0:0:0:
470,337,13116,2,0,P|422:342|376:355,1,96,0|0,0:0|0:0,0:0:0:0:
376,355,13560,1,0,0:0:0:0:
292,252,13783,1,2,0:0:0:0:
292,338,14005,21,0,0:0:0:0:
292,252,14227,1,0,0:0:0:0:
226,196,14449,1,2,0:0:0:0:
195,322,14672,5,0,0:0:0:0:
152,247,14894,1,0,0:0:0:0:
66,232,15116,1,2,0:0:0:0:
0,322,15338,5,0,0:0:0:0:
0,322,15560,1,0,0:0:0:0:
152,247,15783,22,0,P|160:208|156:168,1,80,0|0,1:0|0:0,0:0:0:0:
7,109,16227,1,0,0:0:0:0:
162,80,16449,1,2,0:0:0:0:
91,121,16672,6,0,P|83:82|87:42,1,80,0|0,0:0|0:0,0:0:0:0:
241,71,17116,1,0,0:0:0:0:
86,42,17338,1,0,0:0:0:0:
290,4,17560,5,0,0:0:0:0:
305,218,17783,1,0,0:0:0:0:
241,71,18005,1,2,0:0:0:0:
354,151,18227,21,0,0:0:0:0:
496,54,18449,1,0,0:0:0:0:
432,173,18672,1,2,0:0:0:0:
359,55,18894,5,0,0:0:0:0:
359,55,19116,1,0,1:0:0:0:
432,173,19338,6,0,P|470:158|514:151,2,80,0|0|0,1:0|0:0|0:0,0:0:0:0:
301,270,20005,1,2,0:0:0:0:
396,366,20227,2,0,P|402:326|390:289,1,80,0|0,0:0|0:0,0:0:0:0:
318,186,20672,1,0,0:0:0:0:
348,105,20894,2,0,P|341:65|353:28,1,80,2|0,0:0|0:0,0:0:0:0:
424,73,21338,21,0,0:0:0:0:
257,121,21560,1,2,0:0:0:0:
201,21,21783,1,0,0:0:0:0:
117,62,22005,2,0,P|124:101|129:140,1,80,0|2,0:0|0:0,0:0:0:0:
203,228,22449,2,0,P|195:267|190:306,1,80,0|0,0:0|0:0,0:0:0:0:
191,318,22783,1,0,0:0:0:0:
195,328,22894,6,0,L|95:313,1,80,0|0,1:0|0:0,0:0:0:0:
356,290,23338,2,0,L|256:275,1,80,0|2,0:0|0:0,0:0:0:0:
501,365,23783,2,0,L|401:350,1,80,0|0,0:0|0:0,0:0:0:0:
343,202,24227,1,0,0:0:0:0:
290,369,24449,1,0,0:0:0:0:
193,247,24672,5,2,0:0:0:0:
290,369,25338,21,0,0:0:0:0:
292,349,25560,5,0,0:0:0:0:
223,289,26005,5,0,0:0:0:0:
221,269,26227,21,0,0:0:0:0:
276,153,28227,5,0,0:0:0:0:
175,34,28449,5,0,0:0:0:0:
175,34,28560,1,0,0:0:0:0:
175,34,28672,1,0,0:0:0:0:
88,44,28894,21,0,0:0:0:0:
88,44,29005,1,0,0:0:0:0:
88,44,29117,1,0,0:0:0:0:
1,54,29338,5,0,0:0:0:0:
1,54,29449,1,0,0:0:0:0:
1,54,29560,2,0,P|16:99|29:145,1,96,0|0,1:0|0:0,0:0:0:0:
85,223,30005,6,0,P|76:262|71:301,1,80,4|0,1:2|0:0,0:0:0:0:
85,376,30338,1,0,0:0:0:0:
246,263,30560,1,0,0:0:0:0:
246,263,30672,2,0,P|265:257|284:252,1,40,0|0,0:0|0:0,0:0:0:0:
361,277,30894,2,0,P|398:266|422:234,1,80,0|0,1:0|0:0,0:0:0:0:
413,154,31227,1,0,0:0:0:0:
237,85,31449,1,0,0:0:0:0:
370,6,31672,1,0,0:0:0:0:
370,6,31783,22,0,P|362:45|359:85,1,80,0|0,1:0|0:0,0:0:0:0:
413,154,32116,2,0,L|452:148,2,40,0|0|0,0:0|1:0|0:0,0:0:0:0:
338,195,32449,1,0,0:0:0:0:
237,85,32672,2,0,P|185:110|180:168,1,120,0|0,1:0|0:0,0:0:0:0:
240,250,33116,2,0,P|242:230|246:210,1,40,0|0,1:0|0:0,0:0:0:0:
101,192,33338,2,0,P|98:172|94:152,1,40,0|0,0:0|0:0,0:0:0:0:
178,319,33560,5,0,1:0:0:0:
178,319,33672,2,0,P|175:339|171:359,1,40,0|0,0:0|0:0,0:0:0:0:
83,376,33894,2,0,P|29:370|15:301,1,120,0|0,0:0|0:0,0:0:0:0:
46,210,34338,1,0,0:0:0:0:
46,210,34449,2,0,L|100:203,1,40,0|0,1:0|0:0,0:0:0:0:
237,249,34672,2,0,L|197:243,1,40,0|0,0:0|0:0,0:0:0:0:
135,122,34894,1,0,1:0:0:0:
135,122,35005,2,0,P|136:82|155:47,1,80,0|0,0:0|0:0,0:0:0:0:
246,13,35338,6,0,P|254:58|264:150,1,120,0|0,1:0|0:0,0:0:0:0:
285,218,35783,2,0,P|277:257|273:297,1,80,0|0,1:0|0:0,0:0:0:0:
378,335,36116,1,0,0:0:0:0:
378,335,36227,2,0,L|439:326,1,40,0|0,1:0|0:0,0:0:0:0:
512,241,36449,1,8,0:0:0:0:
461,208,36560,1,0,0:0:0:0:
403,228,36672,2,0,L|363:233,2,40,8|8|0,0:0|0:0|0:0,0:0:0:0:
330,129,37005,1,8,0:0:0:0:
330,129,37116,22,0,P|351:81|369:31,1,95.9999970703126,4|0,1:2|0:0,0:0:0:0:
447,31,37449,1,0,1:0:0:0:
447,31,37560,1,8,0:0:0:0:
512,141,37783,1,0,1:0:0:0:
403,228,38005,2,0,P|411:250|417:273,1,47.9999985351563,0|0,0:0|0:0,0:0:0:0:
475,351,38227,2,0,P|483:328|489:305,1,47.9999985351563,0|0,1:0|0:0,0:0:0:0:
317,225,38449,2,0,P|325:247|331:270,1,47.9999985351563,8|0,0:0|0:0,0:0:0:0:
389,348,38672,2,0,P|397:325|403:302,1,47.9999985351563,0|0,1:0|0:0,0:0:0:0:
229,253,38894,5,0,1:0:0:0:
229,253,39005,2,0,P|172:245|114:236,1,95.9999970703126,0|0,0:0|1:0,0:0:0:0:
33,170,39338,1,8,0:0:0:0:
19,124,39449,1,0,0:0:0:0:
53,90,39560,1,0,1:0:0:0:
101,93,39672,1,0,0:0:0:0:
122,135,39783,2,0,P|108:180|97:227,1,95.9999970703126,0|0,0:0|1:0,0:0:0:0:
124,345,40116,1,0,0:0:0:0:
124,345,40227,2,0,P|195:335|245:333,1,95.9999970703126,8|0,0:0|0:0,0:0:0:0:
399,364,40672,5,0,1:0:0:0:
424,323,40783,1,0,0:0:0:0:
403,279,40894,2,0,P|399:255|395:231,1,47.9999985351563,0|0,0:0|1:0,0:0:0:0:
312,107,41116,1,8,0:0:0:0:
337,148,41227,1,0,0:0:0:0:
316,192,41338,2,0,P|312:215|308:239,1,47.9999985351563,0|0,1:0|0:0,0:0:0:0:
267,331,41560,1,0,0:0:0:0:
78,234,41783,1,0,1:0:0:0:
208,166,42005,2,0,P|217:118|227:72,1,95.9999970703126,8|0,0:0|0:0,0:0:0:0:
323,8,42338,1,0,1:0:0:0:
323,8,42449,22,0,P|392:4|434:59,1,143.999995605469,0|0,1:0|1:0,0:0:0:0:
493,114,42894,2,0,P|451:136|404:132,1,95.9999970703126,8|0,0:0|1:0,0:0:0:0:
316,192,43227,1,0,1:0:0:0:
316,192,43338,2,0,P|322:215|326:238,1,47.9999985351563,0|0,0:0|0:0,0:0:0:0:
246,118,43560,2,0,P|250:94|256:71,1,47.9999985351563,0|0,1:0|0:0,0:0:0:0:
261,288,43783,1,8,0:0:0:0:
205,300,43894,1,0,0:0:0:0:
151,281,44005,1,0,0:0:0:0:
115,237,44116,1,0,0:0:0:0:
106,180,44227,6,0,P|95:134|65:97,1,95.9999970703126,4|0,1:2|0:0,0:0:0:0:
0,3,44560,1,0,1:0:0:0:
0,3,44672,2,0,L|135:18,1,95.9999970703126,8|0,0:0|1:0,0:0:0:0:
186,46,45005,1,0,0:0:0:0:
186,46,45116,2,0,P|209:43|233:39,1,47.9999985351563,0|0,0:0|0:0,0:0:0:0:
337,60,45338,2,0,P|360:62|384:66,1,47.9999985351563,0|0,1:0|0:0,0:0:0:0:
506,11,45560,1,8,0:0:0:0:
448,195,45783,1,0,0:0:0:0:
448,195,45894,1,0,0:0:0:0:
448,195,46005,6,0,P|401:195|366:163,1,95.9999970703126,0|0,1:0|0:0,0:0:0:0:
298,34,46338,1,0,1:0:0:0:
298,34,46449,2,0,P|300:81|292:129,1,95.9999970703126,8|0,0:0|1:0,0:0:0:0:
219,177,46783,1,0,0:0:0:0:
219,177,46894,1,0,0:0:0:0:
198,142,47005,1,2,2:2:0:0:
207,103,47116,1,0,1:2:0:0:
294,268,47338,2,0,P|287:291|284:314,1,47.9999985351563,8|0,0:0|0:0,0:0:0:0:
209,374,47560,2,0,P|202:350|199:327,1,47.9999985351563,0|0,0:0|0:0,0:0:0:0:
219,177,47783,21,2,1:2:0:0:
115,298,48005,1,2,0:0:0:0:
115,250,48116,1,0,1:0:0:0:
91,208,48227,1,8,0:0:0:0:
90,159,48338,2,0,P|67:154|43:150,1,47.9999985351563,2|0,0:0|1:0,0:0:0:0:
115,298,48560,2,0,P|138:292|162:288,1,47.9999985351563,2|0,0:0|0:0,0:0:0:0:
90,159,48783,2,0,P|67:154|43:150,1,47.9999985351563,2|0,0:0|1:0,0:0:0:0:
119,302,49005,1,0,0:0:0:0:
119,302,49116,2,0,B|171:313|151:328|206:338,1,95.9999970703126,10|2,0:0|0:0,0:0:0:0:
361,372,49449,1,0,0:0:0:0:
361,372,49560,6,0,P|375:347|373:317,1,60.0000022888184,4|0,0:2|0:0,0:0:0:0:
292,203,49783,1,8,3:2:0:0:
244,224,49894,2,0,P|253:249|259:274,1,51.999997619629,8|0,3:2|0:0,0:0:0:0:
460,318,50116,2,0,P|453:292|445:268,1,51.999997619629,8|0,3:2|0:0,0:0:0:0:
345,106,50338,2,0,P|353:130|359:155,1,51.999997619629,14|0,3:2|0:0,0:0:0:0:
367,237,50560,1,8,0:0:0:0:
367,237,50672,5,8,0:0:0:0:
386,32,50894,21,8,0:0:0:0:
367,237,51116,5,10,3:2:0:0:
386,32,51338,5,0,0:0:0:0:
367,237,51672,21,0,0:0:0:0:
386,32,52005,6,0,B|363:16|363:16|372:129|372:129|379:137|379:137|385:250|385:250|367:237,1,288,4|0,1:2|0:0,0:0:0:0:
256,147,54894,5,0,0:0:0:0:
492,110,55227,21,0,0:0:0:0:
256,147,55560,6,0,L|354:161,3,85.3333333333333,2|2|2|2,0:0|0:0|0:0|0:0,0:0:0:0:
211,15,56672,5,8,0:0:0:0:
127,133,56894,1,8,0:0:0:0:
105,188,57005,1,8,0:0:0:0:
137,238,57116,1,8,0:0:0:0:
183,328,57338,1,0,1:0:0:0:
18,368,57560,22,0,P|13:348|9:328,1,40,4|0,0:2|0:0,0:0:0:0:
93,311,57783,2,0,P|97:330|101:350,1,40,8|0,3:2|0:0,0:0:0:0:
18,368,58005,22,0,P|13:348|9:328,1,40,4|0,0:2|0:0,0:0:0:0:
93,311,58227,2,0,P|97:330|101:350,1,40,8|0,3:2|0:0,0:0:0:0:
8,223,58449,21,4,3:2:0:0:
8,223,58672,1,0,0:0:0:0:
48,145,58894,5,0,0:0:0:0:
48,145,59116,1,0,0:0:0:0:
132,98,59338,5,0,0:0:0:0:
132,98,59560,1,0,0:0:0:0:
236,105,59783,21,0,0:0:0:0:
236,105,60005,1,0,0:0:0:0:
318,180,60227,5,4,0:2:0:0:
363,291,60449,1,8,0:0:0:0:
488,320,60672,1,8,0:0:0:0:
506,135,60894,5,8,1:3:0:0:
397,216,61116,1,8,0:0:0:0:
412,359,61338,1,8,0:0:0:0:
512,216,61560,21,0,1:0:0:0:
343,128,61783,1,8,0:0:0:0:
266,309,62005,5,4,0:2:0:0:
473,286,62227,1,0,0:0:0:0:
251,227,62449,5,0,0:0:0:0:
452,364,62672,1,0,0:0:0:0:
190,342,62894,21,0,0:0:0:0:
430,213,63116,1,0,0:0:0:0:
153,181,63338,5,0,0:0:0:0:
367,376,63560,1,0,0:0:0:0:
238,147,63783,6,0,B|200:130|244:51|307:108,1,120.000004577637,2|0,0:0|0:0,0:0:0:0:
307,178,64227,2,0,B|344:194|300:273|237:216,1,120.000004577637,2|0,0:0|0:0,0:0:0:0:
104,174,64672,22,0,P|271:182|438:198,1,335.999989746094,2|0,2:0|0:0,0:0:0:0:
495,296,65560,6,0,P|468:338|418:347,1,103.999995239258,4|0,1:2|0:0,0:0:0:0:
323,309,65894,1,0,1:0:0:0:
323,309,66005,1,8,0:0:0:0:
81,321,66227,2,0,P|106:327|130:335,1,51.999997619629,0|0,0:0|1:0,0:0:0:0:
208,384,66449,1,0,0:0:0:0:
171,194,66672,2,0,B|176:115|225:137|229:53,1,155.999992858887,2|0,0:3|0:0,0:0:0:0:
142,57,67116,2,0,P|116:52|90:47,1,51.999997619629,0|0,1:0|0:0,0:0:0:0:
7,176,67338,6,0,P|10:223|58:229,1,103.999995239258,2|0,1:2|0:0,0:0:0:0:
171,194,67672,2,0,P|175:138|230:132,1,120.000004577637,2|0,1:2|0:0,0:0:0:0:
321,182,68005,2,0,P|346:185|372:187,1,51.999997619629,2|0,1:2|0:0,0:0:0:0:
491,244,68227,1,0,0:0:0:0:
512,308,68338,1,0,0:0:0:0:
462,353,68449,2,0,P|436:349|410:347,1,51.999997619629,0|0,1:0|0:0,0:0:0:0:
234,374,68672,2,0,B|248:221|236:374|250:219,1,155.999992858887,8|0,0:0|0:0,0:0:0:0:
292,80,69116,22,0,P|323:143|347:218,1,103.999995239258,4|0,1:2|0:0,0:0:0:0:
336,271,69449,1,0,1:0:0:0:
336,271,69560,1,8,0:0:0:0:
113,205,69783,1,0,0:0:0:0:
113,205,69894,1,0,1:0:0:0:
113,205,70005,2,0,P|87:203|61:200,1,51.999997619629,0|0,0:0|0:0,0:0:0:0:
14,105,70227,2,0,P|33:34|106:25,1,155.999992858887,2|0,0:3|0:0,0:0:0:0:
190,87,70672,2,0,P|188:112|185:138,1,51.999997619629,0|0,1:0|0:0,0:0:0:0:
159,283,70894,6,0,P|209:283|240:244,1,103.999995239258,2|0,1:2|0:0,0:0:0:0:
329,190,71227,2,0,P|379:189|410:228,1,103.999995239258,2|0,1:2|0:0,0:0:0:0:
465,322,71560,2,0,P|490:320|512:306,1,51.999997619629,2|0,0:0|1:0,0:0:0:0:
410,228,71783,2,0,B|361:243|366:295|366:295|378:383,1,155.999992858887,0|0,3:0|0:0,0:0:0:0:
465,322,72227,1,8,3:2:0:0:
487,258,72338,1,0,3:0:0:0:
495,190,72449,1,0,3:0:0:0:
488,122,72560,1,0,3:0:0:0:
472,55,72672,6,0,B|391:48|413:102|320:110,1,155.999992858887,4|0,1:2|1:0,0:0:0:0:
233,74,73116,1,8,0:0:0:0:
59,36,73338,1,0,0:0:0:0:
59,36,73449,2,0,P|74:85|84:136,1,103.999995239258,0|0,1:0|0:0,0:0:0:0:
181,210,73783,2,0,L|129:204,1,51.999997619629,0|0,1:0|0:0,0:0:0:0:
8,248,74005,2,0,L|59:253,1,51.999997619629,8|0,0:0|0:0,0:0:0:0:
181,210,74227,2,0,L|232:215,1,51.999997619629,0|0,0:0|0:0,0:0:0:0:
105,384,74449,22,0,P|120:334|130:283,1,103.999995239258,0|0,1:0|0:0,0:0:0:0:
181,210,74783,1,0,1:0:0:0:
181,210,74894,2,0,L|176:149,1,51.999997619629,8|0,0:0|0:0,0:0:0:0:
232,78,75116,2,0,P|282:82|311:122,1,103.999995239258,0|0,1:0|0:0,0:0:0:0:
396,179,75449,1,0,0:0:0:0:
396,179,75560,1,0,1:0:0:0:
226,280,75783,1,8,0:0:0:0:
422,348,76005,2,0,P|423:323|410:300,1,51.999997619629,0|0,0:0|0:0,0:0:0:0:
315,224,76227,6,0,P|321:275|327:327,1,103.999995239258,4|0,1:2|0:0,0:0:0:0:
239,384,76560,1,0,1:0:0:0:
239,384,76672,2,0,P|233:332|226:280,1,103.999995239258,8|0,0:0|0:0,0:0:0:0:
166,201,77005,1,0,1:0:0:0:
166,201,77116,1,0,0:0:0:0:
166,201,77227,1,0,0:0:0:0:
166,201,77338,1,0,1:0:0:0:
60,355,77560,2,0,P|34:358|8:363,1,51.999997619629,8|0,0:0|0:0,0:0:0:0:
160,285,77783,1,0,0:0:0:0:
93,271,77894,1,0,0:0:0:0:
25,266,78005,5,0,1:0:0:0:
153,104,78227,2,0,P|127:100|101:95,1,51.999997619629,0|0,0:0|1:0,0:0:0:0:
7,30,78449,1,8,0:0:0:0:
166,201,78672,2,0,P|191:197|217:192,1,51.999997619629,0|0,0:0|1:0,0:0:0:0:
356,125,78894,1,0,3:2:0:0:
292,147,79005,1,0,3:2:0:0:
295,214,79116,2,0,P|298:239|303:265,1,51.999997619629,0|0,1:0|0:0,0:0:0:0:
386,349,79338,1,8,0:0:0:0:
450,371,79449,1,8,2:3:0:0:
500,325,79560,1,8,2:3:0:0:
495,257,79672,1,8,2:3:0:0:
478,188,79783,22,0,B|476:129|433:153|428:84,1,120,0|0,1:0|0:0,0:0:0:0:
490,0,80227,2,0,P|438:2|387:15,1,103.999995239258,12|0,1:2|0:0,0:0:0:0:
303,51,80560,1,0,1:0:0:0:
303,51,80672,2,0,L|232:42,1,51.999997619629,0|0,0:0|0:0,0:0:0:0:
168,89,80894,2,0,B|165:148|122:124|117:192,1,103.999995239258,0|8,1:0|0:0,0:0:0:0:
26,20,81338,1,0,0:0:0:0:
59,226,81560,6,0,P|83:267|129:253,1,103.999995239258,2|0,1:2|0:0,0:0:0:0:
222,191,81894,2,0,P|250:143|302:159,1,120.000004577637,2|0,1:2|0:0,0:0:0:0:
288,264,82227,2,0,P|280:289|274:314,1,51.999997619629,2|0,0:0|0:0,0:0:0:0:
147,374,82449,6,0,B|133:274|72:322|58:225,1,180.000006866455,4|0,1:2|0:0,0:0:0:0:
222,191,82894,2,0,B|235:91|296:139|310:42,1,180.000006866455,12|0,0:0|0:0,0:0:0:0:
202,0,83338,21,0,1:0:0:0:
58,36,83560,1,0,0:0:0:0:
141,225,83783,5,8,0:0:0:0:
328,246,84005,1,0,0:0:0:0:
440,90,84227,5,4,1:2:0:0:
214,126,84449,1,0,1:0:0:0:
241,334,84672,21,8,0:0:0:0:
512,366,84894,1,0,0:0:0:0:
351,173,85116,6,0,B|330:259|400:249|384:318,1,155.999992858887,0|0,1:0|0:0,0:0:0:0:
310,384,85560,1,8,0:0:0:0:
358,180,85783,1,0,0:0:0:0:
358,180,85894,1,0,0:0:0:0:
358,180,86005,2,0,L|326:245,1,51.999997619629,4|0,1:2|0:0,0:0:0:0:
264,126,86227,2,0,L|268:198,1,47.9999985351563,8|0,0:3|0:0,0:0:0:0:
154,122,86449,2,0,L|178:158,1,44.0000013427735,8|0,0:0|0:0,0:0:0:0:
54,169,86672,2,0,L|89:186,1,40,8|0,0:3|0:0,0:0:0:0:
106,264,86894,6,0,P|177:266|249:274,1,143.999995605469,4|0,1:2|1:0,0:0:0:0:
332,321,87338,1,8,0:0:0:0:
191,366,87560,1,0,0:0:0:0:
191,366,87672,2,0,P|173:324|191:281,1,95.9999970703126,0|0,1:0|0:0,0:0:0:0:
235,198,88005,2,0,P|241:175|240:151,1,47.9999985351563,0|0,1:0|0:0,0:0:0:0:
200,48,88227,1,8,0:0:0:0:
109,164,88449,1,0,0:0:0:0:
109,164,88560,1,0,0:0:0:0:
109,164,88672,22,0,B|96:84|48:137|29:53,2,143.999995605469,2|2|2,1:2|1:2|0:0,0:0:0:0:
109,164,89449,1,0,1:0:0:0:
109,164,89560,1,0,0:0:0:0:
160,357,89783,2,0,P|166:333|173:310,1,47.9999985351563,0|0,1:0|0:0,0:0:0:0:
247,250,90005,1,8,0:0:0:0:
37,220,90227,1,0,0:0:0:0:
159,356,90449,6,0,P|164:308|160:261,1,95.9999970703126,4|0,1:2|0:0,0:0:0:0:
121,176,90783,1,0,1:0:0:0:
121,176,90894,2,0,P|115:128|120:80,1,95.9999970703126,8|0,0:0|0:0,0:0:0:0:
186,21,91227,1,0,0:0:0:0:
186,21,91338,2,0,L|241:14,1,47.9999985351563,0|0,1:0|0:0,0:0:0:0:
120,80,91560,1,0,1:0:0:0:
312,127,91783,1,8,0:0:0:0:
197,246,92005,1,0,0:0:0:0:
197,246,92116,1,0,0:0:0:0:
197,246,92227,6,0,B|207:332|243:303|253:375,1,143.999995605469,0|0,1:0|0:0,0:0:0:0:
410,341,92672,2,0,P|474:319|475:251,1,143.999995605469,8|0,0:0|0:0,0:0:0:0:
387,152,93116,2,0,B|377:238|341:209|331:281,1,143.999995605469,8|0,1:2|0:0,0:0:0:0:
335,374,93560,1,8,0:0:0:0:
335,374,94005,22,0,L|191:360,1,143.999995605469,4|0,1:2|0:0,0:0:0:0:
330,281,94449,22,0,L|313:101,1,180.000006866455,12|0,0:0|0:0,0:0:0:0:
228,154,94894,22,0,L|132:145,1,95.9999970703126,0|0,1:0|1:0,0:0:0:0:
295,22,95338,2,0,L|151:8,1,143.999995605469,8|0,0:0|0:0,0:0:0:0:
31,58,95783,6,0,L|46:201,1,143.999995605469,0|0,1:0|0:0,0:0:0:0:
132,145,96227,2,0,L|147:288,1,143.999995605469,8|0,0:0|0:0,0:0:0:0:
101,367,96672,1,0,1:0:0:0:
233,257,96894,1,0,1:0:0:0:
132,145,97116,1,8,0:0:0:0:
147,288,97338,1,0,3:0:0:0:
147,288,97449,1,0,3:0:0:0:
147,288,97560,6,0,L|132:145,1,143.999995605469,4|0,1:2|0:0,0:0:0:0:
233,257,98005,22,0,L|411:275,1,180.000006866455,12|0,0:0|0:0,0:0:0:0:
374,186,98449,6,0,L|363:90,1,95.9999970703126,0|0,1:0|1:0,0:0:0:0:
491,21,98894,1,8,0:0:0:0:
363,90,99116,1,0,3:0:0:0:
363,90,99227,1,0,3:0:0:0:
363,90,99338,5,0,1:0:0:0:
499,131,99560,1,0,0:0:0:0:
363,90,99783,1,8,0:0:0:0:
491,21,100005,1,0,0:0:0:0:
374,186,100227,22,0,P|397:191|420:198,1,47.9999985351563,8|0,3:3|2:0,0:0:0:0:
494,225,100449,2,0,P|470:230|447:237,1,47.9999985351563,8|0,3:3|2:0,0:0:0:0:
378,269,100672,2,0,P|401:274|424:281,1,47.9999985351563,8|0,3:3|2:0,0:0:0:0:
498,308,100894,2,0,P|474:313|451:320,1,47.9999985351563,8|0,3:3|3:0,0:0:0:0:
304,372,101116,22,0,L|286:227,1,143.999995605469,4|0,1:2|0:0,0:0:0:0:
214,350,101560,22,0,L|35:328,1,180.000006866455,12|0,0:0|0:0,0:0:0:0:
84,248,102005,6,0,L|72:152,1,95.9999970703126,0|0,1:0|1:0,0:0:0:0:
286,229,102449,2,0,L|268:86,1,143.999995605469,8|0,0:0|0:0,0:0:0:0:
191,40,102894,6,0,L|48:22,1,143.999995605469,0|0,1:0|0:0,0:0:0:0:
0,106,103338,2,0,L|142:123,1,143.999995605469,8|0,0:0|0:0,0:0:0:0:
198,192,103783,1,0,1:0:0:0:
191,40,104005,1,0,1:0:0:0:
384,112,104227,1,8,0:0:0:0:
268,86,104449,1,0,3:0:0:0:
268,86,104560,1,0,3:0:0:0:
268,86,104672,22,0,L|285:228,1,143.999995605469,4|0,1:2|0:0,0:0:0:0:
334,25,105116,6,0,L|512:46,1,180.000006866455,12|0,0:0|0:0,0:0:0:0:
384,112,105560,5,4,0:2:0:0:
512,216,105783,2,0,L|465:222,1,47.9999985351563,0|0,0:0|0:0,0:0:0:0:
380,289,106005,2,0,L|427:294,1,47.9999985351563,8|0,0:0|0:0,0:0:0:0:
493,381,106227,1,0,0:0:0:0:
493,381,106338,1,0,0:0:0:0:
493,380,106449,22,0,P|497:360|502:341,1,40,6|0,0:2|0:0,0:0:0:0:
421,319,106672,2,0,P|416:338|413:358,1,40,0|0,0:0|0:0,0:0:0:0:
453,230,106894,6,0,P|446:210|439:183,1,44.0000013427735,0|0,0:0|0:0,0:0:0:0:
359,207,107116,2,0,P|364:229|372:250,1,44.0000013427735,0|0,0:0|0:0,0:0:0:0:
334,116,107338,6,0,P|319:102|294:78,1,47.9999985351563,8|0,3:2|3:0,0:0:0:0:
238,140,107560,2,0,P|255:156|273:173,1,47.9999985351563,8|0,3:3|3:0,0:0:0:0:
173,70,107783,22,0,P|153:65|115:55,1,51.999997619629,8|0,2:3|3:0,0:0:0:0:
97,136,108005,2,0,P|122:142|148:149,1,51.999997619629,8|0,1:2|0:0,0:0:0:0:
0,87,108227,5,0,0:0:0:0:
0,87,108460,2,0,P|10:125|16:165,1,80,0|0,0:0|0:0,0:0:0:0:
112,226,108920,5,0,0:0:0:0:
112,226,109161,2,0,P|101:264|95:304,1,80,0|0,0:0|0:0,0:0:0:0:
230,162,109655,21,0,0:0:0:0:
230,162,109910,2,0,P|240:200|246:240,1,80,0|0,0:0|0:0,0:0:0:0:
336,285,110473,5,0,0:0:0:0:
336,285,110758,2,0,P|325:323|319:363,1,80,0|0,0:0|0:0,0:0:0:0:
413,208,111418,6,0,P|423:246|429:286,1,80,0|0,0:0|0:0,0:0:0:0:
512,306,112239,22,0,P|501:344|495:384,1,80,0|0,0:0|0:0,0:0:0:0:
366,338,113450,6,0,L|353:335,2,10,0|0|0,0:0|0:0|0:0,0:0:0:0:
419,269,113782,1,2,0:0:0:0:
256,192,113838,12,2,120656,0:0:0:0:
256,192,127111,21,0,0:0:0:0:
256,192,127222,1,0,0:0:0:0:
256,192,127333,1,0,0:0:0:0:
256,192,127555,1,0,0:0:0:0:
327,240,127777,22,0,P|338:210|339:178,2,64,2|0|2,2:3|0:0|2:3,0:0:0:0:
327,240,128443,1,0,0:0:0:0:
185,144,128665,2,0,P|173:173|172:205,2,64,2|0|2,2:3|0:0|2:3,0:0:0:0:
185,144,129332,1,0,0:0:0:0:
249,277,129554,6,0,P|281:272|309:257,2,64,2|0|2,2:3|0:0|2:3,0:0:0:0:
249,277,130221,1,0,0:0:0:0:
262,106,130443,2,0,P|230:111|202:126,2,64,2|0|2,2:3|0:0|2:3,0:0:0:0:
262,106,131110,1,0,0:0:0:0:
178,229,131332,22,0,P|199:253|226:271,1,64,2|0,2:3|0:0,0:0:0:0:
333,154,131777,2,0,P|312:130|285:112,1,64,2|0,2:3|0:0,0:0:0:0:
185,144,132221,6,0,P|173:173|172:205,1,64,2|0,2:3|0:0,0:0:0:0:
327,240,132665,2,0,P|338:210|339:178,1,64,2|0,2:3|0:0,0:0:0:0:
281,28,133110,6,0,L|229:343,1,320,0|0,1:0|0:0,0:0:0:0:
248,379,134332,1,0,0:0:0:0:
248,379,134443,2,0,P|228:374|208:372,1,40,0|0,0:0|0:0,0:0:0:0:
134,310,134665,2,0,P|114:316|96:324,1,40,0|0,0:0|0:0,0:0:0:0:
9,376,134888,21,4,1:2:0:0:
9,376,134999,2,0,P|5:336|0:296,1,80,0|0,0:0|0:0,0:0:0:0:
18,213,135332,1,0,1:0:0:0:
126,143,135554,2,0,P|132:124|135:104,1,40,0|0,0:0|0:0,0:0:0:0:
111,26,135777,1,0,1:0:0:0:
111,26,135888,2,0,P|150:22|190:17,1,80,0|0,0:0|0:0,0:0:0:0:
283,80,136221,1,0,1:0:0:0:
283,80,136332,1,0,0:0:0:0:
283,80,136443,1,0,0:0:0:0:
283,80,136554,1,0,0:0:0:0:
283,80,136665,6,0,P|276:119|272:159,1,80,0|0,1:0|0:0,0:0:0:0:
305,237,136999,1,0,0:0:0:0:
305,237,137110,2,0,P|298:276|294:316,1,80,0|0,1:0|0:0,0:0:0:0:
376,363,137443,1,0,0:0:0:0:
376,363,137554,2,0,P|415:356|455:352,1,80,0|0,1:0|0:0,0:0:0:0:
294,316,137999,2,0,P|254:309|214:305,1,80,0|0,1:0|0:0,0:0:0:0:
122,180,138443,5,0,1:0:0:0:
42,213,138665,1,0,0:0:0:0:
42,213,138777,1,0,0:0:0:0:
42,213,138888,2,0,P|35:173|48:136,1,80,0|0,1:0|0:0,0:0:0:0:
31,6,139332,1,0,1:0:0:0:
31,6,139443,2,0,P|68:19|93:49,1,80,0|0,0:0|0:0,0:0:0:0:
143,133,139777,2,0,P|182:126|213:101,1,80,0|0,1:0|0:0,0:0:0:0:
270,34,140110,1,0,0:0:0:0:
270,34,140221,22,0,B|345:45|310:79|385:91,1,132.00000402832,2|0,0:0|0:0,0:0:0:0:
470,52,140665,2,0,L|461:95,1,44.0000013427735,0|0,0:0|0:0,0:0:0:0:
404,209,140888,2,0,L|412:165,1,44.0000013427735,0|0,0:0|0:0,0:0:0:0:
512,157,141110,2,0,L|503:200,1,44.0000013427735,0|0,0:0|0:0,0:0:0:0:
446,381,141332,1,2,2:3:0:0:
507,368,141443,1,2,2:3:0:0:
504,305,141554,1,8,0:0:0:0:
444,283,141665,2,0,P|420:286|396:290,2,47.9999985351563,8|0|8,0:0|0:0|0:0,0:0:0:0:
340,352,141999,5,4,1:2:0:0:
340,352,142110,2,0,P|283:348|251:315,1,95.9999970703126,8|0,0:0|1:0,0:0:0:0:
190,247,142443,2,0,P|185:223|180:200,1,47.9999985351563,8|0,0:0|0:0,0:0:0:0:
269,229,142665,2,0,P|263:205|259:182,1,47.9999985351563,0|0,1:0|0:0,0:0:0:0:
230,100,142888,2,0,P|182:92|135:81,1,95.9999970703126,0|0,0:0|1:0,0:0:0:0:
42,14,143221,1,0,0:0:0:0:
42,14,143332,2,0,P|47:37|51:60,1,47.9999985351563,8|0,0:0|0:0,0:0:0:0:
123,0,143554,2,0,P|126:23|132:46,1,47.9999985351563,0|0,1:0|0:0,0:0:0:0:
108,157,143776,6,0,L|95:233,1,47.9999985351563,0|0,1:0|0:0,0:0:0:0:
16,279,143999,2,0,L|24:231,1,47.9999985351563,0|0,0:0|1:0,0:0:0:0:
177,271,144221,1,8,0:0:0:0:
177,271,144332,1,0,0:0:0:0:
177,271,144443,1,0,1:0:0:0:
177,271,144554,1,0,0:0:0:0:
177,271,144665,2,0,P|200:271|224:268,2,47.9999985351563,0|0|0,1:0|0:0|1:0,0:0:0:0:
107,373,144999,1,0,0:0:0:0:
107,373,145110,2,0,P|100:349|91:327,1,47.9999985351563,8|0,0:0|0:0,0:0:0:0:
187,348,145332,2,0,P|178:325|171:302,1,47.9999985351563,0|0,1:0|0:0,0:0:0:0:
106,219,145554,22,0,P|127:176|168:152,1,95.9999970703126,0|0,1:0|0:0,0:0:0:0:
230,88,145888,1,0,1:0:0:0:
230,88,145999,2,0,P|253:91|275:100,1,47.9999985351563,8|0,0:0|0:0,0:0:0:0:
353,146,146221,1,0,1:0:0:0:
451,55,146443,1,0,0:0:0:0:
324,15,146665,1,0,1:0:0:0:
353,146,146888,2,0,P|367:191|377:238,1,95.9999970703126,8|0,0:0|1:0,0:0:0:0:
449,314,147221,1,0,0:0:0:0:
449,314,147332,6,0,P|459:267|473:221,1,95.9999970703126,0|0,1:0|0:0,0:0:0:0:
489,137,147665,1,0,1:0:0:0:
489,137,147776,2,0,P|465:133|442:126,1,47.9999985351563,8|0,0:0|0:0,0:0:0:0:
353,146,147999,2,0,P|329:149|306:156,1,47.9999985351563,0|0,1:0|0:0,0:0:0:0:
220,126,148221,1,0,0:0:0:0:
173,112,148332,1,8,0:2:0:0:
125,113,148443,1,2,2:3:0:0:
297,49,148665,1,10,2:2:0:0:
241,34,148776,1,2,2:3:0:0:
183,26,148888,1,0,3:3:0:0:
125,22,148999,1,2,2:3:0:0:
66,24,149110,6,0,P|50:68|36:115,1,95.9999970703126,4|0,1:2|0:0,0:0:0:0:
95,193,149443,1,0,1:0:0:0:
95,193,149554,2,0,P|78:237|64:284,1,95.9999970703126,8|0,0:0|1:0,0:0:0:0:
42,369,149888,1,0,0:0:0:0:
42,369,149999,2,0,P|65:362|88:360,1,47.9999985351563,0|0,0:0|0:0,0:0:0:0:
180,321,150221,2,0,P|203:327|226:329,1,47.9999985351563,0|0,1:0|0:0,0:0:0:0:
322,358,150443,1,8,0:0:0:0:
251,215,150665,1,0,0:0:0:0:
251,215,150776,1,0,0:0:0:0:
251,215,150888,22,0,P|256:167|270:121,1,95.9999970703126,0|0,1:0|0:0,0:0:0:0:
362,105,151221,1,0,1:0:0:0:
362,105,151332,2,0,P|367:57|381:11,1,95.9999970703126,8|0,0:0|1:0,0:0:0:0:
462,66,151665,1,0,0:0:0:0:
462,66,151776,1,0,0:0:0:0:
483,102,151888,1,8,0:0:0:0:
474,142,151999,1,0,1:0:0:0:
365,288,152221,2,0,P|392:283|429:279,1,47.9999985351563,8|0,0:0|0:0,0:0:0:0:
466,368,152443,2,0,P|439:363|402:359,1,47.9999985351563,0|0,0:0|0:0,0:0:0:0:
308,381,152665,21,2,1:2:0:0:
209,265,152888,1,2,0:0:0:0:
161,271,152999,1,0,1:0:0:0:
113,263,153110,1,8,0:0:0:0:
64,268,153221,2,0,P|61:245|55:221,1,47.9999985351563,2|0,0:0|1:0,0:0:0:0:
209,265,153443,2,0,P|203:288|199:312,1,47.9999985351563,2|0,0:0|0:0,0:0:0:0:
64,268,153665,2,0,P|61:245|55:221,1,47.9999985351563,2|0,0:0|1:0,0:0:0:0:
213,269,153888,1,0,1:0:0:0:
213,269,153999,2,0,B|232:216|251:240|265:189,1,95.9999970703126,10|2,0:0|0:0,0:0:0:0:
240,28,154332,1,0,0:0:0:0:
240,28,154443,22,0,P|210:29|184:44,1,60.0000022888184,4|0,0:2|0:0,0:0:0:0:
143,156,154665,1,0,0:0:0:0:
192,171,154776,2,0,P|196:145|203:120,1,51.999997619629,10|0,1:2|0:0,0:0:0:0:
103,5,154999,2,0,P|96:30|91:55,1,51.999997619629,8|0,0:2|0:0,0:0:0:0:
10,247,155221,2,0,P|14:221|21:196,1,51.999997619629,14|0,0:2|0:0,0:0:0:0:
64,129,155443,1,8,0:0:0:0:
64,129,155554,5,8,0:0:0:0:
92,323,155776,5,8,0:0:0:0:
64,129,155999,21,8,0:2:0:0:
92,323,156221,5,0,1:0:0:0:
64,129,156554,5,0,1:0:0:0:
92,323,156888,22,0,B|67:373|121:383|182:360|169:284|126:243|50:280|30:255|14:195|2:153|-8:53|45:60|82:82|98:137|50:129,1,431.999986816407,4|0,1:2|0:0,0:0:0:0:
0,305,159776,5,0,3:0:0:0:
143,185,160110,5,0,3:0:0:0:
0,305,160443,22,0,P|19:267|55:245,3,85.3333333333333,2|2|2|2,0:0|0:0|0:0|0:0,0:0:0:0:
225,287,161554,5,8,0:0:0:0:
124,203,161776,1,8,2:3:0:0:
105,145,161888,1,8,2:3:0:0:
134,92,161999,1,8,2:3:0:0:
69,0,162221,1,8,0:0:0:0:
234,89,162443,6,0,P|253:86|273:82,1,40,4|0,3:2|0:0,0:0:0:0:
261,6,162665,2,0,P|241:9|221:12,1,40,8|0,0:2|0:0,0:0:0:0:
234,89,162888,22,0,P|253:86|273:82,1,40,4|0,3:2|0:0,0:0:0:0:
261,6,163110,2,0,P|241:9|221:12,1,40,8|0,0:2|0:0,0:0:0:0:
134,92,163332,5,4,3:2:0:0:
134,92,163554,1,0,0:0:0:0:
175,169,163776,5,0,0:0:0:0:
175,169,163998,1,0,0:0:0:0:
125,251,164221,21,0,0:0:0:0:
125,251,164443,1,0,0:0:0:0:
166,346,164665,5,0,0:0:0:0:
166,346,164888,1,0,0:0:0:0:
275,367,165110,5,4,3:2:0:0:
320,256,165332,1,8,0:0:0:0:
445,227,165554,1,8,0:0:0:0:
499,102,165776,21,0,0:0:0:0:
364,118,165998,1,8,0:0:0:0:
305,249,166220,1,8,0:0:0:0:
421,354,166442,21,0,0:0:0:0:
479,194,166665,1,8,0:0:0:0:
332,297,166887,21,4,0:2:0:0:
276,119,167109,1,0,0:0:0:0:
185,291,167332,5,0,0:0:0:0:
376,209,167554,1,0,0:0:0:0:
196,89,167776,5,0,0:0:0:0:
160,319,167999,1,0,0:0:0:0:
54,107,168221,21,0,0:0:0:0:
299,146,168443,1,0,0:0:0:0:
83,288,168665,6,0,B|45:305|89:384|152:327,1,120.000004577637,0|0,0:0|0:0,0:0:0:0:
152,257,169110,2,0,B|189:241|145:162|82:219,1,120.000004577637,0|0,0:0|0:0,0:0:0:0:
118,383,169554,6,0,P|126:215|142:48,1,335.999989746094,0|0,0:0|0:0,0:0:0:0:
242,0,170443,22,0,P|281:30|278:80,1,103.999995239258,4|0,1:2|0:0,0:0:0:0:
224,150,170776,1,0,1:0:0:0:
224,150,170888,1,8,0:0:0:0:
340,272,171110,2,0,P|343:297|345:323,1,51.999997619629,0|8,0:0|1:2,0:0:0:0:
407,214,171332,1,0,0:0:0:0:
248,321,171554,2,0,B|182:286|174:357|98:317,1,155.999992858887,2|0,0:3|0:0,0:0:0:0:
28,361,171999,2,0,P|23:335|17:310,1,51.999997619629,0|0,1:0|0:0,0:0:0:0:
0,153,172221,6,0,P|49:146|85:182,1,103.999995239258,2|0,1:2|0:0,0:0:0:0:
182,224,172554,2,0,P|238:232|279:191,1,120.000004577637,2|0,1:2|0:0,0:0:0:0:
384,123,172888,2,0,P|409:119|435:117,1,51.999997619629,2|0,1:2|0:0,0:0:0:0:
318,16,173110,1,0,0:0:0:0:
255,41,173221,1,0,0:0:0:0:
274,105,173332,2,0,P|281:129|285:155,1,51.999997619629,0|0,1:0|0:0,0:0:0:0:
350,283,173554,2,0,P|423:274|453:206,1,155.999992858887,8|0,0:0|0:0,0:0:0:0:
512,98,173999,6,0,P|461:87|411:73,1,103.999995239258,4|0,1:2|0:0,0:0:0:0:
318,16,174332,1,0,1:0:0:0:
318,16,174443,1,8,0:0:0:0:
181,143,174665,1,0,0:0:0:0:
181,143,174776,1,0,1:0:0:0:
181,143,174888,2,0,P|155:143|129:148,1,51.999997619629
93,48,175110,2,0,P|159:15|214:64,1,155.999992858887,2|0,0:3|0:0,0:0:0:0:
268,136,175554,2,0,P|268:161|273:187,1,51.999997619629,0|0,1:0|0:0,0:0:0:0:
176,290,175776,22,0,P|126:300|83:273,1,103.999995239258,2|0,1:2|0:0,0:0:0:0:
102,175,176110,2,0,P|151:164|194:191,1,103.999995239258,2|0,1:2|0:0,0:0:0:0:
176,290,176443,2,0,P|175:315|170:341,1,51.999997619629,2|0,0:0|1:0,0:0:0:0:
302,378,176665,2,0,P|375:369|399:299,1,155.999992858887,0|0,3:0|0:0,0:0:0:0:
425,158,177110,1,8,3:2:0:0:
359,142,177221,1,0,3:0:0:0:
303,180,177332,1,0,3:0:0:0:
281,244,177443,1,0,3:0:0:0:
316,301,177554,6,0,P|309:223|294:146,1,155.999992858887,4|0,1:2|1:0,0:0:0:0:
231,63,177999,1,8,0:0:0:0:
381,2,178221,1,0,0:0:0:0:
381,1,178332,2,0,P|431:4|468:39,1,103.999995239258,0|0,1:0|0:0,0:0:0:0:
501,156,178665,2,0,P|494:181|489:206,1,51.999997619629,0|0,1:0|0:0,0:0:0:0:
399,287,178888,2,0,P|404:261|410:236,1,51.999997619629,8|0,0:0|0:0,0:0:0:0:
501,156,179110,2,0,P|506:130|512:105,1,51.999997619629,0|0,0:0|0:0,0:0:0:0:
384,89,179332,6,0,P|332:95|281:107,1,103.999995239258,0|0,1:0|0:0,0:0:0:0:
197,147,179665,1,0,1:0:0:0:
197,147,179776,2,0,P|171:143|145:139,1,51.999997619629,8|0,0:0|0:0,0:0:0:0:
54,190,179999,2,0,P|48:239|86:272,1,103.999995239258,0|0,1:0|0:0,0:0:0:0:
164,327,180332,1,0,0:0:0:0:
164,327,180443,1,0,1:0:0:0:
197,147,180666,1,8,0:0:0:0:
252,302,180888,2,0,P|253:276|261:251,1,51.999997619629,0|0,0:0|0:0,0:0:0:0:
359,217,181110,22,0,P|363:268|369:320,1,103.999995239258,4|0,1:2|0:0,0:0:0:0:
461,315,181443,1,0,1:0:0:0:
461,315,181554,2,0,P|455:263|450:211,1,103.999995239258,8|0,0:0|0:0,0:0:0:0:
512,147,181888,1,0,1:0:0:0:
512,147,181999,1,0,0:0:0:0:
512,147,182110,1,0,0:0:0:0:
512,147,182221,1,0,1:0:0:0:
350,93,182443,2,0,P|324:96|299:103,1,51.999997619629,8|0,0:0|0:0,0:0:0:0:
205,142,182665,1,0,0:0:0:0:
138,129,182776,1,0,0:0:0:0:
69,126,182888,5,0,1:0:0:0:
38,323,183110,1,8,0:0:0:0:
95,340,183221,2,0,P|87:310|84:281,1,60.0000022888184,8|0,0:0|0:0,0:0:0:0:
174,251,183443,1,8,0:0:0:0:
210,290,183554,2,0,P|217:263|228:238,1,55.9999982910157,8|0,0:0|0:0,0:0:0:0:
320,255,183776,1,8,3:3:0:0:
331,303,183888,2,0,P|349:285|370:269,1,51.999997619629,8|0,3:3|0:0,0:0:0:0:
439,329,184110,1,8,0:2:0:0:
426,372,184221,2,0,P|448:366|472:363,1,47.9999985351563,8|8,0:0|2:2,0:0:0:0:
495,152,184665,6,0,B|486:99|455:108|443:44,1,120,0|0,1:0|0:0,0:0:0:0:
319,5,185110,2,0,P|299:53|283:102,1,103.999995239258,12|0,0:0|0:0,0:0:0:0:
291,192,185443,1,8,1:2:0:0:
291,192,185554,2,0,P|265:186|240:181,1,51.999997619629,0|0,0:0|0:0,0:0:0:0:
155,127,185776,2,0,P|103:129|51:139,1,103.999995239258,0|8,1:0|0:0,0:0:0:0:
3,302,186221,1,0,1:0:0:0:
147,214,186443,22,0,P|156:238|165:262,1,51.999997619629,2|0,0:0|0:0,0:0:0:0:
205,355,186665,1,0,0:0:0:0:
244,366,186776,1,2,0:0:0:0:
291,369,186888,1,8,0:0:0:0:
340,353,186999,1,8,0:0:0:0:
385,318,187110,1,2,0:0:0:0:
412,262,187221,1,8,0:0:0:0:
419,194,187332,2,0,B|412:108|460:129|474:39,1,155.999992858887,4|0,0:0|0:0,0:0:0:0:
347,4,187776,2,0,B|276:53|270:0|185:33,1,155.999992858887,12|0,0:0|0:0,0:0:0:0:
218,161,188221,6,0,P|264:165|303:139,1,95.9999970703126,10|0,1:2|0:0,0:0:0:0:
235,62,188554,2,0,P|188:57|149:83,1,95.9999970703126,2|0,1:2|0:0,0:0:0:0:
126,175,188888,2,0,P|136:196|145:218,1,47.9999985351563,2|0,1:2|0:0,0:0:0:0:
101,334,189110,2,0,B|87:262|45:291|30:212,1,143.999995605469,8|0,0:0|0:0,0:0:0:0:
48,132,189554,1,8,0:0:0:0:
160,7,189776,1,0,1:0:0:0:
160,7,189888,1,0,0:0:0:0:
160,7,189999,6,0,P|134:46|138:94,1,95.9999970703126,12|0,1:2|0:0,0:0:0:0:
236,119,190332,2,0,P|261:79|257:31,1,95.9999970703126,2|0,1:2|0:0,0:0:0:0:
138,94,190665,2,0,P|145:116|151:139,1,47.9999985351563,2|0,1:2|0:0,0:0:0:0:
119,241,190888,2,0,P|190:245|262:252,1,143.999995605469,12|0,0:0|0:0,0:0:0:0:
341,360,191332,2,0,P|346:331|330:305,1,60.0000022888184,8|0,0:0|0:0,0:0:0:0:
220,330,191554,2,0,P|214:358|230:384,1,60.0000022888184,8|0,0:0|0:0,0:0:0:0:
498,384,191776,21,4,0:0:0:0:
498,384,193554,1,0,0:0:0:0:
481,305,194443,1,0,0:0:0:0:
366,147,195332,5,0,0:0:0:0:
366,147,197110,1,0,0:0:0:0:
383,68,197999,1,0,0:0:0:0:
256,384,198888,5,0,0:0:0:0:
256,380,199776,21,0,0:0:0:0:
256,376,200443,5,0,0:0:0:0:
256,372,200665,1,0,0:0:0:0:
256,368,200888,1,0,0:0:0:0:
256,364,201110,1,0,0:0:0:0:
256,360,201332,1,0,0:0:0:0:
256,356,201554,1,0,0:0:0:0:
256,352,201776,1,0,0:0:0:0:
256,347,202000,1,0,0:0:0:0:
256,343,202221,1,0,0:0:0:0:
256,339,202443,1,0,0:0:0:0:
256,335,203333,5,0,0:0:0:0:
256,331,203776,21,0,0:0:0:0:
256,327,203999,1,0,0:0:0:0:
256,323,205099,22,0,L|256:227,1,80,0|2,0:0|0:0,0:0:0:0:
256,160,205530,2,0,L|256:64,1,80,0|2,0:0|0:0,0:0:0:0:
256,0,206005,21,4,0:2:0:0:
256,80,206227,1,0,0:0:0:0:
180,40,206449,5,0,0:0:0:0:
332,40,206671,1,0,0:0:0:0:
256,240,206893,5,0,0:0:0:0:
256,160,207116,1,0,0:0:0:0:
332,200,207338,21,0,0:0:0:0:
180,200,207560,1,0,0:0:0:0:
408,241,207782,6,0,P|401:259|395:279,1,40,8|0,0:2|0:0,0:0:0:0:
395,361,208005,1,8,0:0:0:0:
332,200,208227,1,8,0:0:0:0:
116,279,208449,2,0,P|110:259|104:241,1,40,8|0,0:0|0:0,0:0:0:0:
180,200,208671,1,8,0:0:0:0:
117,361,208893,1,8,0:0:0:0:
60,156,209116,6,0,L|99:160,1,40,8|0,0:0|0:0,0:0:0:0:
300,244,209338,2,0,L|260:239,1,40,0|0,0:0|0:0,0:0:0:0:
60,156,209560,21,4,0:2:0:0:
300,244,209782,1,0,0:0:0:0:
115,92,210005,5,0,0:0:0:0:
135,347,210227,1,0,0:0:0:0:
264,167,210449,5,0,0:0:0:0:
57,317,210671,1,0,0:0:0:0:
250,316,210893,21,0,0:0:0:0:
2,253,211116,1,0,0:0:0:0:
307,147,211338,38,0,B|330:183|333:218|319:247|307:254|287:254|272:246,1,140.000001335144
205,221,211782,2,0,B|187:216|172:203|168:190|176:160|200:134|240:123,1,140.000001335144,0|0,0:0|0:0,0:0:0:0:
0,101,212227,6,0,L|219:38,1,215.599995723267,2|0,0:0|0:0,0:0:0:0:
57,0,213116,6,0,B|79:161|79:161|81:174|93:204|133:199|133:199|165:194|165:194|212:188|222:165|224:129,1,364.799995546875,0|0,0:0|0:0,0:0:0:0:
299,84,215338,1,0,0:0:0:0:
450,178,215782,6,0,P|439:224|431:272,1,95.9999970703126,0|0,0:0|0:0,0:0:0:0:
420,361,216116,1,0,0:0:0:0:
420,361,216227,2,0,P|414:305|359:299,1,120,4|0,0:2|0:0,0:0:0:0:
295,363,216671,22,0,P|249:361|214:329,1,96,4|0,0:2|0:0,0:0:0:0:
232,245,217116,1,0,0:0:0:0:
335,233,217338,1,0,0:0:0:0:
438,222,217560,1,0,0:0:0:0:
481,127,217782,1,0,0:0:0:0:
378,138,218005,1,0,0:0:0:0:
275,150,218227,1,0,0:0:0:0:
123,63,218449,6,0,P|95:74|68:88,1,60.0000022888184,4|0,0:2|0:0,0:0:0:0:
148,177,218671,1,2,0:0:0:0:
148,177,218782,2,0,P|120:173|92:171,1,55.9999982910157,8|0,0:0|0:0,0:0:0:0:
116,291,219005,1,2,0:0:0:0:
116,291,219116,2,0,P|95:275|73:260,1,51.999997619629,4|0,0:2|0:0,0:0:0:0:
34,373,219338,1,2,0:3:0:0:
34,373,219449,2,0,P|24:350|14:329,1,47.9999985351563,8|2,0:2|0:0,0:0:0:0:
0,231,219671,1,2,0:0:0:0:
0,231,219782,1,2,0:0:0:0:
410,365,220227,6,0,B|403:284|457:306|465:213,1,155.999992858887,4|0,1:2|1:0,0:0:0:0:
429,126,220671,1,8,0:0:0:0:
240,187,220893,1,0,0:0:0:0:
240,187,221005,2,0,P|222:139|247:95,1,103.999995239258,8|0,1:2|0:0,0:0:0:0:
304,39,221338,2,0,P|329:42|355:44,1,51.999997619629,0|0,1:0|0:0,0:0:0:0:
429,126,221560,2,0,P|403:123|377:120,1,51.999997619629,8|0,0:0|0:0,0:0:0:0:
327,197,221782,2,0,P|352:200|378:202,1,51.999997619629,0|0,0:0|0:0,0:0:0:0:
430,312,222004,22,0,P|403:354|353:362,1,103.999995239258,0|0,1:0|0:0,0:0:0:0:
274,327,222338,1,0,1:0:0:0:
274,327,222449,2,0,P|248:321|222:319,1,51.999997619629,8|0,0:0|0:0,0:0:0:0:
139,361,222671,2,0,P|136:309|132:257,1,103.999995239258,0|0,1:0|0:0,0:0:0:0:
94,175,223004,1,0,0:0:0:0:
94,175,223116,1,0,1:0:0:0:
256,236,223338,1,8,0:0:0:0:
54,341,223560,2,0,P|52:315|51:289,1,51.999997619629,0|0,0:0|0:0,0:0:0:0:
0,152,223782,6,0,P|51:148|94:175,1,103.999995239258,0|0,1:0|0:0,0:0:0:0:
197,201,224116,1,0,1:0:0:0:
197,201,224227,2,0,P|248:204|291:177,1,103.999995239258,8|0,0:0|0:0,0:0:0:0:
402,146,224560,1,0,1:0:0:0:
402,146,224671,1,0,0:0:0:0:
402,146,224782,1,0,0:0:0:0:
402,146,224893,1,0,1:0:0:0:
484,317,225116,2,0,P|480:342|477:368,1,51.999997619629,8|0,0:0|0:0,0:0:0:0:
366,384,225338,1,0,0:0:0:0:
358,316,225449,1,0,0:0:0:0:
340,250,225560,5,0,1:0:0:0:
491,100,225782,2,0,P|487:125|484:151,1,51.999997619629,0|0,0:0|1:0,0:0:0:0:
484,317,226004,1,8,0:0:0:0:
403,137,226227,2,0,P|399:162|396:188,1,51.999997619629,0|0,0:0|1:0,0:0:0:0:
292,155,226449,1,0,0:0:0:0:
300,87,226560,1,0,0:0:0:0:
318,21,226671,2,0,P|343:19|369:16,1,51.999997619629,8|0,1:3|0:0,0:0:0:0:
217,194,226893,1,8,0:0:0:0:
149,194,227004,1,8,0:3:0:0:
90,159,227116,1,8,0:3:0:0:
59,98,227227,1,8,2:3:0:0:
55,30,227338,22,0,B|125:35|113:59|169:63,1,120,4|0,1:2|1:0,0:0:0:0:
217,194,227782,2,0,P|202:243|193:295,1,103.999995239258,12|0,0:0|0:0,0:0:0:0:
284,356,228116,1,8,1:2:0:0:
284,356,228227,2,0,L|278:299,1,51.999997619629,0|0,0:0|0:0,0:0:0:0:
355,256,228449,2,0,B|419:271|382:296|456:316,1,103.999995239258,0|8,1:0|0:0,0:0:0:0:
499,124,228893,1,0,0:0:0:0:
355,256,229116,6,0,P|305:251|282:206,1,103.999995239258,2|0,1:2|0:0,0:0:0:0:
195,133,229449,2,0,P|137:138|111:189,1,120.000004577637,2|0,1:2|0:0,0:0:0:0:
70,270,229782,2,0,P|45:262|19:256,1,51.999997619629,2|0,0:0|0:0,0:0:0:0:
0,126,230004,6,0,B|100:112|52:51|149:37,1,180.000006866455,4|0,1:2|0:0,0:0:0:0:
306,103,230449,2,0,B|406:117|358:178|455:192,1,180.000006866455,4|0,0:0|0:0,0:0:0:0:
486,317,230893,21,4,1:2:0:0:
342,281,231115,1,0,0:0:0:0:
306,103,231338,5,8,0:0:0:0:
493,82,231560,1,0,0:0:0:0:
414,243,231782,5,4,1:2:0:0:
378,17,232004,1,0,1:0:0:0:
146,49,232227,21,8,0:0:0:0:
114,320,232449,1,0,0:0:0:0:
310,366,232671,6,0,P|306:288|288:212,1,155.999992858887,4|0,1:2|0:0,0:0:0:0:
214,154,233116,1,8,0:0:0:0:
418,96,233338,1,0,3:0:0:0:
418,96,233449,1,0,3:0:0:0:
418,96,233560,2,0,L|386:31,1,51.999997619629,4|0,0:2|0:0,0:0:0:0:
324,150,233782,2,0,L|328:78,1,47.9999985351563,8|0,0:0|0:0,0:0:0:0:
214,154,234004,2,0,L|238:118,1,44.0000013427735,8|0,0:0|0:0,0:0:0:0:
114,107,234227,2,0,L|149:90,1,40,8|0,0:0|0:0,0:0:0:0:
99,0,234449,6,0,L|88:119,2,120,4|4|4,0:0|0:0|0:0,0:0:0:0:
413,0,235338,2,0,L|423:119,1,120,8|0,0:0|0:0,0:0:0:0:
166,181,236004,1,0,2:0:0:0:
166,181,236116,1,0,2:0:0:0:
166,181,236227,22,0,L|176:61,2,120,4|2|2,0:0|0:0|0:0,0:0:0:0:
346,181,237116,2,0,L|336:61,1,120,8|0,0:0|0:0,0:0:0:0:
256,0,237782,1,0,0:0:0:0:
256,0,237893,1,0,0:0:0:0:
256,0,238004,6,0,L|256:149,2,120,6|2|2,0:0|0:0|0:0,0:0:0:0:
256,200,238893,2,0,L|256:320,1,120,8|0,0:0|0:0,0:0:0:0:
100,251,239782,5,12,0:0:0:0:
413,310,240116,1,0,0:0:0:0:
308,10,240449,1,0,0:0:0:0:
244,167,240671,22,0,P|298:87|324:180,1,240.000009155274,8|0,0:0|0:0,0:0:0:0:
230,177,242004,22,0,P|301:70|336:194,1,320,0|0,0:0|0:0,0:0:0:0:
351,291,244004,1,0,0:0:0:0:
351,291,244116,1,0,0:0:0:0:
351,291,244227,1,0,0:0:0:0:
425,177,244449,1,0,0:0:0:0:
445,271,244671,1,0,0:0:0:0:
331,197,244893,1,0,0:0:0:0:
256,358,245116,22,0,P|253:318|247:262,1,95.9999970703126,4|0,0:0|0:0,0:0:0:0:
151,239,245449,1,0,1:0:0:0:
151,239,245560,2,0,P|104:206|130:130,1,143.999995605469,8|8,0:0|0:0,0:0:0:0:
190,75,246004,2,0,P|214:78|238:81,1,47.9999985351563
255,168,246227,2,0,P|231:164|207:161,1,47.9999985351563,0|0,1:0|0:0,0:0:0:0:
86,43,246449,2,0,P|138:18|190:79,1,143.999995605469,8|0,0:0|0:0,0:0:0:0:
290,16,246893,6,0,P|329:12|395:-4,1,95.9999970703126,0|0,1:0|0:0,0:0:0:0:
483,11,247227,1,0,1:0:0:0:
483,11,247338,2,0,P|459:60|445:118,1,95.9999970703126,8|0,0:0|1:0,0:0:0:0:
485,176,247671,1,0,0:0:0:0:
496,212,247782,1,0,0:0:0:0:
494,250,247893,1,0,0:0:0:0:
470,280,248004,2,0,L|416:267,1,47.9999985351563
413,347,248227,2,0,L|359:334,1,47.9999985351563,8|0,0:0|0:0,0:0:0:0:
346,249,248449,2,0,L|292:236,1,47.9999985351563,8|0,0:0|0:0,0:0:0:0:
226,327,248671,5,4,1:2:0:0:
150,176,248893,1,0,0:0:0:0:
57,318,249116,1,8,0:0:0:0:
144,274,249338,1,8,0:0:0:0:
144,314,249449,1,0,0:0:0:0:
140,354,249560,1,8,3:2:0:0:
150,176,249782,1,0,3:0:0:0:
226,327,250004,1,0,0:0:0:0:
57,318,250227,1,8,3:2:0:0:
71,150,250449,22,0,P|106:103|194:108,1,143.999995605469,4|0,1:2|1:0,0:0:0:0:
234,10,250893,2,0,P|269:56|355:60,1,143.999995605469,12|0,1:2|1:0,0:0:0:0:
438,53,251338,2,0,L|431:103,1,47.9999985351563
452,58,251560,2,0,L|445:109,1,47.9999985351563,0|0,1:0|0:0,0:0:0:0:
425,185,251782,2,0,L|419:231,1,47.9999985351563,8|0,0:0|0:0,0:0:0:0:
439,190,252004,2,0,L|433:236,1,47.9999985351563,8|0,0:0|0:0,0:0:0:0:
489,331,252227,6,0,P|449:336|387:353,1,95.9999970703126,4|0,1:2|0:0,0:0:0:0:
295,384,252560,1,0,1:0:0:0:
295,384,252671,2,0,P|239:372|235:293,1,143.999995605469,8|8,0:0|1:2,0:0:0:0:
317,193,253116,2,0,P|306:214|300:237,1,47.9999985351563
218,211,253338,2,0,P|228:185|235:160,1,47.9999985351563,0|0,1:0|0:0,0:0:0:0:
400,224,253560,2,0,P|417:277|347:314,1,143.999995605469,8|0,0:0|0:0,0:0:0:0:
285,374,254004,6,0,P|245:377|180:385,1,95.9999970703126
120,330,254338,1,0,1:0:0:0:
120,330,254449,2,0,P|116:290|108:234,1,95.9999970703126,8|0,0:0|1:0,0:0:0:0:
62,157,254782,1,0,0:0:0:0:
62,157,254893,2,0,L|15:146,1,47.9999985351563
102,82,255116,2,0,L|49:70,1,47.9999985351563,0|0,1:0|0:0,0:0:0:0:
195,162,255338,2,0,L|131:147,1,47.9999985351563,8|0,0:0|0:0,0:0:0:0:
235,87,255560,2,0,L|187:76,1,47.9999985351563,0|0,1:0|0:0,0:0:0:0:
316,175,255782,22,0,P|354:168|387:115,1,95.9999970703126,4|0,0:2|0:0,0:0:0:0:
385,45,256116,1,0,1:0:0:0:
385,45,256227,1,8,0:0:0:0:
436,201,256449,1,0,3:0:0:0:
436,201,256560,1,0,3:0:0:0:
436,201,256671,1,0,1:0:0:0:
505,71,256893,1,0,3:0:0:0:
316,175,257116,1,0,0:0:0:0:
389,5,257338,1,2,1:2:0:0:
385,45,257449,1,2,0:0:0:0:
386,84,257560,6,0,P|386:107|391:131,1,40,4|0,3:2|0:0,0:0:0:0:
354,227,257782,2,0,P|352:201|347:176,1,41.9999987182618,0|0,0:0|0:0,0:0:0:0:
292,79,258004,2,0,P|293:106|298:132,1,44.0000013427735,0|0,0:0|0:0,0:0:0:0:
267,249,258227,2,0,P|264:219|260:190,1,46.0000008773804,0|0,0:0|0:0,0:0:0:0:
198,72,258449,2,0,P|199:102|204:133,1,47.9999985351563,0|0,0:0|0:0,0:0:0:0:
181,271,258671,2,0,P|178:237|173:204,1,50,0|0,0:0|0:0,0:0:0:0:
103,66,258893,2,0,P|104:100|110:134,1,51.999997619629,8|0,0:2|0:0,0:0:0:0:
95,292,259116,2,0,P|92:254|86:217,1,54.0000002059937,8|0,0:2|0:0,0:0:0:0:
19,165,259408,5,2,0:0:0:0:
19,165,259661,2,0,P|58:159|98:154,1,80,0|0,0:0|0:0,0:0:0:0:
176,221,260113,21,2,0:0:0:0:
176,221,260351,2,0,P|215:226|255:231,1,80,0|0,0:0|0:0,0:0:0:0:
310,132,260873,21,2,0:0:0:0:
310,132,261143,2,0,P|349:126|389:121,1,80,0|0,0:0|0:0,0:0:0:0:
433,208,261639,21,2,0:0:0:0:
433,208,261907,2,0,P|472:213|512:218,1,80,0|0,0:0|0:0,0:0:0:0:
292,223,262501,22,0,P|254:246|213:264,1,80,2|0,0:0|0:0,0:0:0:0:
220,223,263285,2,0,P|258:246|299:264,1,80,2|2,0:0|0:0,0:0:0:0:
256,328,264566,22,0,L|256:350,2,20,0|0|0,0:0|0:0|0:0,0:0:0:0:
256,192,264880,1,2,0:0:0:0:
256,192,264941,12,2,271785,0:0:0:0:
