osu file format v14

[General]
AudioFilename: audio.mp3
AudioLeadIn: 0
PreviewTime: 124158
Countdown: 1
SampleSet: Soft
StackLeniency: 0.6
Mode: 0
LetterboxInBreaks: 1
WidescreenStoryboard: 1

[Editor]
Bookmarks: 2492,30825,44158,57491,70825,84158,110825,124158,177492,184158,190825
DistanceSpacing: 1
BeatDivisor: 4
GridSize: 8
TimelineZoom: 2.2

[Metadata]
Title:Canary
TitleUnicode:Canary
Artist:SHIKI
ArtistUnicode:SHIKI
Creator:Matrix
Version:Normal
Source:
Tags:HEAVEN PUNISHER mithew electronic trance instrumental trancer doll's dolls
BeatmapID:3217025
BeatmapSetID:1547826

[Difficulty]
HPDrainRate:3
CircleSize:4
OverallDifficulty:4
ApproachRate:6
SliderMultiplier:1.2
SliderTickRate:1

[Events]
//Background and Video events
0,0,"look at the bg name of lapis.png",0,0
//Break Periods
//Storyboard Layer 0 (Background)
//Storyboard Layer 1 (Fail)
//Storyboard Layer 2 (Pass)
//Storyboard Layer 3 (Foreground)
//Storyboard Layer 4 (Overlay)
//Storyboard Sound Samples

[TimingPoints]
30825,416.666666666667,4,2,1,75,1,0
44158,-100,4,2,1,75,0,0
122908,-100,4,2,1,35,0,0
123116,-100,4,2,1,40,0,0
123325,-100,4,2,1,55,0,0
123533,-100,4,2,1,65,0,0
123741,-100,4,2,1,85,0,0
123950,-100,4,2,1,85,0,0
124158,-100,4,2,1,85,0,1
177491,-100,4,2,1,85,0,0
184158,-100,4,2,1,75,0,0

[Colours]
Combo1 : 44,194,226
Combo2 : 100,170,163
Combo3 : 213,171,228
Combo4 : 119,151,236

[HitObjects]
38,345,30824,6,0,L|138:317,1,90,6|2,0:0|0:0,0:0:0:0:
179,249,31449,2,0,L|243:270,1,60,2|2,0:0|0:0,0:0:0:0:
321,297,31970,2,0,P|387:303|428:288,1,90,2|2,0:0|0:0,0:0:0:0:
468,286,32491,2,0,P|439:226|439:182,1,90,2|2,0:0|0:0,0:0:0:0:
466,117,33116,2,0,L|386:123,1,60,2|2,0:0|0:0,0:0:0:0:
363,42,33637,2,0,L|262:68,1,90,2|2,0:0|0:0,0:0:0:0:
217,81,34158,5,2,0:0:0:0:
142,30,34470,2,0,P|122:74|129:123,1,90,2|2,0:0|0:0,0:0:0:0:
171,153,34991,2,0,L|171:247,1,90,2|2,0:0|0:0,0:0:0:0:
171,333,35616,1,2,0:0:0:0:
116,357,35824,2,0,P|76:349|43:311,1,90,2|2,0:0|0:0,0:0:0:0:
43,223,36449,1,2,0:0:0:0:
94,191,36658,2,0,P|146:191|188:224,1,90,2|2,0:0|0:0,0:0:0:0:
173,309,37283,2,0,L|246:309,1,60,2|2,0:0|0:0,0:0:0:0:
331,325,37804,6,0,P|342:270|373:241,1,90,2|2,0:0|0:0,0:0:0:0:
422,230,38324,1,2,0:0:0:0:
492,286,38637,2,0,P|459:312|400:308,1,90,2|2,0:0|0:0,0:0:0:0:
365,351,39158,2,0,L|270:352,1,90,2|2,0:0|0:0,0:0:0:0:
184,353,39783,1,2,0:0:0:0:
124,353,39991,2,0,P|98:316|94:265,1,90,2|2,0:0|0:0,0:0:0:0:
179,246,40616,2,0,P|170:217|153:193,1,60,2|2,0:0|0:0,0:0:0:0:
62,196,41137,5,2,0:0:0:0:
0,130,41449,2,0,P|37:98|45:66,1,60,2|2,0:0|0:0,0:0:0:0:
67,2,41970,2,0,L|164:2,1,90,2|2,0:0|0:0,0:0:0:0:
216,10,42491,2,0,L|299:64,1,90,2|2,0:0|0:0,0:0:0:0:
365,109,43116,1,2,0:0:0:0:
424,111,43324,2,0,P|391:113|350:166,1,90,2|2,0:0|0:0,0:0:0:0:
326,237,43949,1,2,0:0:0:0:
369,278,44158,5,6,0:0:0:0:
285,310,44470,1,2,0:0:0:0:
201,342,44783,1,2,0:0:0:0:
122,299,45095,1,2,0:0:0:0:
34,319,45408,6,0,L|1:375,2,60,2|2|2,0:0|0:0|0:0,0:0:0:0:
61,233,46137,1,2,0:0:0:0:
18,153,46449,1,2,0:0:0:0:
53,70,46762,1,2,0:0:0:0:
133,30,47074,6,0,L|202:18,2,60,2|2|2,0:0|0:0|0:0,0:0:0:0:
153,118,47804,2,0,P|219:111|254:82,1,90,2|2,0:0|0:0,0:0:0:0:
285,22,48429,1,2,0:0:0:0:
332,98,48741,2,0,L|325:163,2,60,2|2|2,0:0|0:0|0:0,0:0:0:0:
378,20,49470,2,0,P|408:42|420:101,1,90,2|2,0:0|0:0,0:0:0:0:
413,180,50095,1,2,0:0:0:0:
456,258,50408,2,0,L|514:233,2,60,2|2|2,0:0|0:0|0:0,0:0:0:0:
430,344,51137,5,2,0:0:0:0:
350,301,51449,1,2,0:0:0:0:
302,338,51658,2,0,L|193:331,1,90,2|2,0:0|0:0,0:0:0:0:
122,328,52283,1,2,0:0:0:0:
71,359,52491,2,0,L|77:263,1,90,2|2,0:0|0:0,0:0:0:0:
135,201,53116,1,2,0:0:0:0:
104,150,53324,2,0,L|200:156,1,90,2|2,0:0|0:0,0:0:0:0:
283,162,53949,5,2,0:0:0:0:
338,185,54158,2,0,P|351:128|332:94,1,90,2|2,0:0|0:0,0:0:0:0:
287,27,54783,1,2,0:0:0:0:
232,4,54992,2,0,P|219:61|238:95,1,90,2|2,0:0|0:0,0:0:0:0:
206,173,55616,1,2,0:0:0:0:
147,159,55824,2,0,P|112:157|50:189,1,90,2|2,0:0|0:0,0:0:0:0:
31,262,56449,1,2,0:0:0:0:
90,276,56657,2,0,P|125:278|187:246,1,90,8|8,0:0|0:0,0:0:0:0:
261,284,57283,1,10,0:0:0:0:
290,336,57491,5,6,0:0:0:0:
378,321,57804,1,2,0:0:0:0:
466,307,58116,1,2,0:0:0:0:
507,263,58324,5,2,0:0:0:0:
419,248,58637,1,2,0:0:0:0:
331,234,58949,1,2,0:0:0:0:
291,188,59158,5,2,0:0:0:0:
379,173,59471,1,2,0:0:0:0:
467,159,59783,1,2,0:0:0:0:
431,110,59991,2,0,L|326:101,2,90,2|2|2,0:0|0:0|0:0,0:0:0:0:
423,50,60824,2,0,L|528:41,2,90,2|2|2,0:0|0:0|0:0,0:0:0:0:
368,24,61658,5,2,0:0:0:0:
288,66,61970,1,2,0:0:0:0:
203,34,62283,1,2,0:0:0:0:
152,65,62491,2,0,L|68:21,2,90,2|2|2,0:0|0:0|0:0,0:0:0:0:
157,124,63324,2,0,L|236:165,2,90,2|2|2,0:0|0:0|0:0,0:0:0:0:
98,137,64158,5,2,0:0:0:0:
42,207,64470,1,2,0:0:0:0:
76,290,64783,1,2,0:0:0:0:
135,296,64991,2,0,P|182:300|236:272,2,90,2|2|2,0:0|0:0|0:0,0:0:0:0:
98,343,65824,2,0,P|55:362|-5:354,2,90,2|2|2,0:0|0:0|0:0,0:0:0:0:
76,290,66658,5,2,0:0:0:0:
50,203,66970,1,2,0:0:0:0:
25,116,67283,1,2,0:0:0:0:
54,63,67491,5,2,0:0:0:0:
111,132,67804,1,2,0:0:0:0:
168,201,68116,1,2,0:0:0:0:
224,220,68324,5,2,0:0:0:0:
204,132,68637,1,2,0:0:0:0:
184,44,68949,1,2,0:0:0:0:
243,51,69158,6,0,L|338:15,2,90,2|2|2,0:0|0:0|0:0,0:0:0:0:
205,97,69991,2,0,L|110:61,2,90,2|10|10,0:0|0:0|0:0,0:0:0:0:
245,141,70825,6,0,L|245:257,1,90,6|2,0:0|0:0,0:0:0:0:
335,226,71450,2,0,L|335:342,1,90,2|2,0:0|0:0,0:0:0:0:
420,345,72075,5,2,0:0:0:0:
442,289,72283,1,2,0:0:0:0:
464,233,72491,1,2,0:0:0:0:
386,186,72804,2,0,L|385:304,1,90,2|2,0:0|0:0,0:0:0:0:
295,265,73429,2,0,L|294:383,1,90,2|2,0:0|0:0,0:0:0:0:
235,342,73950,1,2,0:0:0:0:
176,329,74158,5,2,0:0:0:0:
89,351,74470,1,2,0:0:0:0:
109,263,74783,2,0,L|109:156,1,90,2|2,0:0|0:0,0:0:0:0:
198,165,75408,2,0,L|198:85,2,60,2|0|2,0:0|0:0|0:0,0:0:0:0:
271,217,76137,6,0,L|378:217,1,90,2|2,0:0|0:0,0:0:0:0:
451,219,76762,1,2,0:0:0:0:
432,307,77075,5,2,0:0:0:0:
372,302,77283,1,2,0:0:0:0:
312,297,77491,2,0,L|243:360,1,90,2|2,0:0|0:0,0:0:0:0:
173,303,78116,2,0,L|98:267,1,60,2|2,0:0|0:0,0:0:0:0:
36,240,78637,1,2,0:0:0:0:
10,326,78950,1,2,0:0:0:0:
38,378,79158,2,0,L|131:378,1,90,2|2,0:0|0:0,0:0:0:0:
173,303,79783,2,0,L|257:303,1,60,2|2,0:0|0:0,0:0:0:0:
323,305,80304,1,2,0:0:0:0:
398,353,80616,1,2,0:0:0:0:
452,327,80825,6,0,L|414:218,1,90,2|2,0:0|0:0,0:0:0:0:
502,201,81450,2,0,L|474:123,1,60,2|2,0:0|0:0,0:0:0:0:
507,58,81970,1,2,0:0:0:0:
425,19,82283,5,2,0:0:0:0:
392,69,82491,1,2,0:0:0:0:
312,26,82804,1,2,0:0:0:0:
248,89,83116,1,2,0:0:0:0:
203,48,83325,1,2,0:0:0:0:
137,109,83637,2,0,L|46:129,1,90,10|10,0:0|0:0,0:0:0:0:
31,186,84158,6,0,B|6:308|135:308,1,180,6|2,0:0|0:0,0:0:0:0:
223,370,85200,2,0,L|247:308,1,60,2|2,0:0|0:0,0:0:0:0:
266,258,85616,1,2,0:0:0:0:
309,216,85825,2,0,B|365:214|414:251|375:359,1,180,2|2,0:0|0:0,0:0:0:0:
503,213,87075,1,2,0:0:0:0:
395,160,87491,2,0,B|316:46|477:32,1,180,2|2,0:0|0:0,0:0:0:0:
333,3,88533,5,2,0:0:0:0:
294,48,88741,2,0,P|285:85|287:113,1,60,2|2,0:0|0:0,0:0:0:0:
302,164,89158,2,0,B|244:119|188:197,1,120,2|2,0:0|0:0,0:0:0:0:
169,237,89783,1,2,0:0:0:0:
49,230,90200,2,0,P|31:194|32:154,2,60,2|2|2,0:0|0:0|0:0,0:0:0:0:
61,288,90825,2,0,B|136:217|222:336,1,180,2|2,0:0|0:0,0:0:0:0:
386,364,92075,1,2,0:0:0:0:
488,301,92491,2,0,B|370:245|432:177|466:74|284:0|274:146|162:111|153:8,1,480,2|2,0:0|0:0,0:0:0:0:
8,134,94783,6,0,B|89:100|103:209,1,120,2|2,0:0|0:0,0:0:0:0:
91,240,95408,1,2,0:0:0:0:
79,298,95616,2,0,P|116:294|149:308,1,60,2|2,0:0|0:0,0:0:0:0:
306,363,96450,1,2,0:0:0:0:
126,378,97075,2,0,B|47:381|44:290,1,120,10|6,0:0|0:0,0:0:0:0:
29,128,98116,6,0,B|77:195|141:116,1,120,2|2,0:0|0:0,0:0:0:0:
169,85,98741,1,2,0:0:0:0:
228,78,98950,1,2,0:0:0:0:
276,112,99158,2,0,B|350:198|432:82,1,180,2|2,0:0|0:0,0:0:0:0:
263,11,100408,2,0,B|194:6|174:94,1,120,2|2,0:0|0:0,0:0:0:0:
10,147,101450,2,0,B|102:131|116:201,1,120,2|2,0:0|0:0,0:0:0:0:
123,245,102075,2,0,L|123:311,1,60,2|2,0:0|0:0,0:0:0:0:
123,364,102491,5,2,0:0:0:0:
229,308,102908,1,2,0:0:0:0:
244,365,103116,1,2,0:0:0:0:
361,340,103533,2,0,L|432:334,1,60,2|2,0:0|0:0,0:0:0:0:
480,329,103950,1,2,0:0:0:0:
488,269,104158,2,0,B|449:155|327:246,1,180,2|2,0:0|0:0,0:0:0:0:
201,340,105408,2,0,B|135:386|82:304,1,120,2|2,0:0|0:0,0:0:0:0:
5,143,107491,6,0,B|53:21|148:122,1,180,2|2,0:0|0:0,0:0:0:0:
172,229,108533,2,0,L|172:295,1,60,2|2,0:0|0:0,0:0:0:0:
231,296,108950,1,2,0:0:0:0:
261,347,109158,1,2,0:0:0:0:
440,350,109783,2,0,B|355:253|481:207,1,180,2|2,0:0|0:0,0:0:0:0:
497,93,110825,5,6,0:0:0:0:
328,28,111450,1,2,0:0:0:0:
208,36,111866,2,0,L|143:21,2,60,2|2|2,0:0|0:0|0:0,0:0:0:0:
239,87,112491,1,2,0:0:0:0:
61,118,113116,1,2,0:0:0:0:
226,189,113741,1,2,0:0:0:0:
113,231,114158,1,2,0:0:0:0:
287,273,114783,5,2,0:0:0:0:
171,304,115200,2,0,L|102:317,2,60,2|2|2,0:0|0:0|0:0,0:0:0:0:
220,338,115825,1,2,0:0:0:0:
334,372,116241,1,2,0:0:0:0:
393,378,116450,1,2,0:0:0:0:
503,324,116866,2,0,L|494:257,2,60,2|2|2,0:0|0:0|0:0,0:0:0:0:
512,384,117491,5,2,0:0:0:0:
349,306,118116,1,2,0:0:0:0:
508,221,118741,1,2,0:0:0:0:
391,193,119158,1,2,0:0:0:0:
11,165,120825,5,2,0:0:0:0:
190,148,121450,1,2,0:0:0:0:
76,109,121866,1,2,0:0:0:0:
132,87,122075,1,2,0:0:0:0:
185,61,122283,2,0,L|270:61,1,60,2|2,0:0|0:0,0:0:0:0:
103,312,124158,6,0,L|34:334,2,60,2|0|2,0:0|0:0|0:0,0:0:0:0:
161,297,124783,1,2,0:0:0:0:
161,297,124991,2,0,L|214:345,2,60,0|2|0,0:0|0:0|0:0,0:0:0:0:
53,243,125825,2,0,P|81:210|80:123,1,120,2|2,0:0|0:0,0:0:0:0:
10,41,126658,6,0,L|82:25,1,60,0|2,0:0|0:0,0:0:0:0:
124,50,127075,2,0,L|193:37,1,60,2|2,0:0|0:0,0:0:0:0:
241,51,127491,1,2,0:0:0:0:
275,166,127908,1,2,0:0:0:0:
329,58,128325,1,2,0:0:0:0:
363,173,128742,1,2,0:0:0:0:
443,84,129158,6,0,L|432:153,1,60,2|2,0:0|0:0,0:0:0:0:
452,200,129575,1,2,0:0:0:0:
470,257,129783,2,0,L|459:326,2,60,2|2|2,0:0|0:0|0:0,0:0:0:0:
510,212,130408,1,2,0:0:0:0:
391,189,130825,6,0,L|324:203,2,60,2|0|2,0:0|0:0|0:0,0:0:0:0:
414,135,131450,1,0,0:0:0:0:
414,135,131658,2,0,L|435:69,1,60,2|2,0:0|0:0,0:0:0:0:
449,20,132075,2,0,L|507:7,2,60,0|2|2,0:0|0:0|0:0,0:0:0:0:
331,47,132908,5,2,0:0:0:0:
215,13,133325,1,0,0:0:0:0:
145,110,133741,1,2,0:0:0:0:
225,198,134158,2,0,L|207:270,1,60,2|2,0:0|0:0,0:0:0:0:
194,314,134575,2,0,B|144:344|127:347|68:299,1,120,2|2,0:0|0:0,0:0:0:0:
47,265,135200,1,2,0:0:0:0:
59,206,135408,1,2,0:0:0:0:
175,178,135825,6,0,P|206:179|248:166,1,60,10|2,0:0|0:0,0:0:0:0:
294,168,136241,2,0,P|333:185|362:208,1,60,10|2,0:0|0:0,0:0:0:0:
392,234,136658,1,10,0:0:0:0:
444,262,136866,1,0,0:0:0:0:
503,252,137075,1,10,0:0:0:0:
473,135,137491,6,0,L|450:79,1,60,2|0,0:0|0:0,0:0:0:0:
431,27,137908,1,2,0:0:0:0:
431,27,138116,2,0,P|465:26|509:43,2,60,2|0|2,0:0|0:0|0:0,0:0:0:0:
376,51,138741,2,0,P|342:52|298:35,1,60,0|2,0:0|0:0,0:0:0:0:
264,15,139158,1,2,0:0:0:0:
149,51,139575,1,2,0:0:0:0:
258,99,139991,1,0,0:0:0:0:
143,135,140408,1,2,0:0:0:0:
67,228,140825,6,0,L|10:198,2,60,2|2|2,0:0|0:0|0:0,0:0:0:0:
124,259,141450,1,0,0:0:0:0:
124,259,141658,2,0,P|107:305|86:331,2,60,2|2|2,0:0|0:0|0:0,0:0:0:0:
205,347,142491,2,0,P|243:329|330:343,1,120,2|2,0:0|0:0,0:0:0:0:
434,368,143325,2,0,L|497:353,2,60,2|2|2,0:0|0:0|0:0,0:0:0:0:
404,251,144158,6,0,P|392:271|387:312,2,60,2|0|2,0:0|0:0|0:0,0:0:0:0:
441,204,144783,1,2,0:0:0:0:
441,204,144991,2,0,P|453:184|458:143,1,60,0|2,0:0|0:0,0:0:0:0:
445,89,145408,2,0,L|511:73,2,60,0|2|2,0:0|0:0|0:0,0:0:0:0:
346,20,146241,1,2,0:0:0:0:
312,135,146658,1,0,0:0:0:0:
191,135,147075,1,2,0:0:0:0:
225,20,147491,6,0,L|265:73,2,60,2|2|2,0:0|0:0|0:0,0:0:0:0:
105,8,148325,2,0,P|118:67|70:130,1,120,2|2,0:0|0:0,0:0:0:0:
21,215,149158,2,0,L|33:288,1,60,10|2,0:0|0:0,0:0:0:0:
83,303,149575,2,0,L|95:376,1,60,10|2,0:0|0:0,0:0:0:0:
149,382,149991,1,10,0:0:0:0:
209,380,150200,1,0,0:0:0:0:
264,358,150408,1,10,0:0:0:0:
192,261,150825,6,0,L|177:189,2,60,2|0|2,0:0|0:0|0:0,0:0:0:0:
252,260,151450,1,2,0:0:0:0:
252,260,151658,2,0,L|264:318,2,60,0|2|0,0:0|0:0|0:0,0:0:0:0:
362,308,152492,2,0,P|395:280|482:281,1,120,2|2,0:0|0:0,0:0:0:0:
505,160,153325,2,0,L|483:92,1,60,0|2,0:0|0:0,0:0:0:0:
430,123,153741,2,0,L|408:55,1,60,2|2,0:0|0:0,0:0:0:0:
391,9,154158,5,2,0:0:0:0:
327,111,154575,1,2,0:0:0:0:
378,219,154992,1,2,0:0:0:0:
495,242,155409,1,2,0:0:0:0:
454,129,155825,6,0,L|377:118,1,60,2|2,0:0|0:0,0:0:0:0:
334,113,156242,1,2,0:0:0:0:
334,113,156450,2,0,P|339:80|366:51,2,60,2|2|2,0:0|0:0|0:0,0:0:0:0:
354,169,157075,1,2,0:0:0:0:
305,278,157492,6,0,L|314:350,2,60,2|0|2,0:0|0:0|0:0,0:0:0:0:
249,269,158117,1,2,0:0:0:0:
249,269,158325,2,0,L|171:249,1,60,0|2,0:0|0:0,0:0:0:0:
132,240,158742,2,0,L|137:312,2,60,0|2|2,0:0|0:0|0:0,0:0:0:0:
125,120,159575,5,2,0:0:0:0:
22,182,159992,1,0,0:0:0:0:
30,301,160408,1,2,0:0:0:0:
135,358,160825,2,0,L|207:344,1,60,2|2,0:0|0:0,0:0:0:0:
253,338,161242,2,0,B|303:368|320:371|379:323,1,120,2|2,0:0|0:0,0:0:0:0:
402,291,161867,1,2,0:0:0:0:
461,282,162075,1,2,0:0:0:0:
496,167,162492,6,0,P|462:171|423:155,1,60,10|2,0:0|0:0,0:0:0:0:
405,113,162908,2,0,P|367:108|329:119,1,60,10|2,0:0|0:0,0:0:0:0:
290,136,163325,2,0,L|293:205,2,60,10|2|10,0:0|0:0|0:0,0:0:0:0:
224,236,164158,6,0,L|148:214,1,60,2|0,0:0|0:0,0:0:0:0:
112,204,164575,1,2,0:0:0:0:
112,204,164783,2,0,P|90:227|88:267,2,60,2|0|2,0:0|0:0|0:0,0:0:0:0:
154,161,165408,2,0,P|174:140|180:111,1,60,0|2,0:0|0:0,0:0:0:0:
172,51,165825,1,2,0:0:0:0:
284,8,166242,1,2,0:0:0:0:
370,91,166658,1,0,0:0:0:0:
330,204,167075,1,2,0:0:0:0:
447,181,167492,6,0,P|470:164|504:151,2,60,2|2|2,0:0|0:0|0:0,0:0:0:0:
437,243,168117,1,0,0:0:0:0:
437,243,168325,2,0,P|454:289|475:315,2,60,2|2|2,0:0|0:0|0:0,0:0:0:0:
363,337,169158,2,0,P|325:319|238:333,1,120,2|2,0:0|0:0,0:0:0:0:
137,372,169992,2,0,L|74:357,2,60,2|2|2,0:0|0:0|0:0,0:0:0:0:
162,254,170825,6,0,P|174:274|179:315,2,60,2|0|2,0:0|0:0|0:0,0:0:0:0:
126,212,171450,1,2,0:0:0:0:
126,212,171658,2,0,P|114:192|109:151,1,60,0|2,0:0|0:0,0:0:0:0:
105,96,172075,2,0,L|40:139,2,60,0|2|2,0:0|0:0|0:0,0:0:0:0:
166,20,172908,1,2,0:0:0:0:
200,135,173325,1,0,0:0:0:0:
252,26,173742,1,2,0:0:0:0:
290,139,174158,6,0,L|302:206,2,60,2|2|2,0:0|0:0|0:0,0:0:0:0:
363,44,174992,2,0,P|414:16|471:29,1,120,2|2,0:0|0:0,0:0:0:0:
501,145,175825,2,0,L|489:218,1,60,10|2,0:0|0:0,0:0:0:0:
504,262,176242,2,0,L|492:335,1,60,10|2,0:0|0:0,0:0:0:0:
486,380,176658,2,0,L|408:380,2,60,10|2|10,0:0|0:0|0:0,0:0:0:0:
402,293,177491,6,0,L|334:359,2,90,2|2|2,0:0|0:0|0:0,0:0:0:0:
370,241,178325,2,0,L|278:264,2,90,2|2|2,0:0|0:0|0:0,0:0:0:0:
368,179,179158,2,0,L|276:153,2,90,2|2|2,0:0|0:0|0:0,0:0:0:0:
397,124,179991,2,0,L|331:56,2,90,2|2|2,0:0|0:0|0:0,0:0:0:0:
440,165,180825,1,2,0:0:0:0:
365,214,181137,1,2,0:0:0:0:
290,264,181450,1,2,0:0:0:0:
238,293,181658,6,0,P|184:327|165:352,2,90,2|2|2,0:0|0:0|0:0,0:0:0:0:
213,238,182491,2,0,L|100:242,2,90,2|2|2,0:0|0:0|0:0,0:0:0:0:
227,179,183325,2,0,P|173:145|154:120,2,90,2|2|2,0:0|0:0|0:0,0:0:0:0:
286,170,184158,5,2,0:0:0:0:
330,91,184470,1,2,0:0:0:0:
265,28,184783,1,2,0:0:0:0:
206,39,184991,5,2,0:0:0:0:
162,118,185303,1,2,0:0:0:0:
227,181,185616,1,2,0:0:0:0:
240,239,185825,5,2,0:0:0:0:
196,318,186137,1,2,0:0:0:0:
261,381,186450,1,2,0:0:0:0:
320,370,186658,5,2,0:0:0:0:
364,291,186970,1,2,0:0:0:0:
299,228,187283,1,2,0:0:0:0:
240,239,187491,6,0,L|170:314,2,90,2|2|2,0:0|0:0|0:0,0:0:0:0:
227,181,188325,2,0,L|152:111,2,90,2|2|2,0:0|0:0|0:0,0:0:0:0:
286,170,189158,2,0,L|356:95,2,90,2|2|2,0:0|0:0|0:0,0:0:0:0:
299,228,189991,2,0,L|374:298,2,90,2|2|2,0:0|0:0|0:0,0:0:0:0:
240,239,190825,1,6,0:0:0:0:
