osu file format v14

[General]
AudioFilename: audio.mp3
AudioLeadIn: 0
PreviewTime: 39098
Countdown: 0
SampleSet: Soft
StackLeniency: 0.7
Mode: 3
LetterboxInBreaks: 0
SpecialStyle: 0
WidescreenStoryboard: 0

[Editor]
Bookmarks: 17504,28312,39077,49885,60671,71437,93010,125390
DistanceSpacing: 0.8
BeatDivisor: 4
GridSize: 32
TimelineZoom: 1.9

[Metadata]
Title:Air
TitleUnicode:Air
Artist:SHIKI
ArtistUnicode:SHIKI
Creator:shizehao
Version:Another
Source:SOUND VOLTEX EXCEED GEAR
Tags:BMS SOUND VOLTEX instrumental electronic video game trancecore xixi2333 BKwind FAMoss CrisTears Cristierra CHUNITHM オンゲキ ongeki
BeatmapID:3855015
BeatmapSetID:1856760

[Difficulty]
HPDrainRate:8.5
CircleSize:4
OverallDifficulty:8.5
ApproachRate:5
SliderMultiplier:1.4
SliderTickRate:1

[Events]
//Background and Video events
0,0,"bg.jpg",0,0
//Break Periods
//Storyboard Layer 0 (Background)
//Storyboard Layer 1 (Fail)
//Storyboard Layer 2 (Pass)
//Storyboard Layer 3 (Foreground)
//Storyboard Layer 4 (Overlay)
//Storyboard Sound Samples

[TimingPoints]
6727,337.078651685393,4,2,1,60,1,0
125378,-100,4,2,1,60,0,1
146951,-100,4,2,1,60,0,0

[HitObjects]
320,192,6726,5,0,0:0:0:0:
192,192,6811,1,0,0:0:0:0:
64,192,6895,1,0,0:0:0:0:
448,192,6979,1,0,0:0:0:0:
320,192,7064,1,2,0:0:0:0:
192,192,7148,1,0,0:0:0:0:
448,192,7232,1,0,0:0:0:0:
320,192,7316,1,0,0:0:0:0:
64,192,7401,1,0,0:0:0:0:
448,192,7485,1,0,0:0:0:0:
192,192,7569,1,0,0:0:0:0:
64,192,7653,1,0,0:0:0:0:
320,192,7738,1,2,0:0:0:0:
192,192,7822,1,0,0:0:0:0:
448,192,7906,1,0,0:0:0:0:
320,192,7991,1,0,0:0:0:0:
192,192,8075,1,0,0:0:0:0:
320,192,8159,1,0,0:0:0:0:
448,192,8243,1,0,0:0:0:0:
64,192,8328,1,0,0:0:0:0:
192,192,8412,1,2,0:0:0:0:
320,192,8496,1,0,0:0:0:0:
64,192,8580,1,0,0:0:0:0:
192,192,8665,1,0,0:0:0:0:
448,192,8749,1,0,0:0:0:0:
64,192,8833,1,0,0:0:0:0:
320,192,8918,1,0,0:0:0:0:
448,192,9002,1,0,0:0:0:0:
192,192,9086,1,2,0:0:0:0:
320,192,9170,1,0,0:0:0:0:
64,192,9255,1,0,0:0:0:0:
192,192,9339,1,0,0:0:0:0:
320,192,9423,1,0,0:0:0:0:
192,192,9507,1,0,0:0:0:0:
64,192,9592,1,0,0:0:0:0:
448,192,9676,1,0,0:0:0:0:
320,192,9760,1,2,0:0:0:0:
192,192,9844,1,0,0:0:0:0:
448,192,9929,1,0,0:0:0:0:
320,192,10013,1,0,0:0:0:0:
64,192,10097,1,0,0:0:0:0:
448,192,10182,1,0,0:0:0:0:
192,192,10266,1,0,0:0:0:0:
64,192,10350,1,0,0:0:0:0:
320,192,10434,1,2,0:0:0:0:
192,192,10519,1,0,0:0:0:0:
448,192,10603,1,0,0:0:0:0:
320,192,10687,1,0,0:0:0:0:
192,192,10771,1,0,0:0:0:0:
320,192,10856,1,0,0:0:0:0:
448,192,10940,1,0,0:0:0:0:
64,192,11024,1,0,0:0:0:0:
192,192,11109,1,2,0:0:0:0:
320,192,11193,1,0,0:0:0:0:
64,192,11277,1,0,0:0:0:0:
192,192,11361,1,0,0:0:0:0:
448,192,11446,1,0,0:0:0:0:
64,192,11530,1,0,0:0:0:0:
320,192,11614,1,0,0:0:0:0:
448,192,11698,1,0,0:0:0:0:
192,192,11783,1,2,0:0:0:0:
320,192,11867,1,0,0:0:0:0:
64,192,11951,1,0,0:0:0:0:
192,192,12035,1,0,0:0:0:0:
320,192,12120,1,0,0:0:0:0:
448,192,12120,1,0,0:0:0:0:
192,192,12204,1,0,0:0:0:0:
320,192,12288,1,0,0:0:0:0:
192,192,12373,1,0,0:0:0:0:
448,192,12457,1,0,0:0:0:0:
64,192,12457,1,2,0:0:0:0:
320,192,12541,1,0,0:0:0:0:
192,192,12625,1,0,0:0:0:0:
448,192,12710,1,0,0:0:0:0:
192,192,12794,1,0,0:0:0:0:
320,192,12878,1,0,0:0:0:0:
192,192,12962,1,0,0:0:0:0:
320,192,13047,1,0,0:0:0:0:
64,192,13131,1,2,0:0:0:0:
448,192,13131,1,0,0:0:0:0:
192,192,13215,1,0,0:0:0:0:
320,192,13300,1,0,0:0:0:0:
64,192,13384,1,0,0:0:0:0:
320,192,13468,1,0,0:0:0:0:
192,192,13552,1,0,0:0:0:0:
320,192,13637,1,0,0:0:0:0:
192,192,13721,1,0,0:0:0:0:
64,192,13805,1,2,0:0:0:0:
448,192,13805,1,0,0:0:0:0:
320,192,13889,1,0,0:0:0:0:
192,192,13974,1,0,0:0:0:0:
448,192,14058,1,0,0:0:0:0:
192,192,14142,1,0,0:0:0:0:
320,192,14226,1,0,0:0:0:0:
192,192,14311,1,0,0:0:0:0:
320,192,14395,1,0,0:0:0:0:
64,192,14479,1,2,0:0:0:0:
448,192,14479,1,0,0:0:0:0:
192,192,14564,1,0,0:0:0:0:
320,192,14648,1,0,0:0:0:0:
64,192,14732,1,0,0:0:0:0:
320,192,14816,1,0,0:0:0:0:
192,192,14901,1,0,0:0:0:0:
320,192,14985,1,0,0:0:0:0:
192,192,15069,1,0,0:0:0:0:
64,192,15153,1,0,0:0:0:0:
448,192,15153,1,2,0:0:0:0:
320,192,15238,1,0,0:0:0:0:
192,192,15322,1,0,0:0:0:0:
448,192,15406,1,0,0:0:0:0:
192,192,15491,1,0,0:0:0:0:
320,192,15575,1,0,0:0:0:0:
192,192,15659,1,0,0:0:0:0:
320,192,15743,1,0,0:0:0:0:
64,192,15828,1,2,0:0:0:0:
448,192,15828,1,0,0:0:0:0:
192,192,15912,1,0,0:0:0:0:
320,192,15996,1,0,0:0:0:0:
448,192,16080,1,0,0:0:0:0:
64,192,16165,1,0,0:0:0:0:
192,192,16221,1,0,0:0:0:0:
320,192,16277,1,0,0:0:0:0:
448,192,16333,1,0,0:0:0:0:
320,192,16418,1,0,0:0:0:0:
192,192,16502,1,0,0:0:0:0:
320,192,16586,1,0,0:0:0:0:
192,192,16670,1,0,0:0:0:0:
64,192,16755,1,0,0:0:0:0:
448,192,16839,1,0,0:0:0:0:
320,192,16895,1,0,0:0:0:0:
192,192,16951,1,0,0:0:0:0:
64,192,17007,1,0,0:0:0:0:
448,192,17092,1,0,0:0:0:0:
64,192,17176,1,0,0:0:0:0:
192,192,17232,1,0,0:0:0:0:
320,192,17288,1,0,0:0:0:0:
448,192,17344,1,0,0:0:0:0:
64,192,17513,1,2,0:0:0:0:
192,192,17513,1,4,0:0:0:0:
320,192,17513,1,0,0:0:0:0:
448,192,17682,1,0,0:0:0:0:
320,192,17682,1,0,0:0:0:0:
192,192,17766,1,0,0:0:0:0:
320,192,17850,1,2,0:0:0:0:
448,192,17850,1,0,0:0:0:0:
64,192,18019,1,0,0:0:0:0:
192,192,18019,1,0,0:0:0:0:
320,192,18187,1,2,0:0:0:0:
448,192,18187,1,0,0:0:0:0:
192,192,18271,1,0,0:0:0:0:
64,192,18356,1,0,0:0:0:0:
320,192,18440,1,0,0:0:0:0:
448,192,18440,1,0,0:0:0:0:
64,192,18524,1,2,0:0:0:0:
320,192,18693,1,0,0:0:0:0:
192,192,18693,1,0,0:0:0:0:
64,192,18861,1,2,0:0:0:0:
320,192,19030,1,0,0:0:0:0:
448,192,19030,1,0,0:0:0:0:
192,192,19114,1,0,0:0:0:0:
320,192,19198,1,2,0:0:0:0:
448,192,19198,1,0,0:0:0:0:
64,192,19367,1,0,0:0:0:0:
192,192,19367,1,0,0:0:0:0:
192,192,19535,1,2,0:0:0:0:
448,192,19535,1,0,0:0:0:0:
320,192,19620,1,0,0:0:0:0:
64,192,19704,1,0,0:0:0:0:
192,192,19788,1,0,0:0:0:0:
448,192,19788,1,0,0:0:0:0:
64,192,19873,1,2,0:0:0:0:
192,192,20041,1,0,0:0:0:0:
320,192,20041,1,0,0:0:0:0:
64,192,20210,1,2,0:0:0:0:
320,192,20378,1,0,0:0:0:0:
448,192,20378,1,0,0:0:0:0:
192,192,20462,1,0,0:0:0:0:
320,192,20547,1,2,0:0:0:0:
448,192,20547,1,0,0:0:0:0:
64,192,20715,1,0,0:0:0:0:
192,192,20715,1,0,0:0:0:0:
320,192,20884,1,2,0:0:0:0:
448,192,20884,1,0,0:0:0:0:
192,192,20968,1,0,0:0:0:0:
64,192,21052,1,0,0:0:0:0:
320,192,21137,1,0,0:0:0:0:
448,192,21137,1,0,0:0:0:0:
64,192,21221,1,2,0:0:0:0:
192,192,21389,1,0,0:0:0:0:
320,192,21389,1,0,0:0:0:0:
448,192,21558,1,2,0:0:0:0:
64,192,21726,1,0,0:0:0:0:
192,192,21726,1,0,0:0:0:0:
320,192,21811,1,0,0:0:0:0:
64,192,21895,1,2,0:0:0:0:
192,192,21895,1,0,0:0:0:0:
192,192,22064,1,0,0:0:0:0:
448,192,22064,1,0,0:0:0:0:
320,192,22232,1,0,0:0:0:0:
64,192,22232,1,2,0:0:0:0:
448,192,22316,1,0,0:0:0:0:
192,192,22401,1,0,0:0:0:0:
64,192,22485,1,0,0:0:0:0:
320,192,22485,1,0,0:0:0:0:
448,192,22569,1,2,0:0:0:0:
192,192,22738,1,0,0:0:0:0:
320,192,22738,1,0,0:0:0:0:
64,192,22906,1,2,0:0:0:0:
320,192,23075,1,0,0:0:0:0:
448,192,23075,1,0,0:0:0:0:
192,192,23159,1,0,0:0:0:0:
320,192,23243,1,2,0:0:0:0:
448,192,23243,1,0,0:0:0:0:
192,192,23412,1,0,0:0:0:0:
64,192,23412,1,0,0:0:0:0:
320,192,23580,1,2,0:0:0:0:
448,192,23580,1,0,0:0:0:0:
192,192,23665,1,0,0:0:0:0:
64,192,23749,1,0,0:0:0:0:
320,192,23833,1,0,0:0:0:0:
448,192,23833,1,0,0:0:0:0:
64,192,23918,1,2,0:0:0:0:
192,192,24086,1,0,0:0:0:0:
320,192,24086,1,0,0:0:0:0:
64,192,24255,1,2,0:0:0:0:
320,192,24423,1,0,0:0:0:0:
448,192,24423,1,0,0:0:0:0:
192,192,24507,1,0,0:0:0:0:
320,192,24592,1,2,0:0:0:0:
448,192,24592,1,0,0:0:0:0:
64,192,24760,1,0,0:0:0:0:
192,192,24760,1,0,0:0:0:0:
192,192,24929,1,2,0:0:0:0:
448,192,24929,1,0,0:0:0:0:
320,192,25013,1,0,0:0:0:0:
64,192,25097,1,0,0:0:0:0:
192,192,25182,1,0,0:0:0:0:
448,192,25182,1,0,0:0:0:0:
64,192,25266,1,2,0:0:0:0:
192,192,25434,1,0,0:0:0:0:
320,192,25434,1,0,0:0:0:0:
64,192,25603,1,2,0:0:0:0:
320,192,25771,1,0,0:0:0:0:
448,192,25771,1,0,0:0:0:0:
192,192,25856,1,0,0:0:0:0:
320,192,25940,1,2,0:0:0:0:
448,192,25940,1,0,0:0:0:0:
64,192,26109,1,0,0:0:0:0:
192,192,26109,1,0,0:0:0:0:
320,192,26277,1,2,0:0:0:0:
448,192,26277,1,0,0:0:0:0:
192,192,26361,1,0,0:0:0:0:
64,192,26446,1,0,0:0:0:0:
320,192,26530,1,0,0:0:0:0:
448,192,26530,1,0,0:0:0:0:
64,192,26614,1,2,0:0:0:0:
192,192,26783,1,0,0:0:0:0:
320,192,26783,1,0,0:0:0:0:
448,192,26951,1,2,0:0:0:0:
64,192,27120,1,0,0:0:0:0:
192,192,27120,1,0,0:0:0:0:
320,192,27204,1,0,0:0:0:0:
64,192,27288,1,2,0:0:0:0:
192,192,27288,1,0,0:0:0:0:
192,192,27457,1,0,0:0:0:0:
448,192,27457,1,0,0:0:0:0:
64,192,27625,1,2,0:0:0:0:
320,192,27625,1,0,0:0:0:0:
448,192,27710,1,0,0:0:0:0:
64,192,27794,1,0,0:0:0:0:
192,192,27878,1,0,0:0:0:0:
320,192,27878,1,0,0:0:0:0:
448,192,27962,1,2,0:0:0:0:
64,192,28047,1,0,0:0:0:0:
192,192,28131,1,0,0:0:0:0:
320,192,28131,1,0,0:0:0:0:
64,192,28215,1,0,0:0:0:0:
192,192,28300,1,2,0:0:0:0:
320,192,28300,1,4,0:0:0:0:
448,192,28300,1,0,0:0:0:0:
320,192,28468,1,0,0:0:0:0:
448,192,28468,1,0,0:0:0:0:
192,192,28552,1,0,0:0:0:0:
64,192,28637,1,0,0:0:0:0:
448,192,28637,1,2,0:0:0:0:
320,192,28721,1,0,0:0:0:0:
192,192,28805,1,0,0:0:0:0:
64,192,28805,1,0,0:0:0:0:
320,192,28889,1,0,0:0:0:0:
64,192,28974,1,2,0:0:0:0:
448,192,28974,1,0,0:0:0:0:
192,192,29058,1,0,0:0:0:0:
320,192,29142,1,0,0:0:0:0:
64,192,29226,1,0,0:0:0:0:
448,192,29226,1,0,0:0:0:0:
192,192,29311,1,2,0:0:0:0:
320,192,29311,1,0,0:0:0:0:
448,192,29479,1,0,0:0:0:0:
192,192,29479,1,0,0:0:0:0:
64,192,29648,1,2,0:0:0:0:
320,192,29648,1,0,0:0:0:0:
192,192,29816,1,0,0:0:0:0:
448,192,29816,1,0,0:0:0:0:
64,192,29901,1,0,0:0:0:0:
320,192,29985,1,2,0:0:0:0:
448,192,29985,1,0,0:0:0:0:
192,192,30069,1,0,0:0:0:0:
64,192,30153,1,0,0:0:0:0:
448,192,30153,1,0,0:0:0:0:
320,192,30238,1,0,0:0:0:0:
64,192,30322,1,2,0:0:0:0:
192,192,30322,1,0,0:0:0:0:
448,192,30406,1,0,0:0:0:0:
320,192,30491,1,0,0:0:0:0:
64,192,30575,1,0,0:0:0:0:
192,192,30575,1,0,0:0:0:0:
448,192,30659,1,2,0:0:0:0:
320,192,30659,1,0,0:0:0:0:
320,192,30828,1,0,0:0:0:0:
448,192,30828,1,0,0:0:0:0:
64,192,30996,1,2,0:0:0:0:
192,192,30996,1,0,0:0:0:0:
320,192,31165,1,0,0:0:0:0:
448,192,31165,1,0,0:0:0:0:
192,192,31249,1,0,0:0:0:0:
64,192,31333,1,0,0:0:0:0:
448,192,31333,1,2,0:0:0:0:
320,192,31418,1,0,0:0:0:0:
192,192,31502,1,0,0:0:0:0:
64,192,31502,1,0,0:0:0:0:
320,192,31586,1,0,0:0:0:0:
64,192,31670,1,2,0:0:0:0:
448,192,31670,1,0,0:0:0:0:
192,192,31755,1,0,0:0:0:0:
320,192,31839,1,0,0:0:0:0:
64,192,31923,1,0,0:0:0:0:
448,192,31923,1,0,0:0:0:0:
192,192,32007,1,2,0:0:0:0:
320,192,32007,1,0,0:0:0:0:
320,192,32176,1,0,0:0:0:0:
64,192,32176,1,0,0:0:0:0:
448,192,32344,1,0,0:0:0:0:
192,192,32344,1,2,0:0:0:0:
320,192,32513,1,0,0:0:0:0:
64,192,32513,1,0,0:0:0:0:
448,192,32597,1,0,0:0:0:0:
64,192,32682,1,2,0:0:0:0:
192,192,32682,1,0,0:0:0:0:
320,192,32766,1,0,0:0:0:0:
64,192,32850,1,0,0:0:0:0:
448,192,32850,1,0,0:0:0:0:
192,192,32934,1,0,0:0:0:0:
448,192,33019,1,2,0:0:0:0:
320,192,33019,1,0,0:0:0:0:
64,192,33103,1,0,0:0:0:0:
192,192,33187,1,0,0:0:0:0:
448,192,33271,1,0,0:0:0:0:
320,192,33271,1,0,0:0:0:0:
64,192,33356,1,2,0:0:0:0:
192,192,33356,1,0,0:0:0:0:
320,192,33524,1,0,0:0:0:0:
448,192,33524,1,0,0:0:0:0:
64,192,33693,1,2,0:0:0:0:
192,192,33693,1,0,0:0:0:0:
320,192,33861,1,0,0:0:0:0:
448,192,33861,1,0,0:0:0:0:
192,192,33946,1,0,0:0:0:0:
448,192,34030,1,2,0:0:0:0:
64,192,34030,1,0,0:0:0:0:
320,192,34114,1,0,0:0:0:0:
64,192,34198,1,0,0:0:0:0:
192,192,34198,1,0,0:0:0:0:
320,192,34283,1,0,0:0:0:0:
64,192,34367,1,2,0:0:0:0:
448,192,34367,1,0,0:0:0:0:
192,192,34451,1,0,0:0:0:0:
320,192,34535,1,0,0:0:0:0:
64,192,34620,1,0,0:0:0:0:
448,192,34620,1,0,0:0:0:0:
192,192,34704,1,2,0:0:0:0:
320,192,34704,1,0,0:0:0:0:
192,192,34873,1,0,0:0:0:0:
448,192,34873,1,0,0:0:0:0:
64,192,35041,1,2,0:0:0:0:
320,192,35041,1,0,0:0:0:0:
448,192,35210,1,0,0:0:0:0:
192,192,35210,1,0,0:0:0:0:
64,192,35294,1,0,0:0:0:0:
320,192,35378,1,2,0:0:0:0:
448,192,35378,1,0,0:0:0:0:
192,192,35462,1,0,0:0:0:0:
64,192,35547,1,0,0:0:0:0:
448,192,35547,1,0,0:0:0:0:
320,192,35631,1,0,0:0:0:0:
64,192,35715,1,2,0:0:0:0:
192,192,35715,1,0,0:0:0:0:
448,192,35800,1,0,0:0:0:0:
320,192,35884,1,0,0:0:0:0:
192,192,35968,1,0,0:0:0:0:
64,192,35968,1,0,0:0:0:0:
448,192,36052,1,2,0:0:0:0:
320,192,36052,1,0,0:0:0:0:
320,192,36221,1,0,0:0:0:0:
448,192,36221,1,0,0:0:0:0:
64,192,36389,1,2,0:0:0:0:
192,192,36389,1,0,0:0:0:0:
320,192,36558,1,0,0:0:0:0:
448,192,36558,1,0,0:0:0:0:
192,192,36642,1,0,0:0:0:0:
448,192,36726,1,2,0:0:0:0:
64,192,36726,1,0,0:0:0:0:
320,192,36811,1,0,0:0:0:0:
64,192,36895,1,0,0:0:0:0:
192,192,36895,1,0,0:0:0:0:
320,192,36979,1,0,0:0:0:0:
64,192,37064,1,2,0:0:0:0:
448,192,37064,1,0,0:0:0:0:
192,192,37148,1,0,0:0:0:0:
320,192,37232,1,0,0:0:0:0:
64,192,37316,1,0,0:0:0:0:
448,192,37316,1,0,0:0:0:0:
192,192,37401,1,2,0:0:0:0:
320,192,37401,1,0,0:0:0:0:
64,192,37569,1,0,0:0:0:0:
320,192,37569,1,0,0:0:0:0:
192,192,37906,1,0,0:0:0:0:
448,192,37906,1,0,0:0:0:0:
320,192,37991,1,0,0:0:0:0:
192,192,38075,1,0,0:0:0:0:
448,192,38075,1,0,0:0:0:0:
64,192,38243,1,0,0:0:0:0:
320,192,38243,1,0,0:0:0:0:
320,192,38412,1,0,0:0:0:0:
448,192,38412,1,0,0:0:0:0:
64,192,38580,1,0,0:0:0:0:
192,192,38580,1,0,0:0:0:0:
320,192,38665,1,0,0:0:0:0:
448,192,38665,1,0,0:0:0:0:
64,192,38918,1,0,0:0:0:0:
192,192,38918,1,0,0:0:0:0:
448,192,39086,1,0,0:0:0:0:
320,192,39086,128,0,41109:0:0:0:0:
192,192,39086,128,4,40771:0:0:0:0:
64,192,39086,1,2,0:0:0:0:
64,192,40266,1,2,0:0:0:0:
448,192,40266,1,0,0:0:0:0:
64,192,40434,1,2,0:0:0:0:
448,192,40434,1,0,0:0:0:0:
64,192,40771,128,0,41277:0:0:0:0:
448,192,41109,128,0,41783:0:0:0:0:
192,192,41277,128,0,42288:0:0:0:0:
64,192,41614,1,2,0:0:0:0:
320,192,41614,1,0,0:0:0:0:
64,192,41783,1,2,0:0:0:0:
320,192,41783,128,0,42794:0:0:0:0:
64,192,42288,128,0,43131:0:0:0:0:
448,192,42794,128,0,43468:0:0:0:0:
192,192,42962,1,2,0:0:0:0:
320,192,42962,1,0,0:0:0:0:
192,192,43131,128,2,43805:0:0:0:0:
320,192,43131,1,0,0:0:0:0:
320,192,43468,128,0,43974:0:0:0:0:
64,192,43805,128,2,44479:0:0:0:0:
448,192,43805,1,0,0:0:0:0:
192,192,43974,128,0,44479:0:0:0:0:
448,192,44479,128,0,45322:0:0:0:0:
320,192,44479,128,2,45153:0:0:0:0:
192,192,44816,1,0,0:0:0:0:
64,192,44816,1,4,0:0:0:0:
64,192,45153,1,2,0:0:0:0:
192,192,45153,128,0,45491:0:0:0:0:
320,192,45322,128,0,45659:0:0:0:0:
64,192,45491,1,4,0:0:0:0:
448,192,45491,128,0,45828:0:0:0:0:
192,192,45659,128,0,45828:0:0:0:0:
64,192,45828,128,2,46165:0:0:0:0:
320,192,45828,128,0,46502:0:0:0:0:
448,192,46165,1,4,0:0:0:0:
192,192,46165,128,0,46502:0:0:0:0:
448,192,46502,128,0,46839:0:0:0:0:
64,192,46502,128,2,46670:0:0:0:0:
192,192,46670,128,0,47176:0:0:0:0:
64,192,46839,1,0,0:0:0:0:
320,192,46839,128,4,47176:0:0:0:0:
64,192,47176,1,2,0:0:0:0:
448,192,47176,128,0,47850:0:0:0:0:
64,192,47513,1,4,0:0:0:0:
192,192,47513,1,0,0:0:0:0:
64,192,47850,1,2,0:0:0:0:
192,192,47850,1,0,0:0:0:0:
448,192,48019,128,0,48356:0:0:0:0:
64,192,48187,1,4,0:0:0:0:
192,192,48187,1,0,0:0:0:0:
320,192,48356,128,0,48524:0:0:0:0:
448,192,48524,1,0,0:0:0:0:
64,192,48524,128,2,48861:0:0:0:0:
448,192,48693,128,0,48861:0:0:0:0:
320,192,48861,1,0,0:0:0:0:
192,192,48861,128,2,49198:0:0:0:0:
320,192,49030,128,0,49198:0:0:0:0:
64,192,49198,1,2,0:0:0:0:
448,192,49198,128,0,49367:0:0:0:0:
192,192,49367,128,0,49535:0:0:0:0:
320,192,49451,1,2,0:0:0:0:
64,192,49535,1,2,0:0:0:0:
448,192,49535,1,0,0:0:0:0:
192,192,49704,1,2,0:0:0:0:
448,192,49788,1,0,0:0:0:0:
192,192,49873,1,4,0:0:0:0:
320,192,49873,1,0,0:0:0:0:
64,192,49873,1,2,0:0:0:0:
448,192,49957,1,0,0:0:0:0:
320,192,50041,1,0,0:0:0:0:
192,192,50125,1,0,0:0:0:0:
64,192,50210,1,2,0:0:0:0:
448,192,50210,1,0,0:0:0:0:
320,192,50294,1,0,0:0:0:0:
192,192,50378,1,0,0:0:0:0:
448,192,50462,1,0,0:0:0:0:
64,192,50547,1,2,0:0:0:0:
320,192,50547,1,0,0:0:0:0:
192,192,50631,1,0,0:0:0:0:
448,192,50715,1,0,0:0:0:0:
320,192,50800,1,0,0:0:0:0:
192,192,50884,1,0,0:0:0:0:
64,192,50884,1,2,0:0:0:0:
448,192,50968,1,0,0:0:0:0:
320,192,51052,1,0,0:0:0:0:
192,192,51137,1,0,0:0:0:0:
64,192,51221,1,2,0:0:0:0:
448,192,51221,1,0,0:0:0:0:
320,192,51305,1,0,0:0:0:0:
192,192,51389,1,0,0:0:0:0:
64,192,51474,1,0,0:0:0:0:
320,192,51558,1,2,0:0:0:0:
448,192,51558,1,0,0:0:0:0:
64,192,51642,1,0,0:0:0:0:
192,192,51726,1,0,0:0:0:0:
448,192,51811,1,0,0:0:0:0:
320,192,51895,1,0,0:0:0:0:
64,192,51895,1,2,0:0:0:0:
192,192,51979,1,0,0:0:0:0:
320,192,52064,1,0,0:0:0:0:
448,192,52064,1,0,0:0:0:0:
192,192,52148,1,0,0:0:0:0:
64,192,52232,1,2,0:0:0:0:
448,192,52232,1,0,0:0:0:0:
192,192,52316,1,0,0:0:0:0:
320,192,52401,1,0,0:0:0:0:
448,192,52485,1,0,0:0:0:0:
64,192,52569,1,2,0:0:0:0:
192,192,52569,1,0,0:0:0:0:
448,192,52653,1,0,0:0:0:0:
320,192,52738,1,0,0:0:0:0:
192,192,52822,1,0,0:0:0:0:
64,192,52906,1,2,0:0:0:0:
448,192,52906,1,0,0:0:0:0:
320,192,52991,1,0,0:0:0:0:
64,192,53075,1,0,0:0:0:0:
192,192,53075,1,0,0:0:0:0:
320,192,53159,1,0,0:0:0:0:
64,192,53243,1,2,0:0:0:0:
448,192,53243,1,0,0:0:0:0:
192,192,53328,1,0,0:0:0:0:
320,192,53412,1,0,0:0:0:0:
448,192,53496,1,0,0:0:0:0:
320,192,53580,1,0,0:0:0:0:
64,192,53580,1,2,0:0:0:0:
192,192,53665,1,0,0:0:0:0:
448,192,53749,1,0,0:0:0:0:
320,192,53833,1,0,0:0:0:0:
192,192,53918,1,2,0:0:0:0:
448,192,53918,1,0,0:0:0:0:
64,192,54002,1,0,0:0:0:0:
448,192,54086,1,0,0:0:0:0:
320,192,54170,1,0,0:0:0:0:
192,192,54255,1,2,0:0:0:0:
448,192,54255,1,0,0:0:0:0:
64,192,54339,1,0,0:0:0:0:
192,192,54423,1,0,0:0:0:0:
448,192,54507,1,0,0:0:0:0:
64,192,54592,1,2,0:0:0:0:
320,192,54592,1,0,0:0:0:0:
192,192,54676,1,0,0:0:0:0:
320,192,54760,1,0,0:0:0:0:
448,192,54760,1,0,0:0:0:0:
64,192,54844,1,0,0:0:0:0:
192,192,54929,1,2,0:0:0:0:
320,192,54929,1,0,0:0:0:0:
448,192,55013,1,0,0:0:0:0:
64,192,55097,1,0,0:0:0:0:
192,192,55182,1,0,0:0:0:0:
320,192,55266,1,2,0:0:0:0:
448,192,55266,1,0,0:0:0:0:
192,192,55350,1,0,0:0:0:0:
64,192,55434,1,0,0:0:0:0:
448,192,55519,1,0,0:0:0:0:
320,192,55603,1,0,0:0:0:0:
64,192,55603,1,2,0:0:0:0:
192,192,55687,1,0,0:0:0:0:
448,192,55771,1,0,0:0:0:0:
320,192,55856,1,0,0:0:0:0:
64,192,55940,1,2,0:0:0:0:
192,192,55940,1,0,0:0:0:0:
448,192,56024,1,0,0:0:0:0:
64,192,56109,1,0,0:0:0:0:
320,192,56109,1,0,0:0:0:0:
192,192,56193,1,0,0:0:0:0:
320,192,56277,1,2,0:0:0:0:
448,192,56277,1,0,0:0:0:0:
64,192,56361,1,0,0:0:0:0:
448,192,56446,1,0,0:0:0:0:
192,192,56446,1,0,0:0:0:0:
320,192,56530,1,0,0:0:0:0:
64,192,56614,1,2,0:0:0:0:
192,192,56614,1,0,0:0:0:0:
448,192,56698,1,0,0:0:0:0:
320,192,56783,1,0,0:0:0:0:
192,192,56867,1,0,0:0:0:0:
64,192,56951,1,2,0:0:0:0:
320,192,56951,1,0,0:0:0:0:
448,192,57035,1,0,0:0:0:0:
192,192,57120,1,0,0:0:0:0:
320,192,57204,1,0,0:0:0:0:
64,192,57288,1,2,0:0:0:0:
448,192,57288,1,0,0:0:0:0:
192,192,57373,1,0,0:0:0:0:
320,192,57457,1,0,0:0:0:0:
448,192,57457,1,0,0:0:0:0:
192,192,57541,1,0,0:0:0:0:
64,192,57625,1,2,0:0:0:0:
448,192,57625,1,0,0:0:0:0:
320,192,57710,1,0,0:0:0:0:
192,192,57794,1,0,0:0:0:0:
64,192,57878,1,0,0:0:0:0:
320,192,57962,1,2,0:0:0:0:
448,192,57962,1,0,0:0:0:0:
64,192,58047,1,0,0:0:0:0:
320,192,58131,1,0,0:0:0:0:
192,192,58215,1,0,0:0:0:0:
448,192,58300,1,0,0:0:0:0:
64,192,58300,1,2,0:0:0:0:
320,192,58384,1,0,0:0:0:0:
192,192,58468,1,0,0:0:0:0:
64,192,58552,1,0,0:0:0:0:
320,192,58637,1,2,0:0:0:0:
448,192,58637,1,0,0:0:0:0:
192,192,58721,1,0,0:0:0:0:
64,192,58805,1,0,0:0:0:0:
448,192,58805,1,0,0:0:0:0:
320,192,58889,1,0,0:0:0:0:
64,192,58974,1,2,0:0:0:0:
192,192,58974,1,0,0:0:0:0:
320,192,59058,1,0,0:0:0:0:
448,192,59142,1,0,0:0:0:0:
64,192,59142,1,0,0:0:0:0:
192,192,59226,1,0,0:0:0:0:
64,192,59311,1,2,0:0:0:0:
448,192,59311,1,0,0:0:0:0:
320,192,59395,1,0,0:0:0:0:
192,192,59479,1,0,0:0:0:0:
64,192,59564,1,0,0:0:0:0:
192,192,59648,1,2,0:0:0:0:
448,192,59648,1,0,0:0:0:0:
320,192,59732,1,0,0:0:0:0:
448,192,59816,1,0,0:0:0:0:
64,192,59901,1,0,0:0:0:0:
192,192,59985,1,2,0:0:0:0:
320,192,59985,1,0,0:0:0:0:
448,192,60069,1,0,0:0:0:0:
64,192,60153,1,0,0:0:0:0:
192,192,60153,1,0,0:0:0:0:
448,192,60238,1,0,0:0:0:0:
64,192,60322,1,2,0:0:0:0:
320,192,60322,1,0,0:0:0:0:
192,192,60406,1,0,0:0:0:0:
64,192,60491,1,0,0:0:0:0:
448,192,60575,1,0,0:0:0:0:
64,192,60659,1,2,0:0:0:0:
192,192,60659,1,4,0:0:0:0:
320,192,60659,1,0,0:0:0:0:
448,192,60743,1,0,0:0:0:0:
320,192,60828,1,0,0:0:0:0:
192,192,60912,1,0,0:0:0:0:
64,192,60996,1,2,0:0:0:0:
448,192,60996,1,0,0:0:0:0:
320,192,61080,1,0,0:0:0:0:
192,192,61165,1,0,0:0:0:0:
448,192,61249,1,0,0:0:0:0:
64,192,61333,1,2,0:0:0:0:
320,192,61333,1,0,0:0:0:0:
192,192,61418,1,0,0:0:0:0:
448,192,61502,1,0,0:0:0:0:
320,192,61586,1,0,0:0:0:0:
64,192,61670,1,2,0:0:0:0:
192,192,61670,1,0,0:0:0:0:
448,192,61755,1,0,0:0:0:0:
320,192,61839,1,0,0:0:0:0:
192,192,61923,1,0,0:0:0:0:
64,192,62007,1,2,0:0:0:0:
448,192,62007,1,0,0:0:0:0:
320,192,62092,1,0,0:0:0:0:
192,192,62176,1,0,0:0:0:0:
64,192,62260,1,0,0:0:0:0:
320,192,62344,1,2,0:0:0:0:
448,192,62344,1,0,0:0:0:0:
64,192,62429,1,0,0:0:0:0:
192,192,62513,1,0,0:0:0:0:
448,192,62597,1,0,0:0:0:0:
64,192,62682,1,2,0:0:0:0:
320,192,62682,1,0,0:0:0:0:
192,192,62766,1,0,0:0:0:0:
64,192,62850,1,0,0:0:0:0:
448,192,62850,1,0,0:0:0:0:
320,192,62934,1,0,0:0:0:0:
64,192,63019,1,2,0:0:0:0:
448,192,63019,1,0,0:0:0:0:
192,192,63103,1,0,0:0:0:0:
320,192,63187,1,0,0:0:0:0:
448,192,63271,1,0,0:0:0:0:
64,192,63356,1,2,0:0:0:0:
192,192,63356,1,0,0:0:0:0:
448,192,63440,1,0,0:0:0:0:
320,192,63524,1,0,0:0:0:0:
192,192,63609,1,0,0:0:0:0:
448,192,63693,1,0,0:0:0:0:
64,192,63693,1,2,0:0:0:0:
320,192,63777,1,0,0:0:0:0:
64,192,63861,1,0,0:0:0:0:
192,192,63861,1,0,0:0:0:0:
320,192,63946,1,0,0:0:0:0:
64,192,64030,1,2,0:0:0:0:
448,192,64030,1,0,0:0:0:0:
192,192,64114,1,0,0:0:0:0:
320,192,64198,1,0,0:0:0:0:
448,192,64283,1,0,0:0:0:0:
64,192,64367,1,2,0:0:0:0:
320,192,64367,1,0,0:0:0:0:
192,192,64451,1,0,0:0:0:0:
448,192,64535,1,0,0:0:0:0:
320,192,64620,1,0,0:0:0:0:
192,192,64704,1,2,0:0:0:0:
448,192,64704,1,0,0:0:0:0:
64,192,64788,1,0,0:0:0:0:
320,192,64873,1,0,0:0:0:0:
192,192,64957,1,0,0:0:0:0:
320,192,65041,1,2,0:0:0:0:
448,192,65041,1,0,0:0:0:0:
64,192,65125,1,0,0:0:0:0:
192,192,65210,1,0,0:0:0:0:
448,192,65294,1,0,0:0:0:0:
64,192,65378,1,2,0:0:0:0:
320,192,65378,1,0,0:0:0:0:
192,192,65462,1,0,0:0:0:0:
448,192,65547,1,0,0:0:0:0:
320,192,65547,1,0,0:0:0:0:
64,192,65631,1,0,0:0:0:0:
192,192,65715,1,2,0:0:0:0:
320,192,65715,1,0,0:0:0:0:
448,192,65800,1,0,0:0:0:0:
64,192,65884,1,0,0:0:0:0:
192,192,65968,1,0,0:0:0:0:
320,192,66052,1,2,0:0:0:0:
448,192,66052,1,0,0:0:0:0:
192,192,66137,1,0,0:0:0:0:
64,192,66221,1,0,0:0:0:0:
448,192,66305,1,0,0:0:0:0:
192,192,66389,1,2,0:0:0:0:
320,192,66389,1,0,0:0:0:0:
64,192,66474,1,0,0:0:0:0:
448,192,66558,1,0,0:0:0:0:
320,192,66642,1,0,0:0:0:0:
64,192,66726,1,2,0:0:0:0:
192,192,66726,1,0,0:0:0:0:
320,192,66811,1,0,0:0:0:0:
64,192,66895,1,0,0:0:0:0:
448,192,66895,1,0,0:0:0:0:
192,192,66979,1,0,0:0:0:0:
320,192,67064,1,2,0:0:0:0:
448,192,67064,1,0,0:0:0:0:
64,192,67148,1,0,0:0:0:0:
192,192,67232,1,0,0:0:0:0:
320,192,67232,1,0,0:0:0:0:
448,192,67316,1,0,0:0:0:0:
64,192,67401,1,2,0:0:0:0:
320,192,67401,1,0,0:0:0:0:
192,192,67485,1,0,0:0:0:0:
64,192,67569,1,0,0:0:0:0:
448,192,67653,1,0,0:0:0:0:
192,192,67738,1,2,0:0:0:0:
320,192,67738,1,0,0:0:0:0:
64,192,67822,1,0,0:0:0:0:
448,192,67906,1,0,0:0:0:0:
320,192,67991,1,0,0:0:0:0:
64,192,68075,1,2,0:0:0:0:
192,192,68075,1,0,0:0:0:0:
448,192,68159,1,0,0:0:0:0:
320,192,68243,1,0,0:0:0:0:
64,192,68243,1,0,0:0:0:0:
192,192,68328,1,0,0:0:0:0:
320,192,68412,1,2,0:0:0:0:
448,192,68412,1,0,0:0:0:0:
64,192,68496,1,0,0:0:0:0:
192,192,68580,1,0,0:0:0:0:
448,192,68665,1,0,0:0:0:0:
64,192,68749,1,2,0:0:0:0:
320,192,68749,1,0,0:0:0:0:
192,192,68833,1,0,0:0:0:0:
448,192,68918,1,0,0:0:0:0:
64,192,69002,1,0,0:0:0:0:
448,192,69086,1,0,0:0:0:0:
320,192,69086,1,2,0:0:0:0:
192,192,69170,1,0,0:0:0:0:
64,192,69255,1,0,0:0:0:0:
448,192,69339,1,0,0:0:0:0:
64,192,69423,1,2,0:0:0:0:
320,192,69423,1,0,0:0:0:0:
192,192,69507,1,0,0:0:0:0:
448,192,69592,1,0,0:0:0:0:
64,192,69676,1,0,0:0:0:0:
192,192,69760,1,2,0:0:0:0:
320,192,69760,1,0,0:0:0:0:
448,192,69844,1,0,0:0:0:0:
64,192,69929,1,0,0:0:0:0:
320,192,70013,1,0,0:0:0:0:
448,192,70097,1,0,0:0:0:0:
192,192,70097,1,2,0:0:0:0:
64,192,70182,1,0,0:0:0:0:
448,192,70266,1,0,0:0:0:0:
320,192,70350,1,0,0:0:0:0:
64,192,70434,1,2,0:0:0:0:
192,192,70434,1,0,0:0:0:0:
448,192,70519,1,0,0:0:0:0:
320,192,70603,1,0,0:0:0:0:
192,192,70687,1,0,0:0:0:0:
64,192,70771,1,2,0:0:0:0:
448,192,70771,1,0,0:0:0:0:
320,192,70856,1,0,0:0:0:0:
192,192,70940,1,0,0:0:0:0:
448,192,71024,1,0,0:0:0:0:
64,192,71109,1,2,0:0:0:0:
320,192,71109,1,0,0:0:0:0:
192,192,71193,1,0,0:0:0:0:
64,192,71277,1,0,0:0:0:0:
320,192,71277,1,0,0:0:0:0:
448,192,71361,1,0,0:0:0:0:
320,192,71446,1,2,0:0:0:0:
192,192,71446,1,4,0:0:0:0:
64,192,71446,1,0,0:0:0:0:
192,192,71614,1,0,0:0:0:0:
64,192,71614,1,0,0:0:0:0:
320,192,71698,1,0,0:0:0:0:
64,192,71783,1,2,0:0:0:0:
448,192,71783,1,0,0:0:0:0:
192,192,71867,1,0,0:0:0:0:
320,192,71951,1,0,0:0:0:0:
448,192,71951,1,0,0:0:0:0:
192,192,72035,1,0,0:0:0:0:
448,192,72120,1,2,0:0:0:0:
64,192,72120,1,0,0:0:0:0:
320,192,72204,1,0,0:0:0:0:
192,192,72288,1,0,0:0:0:0:
448,192,72373,1,0,0:0:0:0:
64,192,72373,1,0,0:0:0:0:
320,192,72457,1,2,0:0:0:0:
192,192,72457,1,0,0:0:0:0:
320,192,72625,1,0,0:0:0:0:
64,192,72625,1,0,0:0:0:0:
192,192,72794,1,0,0:0:0:0:
448,192,72794,1,2,0:0:0:0:
320,192,72962,1,0,0:0:0:0:
64,192,72962,1,0,0:0:0:0:
448,192,73047,1,0,0:0:0:0:
192,192,73131,1,2,0:0:0:0:
64,192,73131,1,0,0:0:0:0:
320,192,73215,1,0,0:0:0:0:
448,192,73300,1,0,0:0:0:0:
64,192,73300,1,0,0:0:0:0:
192,192,73384,1,0,0:0:0:0:
448,192,73468,1,2,0:0:0:0:
320,192,73468,1,0,0:0:0:0:
64,192,73552,1,0,0:0:0:0:
192,192,73637,1,0,0:0:0:0:
448,192,73721,1,0,0:0:0:0:
320,192,73721,1,0,0:0:0:0:
64,192,73805,1,2,0:0:0:0:
192,192,73805,1,0,0:0:0:0:
192,192,73974,1,0,0:0:0:0:
64,192,73974,1,0,0:0:0:0:
448,192,74142,1,2,0:0:0:0:
320,192,74142,1,0,0:0:0:0:
192,192,74311,1,0,0:0:0:0:
64,192,74311,1,0,0:0:0:0:
320,192,74395,1,0,0:0:0:0:
64,192,74479,1,2,0:0:0:0:
448,192,74479,1,0,0:0:0:0:
192,192,74564,1,0,0:0:0:0:
320,192,74648,1,0,0:0:0:0:
448,192,74648,1,0,0:0:0:0:
192,192,74732,1,0,0:0:0:0:
448,192,74816,1,2,0:0:0:0:
64,192,74816,1,0,0:0:0:0:
320,192,74901,1,0,0:0:0:0:
192,192,74985,1,0,0:0:0:0:
448,192,75069,1,0,0:0:0:0:
64,192,75069,1,0,0:0:0:0:
320,192,75153,1,2,0:0:0:0:
192,192,75153,1,0,0:0:0:0:
448,192,75322,1,0,0:0:0:0:
192,192,75322,1,0,0:0:0:0:
64,192,75491,1,0,0:0:0:0:
320,192,75491,1,2,0:0:0:0:
192,192,75659,1,0,0:0:0:0:
448,192,75659,1,0,0:0:0:0:
64,192,75743,1,0,0:0:0:0:
448,192,75828,1,2,0:0:0:0:
320,192,75828,1,0,0:0:0:0:
192,192,75912,1,0,0:0:0:0:
448,192,75996,1,0,0:0:0:0:
64,192,75996,1,0,0:0:0:0:
320,192,76080,1,0,0:0:0:0:
64,192,76165,1,2,0:0:0:0:
192,192,76165,1,0,0:0:0:0:
448,192,76249,1,0,0:0:0:0:
320,192,76333,1,0,0:0:0:0:
64,192,76418,1,0,0:0:0:0:
192,192,76418,1,0,0:0:0:0:
448,192,76502,1,2,0:0:0:0:
320,192,76502,1,0,0:0:0:0:
192,192,76670,1,0,0:0:0:0:
64,192,76670,1,0,0:0:0:0:
448,192,76839,1,2,0:0:0:0:
320,192,76839,1,0,0:0:0:0:
192,192,77007,1,0,0:0:0:0:
64,192,77007,1,0,0:0:0:0:
320,192,77092,1,0,0:0:0:0:
64,192,77176,1,2,0:0:0:0:
448,192,77176,1,0,0:0:0:0:
192,192,77260,1,0,0:0:0:0:
448,192,77344,1,0,0:0:0:0:
320,192,77344,1,0,0:0:0:0:
192,192,77429,1,0,0:0:0:0:
448,192,77513,1,2,0:0:0:0:
64,192,77513,1,0,0:0:0:0:
320,192,77597,1,0,0:0:0:0:
192,192,77682,1,0,0:0:0:0:
448,192,77766,1,0,0:0:0:0:
64,192,77766,1,0,0:0:0:0:
320,192,77850,1,2,0:0:0:0:
192,192,77850,1,0,0:0:0:0:
320,192,78019,1,0,0:0:0:0:
64,192,78019,1,0,0:0:0:0:
448,192,78187,1,2,0:0:0:0:
192,192,78187,1,0,0:0:0:0:
64,192,78356,1,0,0:0:0:0:
320,192,78356,1,0,0:0:0:0:
448,192,78440,1,0,0:0:0:0:
192,192,78524,1,2,0:0:0:0:
64,192,78524,1,0,0:0:0:0:
320,192,78609,1,0,0:0:0:0:
448,192,78693,1,0,0:0:0:0:
64,192,78693,1,0,0:0:0:0:
192,192,78777,1,0,0:0:0:0:
448,192,78861,1,2,0:0:0:0:
320,192,78861,1,0,0:0:0:0:
64,192,78946,1,0,0:0:0:0:
192,192,79030,1,0,0:0:0:0:
320,192,79114,1,0,0:0:0:0:
448,192,79114,1,0,0:0:0:0:
64,192,79198,1,2,0:0:0:0:
192,192,79198,1,0,0:0:0:0:
192,192,79367,1,0,0:0:0:0:
64,192,79367,1,0,0:0:0:0:
448,192,79535,1,2,0:0:0:0:
320,192,79535,1,0,0:0:0:0:
192,192,79704,1,0,0:0:0:0:
64,192,79704,1,0,0:0:0:0:
320,192,79788,1,0,0:0:0:0:
64,192,79873,1,2,0:0:0:0:
448,192,79873,1,0,0:0:0:0:
192,192,79957,1,0,0:0:0:0:
448,192,80041,1,0,0:0:0:0:
320,192,80041,1,0,0:0:0:0:
192,192,80125,1,0,0:0:0:0:
448,192,80210,1,2,0:0:0:0:
64,192,80210,1,0,0:0:0:0:
320,192,80294,1,0,0:0:0:0:
192,192,80378,1,0,0:0:0:0:
448,192,80462,1,0,0:0:0:0:
64,192,80462,1,0,0:0:0:0:
320,192,80547,1,2,0:0:0:0:
192,192,80547,1,0,0:0:0:0:
448,192,80715,1,0,0:0:0:0:
192,192,80715,1,0,0:0:0:0:
320,192,80884,1,0,0:0:0:0:
64,192,80884,1,2,0:0:0:0:
320,192,81052,1,0,0:0:0:0:
448,192,81052,1,0,0:0:0:0:
192,192,81137,1,0,0:0:0:0:
64,192,81221,1,2,0:0:0:0:
448,192,81221,1,0,0:0:0:0:
320,192,81305,1,0,0:0:0:0:
192,192,81389,1,0,0:0:0:0:
64,192,81389,1,0,0:0:0:0:
448,192,81474,1,0,0:0:0:0:
320,192,81558,1,0,0:0:0:0:
64,192,81558,1,2,0:0:0:0:
192,192,81642,1,0,0:0:0:0:
448,192,81726,1,0,0:0:0:0:
192,192,81811,1,0,0:0:0:0:
320,192,81811,1,0,0:0:0:0:
64,192,81895,1,0,0:0:0:0:
448,192,81895,1,2,0:0:0:0:
192,192,82064,1,0,0:0:0:0:
320,192,82064,1,0,0:0:0:0:
320,192,82232,1,2,0:0:0:0:
192,192,82232,1,4,0:0:0:0:
64,192,82232,1,0,0:0:0:0:
192,192,82401,1,0,0:0:0:0:
64,192,82401,1,0,0:0:0:0:
320,192,82485,1,0,0:0:0:0:
448,192,82569,1,0,0:0:0:0:
64,192,82569,1,2,0:0:0:0:
192,192,82653,1,0,0:0:0:0:
448,192,82738,1,0,0:0:0:0:
320,192,82738,1,0,0:0:0:0:
192,192,82822,1,0,0:0:0:0:
448,192,82906,1,2,0:0:0:0:
64,192,82906,1,0,0:0:0:0:
320,192,82991,1,0,0:0:0:0:
192,192,83075,1,0,0:0:0:0:
448,192,83159,1,0,0:0:0:0:
64,192,83159,1,0,0:0:0:0:
320,192,83243,1,2,0:0:0:0:
192,192,83243,1,0,0:0:0:0:
320,192,83412,1,0,0:0:0:0:
64,192,83412,1,0,0:0:0:0:
192,192,83580,1,0,0:0:0:0:
448,192,83580,1,2,0:0:0:0:
320,192,83749,1,0,0:0:0:0:
64,192,83749,1,0,0:0:0:0:
448,192,83833,1,0,0:0:0:0:
192,192,83918,1,2,0:0:0:0:
64,192,83918,1,0,0:0:0:0:
320,192,84002,1,0,0:0:0:0:
448,192,84086,1,0,0:0:0:0:
64,192,84086,1,0,0:0:0:0:
192,192,84170,1,0,0:0:0:0:
448,192,84255,1,2,0:0:0:0:
320,192,84255,1,0,0:0:0:0:
64,192,84339,1,0,0:0:0:0:
192,192,84423,1,0,0:0:0:0:
320,192,84507,1,0,0:0:0:0:
448,192,84507,1,0,0:0:0:0:
64,192,84592,1,2,0:0:0:0:
192,192,84592,1,0,0:0:0:0:
192,192,84760,1,0,0:0:0:0:
64,192,84760,1,0,0:0:0:0:
448,192,84929,1,2,0:0:0:0:
320,192,84929,1,0,0:0:0:0:
192,192,85097,1,0,0:0:0:0:
64,192,85097,1,0,0:0:0:0:
320,192,85182,1,0,0:0:0:0:
64,192,85266,1,2,0:0:0:0:
448,192,85266,1,0,0:0:0:0:
192,192,85350,1,0,0:0:0:0:
448,192,85434,1,0,0:0:0:0:
320,192,85434,1,0,0:0:0:0:
192,192,85519,1,0,0:0:0:0:
448,192,85603,1,2,0:0:0:0:
64,192,85603,1,0,0:0:0:0:
320,192,85687,1,0,0:0:0:0:
192,192,85771,1,0,0:0:0:0:
448,192,85856,1,0,0:0:0:0:
64,192,85856,1,0,0:0:0:0:
320,192,85940,1,2,0:0:0:0:
192,192,85940,1,0,0:0:0:0:
448,192,86109,1,0,0:0:0:0:
192,192,86109,1,0,0:0:0:0:
64,192,86277,1,0,0:0:0:0:
320,192,86277,1,2,0:0:0:0:
448,192,86446,1,0,0:0:0:0:
192,192,86446,1,0,0:0:0:0:
64,192,86530,1,0,0:0:0:0:
448,192,86614,1,2,0:0:0:0:
320,192,86614,1,0,0:0:0:0:
192,192,86698,1,0,0:0:0:0:
448,192,86783,1,0,0:0:0:0:
64,192,86783,1,0,0:0:0:0:
320,192,86867,1,0,0:0:0:0:
64,192,86951,1,2,0:0:0:0:
192,192,86951,1,0,0:0:0:0:
448,192,87035,1,0,0:0:0:0:
320,192,87120,1,0,0:0:0:0:
64,192,87204,1,0,0:0:0:0:
192,192,87204,1,0,0:0:0:0:
448,192,87288,1,2,0:0:0:0:
320,192,87288,1,0,0:0:0:0:
192,192,87457,1,0,0:0:0:0:
64,192,87457,1,0,0:0:0:0:
448,192,87625,1,2,0:0:0:0:
320,192,87625,1,0,0:0:0:0:
192,192,87794,1,0,0:0:0:0:
64,192,87794,1,0,0:0:0:0:
320,192,87878,1,0,0:0:0:0:
448,192,87962,1,0,0:0:0:0:
64,192,87962,1,2,0:0:0:0:
192,192,88047,1,0,0:0:0:0:
448,192,88131,1,0,0:0:0:0:
320,192,88131,1,0,0:0:0:0:
192,192,88215,1,0,0:0:0:0:
448,192,88300,1,2,0:0:0:0:
64,192,88300,1,0,0:0:0:0:
320,192,88384,1,0,0:0:0:0:
192,192,88468,1,0,0:0:0:0:
448,192,88552,1,0,0:0:0:0:
64,192,88552,1,0,0:0:0:0:
320,192,88637,1,2,0:0:0:0:
192,192,88637,1,0,0:0:0:0:
320,192,88805,1,0,0:0:0:0:
64,192,88805,1,0,0:0:0:0:
192,192,88974,1,0,0:0:0:0:
448,192,88974,1,2,0:0:0:0:
320,192,89142,1,0,0:0:0:0:
64,192,89142,1,0,0:0:0:0:
448,192,89226,1,0,0:0:0:0:
192,192,89311,1,2,0:0:0:0:
64,192,89311,1,0,0:0:0:0:
320,192,89395,1,0,0:0:0:0:
448,192,89479,1,0,0:0:0:0:
64,192,89479,1,0,0:0:0:0:
192,192,89564,1,0,0:0:0:0:
448,192,89648,1,2,0:0:0:0:
320,192,89648,1,0,0:0:0:0:
64,192,89732,1,0,0:0:0:0:
192,192,89816,1,0,0:0:0:0:
320,192,89901,1,0,0:0:0:0:
448,192,89901,1,0,0:0:0:0:
192,192,89985,1,0,0:0:0:0:
64,192,89985,1,2,0:0:0:0:
192,192,90153,1,0,0:0:0:0:
64,192,90153,1,0,0:0:0:0:
448,192,90322,1,2,0:0:0:0:
320,192,90322,1,0,0:0:0:0:
192,192,90491,1,0,0:0:0:0:
64,192,90491,1,0,0:0:0:0:
320,192,90575,1,0,0:0:0:0:
64,192,90659,1,2,0:0:0:0:
448,192,90659,1,0,0:0:0:0:
192,192,90743,1,0,0:0:0:0:
320,192,90828,1,0,0:0:0:0:
448,192,90828,1,0,0:0:0:0:
192,192,90912,1,0,0:0:0:0:
448,192,90996,1,2,0:0:0:0:
64,192,90996,1,0,0:0:0:0:
320,192,91080,1,0,0:0:0:0:
192,192,91165,1,0,0:0:0:0:
448,192,91249,1,0,0:0:0:0:
64,192,91249,1,0,0:0:0:0:
320,192,91333,1,2,0:0:0:0:
192,192,91333,1,0,0:0:0:0:
448,192,91502,1,0,0:0:0:0:
192,192,91502,1,0,0:0:0:0:
192,192,91839,1,0,0:0:0:0:
448,192,91839,1,0,0:0:0:0:
320,192,91923,1,0,0:0:0:0:
448,192,92007,1,0,0:0:0:0:
192,192,92007,1,0,0:0:0:0:
64,192,92176,1,0,0:0:0:0:
320,192,92176,1,0,0:0:0:0:
320,192,92344,1,0,0:0:0:0:
448,192,92344,1,0,0:0:0:0:
64,192,92513,1,0,0:0:0:0:
192,192,92513,1,0,0:0:0:0:
320,192,92597,1,0,0:0:0:0:
448,192,92597,1,0,0:0:0:0:
64,192,92850,1,0,0:0:0:0:
192,192,92850,1,0,0:0:0:0:
320,192,93019,1,4,0:0:0:0:
64,192,93019,1,2,0:0:0:0:
448,192,93019,1,0,0:0:0:0:
64,192,94198,1,0,0:0:0:0:
192,192,94255,1,0,0:0:0:0:
320,192,94311,1,0,0:0:0:0:
448,192,94367,1,0,0:0:0:0:
448,192,94704,1,0,0:0:0:0:
320,192,94873,1,0,0:0:0:0:
320,192,95210,1,0,0:0:0:0:
64,192,95378,1,0,0:0:0:0:
192,192,95715,1,0,0:0:0:0:
320,192,96221,1,0,0:0:0:0:
64,192,96726,1,0,0:0:0:0:
192,192,96895,1,0,0:0:0:0:
448,192,97064,128,0,97401:0:0:0:0:
320,192,97064,1,0,0:0:0:0:
320,192,97401,128,0,97738:0:0:0:0:
192,192,97401,1,0,0:0:0:0:
64,192,97738,1,0,0:0:0:0:
192,192,97738,128,0,98075:0:0:0:0:
320,192,98075,1,0,0:0:0:0:
448,192,98075,128,0,98412:0:0:0:0:
64,192,98243,1,0,0:0:0:0:
192,192,98328,1,0,0:0:0:0:
64,192,98412,1,0,0:0:0:0:
320,192,98412,1,0,0:0:0:0:
64,192,100097,1,0,0:0:0:0:
320,192,100097,1,0,0:0:0:0:
192,192,100434,1,0,0:0:0:0:
448,192,100603,1,0,0:0:0:0:
320,192,100940,1,0,0:0:0:0:
64,192,101109,1,0,0:0:0:0:
320,192,101109,1,0,0:0:0:0:
192,192,101614,1,0,0:0:0:0:
320,192,101698,1,0,0:0:0:0:
64,192,101783,1,0,0:0:0:0:
448,192,101783,1,0,0:0:0:0:
320,192,102457,1,2,0:0:0:0:
448,192,102457,1,0,0:0:0:0:
192,192,102541,1,0,0:0:0:0:
64,192,102625,1,0,0:0:0:0:
448,192,102710,1,0,0:0:0:0:
192,192,102794,1,2,0:0:0:0:
320,192,102794,1,0,0:0:0:0:
64,192,102878,1,0,0:0:0:0:
448,192,102962,1,0,0:0:0:0:
320,192,103047,1,0,0:0:0:0:
64,192,103131,1,2,0:0:0:0:
192,192,103131,1,0,0:0:0:0:
448,192,103215,1,0,0:0:0:0:
320,192,103300,1,0,0:0:0:0:
64,192,103384,1,2,0:0:0:0:
192,192,103384,1,0,0:0:0:0:
320,192,103468,1,2,0:0:0:0:
448,192,103468,1,0,0:0:0:0:
192,192,103552,1,0,0:0:0:0:
64,192,103637,1,2,0:0:0:0:
448,192,103721,1,0,0:0:0:0:
320,192,103805,1,0,0:0:0:0:
64,192,103805,128,2,104142:0:0:0:0:
192,192,104142,1,4,0:0:0:0:
320,192,104142,1,2,0:0:0:0:
448,192,104142,1,0,0:0:0:0:
64,192,104311,1,0,0:0:0:0:
192,192,104479,1,2,0:0:0:0:
448,192,104479,1,0,0:0:0:0:
320,192,104648,1,0,0:0:0:0:
64,192,104816,1,2,0:0:0:0:
192,192,104816,1,0,0:0:0:0:
448,192,104985,1,0,0:0:0:0:
320,192,105041,1,0,0:0:0:0:
192,192,105097,1,0,0:0:0:0:
448,192,105153,1,0,0:0:0:0:
64,192,105153,1,2,0:0:0:0:
192,192,105322,1,0,0:0:0:0:
320,192,105491,1,2,0:0:0:0:
448,192,105491,1,0,0:0:0:0:
192,192,105659,1,0,0:0:0:0:
320,192,105659,1,0,0:0:0:0:
64,192,105828,1,2,0:0:0:0:
448,192,105828,1,0,0:0:0:0:
192,192,105996,1,0,0:0:0:0:
320,192,105996,1,0,0:0:0:0:
64,192,106165,1,2,0:0:0:0:
192,192,106165,1,0,0:0:0:0:
320,192,106333,1,0,0:0:0:0:
192,192,106502,1,0,0:0:0:0:
64,192,106502,1,2,0:0:0:0:
320,192,106670,1,0,0:0:0:0:
64,192,106839,1,2,0:0:0:0:
448,192,106839,1,0,0:0:0:0:
192,192,107007,1,0,0:0:0:0:
320,192,107007,1,0,0:0:0:0:
64,192,107176,1,2,0:0:0:0:
448,192,107176,1,0,0:0:0:0:
320,192,107344,1,0,0:0:0:0:
192,192,107513,1,2,0:0:0:0:
448,192,107513,1,0,0:0:0:0:
64,192,107682,1,0,0:0:0:0:
320,192,107682,1,0,0:0:0:0:
448,192,107850,1,0,0:0:0:0:
64,192,107850,1,2,0:0:0:0:
192,192,108019,1,0,0:0:0:0:
320,192,108187,1,2,0:0:0:0:
448,192,108187,1,0,0:0:0:0:
64,192,108356,1,0,0:0:0:0:
192,192,108524,1,2,0:0:0:0:
448,192,108524,1,0,0:0:0:0:
64,192,108693,1,0,0:0:0:0:
320,192,108861,1,2,0:0:0:0:
448,192,108861,1,0,0:0:0:0:
192,192,109030,1,0,0:0:0:0:
320,192,109114,1,0,0:0:0:0:
64,192,109198,1,2,0:0:0:0:
448,192,109198,1,0,0:0:0:0:
320,192,109367,1,0,0:0:0:0:
64,192,109535,1,2,0:0:0:0:
192,192,109535,1,0,0:0:0:0:
448,192,109704,1,0,0:0:0:0:
64,192,109873,1,2,0:0:0:0:
320,192,109873,1,0,0:0:0:0:
192,192,110041,1,0,0:0:0:0:
64,192,110210,1,2,0:0:0:0:
320,192,110210,1,0,0:0:0:0:
448,192,110378,1,0,0:0:0:0:
64,192,110547,1,2,0:0:0:0:
320,192,110547,1,0,0:0:0:0:
192,192,110715,1,0,0:0:0:0:
448,192,110884,1,0,0:0:0:0:
320,192,110884,1,2,0:0:0:0:
192,192,111052,1,0,0:0:0:0:
64,192,111221,1,2,0:0:0:0:
320,192,111221,1,0,0:0:0:0:
192,192,111389,1,0,0:0:0:0:
320,192,111389,1,0,0:0:0:0:
64,192,111558,1,2,0:0:0:0:
448,192,111558,1,0,0:0:0:0:
192,192,111726,1,0,0:0:0:0:
320,192,111726,1,0,0:0:0:0:
192,192,111895,1,2,0:0:0:0:
448,192,111895,1,0,0:0:0:0:
320,192,112064,1,0,0:0:0:0:
192,192,112232,1,0,0:0:0:0:
64,192,112232,1,2,0:0:0:0:
320,192,112401,1,0,0:0:0:0:
448,192,112485,1,0,0:0:0:0:
64,192,112569,1,2,0:0:0:0:
192,192,112569,1,0,0:0:0:0:
320,192,112738,1,0,0:0:0:0:
192,192,112906,1,2,0:0:0:0:
448,192,112906,1,0,0:0:0:0:
64,192,113075,1,0,0:0:0:0:
192,192,113243,1,2,0:0:0:0:
448,192,113243,1,0,0:0:0:0:
320,192,113328,1,0,0:0:0:0:
192,192,113412,1,0,0:0:0:0:
64,192,113496,1,0,0:0:0:0:
320,192,113580,1,2,0:0:0:0:
448,192,113580,1,0,0:0:0:0:
192,192,113665,1,0,0:0:0:0:
64,192,113749,1,0,0:0:0:0:
448,192,113833,1,0,0:0:0:0:
192,192,113918,1,2,0:0:0:0:
320,192,113918,1,0,0:0:0:0:
64,192,114002,1,0,0:0:0:0:
448,192,114086,1,0,0:0:0:0:
320,192,114170,1,0,0:0:0:0:
64,192,114255,1,2,0:0:0:0:
192,192,114255,1,0,0:0:0:0:
448,192,114339,1,0,0:0:0:0:
320,192,114423,1,0,0:0:0:0:
192,192,114507,1,0,0:0:0:0:
64,192,114592,1,2,0:0:0:0:
448,192,114592,1,0,0:0:0:0:
320,192,114760,1,0,0:0:0:0:
64,192,114929,1,2,0:0:0:0:
192,192,114929,1,0,0:0:0:0:
448,192,115097,1,0,0:0:0:0:
64,192,115266,1,2,0:0:0:0:
192,192,115266,1,0,0:0:0:0:
320,192,115434,1,0,0:0:0:0:
64,192,115603,1,2,0:0:0:0:
192,192,115603,1,0,0:0:0:0:
448,192,115771,1,0,0:0:0:0:
320,192,115828,1,0,0:0:0:0:
192,192,115884,1,0,0:0:0:0:
448,192,115940,1,0,0:0:0:0:
64,192,115940,1,2,0:0:0:0:
192,192,116109,1,0,0:0:0:0:
320,192,116277,1,2,0:0:0:0:
448,192,116277,1,0,0:0:0:0:
192,192,116446,1,0,0:0:0:0:
320,192,116446,1,0,0:0:0:0:
64,192,116614,1,2,0:0:0:0:
448,192,116614,1,0,0:0:0:0:
192,192,116783,1,0,0:0:0:0:
320,192,116783,1,0,0:0:0:0:
64,192,116951,1,2,0:0:0:0:
192,192,116951,1,0,0:0:0:0:
320,192,117120,1,0,0:0:0:0:
192,192,117288,1,0,0:0:0:0:
64,192,117288,1,2,0:0:0:0:
320,192,117457,1,0,0:0:0:0:
64,192,117625,1,2,0:0:0:0:
448,192,117625,1,0,0:0:0:0:
192,192,117794,1,0,0:0:0:0:
320,192,117794,1,0,0:0:0:0:
64,192,117962,1,2,0:0:0:0:
448,192,117962,1,0,0:0:0:0:
320,192,118131,1,0,0:0:0:0:
64,192,118300,1,2,0:0:0:0:
192,192,118300,1,0,0:0:0:0:
320,192,118468,1,0,0:0:0:0:
448,192,118468,1,0,0:0:0:0:
320,192,118637,1,0,0:0:0:0:
64,192,118637,1,2,0:0:0:0:
192,192,118805,1,0,0:0:0:0:
320,192,118974,1,2,0:0:0:0:
448,192,118974,1,0,0:0:0:0:
64,192,119142,1,0,0:0:0:0:
320,192,119311,1,2,0:0:0:0:
448,192,119311,1,0,0:0:0:0:
192,192,119479,1,0,0:0:0:0:
320,192,119648,1,2,0:0:0:0:
448,192,119648,1,0,0:0:0:0:
192,192,119816,1,0,0:0:0:0:
320,192,119901,1,0,0:0:0:0:
448,192,119985,1,0,0:0:0:0:
64,192,119985,1,2,0:0:0:0:
320,192,120153,1,0,0:0:0:0:
64,192,120322,1,2,0:0:0:0:
192,192,120322,1,0,0:0:0:0:
448,192,120491,1,0,0:0:0:0:
64,192,120659,1,2,0:0:0:0:
192,192,120659,1,0,0:0:0:0:
320,192,120828,1,0,0:0:0:0:
64,192,120996,1,2,0:0:0:0:
192,192,120996,1,0,0:0:0:0:
448,192,121165,1,0,0:0:0:0:
320,192,121333,1,0,0:0:0:0:
64,192,121333,1,2,0:0:0:0:
192,192,121502,1,0,0:0:0:0:
448,192,121670,1,0,0:0:0:0:
320,192,121670,1,2,0:0:0:0:
64,192,121839,1,0,0:0:0:0:
320,192,122007,1,2,0:0:0:0:
448,192,122007,1,0,0:0:0:0:
192,192,122176,1,0,0:0:0:0:
320,192,122176,1,0,0:0:0:0:
64,192,122344,1,2,0:0:0:0:
448,192,122344,1,0,0:0:0:0:
192,192,122513,1,0,0:0:0:0:
320,192,122513,1,0,0:0:0:0:
192,192,122682,1,2,0:0:0:0:
448,192,122682,1,0,0:0:0:0:
320,192,122850,1,0,0:0:0:0:
192,192,123019,1,0,0:0:0:0:
64,192,123019,1,2,0:0:0:0:
192,192,123187,1,0,0:0:0:0:
320,192,123271,1,0,0:0:0:0:
64,192,123356,1,2,0:0:0:0:
448,192,123356,1,0,0:0:0:0:
320,192,123524,1,0,0:0:0:0:
64,192,123693,1,2,0:0:0:0:
192,192,123693,1,0,0:0:0:0:
320,192,123861,1,0,0:0:0:0:
448,192,124030,1,4,0:0:0:0:
320,192,124114,1,0,0:0:0:0:
192,192,124198,1,0,0:0:0:0:
64,192,124283,1,0,0:0:0:0:
320,192,124367,1,4,0:0:0:0:
448,192,124451,1,0,0:0:0:0:
64,192,124535,1,0,0:0:0:0:
192,192,124620,1,0,0:0:0:0:
448,192,124704,1,4,0:0:0:0:
320,192,124788,1,0,0:0:0:0:
64,192,124873,1,0,0:0:0:0:
192,192,124957,1,0,0:0:0:0:
320,192,125041,1,4,0:0:0:0:
448,192,125125,1,0,0:0:0:0:
64,192,125210,1,0,0:0:0:0:
192,192,125294,1,0,0:0:0:0:
320,192,125378,1,2,0:0:0:0:
448,192,125378,1,0,0:0:0:0:
64,192,125378,1,4,0:0:0:0:
192,192,125462,1,0,0:0:0:0:
320,192,125547,1,0,0:0:0:0:
192,192,125631,1,0,0:0:0:0:
64,192,125715,1,2,0:0:0:0:
320,192,125715,1,0,0:0:0:0:
448,192,125715,1,0,0:0:0:0:
192,192,125800,1,0,0:0:0:0:
320,192,125884,1,0,0:0:0:0:
192,192,125968,1,0,0:0:0:0:
320,192,126052,1,0,0:0:0:0:
64,192,126052,1,2,0:0:0:0:
448,192,126052,1,0,0:0:0:0:
448,192,126221,1,0,0:0:0:0:
192,192,126221,1,0,0:0:0:0:
448,192,126389,1,0,0:0:0:0:
192,192,126389,1,0,0:0:0:0:
64,192,126389,1,2,0:0:0:0:
64,192,126558,1,0,0:0:0:0:
320,192,126558,1,0,0:0:0:0:
64,192,126726,1,2,0:0:0:0:
192,192,126726,1,0,0:0:0:0:
448,192,126726,1,0,0:0:0:0:
320,192,126811,1,0,0:0:0:0:
192,192,126895,1,0,0:0:0:0:
320,192,126979,1,0,0:0:0:0:
64,192,127064,1,2,0:0:0:0:
192,192,127064,1,0,0:0:0:0:
448,192,127064,1,0,0:0:0:0:
320,192,127148,1,0,0:0:0:0:
192,192,127232,1,0,0:0:0:0:
320,192,127316,1,0,0:0:0:0:
64,192,127401,1,2,0:0:0:0:
192,192,127401,1,0,0:0:0:0:
448,192,127401,1,0,0:0:0:0:
192,192,127569,1,0,0:0:0:0:
448,192,127569,1,0,0:0:0:0:
64,192,127738,1,2,0:0:0:0:
192,192,127738,1,0,0:0:0:0:
448,192,127738,1,0,0:0:0:0:
64,192,127906,1,0,0:0:0:0:
320,192,127906,1,0,0:0:0:0:
192,192,128075,1,0,0:0:0:0:
448,192,128075,1,0,0:0:0:0:
64,192,128075,1,2,0:0:0:0:
320,192,128159,1,0,0:0:0:0:
192,192,128243,1,0,0:0:0:0:
320,192,128328,1,0,0:0:0:0:
64,192,128412,1,2,0:0:0:0:
192,192,128412,1,0,0:0:0:0:
448,192,128412,1,0,0:0:0:0:
320,192,128496,1,0,0:0:0:0:
192,192,128580,1,0,0:0:0:0:
320,192,128665,1,0,0:0:0:0:
448,192,128749,1,0,0:0:0:0:
64,192,128749,1,2,0:0:0:0:
192,192,128749,1,0,0:0:0:0:
448,192,128918,1,0,0:0:0:0:
192,192,128918,1,0,0:0:0:0:
64,192,129086,1,2,0:0:0:0:
192,192,129086,1,0,0:0:0:0:
448,192,129086,1,0,0:0:0:0:
64,192,129255,1,0,0:0:0:0:
320,192,129255,1,0,0:0:0:0:
64,192,129423,1,2,0:0:0:0:
320,192,129423,1,0,0:0:0:0:
448,192,129423,1,0,0:0:0:0:
192,192,129507,1,0,0:0:0:0:
320,192,129592,1,0,0:0:0:0:
192,192,129676,1,0,0:0:0:0:
320,192,129760,1,0,0:0:0:0:
64,192,129760,1,2,0:0:0:0:
448,192,129760,1,0,0:0:0:0:
192,192,129844,1,0,0:0:0:0:
320,192,129929,1,0,0:0:0:0:
192,192,130013,1,0,0:0:0:0:
64,192,130097,1,2,0:0:0:0:
320,192,130097,1,0,0:0:0:0:
448,192,130097,1,0,0:0:0:0:
320,192,130266,1,0,0:0:0:0:
448,192,130266,1,0,0:0:0:0:
64,192,130434,1,2,0:0:0:0:
192,192,130434,1,0,0:0:0:0:
320,192,130434,1,0,0:0:0:0:
192,192,130603,1,0,0:0:0:0:
320,192,130603,1,0,0:0:0:0:
448,192,130771,1,0,0:0:0:0:
192,192,130771,1,0,0:0:0:0:
64,192,130771,1,2,0:0:0:0:
320,192,130856,1,0,0:0:0:0:
192,192,130940,1,0,0:0:0:0:
64,192,131024,1,0,0:0:0:0:
192,192,131109,1,2,0:0:0:0:
320,192,131109,1,0,0:0:0:0:
448,192,131109,1,0,0:0:0:0:
64,192,131193,1,0,0:0:0:0:
192,192,131277,1,0,0:0:0:0:
320,192,131361,1,0,0:0:0:0:
64,192,131446,1,2,0:0:0:0:
192,192,131446,1,0,0:0:0:0:
448,192,131446,1,0,0:0:0:0:
448,192,131614,1,0,0:0:0:0:
192,192,131614,1,0,0:0:0:0:
64,192,131783,1,2,0:0:0:0:
192,192,131783,1,0,0:0:0:0:
448,192,131783,1,0,0:0:0:0:
64,192,131951,1,0,0:0:0:0:
320,192,131951,1,0,0:0:0:0:
64,192,132120,1,2,0:0:0:0:
320,192,132120,1,0,0:0:0:0:
448,192,132120,1,0,0:0:0:0:
192,192,132204,1,0,0:0:0:0:
320,192,132288,1,0,0:0:0:0:
448,192,132373,1,0,0:0:0:0:
320,192,132457,1,0,0:0:0:0:
64,192,132457,1,2,0:0:0:0:
192,192,132457,1,0,0:0:0:0:
448,192,132541,1,0,0:0:0:0:
320,192,132625,1,0,0:0:0:0:
192,192,132710,1,0,0:0:0:0:
64,192,132794,1,2,0:0:0:0:
320,192,132794,1,0,0:0:0:0:
448,192,132794,1,0,0:0:0:0:
192,192,132962,1,0,0:0:0:0:
448,192,132962,1,0,0:0:0:0:
192,192,133131,1,0,0:0:0:0:
64,192,133131,1,2,0:0:0:0:
448,192,133131,1,0,0:0:0:0:
320,192,133300,1,0,0:0:0:0:
64,192,133300,1,0,0:0:0:0:
448,192,133468,1,0,0:0:0:0:
64,192,133468,1,2,0:0:0:0:
192,192,133468,1,0,0:0:0:0:
320,192,133552,1,0,0:0:0:0:
192,192,133637,1,0,0:0:0:0:
320,192,133721,1,0,0:0:0:0:
64,192,133805,1,2,0:0:0:0:
192,192,133805,1,0,0:0:0:0:
448,192,133805,1,0,0:0:0:0:
320,192,133889,1,0,0:0:0:0:
192,192,133974,1,0,0:0:0:0:
320,192,134058,1,0,0:0:0:0:
64,192,134142,1,2,0:0:0:0:
192,192,134142,1,0,0:0:0:0:
448,192,134142,1,0,0:0:0:0:
448,192,134311,1,0,0:0:0:0:
192,192,134311,1,0,0:0:0:0:
192,192,134479,1,2,0:0:0:0:
320,192,134479,1,0,0:0:0:0:
448,192,134479,1,0,0:0:0:0:
64,192,134648,1,0,0:0:0:0:
320,192,134648,1,0,0:0:0:0:
64,192,134816,1,2,0:0:0:0:
192,192,134816,1,0,0:0:0:0:
448,192,134816,1,0,0:0:0:0:
320,192,134901,1,0,0:0:0:0:
192,192,134985,1,0,0:0:0:0:
448,192,134985,1,0,0:0:0:0:
448,192,135153,1,0,0:0:0:0:
320,192,135153,1,0,0:0:0:0:
192,192,135153,1,0,0:0:0:0:
64,192,135322,1,0,0:0:0:0:
192,192,135322,1,0,0:0:0:0:
64,192,135491,1,2,0:0:0:0:
320,192,135491,1,0,0:0:0:0:
448,192,135491,1,0,0:0:0:0:
192,192,135575,1,0,0:0:0:0:
64,192,135659,1,0,0:0:0:0:
320,192,135659,1,0,0:0:0:0:
448,192,135743,1,0,0:0:0:0:
64,192,135828,1,0,0:0:0:0:
192,192,135828,1,0,0:0:0:0:
320,192,135828,1,0,0:0:0:0:
448,192,135912,1,0,0:0:0:0:
64,192,135996,1,0,0:0:0:0:
320,192,135996,1,0,0:0:0:0:
192,192,136080,1,0,0:0:0:0:
64,192,136165,1,4,0:0:0:0:
320,192,136165,1,2,0:0:0:0:
448,192,136165,1,0,0:0:0:0:
192,192,136249,1,0,0:0:0:0:
320,192,136333,1,0,0:0:0:0:
448,192,136418,1,0,0:0:0:0:
64,192,136502,1,2,0:0:0:0:
192,192,136502,1,0,0:0:0:0:
320,192,136502,1,0,0:0:0:0:
448,192,136586,1,0,0:0:0:0:
320,192,136670,1,0,0:0:0:0:
192,192,136755,1,0,0:0:0:0:
64,192,136839,1,2,0:0:0:0:
320,192,136839,1,0,0:0:0:0:
448,192,136839,1,0,0:0:0:0:
192,192,137007,1,0,0:0:0:0:
448,192,137007,1,0,0:0:0:0:
64,192,137176,1,2,0:0:0:0:
192,192,137176,1,0,0:0:0:0:
448,192,137176,1,0,0:0:0:0:
64,192,137344,1,0,0:0:0:0:
320,192,137344,1,0,0:0:0:0:
320,192,137513,1,0,0:0:0:0:
192,192,137513,1,0,0:0:0:0:
64,192,137513,1,2,0:0:0:0:
448,192,137597,1,0,0:0:0:0:
320,192,137682,1,0,0:0:0:0:
192,192,137766,1,0,0:0:0:0:
64,192,137850,1,2,0:0:0:0:
320,192,137850,1,0,0:0:0:0:
448,192,137850,1,0,0:0:0:0:
192,192,137934,1,0,0:0:0:0:
320,192,138019,1,0,0:0:0:0:
448,192,138103,1,0,0:0:0:0:
64,192,138187,1,2,0:0:0:0:
192,192,138187,1,0,0:0:0:0:
320,192,138187,1,0,0:0:0:0:
448,192,138356,1,0,0:0:0:0:
192,192,138356,1,0,0:0:0:0:
64,192,138524,1,2,0:0:0:0:
192,192,138524,1,0,0:0:0:0:
448,192,138524,1,0,0:0:0:0:
64,192,138693,1,0,0:0:0:0:
320,192,138693,1,0,0:0:0:0:
64,192,138861,1,2,0:0:0:0:
320,192,138861,1,0,0:0:0:0:
448,192,138861,1,0,0:0:0:0:
192,192,138946,1,0,0:0:0:0:
320,192,139030,1,0,0:0:0:0:
448,192,139114,1,0,0:0:0:0:
320,192,139198,1,0,0:0:0:0:
64,192,139198,1,2,0:0:0:0:
192,192,139198,1,0,0:0:0:0:
448,192,139283,1,0,0:0:0:0:
320,192,139367,1,0,0:0:0:0:
192,192,139451,1,0,0:0:0:0:
64,192,139535,1,2,0:0:0:0:
320,192,139535,1,0,0:0:0:0:
448,192,139535,1,0,0:0:0:0:
192,192,139704,1,0,0:0:0:0:
448,192,139704,1,0,0:0:0:0:
192,192,139873,1,0,0:0:0:0:
64,192,139873,1,2,0:0:0:0:
448,192,139873,1,0,0:0:0:0:
320,192,140041,1,0,0:0:0:0:
64,192,140041,1,0,0:0:0:0:
448,192,140210,1,0,0:0:0:0:
64,192,140210,1,2,0:0:0:0:
192,192,140210,1,0,0:0:0:0:
320,192,140294,1,0,0:0:0:0:
192,192,140378,1,0,0:0:0:0:
64,192,140462,1,0,0:0:0:0:
192,192,140547,1,2,0:0:0:0:
320,192,140547,1,0,0:0:0:0:
448,192,140547,1,0,0:0:0:0:
64,192,140631,1,0,0:0:0:0:
192,192,140715,1,0,0:0:0:0:
320,192,140800,1,0,0:0:0:0:
64,192,140884,1,2,0:0:0:0:
192,192,140884,1,0,0:0:0:0:
448,192,140884,1,0,0:0:0:0:
448,192,141052,1,0,0:0:0:0:
192,192,141052,1,0,0:0:0:0:
64,192,141221,1,2,0:0:0:0:
320,192,141221,1,0,0:0:0:0:
448,192,141221,1,0,0:0:0:0:
192,192,141389,1,0,0:0:0:0:
320,192,141389,1,0,0:0:0:0:
64,192,141558,1,2,0:0:0:0:
192,192,141558,1,0,0:0:0:0:
320,192,141558,1,0,0:0:0:0:
448,192,141642,1,0,0:0:0:0:
320,192,141726,1,0,0:0:0:0:
192,192,141811,1,0,0:0:0:0:
448,192,141895,1,0,0:0:0:0:
64,192,141895,1,2,0:0:0:0:
320,192,141895,1,0,0:0:0:0:
192,192,141979,1,0,0:0:0:0:
320,192,142064,1,0,0:0:0:0:
448,192,142148,1,0,0:0:0:0:
64,192,142232,1,2,0:0:0:0:
192,192,142232,1,0,0:0:0:0:
320,192,142232,1,0,0:0:0:0:
192,192,142401,1,0,0:0:0:0:
448,192,142401,1,0,0:0:0:0:
448,192,142569,1,0,0:0:0:0:
64,192,142569,1,2,0:0:0:0:
192,192,142569,1,0,0:0:0:0:
320,192,142738,1,0,0:0:0:0:
64,192,142738,1,0,0:0:0:0:
192,192,142906,1,2,0:0:0:0:
320,192,142906,1,0,0:0:0:0:
448,192,142906,1,0,0:0:0:0:
64,192,142991,1,0,0:0:0:0:
192,192,143075,1,0,0:0:0:0:
320,192,143159,1,0,0:0:0:0:
64,192,143243,1,2,0:0:0:0:
192,192,143243,1,0,0:0:0:0:
448,192,143243,1,0,0:0:0:0:
320,192,143328,1,0,0:0:0:0:
192,192,143412,1,0,0:0:0:0:
64,192,143496,1,0,0:0:0:0:
192,192,143580,1,2,0:0:0:0:
320,192,143580,1,0,0:0:0:0:
448,192,143580,1,0,0:0:0:0:
192,192,143749,1,0,0:0:0:0:
448,192,143749,1,0,0:0:0:0:
64,192,143918,1,2,0:0:0:0:
320,192,143918,1,0,0:0:0:0:
448,192,143918,1,0,0:0:0:0:
64,192,144086,1,0,0:0:0:0:
192,192,144086,1,0,0:0:0:0:
192,192,144255,1,0,0:0:0:0:
320,192,144255,1,0,0:0:0:0:
64,192,144255,1,2,0:0:0:0:
448,192,144339,1,0,0:0:0:0:
320,192,144423,1,0,0:0:0:0:
192,192,144507,1,0,0:0:0:0:
64,192,144592,1,2,0:0:0:0:
320,192,144592,1,0,0:0:0:0:
448,192,144592,1,0,0:0:0:0:
192,192,144676,1,0,0:0:0:0:
320,192,144760,1,0,0:0:0:0:
448,192,144844,1,0,0:0:0:0:
320,192,144929,1,0,0:0:0:0:
64,192,144929,1,2,0:0:0:0:
192,192,144929,1,0,0:0:0:0:
448,192,145097,1,0,0:0:0:0:
192,192,145097,1,0,0:0:0:0:
64,192,145266,1,2,0:0:0:0:
192,192,145266,1,0,0:0:0:0:
320,192,145266,1,0,0:0:0:0:
320,192,145434,1,0,0:0:0:0:
448,192,145434,1,0,0:0:0:0:
64,192,145603,1,2,0:0:0:0:
192,192,145603,1,0,0:0:0:0:
448,192,145603,1,0,0:0:0:0:
192,192,145771,1,0,0:0:0:0:
320,192,145771,1,0,0:0:0:0:
448,192,145940,1,0,0:0:0:0:
320,192,145940,1,0,0:0:0:0:
64,192,145940,1,2,0:0:0:0:
64,192,146109,1,0,0:0:0:0:
192,192,146109,1,0,0:0:0:0:
192,192,146277,1,2,0:0:0:0:
320,192,146277,1,0,0:0:0:0:
448,192,146277,1,0,0:0:0:0:
64,192,146361,1,0,0:0:0:0:
320,192,146446,1,0,0:0:0:0:
192,192,146530,1,0,0:0:0:0:
448,192,146530,1,0,0:0:0:0:
64,192,146614,1,2,0:0:0:0:
320,192,146614,1,0,0:0:0:0:
192,192,146698,1,2,0:0:0:0:
448,192,146698,1,0,0:0:0:0:
320,192,146783,1,0,0:0:0:0:
64,192,146783,1,2,0:0:0:0:
192,192,146867,1,2,0:0:0:0:
320,192,146951,1,2,0:0:0:0:
64,192,146951,1,4,0:0:0:0:
448,192,146951,1,0,0:0:0:0:
