osu file format v14

[General]
AudioFilename: audio.mp3
AudioLeadIn: 0
PreviewTime: 64210
Countdown: 0
SampleSet: Soft
StackLeniency: 0.2
Mode: 0
LetterboxInBreaks: 0
WidescreenStoryboard: 0

[Editor]
Bookmarks: 580,12809,25038,37267,49497,64783,77013,89242,101471,113701,125930,138159,150388,167204,179433,191662,203892,216121,231408,246694,258923,271153,283382,295611,307458
DistanceSpacing: 1.7
BeatDivisor: 4
GridSize: 4
TimelineZoom: 2.1

[Metadata]
Title:Resonance+ (SHHis Ver.)
TitleUnicode:Resonance⁺ (シーズVer.)
Artist:SHHis
ArtistUnicode:シーズ
Creator:Andrea
Version:Radiance
Source:アイドルマスター シャイニーカラーズ
Tags:Collaboration Collab Female Vocals Sekai Sekaii Sekai-nyan osuplayer111 THE IDOLM@STER SHINY COLORS GR@DATE WING 08 idolmaster imas im@s shinymas japanese pop jpop j-pop Nichika Nanakusa 七草にちか Mikoto Aketa 緋田美琴 Azusa Shizuki 紫月杏朱彩 Aya Yamane 山根綺
BeatmapID:3319180
BeatmapSetID:1625730

[Difficulty]
HPDrainRate:7
CircleSize:4.5
OverallDifficulty:8
ApproachRate:9
SliderMultiplier:1.6
SliderTickRate:1

[Events]
//Background and Video events
0,0,"BG.jpg",0,0
//Break Periods
//Storyboard Layer 0 (Background)
//Storyboard Layer 1 (Fail)
//Storyboard Layer 2 (Pass)
//Storyboard Layer 3 (Foreground)
//Storyboard Layer 4 (Overlay)
//Storyboard Sound Samples

[TimingPoints]
620,382.165605095541,4,2,1,40,1,0
620,-125,4,2,1,40,0,0
11320,-125,4,2,1,50,0,0
12276,-125,4,2,1,55,0,0
12849,-100,4,2,1,60,0,0
18867,-100,4,2,1,5,0,0
18963,-100,4,2,1,60,0,0
20396,-100,4,2,1,5,0,0
20492,-100,4,2,1,60,0,0
22403,-100,4,2,1,60,0,0
24026,-100,4,2,1,5,0,0
24186,-100,4,2,1,60,0,0
24505,-100,4,2,1,50,0,0
25078,-111.111111111111,4,2,1,50,0,0
28995,-111.111111111111,4,2,1,5,0,0
29091,-111.111111111111,4,2,1,50,0,0
34632,-111.111111111111,4,2,1,50,0,0
35397,-111.111111111111,4,2,1,50,0,0
35683,-111.111111111111,4,2,1,5,0,0
35779,-111.111111111111,4,2,1,50,0,0
37307,-100,4,2,1,60,0,0
37690,-100,4,2,1,60,0,0
38836,-100,4,2,1,60,0,0
39218,-100,4,2,1,60,0,0
40365,-100,4,2,1,60,0,0
41511,-100,4,2,1,60,0,0
44569,-100,4,2,1,60,0,0
45333,-100,4,2,1,60,0,0
46862,-100,4,2,1,60,0,0
49537,-100,4,2,1,70,0,0
51351,-100,4,2,1,5,0,0
51448,-100,4,2,1,70,0,0
54409,-100,4,2,1,5,0,0
54505,-100,4,2,1,70,0,0
57466,-100,4,2,1,5,0,0
57562,-100,4,2,1,70,0,0
64823,-90.9090909090909,4,2,1,80,0,1
69027,-90.9090909090909,4,2,1,80,0,1
70174,-90.9090909090909,4,2,1,80,0,1
73231,-90.9090909090909,4,2,1,80,0,1
76288,-90.9090909090909,4,2,1,80,0,1
77339,-90.9090909090909,4,2,1,5,0,1
77435,-90.9090909090909,4,2,1,80,0,1
78485,-90.9090909090909,4,2,1,5,0,1
78581,-90.9090909090909,4,2,1,80,0,1
90046,-90.9090909090909,4,2,1,80,0,1
90332,-90.9090909090909,4,2,1,5,0,1
90428,-90.9090909090909,4,2,1,80,0,1
91957,-90.9090909090909,4,2,1,80,0,1
92721,-90.9090909090909,4,2,1,80,0,1
93486,-90.9090909090909,4,2,1,80,0,1
95014,-90.9090909090909,4,2,1,80,0,1
96543,-90.9090909090909,4,2,1,80,0,1
98072,-90.9090909090909,4,2,1,80,0,1
98454,-90.9090909090909,4,2,1,80,0,1
101797,-90.9090909090909,4,2,1,5,0,1
101893,-90.9090909090909,4,2,1,80,0,1
104855,-90.9090909090909,4,2,1,5,0,1
104951,-90.9090909090909,4,2,1,80,0,1
105715,-90.9090909090909,4,2,1,80,0,1
107721,-90.9090909090909,4,2,1,5,0,1
107817,-90.9090909090909,4,2,1,80,0,1
109441,-90.9090909090909,4,2,1,5,0,1
109537,-90.9090909090909,4,2,1,80,0,1
110683,-90.9090909090909,4,2,1,80,0,1
113741,-111.111111111111,4,2,1,60,0,0
114505,-111.111111111111,4,2,1,60,0,0
116702,-111.111111111111,4,2,1,5,0,0
116798,-111.111111111111,4,2,1,60,0,0
119091,-111.111111111111,4,2,1,40,0,0
119473,-111.111111111111,4,2,1,60,0,0
119855,-100,4,2,1,70,0,0
120905,-100,4,2,1,5,0,0
121002,-100,4,2,1,70,0,0
122816,-100,4,2,1,5,0,0
122912,-100,4,2,1,70,0,0
123295,-100,4,2,1,70,0,0
123581,-100,4,2,1,5,0,0
123677,-100,4,2,1,70,0,0
124441,-100,4,2,1,70,0,0
125970,-100,4,2,1,60,0,0
126256,-100,4,2,1,5,0,0
126352,-100,4,2,1,60,0,0
127116,-100,4,2,1,60,0,0
129027,-100,4,2,1,60,0,0
129886,-100,4,2,1,5,0,0
129983,-100,4,2,1,60,0,0
130842,-100,4,2,1,5,0,0
130938,-100,4,2,1,60,0,0
131320,-100,4,2,1,60,0,0
131702,-100,4,2,1,60,0,0
132467,-100,4,2,1,60,0,0
132849,-100,4,2,1,60,0,0
133613,-100,4,2,1,60,0,0
133899,-100,4,2,1,5,0,0
133995,-100,4,2,1,60,0,0
136765,-100,4,2,1,5,0,0
136862,-100,4,2,1,60,0,0
140874,-100,4,2,1,60,0,0
145460,-100,4,2,1,60,0,0
146989,-100,4,2,1,60,0,0
147753,-100,4,2,1,60,0,0
148518,-100,4,2,1,60,0,0
150428,-100,4,2,1,70,0,0
160365,-100,4,2,1,70,0,0
161511,-100,4,2,1,70,0,0
164472,-100,4,2,1,5,0,0
164569,-100,4,2,1,70,0,0
167244,-90.9090909090909,4,2,1,80,0,1
167626,-90.9090909090909,4,2,1,80,0,1
168390,-90.9090909090909,4,2,1,80,0,1
170205,-90.9090909090909,4,2,1,5,0,1
170301,-90.9090909090909,4,2,1,80,0,1
171448,-90.9090909090909,4,2,1,80,0,1
172976,-90.9090909090909,4,2,1,80,0,1
174505,-90.9090909090909,4,2,1,80,0,1
174887,-90.9090909090909,4,2,1,80,0,1
176034,-90.9090909090909,4,2,1,80,0,1
176320,-90.9090909090909,4,2,1,5,0,1
176416,-90.9090909090909,4,2,1,80,0,1
180237,-90.9090909090909,4,2,1,80,0,1
180905,-90.9090909090909,4,2,1,5,0,1
181002,-90.9090909090909,4,2,1,80,0,1
181384,-90.9090909090909,4,2,1,80,0,1
182530,-90.9090909090909,4,2,1,80,0,1
182816,-90.9090909090909,4,2,1,5,0,1
182912,-90.9090909090909,4,2,1,80,0,1
185970,-90.9090909090909,4,2,1,80,0,1
189027,-90.9090909090909,4,2,1,80,0,1
189409,-90.9090909090909,4,2,1,80,0,1
192084,-90.9090909090909,4,2,1,80,0,1
192849,-90.9090909090909,4,2,1,80,0,1
193613,-90.9090909090909,4,2,1,80,0,1
195142,-90.9090909090909,4,2,1,80,0,1
195524,-90.9090909090909,4,2,1,80,0,1
195906,-90.9090909090909,4,2,1,80,0,1
196670,-90.9090909090909,4,2,1,80,0,1
197817,-90.9090909090909,4,2,1,80,0,1
198963,-90.9090909090909,4,2,1,80,0,1
199346,-90.9090909090909,4,2,1,80,0,1
200492,-90.9090909090909,4,2,1,80,0,1
200778,-90.9090909090909,4,2,1,5,0,1
200874,-90.9090909090909,4,2,1,80,0,1
204314,-90.9090909090909,4,2,1,80,0,1
205078,-90.9090909090909,4,2,1,80,0,1
205364,-90.9090909090909,4,2,1,5,0,1
205460,-90.9090909090909,4,2,1,80,0,1
206607,-90.9090909090909,4,2,1,80,0,1
207371,-90.9090909090909,4,2,1,80,0,1
209282,-90.9090909090909,4,2,1,80,0,1
211861,-90.9090909090909,4,2,1,5,0,1
211957,-90.9090909090909,4,2,1,80,0,1
213390,-90.9090909090909,4,2,1,5,0,1
213486,-90.9090909090909,4,2,1,80,0,1
215779,-90.9090909090909,4,2,1,80,0,1
216161,-100,4,2,1,60,0,0
219218,-100,4,2,1,70,0,0
223804,-100,4,2,1,70,0,0
224951,-100,4,2,1,70,0,0
225237,-100,4,2,1,5,0,0
225333,-100,4,2,1,70,0,0
228294,-100,4,2,1,5,0,0
228390,-100,4,2,1,70,0,0
229537,-100,4,2,1,70,0,0
231448,-100,4,2,1,60,0,0
232116,-100,4,2,1,5,0,0
232212,-100,4,2,1,60,0,0
233741,-100,4,2,1,60,0,0
235173,-100,4,2,1,5,0,0
235269,-100,4,2,1,60,0,0
236702,-100,4,2,1,5,0,0
236798,-100,4,2,1,60,0,0
237562,-100,4,2,1,70,0,0
237944,-100,4,2,1,70,0,0
238613,-100,4,2,1,5,0,0
238709,-100,4,2,1,70,0,0
239473,-100,4,2,1,70,0,0
241002,-100,4,2,1,70,0,0
241670,-100,4,2,1,5,0,0
241766,-100,4,2,1,70,0,0
243772,-100,4,2,1,5,0,0
243868,-100,4,2,1,70,0,0
246161,-100,4,2,1,50,0,0
246734,-100,4,2,1,60,0,0
249791,-100,4,2,1,65,0,0
252849,-100,4,2,1,70,0,0
255428,-100,4,2,1,5,0,0
255524,-100,4,2,1,70,0,0
255810,-100,4,2,1,5,0,0
255906,-100,4,2,1,60,0,0
258963,-111.111111111111,4,2,1,60,0,0
259249,-111.111111111111,4,2,1,5,0,0
259346,-111.111111111111,4,2,1,60,0,0
260396,-111.111111111111,4,2,1,5,0,0
260492,-111.111111111111,4,2,1,60,0,0
260778,-111.111111111111,4,2,1,5,0,0
260874,-111.111111111111,4,2,1,60,0,0
265078,-100,4,2,1,70,0,0
268135,-100,4,2,1,75,0,0
271193,-90.9090909090909,4,2,1,80,0,1
271575,-90.9090909090909,4,2,1,80,0,1
275397,-90.9090909090909,4,2,1,80,0,1
280747,-90.9090909090909,4,2,1,80,0,1
281511,-90.9090909090909,4,2,1,80,0,1
286765,-90.9090909090909,4,2,1,5,0,1
286862,-90.9090909090909,4,2,1,80,0,1
287626,-90.9090909090909,4,2,1,80,0,1
291351,-90.9090909090909,4,2,1,5,0,1
291448,-90.9090909090909,4,2,1,80,0,1
292880,-90.9090909090909,4,2,1,5,0,1
292976,-90.9090909090909,4,2,1,80,0,1
296034,-90.9090909090909,4,2,1,80,0,1
296798,-90.9090909090909,4,2,1,80,0,1
298709,-90.9090909090909,4,2,1,80,0,1
301766,-100,4,2,1,70,0,0
303868,-100,4,2,1,60,0,0
304059,-125,4,2,1,60,0,0
304536,-125,4,2,1,5,0,0
304632,-125,4,2,1,60,0,0
304823,-100,4,2,1,60,0,0
305683,-100,4,2,1,5,0,0
305779,-100,4,2,1,60,0,0
306065,-100,4,2,1,5,0,0
306161,-100,4,2,1,60,0,0
306447,-100,4,2,1,5,0,0
306543,-100,4,2,1,60,0,0
306734,-125,4,2,1,60,0,0
307498,-125,4,2,1,5,0,0

[Colours]
Combo1 : 172,171,137
Combo2 : 186,85,69
SliderBorder : 186,85,69
SliderTrackOverride : 182,243,192

[HitObjects]
176,40,620,6,0,P|90:55|105:140,2,192,10|10|2,0:0|0:0|0:0,0:0:0:0:
336,40,2148,2,0,P|421:55|406:140,2,192,2|2|0,0:0|0:0|0:0,0:0:0:0:
256,80,3486,1,8,0:0:0:0:
256,80,3677,2,0,B|228:164|288:164|256:268,1,192,10|10,0:0|0:0,0:0:0:0:
308,340,4441,6,0,P|255:371|204:339,1,128,2|2,0:0|0:0,0:0:0:0:
256,168,5205,2,0,B|360:200|360:140|444:168,2,192,2|2|2,0:0|0:0|0:0,0:0:0:0:
312,96,6543,1,8,0:0:0:0:
312,96,6734,6,0,B|340:157|340:157|337:207|337:207|369:276,2,192,10|10|2,0:0|0:0|0:0,0:0:0:0:
200,96,8263,2,0,B|171:157|171:157|174:207|174:207|142:276,2,192,2|2|0,0:0|0:0|0:0,0:0:0:0:
256,24,9600,1,8,0:0:0:0:
256,24,9791,2,0,B|308:24|332:56|332:56|440:56,1,192,10|10,0:0|0:0,0:0:0:0:
480,140,10556,6,0,B|480:180|509:192|509:192|480:204|480:244,1,128,2|2,0:0|0:0,0:0:0:0:
438,328,11320,2,0,B|332:328|332:328|308:360|256:360,1,192,10|10,0:0|0:0,0:0:0:0:
256,360,12276,1,8,0:0:0:0:
184,276,12467,1,8,0:0:0:0:
256,192,12658,1,0,1:2:0:0:
256,192,12753,1,0,1:2:0:0:
256,192,12849,5,12,0:0:0:0:
151,58,13040,1,0,1:0:0:0:
151,58,13231,1,0,1:0:0:0:
256,192,13422,5,10,0:0:0:0:
423,138,13613,1,0,1:0:0:0:
320,279,13804,1,0,1:0:0:0:
320,104,13995,1,8,0:0:0:0:
423,246,14186,1,0,1:0:0:0:
320,104,14377,5,12,0:0:0:0:
320,279,14569,1,0,1:0:0:0:
320,279,14760,1,0,1:0:0:0:
423,138,14951,5,10,0:0:0:0:
259,202,15142,1,0,1:0:0:0:
281,34,15333,1,0,1:0:0:0:
423,138,15524,1,12,0:0:0:0:
207,115,15715,1,0,1:0:0:0:
320,279,15906,5,12,0:0:0:0:
318,123,16097,1,0,1:0:0:0:
162,206,16288,1,2,1:2:0:0:
318,123,16479,1,8,0:0:0:0:
237,272,16670,1,0,1:0:0:0:
126,137,16862,1,0,1:0:0:0:
308,204,17053,1,10,0:0:0:0:
128,290,17244,1,0,1:0:0:0:
126,137,17435,6,0,B|206:165|206:109|282:137,1,160,12|2,0:0|1:2,0:0:0:0:
150,67,18008,1,8,0:0:0:0:
64,216,18199,1,2,1:2:0:0:
0,82,18390,1,12,0:0:0:0:
150,67,18581,2,0,P|212:66|270:46,1,120,12|0,0:0|2:0,0:0:0:0:
298,33,18963,5,6,1:2:0:0:
279,178,19155,1,0,0:0:0:0:
435,96,19346,1,8,0:0:0:0:
279,178,19537,2,0,B|337:173|337:173|366:184|366:184|444:174,1,160,4|10,1:2|0:0,0:0:0:0:
305,258,20110,2,0,P|253:262|200:222,1,120,4|0,1:2|2:0,0:0:0:0:
182,197,20492,5,2,1:2:0:0:
144,45,20683,1,0,0:0:0:0:
69,173,20874,1,8,0:0:0:0:
232,122,21065,1,2,0:0:0:0:
232,122,21161,1,0,0:0:0:0:
232,122,21256,2,0,B|314:98|294:158|389:129,1,160,2|8,1:2|0:0,0:0:0:0:
476,78,21830,1,2,0:0:0:0:
476,78,21925,1,2,0:0:0:0:
476,78,22021,6,0,B|493:114|493:114|476:150,1,80,4|0,1:2|2:0,0:0:0:0:
407,244,22403,1,10,0:0:0:0:
407,244,22594,2,0,B|325:220|345:280|252:251,1,160,4|10,1:2|0:0,0:0:0:0:
151,322,23167,1,2,0:0:0:0:
151,322,23358,6,0,P|111:330|167:304,1,280,6|0,1:2|2:0,0:0:0:0:
183,169,24186,2,0,P|162:159|138:155,2,26.6666666666667,2|2|2,0:0|0:0|0:0,0:0:0:0:
279,85,24505,5,2,0:0:0:0:
323,183,24696,1,2,0:0:0:0:
392,102,24887,1,2,0:0:0:0:
392,102,24983,1,2,0:0:0:0:
392,102,25078,6,0,L|460:124,1,71.9999978027344,4|0,1:2|0:0,0:0:0:0:
391,205,25460,2,0,L|323:183,1,71.9999978027344,2|0,1:2|0:0,0:0:0:0:
256,96,25842,1,0,1:0:0:0:
322,182,26034,1,0,0:0:0:0:
190,182,26225,2,0,P|176:214|190:246,1,71.9999978027344,2|0,1:2|0:0,0:0:0:0:
256,336,26607,2,0,B|311:329|311:329|341:345|341:345|397:338,2,143.999995605469,0|2|0,1:0|1:2|1:0,0:0:0:0:
256,336,27562,5,0,0:0:0:0:
364,268,27753,2,0,L|443:258,1,71.9999978027344,2|0,1:2|0:0,0:0:0:0:
424,152,28135,1,2,1:2:0:0:
408,44,28327,1,2,0:0:0:0:
300,56,28518,1,2,1:2:0:0:
316,164,28709,2,0,P|268:192|220:180,1,107.999996704102,2|0,0:0|2:0,0:0:0:0:
184,156,29091,2,0,L|136:224,1,71.9999978027344,2|2,0:0|1:2,0:0:0:0:
88,300,29473,1,0,0:0:0:0:
176,352,29664,5,2,1:2:0:0:
208,352,30046,1,2,1:2:0:0:
240,352,30428,1,2,1:2:0:0:
328,292,30619,2,0,B|360:308|360:308|392:292,1,71.9999978027344,0|2,0:0|1:2,0:0:0:0:
444,192,31002,1,0,0:0:0:0:
392,92,31193,6,0,B|360:76|360:76|328:92,1,71.9999978027344,2|0,1:2|0:0,0:0:0:0:
256,192,31575,1,2,1:2:0:0:
327,92,31766,1,0,0:0:0:0:
185,92,31957,1,2,1:2:0:0:
327,164,32148,1,0,0:0:0:0:
256,64,32339,1,2,1:2:0:0:
185,164,32530,1,0,0:0:0:0:
256,264,32721,2,0,B|300:264|320:288|320:288|396:288,1,143.999995605469,2|2,1:2|1:2,0:0:0:0:
393,288,33295,1,0,0:0:0:0:
432,160,33486,5,2,1:2:0:0:
464,52,33677,1,2,0:0:0:0:
356,20,33868,1,2,1:2:0:0:
324,128,34059,2,0,B|272:114|272:114|250:87|250:87|196:73,1,143.999995605469,2|0,0:0|2:0,0:0:0:0:
196,73,34632,1,2,1:2:0:0:
72,104,34823,6,0,B|123:117|123:117|145:144|145:144|199:158,1,143.999995605469,2|0,0:0|2:0,0:0:0:0:
328,132,35397,2,0,P|372:144|404:200,1,107.999996704102,2|0,1:2|2:0,0:0:0:0:
396,236,35779,1,2,1:2:0:0:
352,336,35970,1,2,0:0:0:0:
268,268,36161,1,2,1:2:0:0:
440,312,36352,5,10,0:0:0:0:
316,192,36543,1,0,1:0:0:0:
244,348,36734,1,10,0:0:0:0:
440,312,36925,1,8,0:0:0:0:
308,160,37116,1,2,0:0:0:0:
308,160,37212,1,2,0:0:0:0:
308,160,37307,6,0,L|341:243,1,80,4|0,1:2|2:0,0:0:0:0:
215,189,37690,1,2,1:2:0:0:
338,84,37881,2,0,B|242:61|269:121|182:103,1,160,2|2,0:0|0:0,0:0:0:0:
145,104,38358,1,2,0:0:0:0:
145,104,38454,2,0,B|128:140|128:140|145:176,1,80,2|0,1:2|2:0,0:0:0:0:
232,268,38836,6,0,L|145:302,1,80,0|0,1:0|2:0,0:0:0:0:
286,147,39218,1,2,1:2:0:0:
306,301,39409,2,0,B|329:205|269:232|287:145,1,160,8|2,0:0|0:0,0:0:0:0:
286,108,39886,1,0,0:0:0:0:
286,108,39982,2,0,B|250:91|250:91|214:108,1,80,8|0,0:0|2:0,0:0:0:0:
322,40,40365,6,0,B|250:4|250:4|178:40,1,160,4|2,1:2|1:2,0:0:0:0:
114,201,40938,2,0,L|78:40,1,160,2|0,0:0|2:0,0:0:0:0:
213,108,41511,1,2,1:2:0:0:
114,201,41702,1,0,0:0:0:0:
367,127,41893,6,0,B|282:144|307:90|213:107,1,160,2|2,1:2|1:2,0:0:0:0:
368,52,42467,1,8,0:0:0:0:
368,52,42562,1,8,0:0:0:0:
368,52,42658,2,0,P|405:57|440:88,1,80,0|8,1:0|0:0,0:0:0:0:
453,198,43040,2,0,P|416:193|381:162,1,80,8|0,0:0|1:0,0:0:0:0:
367,127,43327,1,0,1:0:0:0:
367,127,43422,6,0,B|282:144|307:90|213:107,1,160,4|2,1:2|1:2,0:0:0:0:
82,151,43995,1,0,0:0:0:0:
200,244,44186,2,0,L|163:166,1,80,0|0,1:0|2:0,0:0:0:0:
87,277,44569,1,2,1:2:0:0:
285,266,44760,6,0,P|217:268|143:334,1,160,8|0,0:0|2:0,0:0:0:0:
256,378,45333,1,2,1:2:0:0:
285,266,45524,1,8,0:0:0:0:
148,324,45715,1,0,1:0:0:0:
263,384,45906,1,8,3:0:0:0:
263,384,46002,1,8,3:0:0:0:
263,384,46097,1,8,3:0:0:0:
423,345,46288,6,0,L|280:263,1,160,12|0,0:0|2:0,0:0:0:0:
314,75,46862,2,0,P|257:115|247:206,1,160,2|0,1:2|1:0,0:0:0:0:
384,184,47435,1,2,0:0:0:0:
314,75,47626,1,0,1:2:0:0:
384,184,47817,6,0,B|424:144|424:144|424:101|424:101|476:51,1,160,12|10,0:0|0:0,0:0:0:0:
466,235,48390,1,10,0:0:0:0:
314,75,48581,1,10,0:0:0:0:
314,75,48677,1,8,0:0:0:0:
314,75,48772,1,8,0:0:0:0:
299,254,48963,1,8,3:0:0:0:
494,143,49155,1,8,0:0:0:0:
317,48,49346,1,8,3:0:0:0:
317,48,49441,1,8,3:0:0:0:
317,48,49537,6,0,B|241:20|241:76|161:48,1,160,12|0,0:0|1:2,0:0:0:0:
280,144,50110,2,0,B|356:172|356:116|436:144,1,160,10|0,0:0|1:2,0:0:0:0:
317,48,50683,1,10,0:0:0:0:
280,144,50874,1,0,1:0:0:0:
244,240,51065,6,0,B|192:240|192:240|168:256|168:256|124:256,1,120,10|0,0:0|2:0,0:0:0:0:
88,252,51448,1,0,1:2:0:0:
216,320,51639,1,8,0:0:0:0:
136,176,51830,2,0,P|120:139|135:103,1,80,2|8,1:2|0:0,0:0:0:0:
256,44,52212,1,8,0:0:0:0:
377,103,52403,1,2,0:0:0:0:
377,103,52498,1,2,0:0:0:0:
377,103,52594,6,0,B|416:142|416:142|425:185|425:185|467:227,1,160,12|0,0:0|1:2,0:0:0:0:
348,316,53167,2,0,B|308:276|308:276|299:233|299:233|257:191,1,160,10|0,0:0|1:2,0:0:0:0:
376,236,53741,1,10,0:0:0:0:
256,191,53932,1,0,1:0:0:0:
212,312,54123,2,0,P|164:312|112:264,1,120,10|0,0:0|2:0,0:0:0:0:
92,228,54505,6,0,L|32:280,1,80,2|8,1:2|0:0,0:0:0:0:
160,172,54887,1,2,1:2:0:0:
244,28,55078,1,8,0:0:0:0:
128,56,55269,1,8,0:0:0:0:
276,144,55460,1,8,0:0:0:0:
276,144,55556,1,8,0:0:0:0:
276,144,55651,6,0,B|318:173|350:155|350:155|344:192|387:222,1,160,12|0,0:0|1:2,0:0:0:0:
328,80,56225,2,0,B|285:50|253:68|253:68|259:31|216:1,1,160,10|0,0:0|1:2,0:0:0:0:
120,88,56798,1,10,0:0:0:0:
216,172,56989,1,2,0:0:0:0:
216,172,57084,1,2,0:0:0:0:
216,172,57180,6,0,P|192:220|216:280,1,120,12|0,0:0|2:0,0:0:0:0:
244,312,57562,1,10,0:0:0:0:
344,220,57753,1,8,0:0:0:0:
344,220,57849,1,8,0:0:0:0:
344,220,57944,1,8,0:0:0:0:
216,172,58135,1,8,0:0:0:0:
184,164,58231,1,8,0:0:0:0:
152,156,58327,1,8,0:0:0:0:
120,148,58422,1,8,0:0:0:0:
88,140,58518,6,0,P|52:72|88:4,1,160,14|0,0:0|1:2,0:0:0:0:
188,72,59091,1,10,0:0:0:0:
324,72,59282,1,8,0:0:0:0:
324,72,59377,1,8,0:0:0:0:
324,72,59473,1,10,0:0:0:0:
424,140,59664,2,0,B|441:176|441:176|424:212,1,80,2|8,0:0|0:0,0:0:0:0:
368,328,60046,5,2,0:0:0:0:
368,328,60142,1,2,0:0:0:0:
368,328,60237,2,0,B|292:300|292:356|212:328,1,160,2|8,1:2|0:0,0:0:0:0:
256,184,60811,1,2,0:0:0:0:
256,184,60906,1,2,0:0:0:0:
256,184,61002,2,0,P|271:220|256:256,1,80,2|2,1:2|0:0,0:0:0:0:
140,220,61384,1,8,0:0:0:0:
188,64,61575,6,0,P|256:28|324:64,1,160,4|8,1:2|0:0,0:0:0:0:
323,63,62053,1,8,0:0:0:0:
323,63,62148,1,8,0:0:0:0:
256,184,62339,1,8,0:0:0:0:
256,184,62435,1,8,0:0:0:0:
256,184,62530,1,8,0:0:0:0:
188,64,62721,1,8,0:0:0:0:
160,84,62817,1,8,0:0:0:0:
132,104,62912,1,8,0:0:0:0:
104,124,63008,1,8,0:0:0:0:
76,144,63104,1,8,0:0:0:0:
140,280,63295,5,4,1:2:0:0:
256,184,63486,1,0,0:0:0:0:
336,312,63677,1,8,0:0:0:0:
336,312,63772,1,8,0:0:0:0:
336,312,63868,2,0,L|376:336,1,40,8|8,0:0|0:0,0:0:0:0:
472,300,64059,6,0,L|432:276,1,40,10|8,0:0|0:0,0:0:0:0:
404,260,64250,1,8,3:0:0:0:
386,233,64345,1,8,3:0:0:0:
378,202,64441,1,8,3:0:0:0:
382,170,64536,1,8,3:0:0:0:
397,142,64632,1,8,3:0:0:0:
421,121,64727,1,8,3:0:0:0:
450,109,64823,6,0,L|267:82,1,176.000005371094,4|2,1:2|1:2,0:0:0:0:
131,161,65397,1,2,0:0:0:0:
131,161,65492,1,2,0:0:0:0:
131,161,65588,2,0,L|314:188,1,176.000005371094,8|2,0:0|1:2,0:0:0:0:
203,296,66161,1,0,0:0:0:0:
131,161,66352,6,0,P|113:208|126:256,1,88.000002685547,2|8,1:2|0:0,0:0:0:0:
182,83,66734,2,0,P|111:71|28:126,1,176.000005371094,2|10,1:2|0:0,0:0:0:0:
254,153,67307,1,0,0:0:0:0:
330,83,67498,1,2,1:2:0:0:
395,194,67690,1,2,0:0:0:0:
395,194,67785,1,2,0:0:0:0:
395,194,67881,6,0,B|376:259|376:259|338:284|338:284|320:350,1,176.000005371094,2|2,1:2|1:2,0:0:0:0:
460,246,68454,1,0,0:0:0:0:
330,83,68645,2,0,B|370:65|370:65|410:83,1,88.000002685547,10|0,0:0|2:0,0:0:0:0:
395,194,69027,2,0,B|355:212|355:212|315:194,1,88.000002685547,2|2,1:2|0:0,0:0:0:0:
269,131,69314,1,2,0:0:0:0:
269,131,69409,6,0,L|181:153,1,88.000002685547,2|8,1:2|0:0,0:0:0:0:
62,282,69791,2,0,L|150:304,1,88.000002685547,0|0,1:2|2:0,0:0:0:0:
215,68,70174,2,0,L|127:90,1,88.000002685547,10|2,0:0|0:0,0:0:0:0:
59,111,70460,1,2,0:0:0:0:
59,111,70556,2,0,P|43:151|58:191,1,88.000002685547,2|8,1:2|3:0,0:0:0:0:
131,182,70842,1,8,3:0:0:0:
131,182,70938,6,0,L|323:138,1,176.000005371094,6|2,1:2|1:2,0:0:0:0:
443,108,71511,1,0,0:0:0:0:
391,237,71702,1,10,0:0:0:0:
302,142,71893,1,0,0:0:0:0:
443,108,72084,2,0,P|458:148|443:188,1,88.000002685547,2|2,1:2|0:0,0:0:0:0:
391,237,72371,1,2,0:0:0:0:
391,237,72467,5,2,1:2:0:0:
226,203,72658,2,0,B|337:182|284:255|397:235,1,176.000005371094,8|0,0:0|2:0,0:0:0:0:
252,278,73231,1,10,0:0:0:0:
196,130,73422,1,0,0:0:0:0:
109,273,73613,2,0,B|91:233|91:233|109:193,1,88.000002685547,2|0,1:2|1:2,0:0:0:0:
50,145,73900,1,0,1:2:0:0:
50,145,73995,6,0,L|213:225,1,176.000005371094,2|2,1:2|1:2,0:0:0:0:
353,207,74569,1,0,0:0:0:0:
353,207,74760,2,0,L|195:129,1,176.000005371094,10|2,0:0|1:2,0:0:0:0:
352,87,75333,1,2,0:0:0:0:
352,87,75428,1,2,0:0:0:0:
352,87,75524,6,0,P|392:72|432:87,1,88.000002685547,2|8,1:2|0:0,0:0:0:0:
433,207,75906,2,0,P|393:222|353:207,1,88.000002685547,2|0,1:2|2:0,0:0:0:0:
355,56,76288,2,0,P|395:41|435:56,1,88.000002685547,10|8,0:0|0:0,0:0:0:0:
502,96,76575,1,8,0:0:0:0:
502,96,76670,2,0,L|516:186,1,88.000002685547,8|8,0:0|0:0,0:0:0:0:
385,139,77053,6,0,B|337:144|337:144|308:172|308:172|264:177,1,132.00000402832,4|0,1:2|2:0,0:0:0:0:
220,180,77435,1,10,0:0:0:0:
144,72,77626,1,8,0:0:0:0:
144,72,77721,1,8,0:0:0:0:
144,72,77817,2,0,P|103:56|63:71,1,88.000002685547,8|8,0:0|0:0,0:0:0:0:
128,220,78199,6,0,L|184:344,1,132.00000402832,4|0,1:2|2:0,0:0:0:0:
204,372,78581,1,2,1:2:0:0:
256,252,78772,1,0,0:0:0:0:
308,372,78963,1,10,0:0:0:0:
296,184,79155,1,8,0:0:0:0:
296,184,79250,1,8,0:0:0:0:
296,184,79346,2,0,B|256:166|256:166|216:184,1,88.000002685547,8|8,0:0|0:0,0:0:0:0:
92,232,79728,1,10,0:0:0:0:
179,71,79919,5,8,0:0:0:0:
179,71,80014,1,8,0:0:0:0:
179,71,80110,2,0,B|255:27|255:27|331:71,1,176.000005371094,12|8,0:0|0:0,0:0:0:0:
256,192,80683,1,2,1:2:0:0:
256,192,80779,1,2,1:2:0:0:
256,192,80874,1,2,1:2:0:0:
179,71,81065,1,2,1:2:0:0:
331,71,81256,6,0,B|415:39|415:103|503:71,1,176.000005371094,12|2,0:0|1:2,0:0:0:0:
372,148,81830,1,0,0:0:0:0:
456,0,82021,1,8,0:0:0:0:
512,160,82212,1,8,0:0:0:0:
504,196,82307,1,8,0:0:0:0:
496,232,82403,1,10,0:0:0:0:
488,268,82498,1,8,0:0:0:0:
480,304,82594,1,8,0:0:0:0:
368,376,82785,1,8,0:0:0:0:
296,216,82976,5,8,0:0:0:0:
296,216,83072,1,8,0:0:0:0:
296,216,83167,2,0,P|255:200|215:215,1,88.000002685547,12|8,0:0|0:0,0:0:0:0:
144,376,83549,1,10,0:0:0:0:
68,216,83741,1,8,0:0:0:0:
68,216,83836,1,8,0:0:0:0:
68,216,83932,2,0,P|52:175|67:135,1,88.000002685547,8|8,0:0|0:0,0:0:0:0:
215,215,84314,1,10,0:0:0:0:
215,215,84409,1,8,0:0:0:0:
215,215,84505,1,8,0:0:0:0:
368,284,84696,6,0,P|383:324|368:364,1,88.000002685547,12|8,0:0|0:0,0:0:0:0:
320,372,84983,1,8,0:0:0:0:
320,372,85078,1,10,0:0:0:0:
184,304,85269,1,8,0:0:0:0:
184,304,85365,1,8,0:0:0:0:
184,304,85460,1,8,0:0:0:0:
252,168,85651,1,8,0:0:0:0:
388,236,85842,1,8,0:0:0:0:
408,204,85938,1,8,0:0:0:0:
428,172,86034,1,10,0:0:0:0:
448,140,86129,1,8,0:0:0:0:
468,108,86225,6,0,B|486:68|486:68|468:28,1,88.000002685547,12|10,0:0|0:0,0:0:0:0:
428,8,86511,1,8,0:0:0:0:
428,8,86607,1,8,0:0:0:0:
340,108,86798,1,10,0:0:0:0:
340,108,86893,1,8,0:0:0:0:
340,108,86989,1,8,0:0:0:0:
256,8,87180,1,10,0:0:0:0:
172,108,87371,1,8,0:0:0:0:
152,140,87467,1,8,0:0:0:0:
132,172,87562,1,8,0:0:0:0:
112,204,87658,1,8,0:0:0:0:
92,236,87753,6,0,P|77:276|92:316,1,88.000002685547,10|8,0:0|0:0,0:0:0:0:
124,344,88040,1,8,0:0:0:0:
124,344,88135,2,0,P|164:359|204:344,1,88.000002685547,8|8,0:0|0:0,0:0:0:0:
235,316,88422,1,8,0:0:0:0:
235,316,88518,2,0,P|250:275|235:235,1,88.000002685547,10|8,0:0|0:0,0:0:0:0:
164,112,88900,1,8,0:0:0:0:
164,112,88995,1,8,0:0:0:0:
164,112,89091,1,8,0:0:0:0:
348,112,89282,6,0,L|325:196,1,88.000002685547,4|2,1:2|0:0,0:0:0:0:
315,236,89569,1,2,0:0:0:0:
315,236,89664,2,0,B|355:254|355:254|395:236,1,88.000002685547,10|0,0:0|2:0,0:0:0:0:
315,329,90046,2,0,L|197:267,1,132.00000402832,2|0,1:2|2:0,0:0:0:0:
168,250,90428,1,10,0:0:0:0:
106,140,90619,1,2,0:0:0:0:
106,140,90715,1,2,0:0:0:0:
106,140,90811,6,0,B|202:112|180:179|278:157,1,176.000005371094,2|8,1:2|0:0,0:0:0:0:
404,77,91384,1,8,0:0:0:0:
404,77,91479,1,8,0:0:0:0:
404,77,91575,2,0,B|422:117|422:117|404:157,1,88.000002685547,10|0,0:0|2:0,0:0:0:0:
273,269,91957,2,0,B|255:229|255:229|273:189,1,88.000002685547,10|2,0:0|0:0,0:0:0:0:
201,144,92244,1,2,0:0:0:0:
201,144,92339,6,0,P|160:128|120:143,1,88.000002685547,2|0,1:2|2:0,0:0:0:0:
120,240,92721,2,0,P|160:255|201:240,1,88.000002685547,8|8,0:0|0:0,0:0:0:0:
273,269,93008,1,8,0:0:0:0:
273,269,93104,2,0,L|208:346,1,88.000002685547,10|0,0:0|2:0,0:0:0:0:
395,218,93486,2,0,L|338:150,1,88.000002685547,10|8,0:0|0:0,0:0:0:0:
172,40,93868,6,0,B|256:8|256:72|344:40,1,176.000005371094,10|8,0:0|0:0,0:0:0:0:
213,116,94441,1,8,0:0:0:0:
213,116,94537,1,8,0:0:0:0:
213,116,94632,2,0,P|172:131|132:116,1,88.000002685547,10|0,0:0|2:0,0:0:0:0:
16,80,95014,1,8,0:0:0:0:
50,219,95205,1,2,0:0:0:0:
50,219,95301,1,2,0:0:0:0:
50,219,95397,6,0,B|117:238|117:238|142:272|142:272|215:284,1,176.000005371094,2|10,1:2|0:0,0:0:0:0:
308,176,95970,1,0,0:0:0:0:
370,273,96161,2,0,B|388:313|388:313|370:353,1,88.000002685547,2|0,1:2|2:0,0:0:0:0:
308,176,96543,2,0,B|348:158|348:158|388:176,1,88.000002685547,10|2,0:0|0:0,0:0:0:0:
424,100,96830,1,2,0:0:0:0:
424,100,96925,6,0,B|380:100|348:61|348:61|316:100|272:100,1,176.000005371094,2|8,1:2|0:0,0:0:0:0:
148,142,97498,1,8,0:0:0:0:
148,142,97594,1,8,0:0:0:0:
148,142,97690,2,0,P|133:101|148:61,1,88.000002685547,10|0,0:0|2:0,0:0:0:0:
255,189,98072,2,0,P|269:229|254:269,1,88.000002685547,12|0,0:0|2:0,0:0:0:0:
424,269,98454,6,0,B|340:237|340:301|252:269,1,176.000005371094,2|8,1:2|0:0,0:0:0:0:
386,358,99027,1,2,0:0:0:0:
386,358,99123,1,2,0:0:0:0:
386,358,99218,2,0,L|485:213,1,176.000005371094,2|8,1:2|0:0,0:0:0:0:
425,103,99791,1,2,0:0:0:0:
425,103,99887,1,2,0:0:0:0:
425,103,99983,6,0,B|381:103|349:64|349:64|317:103|273:103,1,176.000005371094,2|8,1:2|0:0,0:0:0:0:
140,132,100556,1,10,0:0:0:0:
140,132,100651,1,8,0:0:0:0:
140,132,100747,1,8,0:0:0:0:
256,192,100938,1,10,0:0:0:0:
256,192,101034,1,8,0:0:0:0:
256,192,101129,1,8,0:0:0:0:
68,96,101320,1,10,0:0:0:0:
68,96,101415,1,8,0:0:0:0:
68,96,101511,6,0,P|20:120|28:192,1,132.00000402832,12|0,0:0|2:0,0:0:0:0:
64,216,101893,1,10,0:0:0:0:
256,192,102084,2,0,L|172:160,1,88.000002685547,2|0,0:0|1:2,0:0:0:0:
173,160,102467,1,2,0:0:0:0:
288,72,102658,2,0,L|458:139,1,176.000005371094,12|2,0:0|1:2,0:0:0:0:
456,272,103231,1,0,0:0:0:0:
312,328,103422,6,0,P|256:358|200:328,1,132.00000402832,10|8,0:0|0:0,0:0:0:0:
172,292,103804,1,8,0:0:0:0:
88,192,103995,1,2,0:0:0:0:
172,92,104186,1,10,0:0:0:0:
256,192,104377,1,2,0:0:0:0:
256,192,104473,1,2,0:0:0:0:
256,192,104569,6,0,B|312:168|312:216|384:192,1,132.00000402832,4|0,1:2|2:0,0:0:0:0:
348,124,104951,1,10,0:0:0:0:
284,264,105142,1,8,0:0:0:0:
284,264,105237,1,8,0:0:0:0:
284,264,105333,2,0,P|299:304|284:344,1,88.000002685547,8|0,0:0|2:0,0:0:0:0:
156,240,105715,6,0,B|129:183|129:183|129:125|129:125|105:75,1,176.000005371094,12|2,0:0|1:2,0:0:0:0:
208,168,106288,1,0,0:0:0:0:
44,136,106479,1,10,0:0:0:0:
164,20,106670,1,8,0:0:0:0:
164,20,106766,1,8,0:0:0:0:
164,20,106862,1,10,0:0:0:0:
208,168,107053,1,10,0:0:0:0:
248,184,107148,1,10,0:0:0:0:
288,200,107244,1,10,0:0:0:0:
328,216,107339,1,10,0:0:0:0:
368,232,107435,6,0,B|456:244|456:244|496:216,1,132.00000402832,12|0,0:0|2:0,0:0:0:0:
491,219,107817,1,2,1:2:0:0:
432,92,108008,1,8,0:0:0:0:
300,140,108199,1,8,0:0:0:0:
300,140,108295,1,8,0:0:0:0:
300,140,108390,1,8,0:0:0:0:
491,219,108581,5,2,0:0:0:0:
359,267,108772,1,8,0:0:0:0:
432,92,108963,1,2,0:0:0:0:
432,92,109059,1,2,0:0:0:0:
432,92,109155,2,0,P|380:56|320:80,1,132.00000402832,2|0,1:2|2:0,0:0:0:0:
372,132,109537,1,8,0:0:0:0:
256,28,109728,1,8,0:0:0:0:
140,132,109919,1,8,0:0:0:0:
256,236,110110,5,2,0:0:0:0:
256,236,110205,1,2,0:0:0:0:
256,236,110301,2,0,P|271:276|256:316,1,88.000002685547,8|0,0:0|2:0,0:0:0:0:
164,224,110683,2,0,L|340:188,1,176.000005371094,6|8,1:2|0:0,0:0:0:0:
476,156,111256,1,10,0:0:0:0:
476,156,111352,1,8,0:0:0:0:
476,156,111448,1,8,0:0:0:0:
366,47,111639,1,8,0:0:0:0:
366,47,111734,1,8,0:0:0:0:
366,47,111830,1,10,0:0:0:0:
256,156,112021,5,8,0:0:0:0:
256,156,112116,1,8,0:0:0:0:
256,156,112212,1,12,0:0:0:0:
146,47,112403,1,8,0:0:0:0:
146,47,112498,1,8,0:0:0:0:
146,47,112594,1,10,0:0:0:0:
36,156,112785,1,8,0:0:0:0:
36,156,112881,1,8,0:0:0:0:
36,156,112976,1,10,0:0:0:0:
146,265,113167,5,8,0:0:0:0:
146,265,113263,1,8,0:0:0:0:
146,265,113358,2,0,L|192:264,1,44.0000013427735,10|8,0:0|0:0,0:0:0:0:
233,264,113549,1,8,0:0:0:0:
256,156,113741,5,4,1:2:0:0:
256,156,113932,2,0,B|328:132|328:180|396:156,1,143.999995605469,8|0,0:0|2:0,0:0:0:0:
396,155,114505,2,0,B|324:131|324:179|256:155,1,143.999995605469,8|2,0:0|0:0,0:0:0:0:
182,218,115078,2,0,B|182:170|152:158|152:158|182:146|182:98,2,143.999995605469,8|8|0,0:0|0:0|0:0,0:0:0:0:
130,313,116034,2,0,B|247:277|251:389|383:325,1,251.999992309571,2|0,0:0|2:0,0:0:0:0:
399,309,116798,5,2,1:2:0:0:
399,309,116989,2,0,B|399:253|399:253|419:225|419:225|419:169,1,143.999995605469,8|2,0:0|0:0,0:0:0:0:
330,107,117562,2,0,B|330:163|330:163|310:191|310:191|310:247,1,143.999995605469,8|2,0:0|0:0,0:0:0:0:
249,125,118135,2,0,B|208:134|144:110|144:110|107:138,1,143.999995605469,8|8,0:0|0:0,0:0:0:0:
114,252,118709,1,0,0:0:0:0:
52,192,118900,1,8,0:0:0:0:
44,192,118995,1,8,0:0:0:0:
36,192,119091,6,0,L|18:192,6,17.9999994506836,10|10|10|10|10|10|10,3:2|0:0|0:0|0:0|0:0|0:0|3:2,0:0:0:0:
114,252,119473,1,2,1:2:0:0:
143,272,119568,1,2,1:2:0:0:
178,279,119664,1,2,1:2:0:0:
213,273,119759,1,2,1:2:0:0:
243,253,119855,5,4,1:2:0:0:
325,145,120046,1,0,0:0:0:0:
384,262,120237,1,8,0:0:0:0:
216,152,120428,1,8,0:0:0:0:
216,152,120524,1,8,0:0:0:0:
216,152,120619,2,0,B|216:102|250:66|250:66|230:43|207:54,1,120,14|0,0:0|2:0,0:0:0:0:
191,31,121002,1,8,0:0:0:0:
325,145,121193,1,8,0:0:0:0:
325,145,121288,1,8,0:0:0:0:
325,145,121384,6,0,B|408:127|383:196|478:173,1,160,14|8,0:0|0:0,0:0:0:0:
336,248,121957,1,8,0:0:0:0:
336,248,122053,1,8,0:0:0:0:
336,248,122148,1,10,0:0:0:0:
336,248,122244,1,8,0:0:0:0:
336,248,122339,1,8,0:0:0:0:
233,295,122530,2,0,P|176:287|115:316,1,120,12|0,0:0|2:0,0:0:0:0:
84,323,122912,6,0,L|56:238,1,80,2|0,0:0|2:0,0:0:0:0:
200,104,123295,2,0,L|163:218,1,120,10|0,0:0|2:0,0:0:0:0:
154,251,123677,1,0,1:0:0:0:
59,130,123868,1,2,1:2:0:0:
200,104,124059,2,0,B|236:87|236:87|272:104,1,80,8|0,0:0|2:0,0:0:0:0:
336,208,124441,5,4,1:2:0:0:
404,107,124632,1,8,0:0:0:0:
404,107,124728,1,8,0:0:0:0:
404,106,124823,2,0,B|440:89|440:89|476:106,1,80,8|8,0:0|0:0,0:0:0:0:
485,182,125110,1,8,0:0:0:0:
485,182,125205,2,0,L|419:239,1,80,8|8,0:0|3:0,0:0:0:0:
337,312,125588,1,8,3:0:0:0:
446,343,125779,1,8,0:0:0:0:
336,208,125970,6,0,B|288:220|288:220|272:240|272:240|228:252,1,120,4|0,1:2|2:0,0:0:0:0:
188,260,126352,1,8,0:0:0:0:
156,144,126543,1,2,0:0:0:0:
156,144,126639,1,2,0:0:0:0:
156,144,126734,2,0,P|140:107|155:71,1,80,2|0,1:2|2:0,0:0:0:0:
256,4,127116,1,10,0:0:0:0:
357,71,127307,1,0,0:0:0:0:
256,136,127498,2,0,B|284:216|228:216|256:292,1,160,2|8,1:2|0:0,0:0:0:0:
188,176,128072,1,0,0:0:0:0:
328,256,128263,1,2,1:2:0:0:
188,336,128454,5,2,0:0:0:0:
188,336,128549,1,2,0:0:0:0:
188,336,128645,2,0,P|151:351|115:336,1,80,8|0,0:0|2:0,0:0:0:0:
84,216,129027,1,2,1:2:0:0:
52,96,129218,1,2,0:0:0:0:
172,64,129409,1,8,0:0:0:0:
204,184,129600,2,0,P|240:228|300:224,1,120,2|0,0:0|2:0,0:0:0:0:
336,208,129983,2,0,L|376:280,1,80,2|8,0:0|0:0,0:0:0:0:
432,376,130365,1,2,0:0:0:0:
488,232,130556,6,0,L|429:118,1,120,2|0,1:2|2:0,0:0:0:0:
408,88,130938,2,0,P|371:72|335:88,1,80,10|0,0:0|2:0,0:0:0:0:
220,184,131320,2,0,P|256:199|292:184,1,80,2|0,1:2|2:0,0:0:0:0:
177,88,131702,1,10,0:0:0:0:
44,140,131893,1,2,0:0:0:0:
44,140,131989,1,2,0:0:0:0:
44,140,132084,6,0,L|64:224,1,80,2|0,1:2|2:0,0:0:0:0:
201,261,132467,2,0,L|221:177,1,80,8|0,0:0|2:0,0:0:0:0:
300,80,132849,1,2,1:2:0:0:
360,196,133040,1,0,0:0:0:0:
219,183,133231,2,0,B|183:200|183:200|147:183,1,80,8|0,0:0|2:0,0:0:0:0:
140,40,133613,2,0,L|260:72,1,120,2|0,1:2|2:0,0:0:0:0:
300,80,133995,1,8,0:0:0:0:
372,224,134186,5,2,0:0:0:0:
372,224,134282,1,2,0:0:0:0:
372,224,134377,2,0,P|387:260|372:296,1,80,2|2,1:2|0:0,0:0:0:0:
256,360,134760,1,8,0:0:0:0:
304,180,134951,2,0,P|372:144|440:180,1,160,4|2,1:2|0:0,0:0:0:0:
256,260,135524,2,0,P|188:295|120:259,1,160,8|2,0:0|1:2,0:0:0:0:
48,116,136097,5,8,0:0:0:0:
120,259,136288,1,0,0:0:0:0:
208,124,136479,2,0,P|268:104|312:136,1,120,12|0,0:0|2:0,0:0:0:0:
332,168,136862,1,8,3:0:0:0:
332,168,136957,1,8,3:0:0:0:
332,168,137053,1,8,3:0:0:0:
396,280,137244,1,8,0:0:0:0:
280,336,137435,1,0,1:0:0:0:
216,224,137626,5,2,0:0:0:0:
216,224,137721,1,2,0:0:0:0:
216,224,137817,1,10,0:0:0:0:
322,273,138008,1,2,0:0:0:0:
332,168,138199,6,0,L|264:113,2,80,4|0|2,1:2|0:0|1:2,0:0:0:0:
322,273,138772,1,0,0:0:0:0:
216,224,138963,2,0,L|153:274,1,80,8|2,0:0|0:0,0:0:0:0:
322,273,139346,2,0,L|384:323,1,80,0|2,1:2|0:0,0:0:0:0:
428,266,139632,1,2,0:0:0:0:
428,266,139728,6,0,B|445:230|445:230|428:194,2,80,2|8|0,1:2|0:0|1:2,0:0:0:0:
321,194,140301,1,2,0:0:0:0:
427,193,140492,2,0,B|444:157|444:157|427:121,1,80,8|0,0:0|2:0,0:0:0:0:
298,53,140874,2,0,B|281:89|281:89|298:125,1,80,2|8,1:2|0:0,0:0:0:0:
321,194,141161,1,8,0:0:0:0:
321,194,141256,6,0,B|245:222|245:166|165:194,1,160,12|2,0:0|1:2,0:0:0:0:
201,265,141830,1,2,0:0:0:0:
116,134,142021,1,8,0:0:0:0:
51,282,142212,1,2,0:0:0:0:
51,282,142307,1,2,0:0:0:0:
51,282,142403,1,2,1:2:0:0:
165,193,142594,6,0,B|241:221|241:165|321:193,1,160,12|10,0:0|0:0,0:0:0:0:
368,340,143167,1,10,0:0:0:0:
320,192,143358,1,10,0:0:0:0:
445,283,143549,1,10,0:0:0:0:
290,283,143741,1,10,0:0:0:0:
416,192,143932,1,10,0:0:0:0:
368,340,144123,1,10,0:0:0:0:
320,192,144314,6,0,B|244:220|244:164|164:192,1,160,14|8,0:0|0:0,0:0:0:0:
277,120,144887,1,8,0:0:0:0:
277,120,144983,1,8,0:0:0:0:
277,120,145078,2,0,P|313:104|349:120,1,80,10|0,0:0|2:0,0:0:0:0:
416,192,145460,1,8,0:0:0:0:
423,70,145651,6,0,L|312:200,1,160,4|2,1:2|0:0,0:0:0:0:
362,295,146225,1,8,0:0:0:0:
243,278,146416,1,8,0:0:0:0:
243,278,146511,1,8,0:0:0:0:
243,278,146607,2,0,P|209:255|189:207,1,80,10|0,0:0|2:0,0:0:0:0:
193,88,146989,1,8,0:0:0:0:
108,213,147180,6,0,L|282:181,1,160,4|0,1:2|2:0,0:0:0:0:
396,165,147753,1,10,0:0:0:0:
314,72,147944,1,8,0:0:0:0:
314,72,148040,1,8,0:0:0:0:
314,72,148135,2,0,P|350:56|386:72,1,80,10|0,0:0|2:0,0:0:0:0:
396,165,148518,1,8,0:0:0:0:
266,143,148709,6,0,P|234:65|275:-3,1,160,14|10,0:0|0:0,0:0:0:0:
435,99,149282,1,10,0:0:0:0:
370,231,149473,1,10,0:0:0:0:
469,197,149664,1,8,0:0:0:0:
336,133,149855,1,10,0:0:0:0:
494,61,150046,1,10,0:0:0:0:
370,231,150237,1,10,0:0:0:0:
370,231,150333,1,8,0:0:0:0:
370,231,150428,6,0,L|416:300,1,80,12|0,0:0|1:0,0:0:0:0:
272,280,150811,1,0,1:2:0:0:
272,280,151002,2,0,L|226:211,1,80,10|0,0:0|1:0,0:0:0:0:
152,112,151384,1,0,1:2:0:0:
124,288,151575,1,10,0:0:0:0:
49,187,151766,1,0,1:0:0:0:
227,213,151957,6,0,P|263:198|299:213,1,80,10|0,0:0|1:0,0:0:0:0:
376,332,152339,1,0,1:2:0:0:
376,332,152530,2,0,P|340:347|304:332,1,80,8|2,0:0|1:2,0:0:0:0:
299,213,152912,1,12,0:0:0:0:
209,331,153104,1,12,0:0:0:0:
316,192,153295,1,2,0:0:0:0:
316,192,153390,1,2,0:0:0:0:
316,192,153486,6,0,P|360:192|388:164,1,80,12|0,0:0|1:0,0:0:0:0:
324,44,153868,1,0,1:2:0:0:
324,44,154059,2,0,P|280:44|252:72,1,80,10|0,0:0|1:0,0:0:0:0:
316,192,154441,1,0,1:2:0:0:
168,184,154632,1,10,0:0:0:0:
254,66,154823,1,0,1:0:0:0:
316,192,155014,6,0,P|354:186|385:210,1,80,10|0,0:0|1:0,0:0:0:0:
332,344,155397,1,0,1:2:0:0:
332,344,155588,2,0,P|293:349|262:325,1,80,8|2,0:0|1:2,0:0:0:0:
316,192,155970,1,12,0:0:0:0:
262,325,156161,1,12,0:0:0:0:
184,204,156352,1,8,0:0:0:0:
184,204,156448,1,8,0:0:0:0:
184,204,156543,6,0,L|200:124,1,80,12|0,0:0|1:0,0:0:0:0:
36,80,156925,1,0,1:2:0:0:
36,80,157116,2,0,L|52:160,1,80,10|0,0:0|1:0,0:0:0:0:
84,280,157498,1,0,1:2:0:0:
184,204,157690,1,10,0:0:0:0:
184,204,157785,1,8,0:0:0:0:
184,204,157881,1,8,0:0:0:0:
208,328,158072,5,12,0:0:0:0:
84,280,158263,1,0,1:0:0:0:
196,180,158454,2,0,P|232:165|268:180,1,80,10|0,0:0|1:0,0:0:0:0:
368,264,158836,1,8,0:0:0:0:
268,180,159027,1,8,0:0:0:0:
380,112,159218,1,8,0:0:0:0:
284,260,159409,6,0,B|208:288|208:232|128:260,1,160,14|0,0:0|1:2,0:0:0:0:
56,168,159983,2,0,P|40:131|55:95,1,80,10|0,0:0|2:0,0:0:0:0:
128,259,160365,1,10,0:0:0:0:
128,259,160556,2,0,P|143:295|128:331,1,80,2|8,0:0|0:0,0:0:0:0:
56,168,160938,1,2,0:0:0:0:
56,168,161034,1,2,0:0:0:0:
56,168,161129,6,0,L|124:116,1,80,2|0,1:2|2:0,0:0:0:0:
208,48,161511,1,8,0:0:0:0:
256,152,161702,1,2,0:0:0:0:
256,152,161798,1,2,0:0:0:0:
256,152,161893,1,2,1:2:0:0:
304,48,162084,1,2,0:0:0:0:
160,168,162276,1,8,0:0:0:0:
352,168,162467,6,0,B|391:207|391:207|400:250|400:250|442:292,1,160,4|8,1:2|0:0,0:0:0:0:
312,248,163040,1,8,0:0:0:0:
432,132,163231,1,8,0:0:0:0:
268,96,163422,1,8,0:0:0:0:
268,96,163518,1,8,0:0:0:0:
268,96,163613,1,8,0:0:0:0:
312,248,163804,1,8,0:0:0:0:
152,208,163995,1,8,0:0:0:0:
152,208,164091,1,8,0:0:0:0:
152,208,164186,6,0,P|100:224|48:184,1,120,14|0,1:2|2:0,0:0:0:0:
32,152,164569,1,8,0:0:0:0:
144,72,164760,1,10,0:0:0:0:
152,208,164951,1,10,0:0:0:0:
64,80,165142,1,8,3:0:0:0:
212,28,165333,1,8,3:0:0:0:
212,28,165428,1,8,3:0:0:0:
212,28,165524,1,8,3:0:0:0:
328,164,165715,5,14,1:2:0:0:
388,44,165906,1,8,0:0:0:0:
416,212,166097,1,10,1:2:0:0:
280,96,166288,1,8,0:0:0:0:
472,120,166479,1,10,0:0:0:0:
340,240,166670,5,8,0:0:0:0:
340,240,166766,1,8,0:0:0:0:
340,240,166862,2,0,L|308:288,1,40,10|8,1:2|0:0,0:0:0:0:
296,356,167053,2,0,L|262:333,1,40,8|0,0:0|0:0,0:0:0:0:
172,311,167244,6,0,P|157:272|171:231,1,88.000002685547,4|0,1:2|2:0,0:0:0:0:
258,144,167626,1,10,0:0:0:0:
164,71,167817,1,8,0:0:0:0:
164,71,167912,1,8,0:0:0:0:
164,71,168008,2,0,L|254:50,1,88.000002685547,10|0,1:2|2:0,0:0:0:0:
343,163,168390,2,0,L|253:142,1,88.000002685547,10|2,0:0|0:0,0:0:0:0:
329,80,168677,1,2,0:0:0:0:
329,80,168772,6,0,B|393:96|393:96|419:128|419:128|492:146,1,176.000005371094,2|8,1:2|0:0,0:0:0:0:
343,163,169346,1,2,0:0:0:0:
343,163,169441,1,10,0:0:0:0:
343,163,169537,1,10,0:0:0:0:
253,260,169728,1,0,0:0:0:0:
388,323,169919,2,0,P|382:234|358:196,1,132.00000402832,10|0,0:0|2:0,0:0:0:0:
343,163,170301,5,2,1:2:0:0:
253,260,170492,1,2,0:0:0:0:
253,260,170588,1,2,0:0:0:0:
253,260,170683,2,0,B|213:278|213:278|173:260,1,88.000002685547,8|0,0:0|0:0,0:0:0:0:
81,140,171065,2,0,B|121:122|121:122|161:140,1,88.000002685547,10|0,0:0|2:0,0:0:0:0:
42,258,171448,1,8,0:0:0:0:
164,145,171639,1,10,0:0:0:0:
164,145,171734,1,10,0:0:0:0:
164,145,171830,6,0,B|258:120|229:192|335:173,1,176.000005371094,10|8,0:0|0:0,0:0:0:0:
426,121,172403,1,8,0:0:0:0:
426,121,172498,1,8,0:0:0:0:
426,121,172594,2,0,B|444:161|444:161|426:201,1,88.000002685547,10|0,0:0|2:0,0:0:0:0:
331,327,172976,2,0,B|313:287|313:287|331:247,1,88.000002685547,8|2,0:0|0:0,0:0:0:0:
258,236,173263,1,2,0:0:0:0:
258,236,173358,6,0,B|156:254|185:182|91:207,1,176.000005371094,6|10,1:2|0:0,0:0:0:0:
227,163,173932,1,2,0:0:0:0:
227,163,174027,1,2,0:0:0:0:
227,163,174123,2,0,L|261:76,1,88.000002685547,2|0,1:2|2:0,0:0:0:0:
371,242,174505,2,0,L|337:155,1,88.000002685547,10|0,0:0|2:0,0:0:0:0:
469,289,174887,6,0,P|385:277|315:332,1,176.000005371094,2|8,1:2|0:0,0:0:0:0:
153,345,175460,1,2,0:0:0:0:
153,345,175556,1,10,0:0:0:0:
153,345,175651,2,0,P|138:305|153:265,1,88.000002685547,10|0,0:0|2:0,0:0:0:0:
242,186,176034,2,0,L|108:159,1,132.00000402832,12|0,0:0|2:0,0:0:0:0:
78,151,176416,5,2,1:2:0:0:
205,47,176607,1,0,0:0:0:0:
242,186,176798,1,8,0:0:0:0:
111,70,176989,1,2,0:0:0:0:
111,70,177084,1,2,0:0:0:0:
111,70,177180,1,2,1:2:0:0:
287,96,177371,1,0,0:0:0:0:
149,227,177562,1,8,0:0:0:0:
205,47,177753,1,2,0:0:0:0:
205,47,177849,1,2,0:0:0:0:
205,47,177944,6,0,B|289:15|289:79|377:47,1,176.000005371094,2|8,1:2|0:0,0:0:0:0:
462,126,178518,1,10,0:0:0:0:
462,126,178613,1,8,0:0:0:0:
462,126,178709,1,8,0:0:0:0:
472,276,178900,1,10,0:0:0:0:
472,276,178995,1,8,0:0:0:0:
472,276,179091,1,8,0:0:0:0:
331,331,179282,1,10,0:0:0:0:
331,331,179377,1,8,0:0:0:0:
331,331,179473,5,12,0:0:0:0:
420,188,179664,1,2,0:0:0:0:
420,188,179760,1,2,0:0:0:0:
420,188,179855,2,0,L|376:264,1,88.000002685547,10|0,0:0|2:0,0:0:0:0:
252,200,180237,1,10,0:0:0:0:
252,200,180333,1,8,0:0:0:0:
252,200,180428,1,8,0:0:0:0:
420,188,180619,2,0,L|488:67,1,132.00000402832,12|0,0:0|2:0,0:0:0:0:
500,36,181002,6,0,P|459:20|419:35,1,88.000002685547,2|0,1:2|2:0,0:0:0:0:
420,188,181384,2,0,P|460:203|500:188,1,88.000002685547,10|8,0:0|0:0,0:0:0:0:
419,35,181766,1,8,0:0:0:0:
419,35,181862,1,8,0:0:0:0:
419,35,181957,1,8,0:0:0:0:
280,140,182148,2,0,L|216:72,1,88.000002685547,10|0,0:0|2:0,0:0:0:0:
32,80,182530,6,0,L|123:175,1,132.00000402832,4|0,1:2|2:0,0:0:0:0:
152,204,182912,1,10,0:0:0:0:
256,288,183104,1,8,0:0:0:0:
256,288,183199,1,8,0:0:0:0:
256,288,183295,1,8,0:0:0:0:
360,204,183486,1,0,0:0:0:0:
332,64,183677,6,0,P|256:26|180:64,1,176.000005371094,12|2,0:0|1:2,0:0:0:0:
256,176,184250,1,0,0:0:0:0:
332,64,184441,2,0,B|350:104|350:104|332:144,1,88.000002685547,10|8,0:0|0:0,0:0:0:0:
180,144,184823,1,10,0:0:0:0:
180,144,184919,1,8,0:0:0:0:
180,144,185014,2,0,B|162:104|162:104|180:64,1,88.000002685547,8|8,0:0|0:0,0:0:0:0:
296,248,185397,5,8,0:0:0:0:
296,248,185492,1,8,0:0:0:0:
296,248,185588,2,0,B|256:266|256:266|216:248,1,88.000002685547,12|0,0:0|2:0,0:0:0:0:
104,160,185970,1,10,0:0:0:0:
215,247,186161,1,2,0:0:0:0:
124,356,186352,1,8,0:0:0:0:
124,356,186448,1,8,0:0:0:0:
124,356,186543,1,8,0:0:0:0:
13,269,186734,5,10,0:0:0:0:
104,160,186925,1,0,0:0:0:0:
215,247,187116,2,0,P|259:247|291:275,1,88.000002685547,2|2,1:2|0:0,0:0:0:0:
412,364,187498,2,0,P|368:364|336:336,1,88.000002685547,8|2,0:0|0:0,0:0:0:0:
240,360,187881,2,0,L|384:256,1,176.000005371094,2|10,1:2|0:0,0:0:0:0:
380,92,188454,5,8,0:0:0:0:
380,92,188549,1,8,0:0:0:0:
380,92,188645,2,0,P|395:51|380:11,1,88.000002685547,12|0,0:0|2:0,0:0:0:0:
216,152,189027,2,0,P|256:166|296:151,1,88.000002685547,10|0,0:0|2:0,0:0:0:0:
131,11,189409,1,10,0:0:0:0:
131,11,189504,1,8,0:0:0:0:
131,11,189600,2,0,P|116:51|132:92,1,88.000002685547,8|8,0:0|0:0,0:0:0:0:
256,52,189983,1,0,0:0:0:0:
368,184,190174,5,6,1:2:0:0:
256,276,190365,1,8,0:0:0:0:
256,276,190460,1,8,0:0:0:0:
256,276,190556,1,8,0:0:0:0:
144,184,190747,1,8,0:0:0:0:
340,260,190938,5,14,0:0:0:0:
340,260,191034,1,8,0:0:0:0:
340,260,191129,1,8,0:0:0:0:
256,124,191320,1,10,0:0:0:0:
172,260,191511,1,8,0:0:0:0:
172,260,191607,1,8,0:0:0:0:
172,260,191702,6,0,P|157:300|173:341,1,88.000002685547,4|0,1:2|2:0,0:0:0:0:
339,340,192084,2,0,P|354:299|339:259,1,88.000002685547,10|2,0:0|0:0,0:0:0:0:
291,195,192371,1,2,0:0:0:0:
291,195,192467,2,0,P|331:180|375:191,1,88.000002685547,2|0,1:2|2:0,0:0:0:0:
457,284,192849,1,10,0:0:0:0:
486,160,193040,1,2,0:0:0:0:
486,160,193135,1,2,0:0:0:0:
486,160,193231,6,0,L|500:68,1,88.000002685547,2|0,1:2|2:0,0:0:0:0:
378,82,193613,2,0,B|280:63|313:123|197:104,1,176.000005371094,8|10,0:0|0:0,0:0:0:0:
347,154,194186,1,0,0:0:0:0:
238,32,194377,1,10,0:0:0:0:
352,158,194569,1,2,0:0:0:0:
352,158,194664,1,2,0:0:0:0:
352,158,194760,6,0,B|370:198|370:198|352:238,1,88.000002685547,2|0,1:2|2:0,0:0:0:0:
186,353,195142,2,0,B|168:313|168:313|186:273,1,88.000002685547,8|0,0:0|2:0,0:0:0:0:
128,157,195524,2,0,B|168:139|168:139|208:157,1,88.000002685547,10|0,0:0|2:0,0:0:0:0:
384,309,195906,2,0,B|344:327|344:327|304:309,1,88.000002685547,8|8,0:0|0:0,0:0:0:0:
255,256,196193,1,8,0:0:0:0:
255,256,196288,6,0,L|237:162,1,88.000002685547,10|0,0:0|2:0,0:0:0:0:
81,130,196670,2,0,L|167:113,1,88.000002685547,8|0,0:0|0:0,0:0:0:0:
59,237,197053,1,10,0:0:0:0:
81,53,197244,1,2,0:0:0:0:
81,53,197339,1,2,0:0:0:0:
81,53,197435,2,0,L|167:36,1,88.000002685547,10|0,0:0|2:0,0:0:0:0:
348,192,197817,6,0,B|260:224|260:160|176:192,1,176.000005371094,2|10,1:2|0:0,0:0:0:0:
353,276,198390,1,2,0:0:0:0:
353,276,198486,1,2,0:0:0:0:
353,276,198581,2,0,B|393:294|393:294|433:276,1,88.000002685547,2|0,1:2|2:0,0:0:0:0:
433,108,198963,2,0,B|393:90|393:90|353:108,1,88.000002685547,10|0,0:0|2:0,0:0:0:0:
176,192,199346,6,0,B|260:160|260:224|348:192,1,176.000005371094,2|8,1:2|0:0,0:0:0:0:
207,269,199919,1,8,0:0:0:0:
207,269,200014,1,8,0:0:0:0:
207,269,200110,2,0,L|144:343,1,88.000002685547,10|0,0:0|2:0,0:0:0:0:
78,193,200492,2,0,P|69:149|116:76,1,132.00000402832,12|0,0:0|2:0,0:0:0:0:
143,61,200874,5,2,1:2:0:0:
228,146,201065,1,0,0:0:0:0:
78,193,201256,1,8,0:0:0:0:
226,58,201448,1,2,0:0:0:0:
202,244,201639,2,0,B|264:233|264:233|296:205|296:205|367:188,1,176.000005371094,2|8,1:2|0:0,0:0:0:0:
479,158,202212,1,2,0:0:0:0:
479,158,202307,1,0,0:0:0:0:
479,158,202403,5,2,1:2:0:0:
408,281,202594,1,0,0:0:0:0:
346,107,202785,1,8,0:0:0:0:
491,230,202976,1,10,0:0:0:0:
352,113,203167,1,8,0:0:0:0:
352,113,203263,1,8,0:0:0:0:
352,113,203358,1,10,0:0:0:0:
328,293,203549,1,8,0:0:0:0:
479,158,203741,1,10,0:0:0:0:
479,158,203836,1,8,0:0:0:0:
479,158,203932,6,0,L|440:64,1,88.000002685547,12|0,0:0|2:0,0:0:0:0:
304,16,204314,1,10,0:0:0:0:
200,128,204505,1,8,0:0:0:0:
200,128,204600,1,8,0:0:0:0:
200,128,204696,2,0,L|239:222,1,88.000002685547,2|0,1:2|2:0,0:0:0:0:
128,364,205078,6,0,L|66:218,1,132.00000402832,12|0,0:0|2:0,0:0:0:0:
60,204,205460,1,2,1:2:0:0:
72,64,205651,1,0,0:0:0:0:
200,128,205842,1,10,0:0:0:0:
192,272,206034,1,8,0:0:0:0:
192,272,206129,1,8,0:0:0:0:
192,272,206225,2,0,B|174:312|174:312|192:352,1,88.000002685547,8|0,0:0|2:0,0:0:0:0:
256,200,206607,1,10,0:0:0:0:
320,352,206798,5,8,0:0:0:0:
320,352,206893,1,8,0:0:0:0:
320,352,206989,2,0,B|338:312|338:312|320:272,1,88.000002685547,4|0,1:2|2:0,0:0:0:0:
188,164,207371,1,10,0:0:0:0:
324,164,207562,1,8,0:0:0:0:
324,164,207658,1,8,0:0:0:0:
324,164,207753,1,8,0:0:0:0:
256,40,207944,1,0,0:0:0:0:
172,184,208135,6,0,P|134:260|172:336,1,176.000005371094,12|2,0:0|1:2,0:0:0:0:
292,260,208709,1,0,0:0:0:0:
172,184,208900,2,0,P|128:184|96:152,1,88.000002685547,10|0,0:0|2:0,0:0:0:0:
160,16,209282,1,10,0:0:0:0:
160,16,209377,1,10,0:0:0:0:
160,16,209473,1,10,0:0:0:0:
172,184,209664,1,10,0:0:0:0:
336,72,209855,6,0,B|420:40|420:104|508:72,1,176.000005371094,12|2,0:0|1:2,0:0:0:0:
343,184,210428,2,0,B|259:216|259:152|171:184,1,176.000005371094,8|8,0:0|0:0,0:0:0:0:
171,183,210906,1,8,0:0:0:0:
171,183,211002,1,10,0:0:0:0:
300,112,211193,1,8,0:0:0:0:
216,260,211384,1,0,0:0:0:0:
384,272,211575,6,0,B|392:220|392:220|408:200|408:200|416:144,1,132.00000402832,2|0,1:2|2:0,0:0:0:0:
420,104,211957,1,8,0:0:0:0:
296,24,212148,1,8,0:0:0:0:
296,24,212244,1,8,0:0:0:0:
296,24,212339,2,0,P|255:8|215:23,1,88.000002685547,8|2,0:0|0:0,0:0:0:0:
92,104,212721,1,8,0:0:0:0:
215,23,212912,1,0,0:0:0:0:
64,124,213104,6,0,P|36:184|64:240,1,132.00000402832,6|0,1:2|2:0,0:0:0:0:
88,272,213486,1,8,0:0:0:0:
204,200,213677,1,2,0:0:0:0:
204,336,213868,1,8,0:0:0:0:
204,336,213963,1,8,0:0:0:0:
204,336,214059,1,8,0:0:0:0:
320,264,214250,5,8,0:0:0:0:
356,284,214346,1,8,0:0:0:0:
392,304,214441,1,8,0:0:0:0:
428,324,214537,1,8,0:0:0:0:
464,344,214632,2,0,P|496:312|496:268,1,88.000002685547,14|8,0:0|0:0,0:0:0:0:
396,148,215014,1,10,0:0:0:0:
296,24,215205,5,8,0:0:0:0:
296,24,215301,1,8,0:0:0:0:
296,24,215397,2,0,P|264:56|264:100,1,88.000002685547,10|0,0:0|2:0,0:0:0:0:
328,244,215779,1,10,0:0:0:0:
188,320,215970,1,8,0:0:0:0:
188,320,216065,1,8,0:0:0:0:
188,320,216161,5,4,1:2:0:0:
258,163,216352,1,8,0:0:0:0:
304,326,216543,1,8,0:0:0:0:
171,178,216734,1,10,0:0:0:0:
95,333,216925,1,10,0:0:0:0:
254,245,217116,1,8,0:0:0:0:
97,159,217307,1,10,0:0:0:0:
188,320,217498,1,8,0:0:0:0:
255,136,217690,5,8,0:0:0:0:
313,313,217881,1,10,0:0:0:0:
139,246,218072,1,10,0:0:0:0:
333,140,218263,1,8,0:0:0:0:
174,117,218454,1,10,0:0:0:0:
313,313,218645,1,8,0:0:0:0:
139,246,218836,1,10,0:0:0:0:
333,140,219027,1,10,0:0:0:0:
333,140,219123,1,10,0:0:0:0:
333,140,219218,5,10,0:0:0:0:
313,313,219409,1,8,0:0:0:0:
404,110,219600,1,8,0:0:0:0:
256,169,219791,1,8,0:0:0:0:
449,251,219983,1,8,0:0:0:0:
256,169,220174,1,8,0:0:0:0:
404,110,220365,1,8,0:0:0:0:
313,313,220556,1,10,0:0:0:0:
313,313,220651,1,10,0:0:0:0:
313,313,220747,6,0,B|277:330|277:330|241:313,1,80,10|8,0:0|0:0,0:0:0:0:
183,168,221129,1,8,0:0:0:0:
90,311,221320,1,8,0:0:0:0:
256,220,221511,1,10,0:0:0:0:
103,125,221702,1,8,0:0:0:0:
103,125,221798,1,8,0:0:0:0:
103,125,221893,1,8,0:0:0:0:
103,125,221989,1,8,0:0:0:0:
103,125,222084,1,8,0:0:0:0:
254,66,222276,6,0,B|334:38|334:94|410:66,1,160,12|10,0:0|0:0,0:0:0:0:
295,136,222849,1,8,0:0:0:0:
295,136,222944,1,8,0:0:0:0:
295,136,223040,2,0,P|280:172|295:208,1,80,8|2,0:0|0:0,0:0:0:0:
382,330,223422,2,0,P|398:294|383:258,1,80,8|0,0:0|2:0,0:0:0:0:
257,343,223804,6,0,B|177:315|177:371|101:343,1,160,2|10,1:2|0:0,0:0:0:0:
139,267,224377,1,8,0:0:0:0:
139,267,224473,1,8,0:0:0:0:
139,267,224569,2,0,L|128:185,1,80,10|0,0:0|2:0,0:0:0:0:
50,90,224951,2,0,P|97:101|167:78,1,120,10|0,0:0|2:0,0:0:0:0:
185,58,225333,6,0,B|266:38|254:97|345:76,1,160,6|8,1:2|0:0,0:0:0:0:
438,44,225906,1,8,0:0:0:0:
438,44,226002,1,8,0:0:0:0:
438,44,226097,1,8,0:0:0:0:
338,159,226288,1,2,0:0:0:0:
307,10,226479,1,8,0:0:0:0:
429,133,226670,1,0,0:0:0:0:
256,191,226862,6,0,P|220:259|256:327,1,160,2|10,1:2|0:0,0:0:0:0:
349,253,227435,1,8,0:0:0:0:
349,253,227530,1,8,0:0:0:0:
349,253,227626,1,10,0:0:0:0:
256,191,227817,1,0,0:0:0:0:
255,326,228008,2,0,P|198:345|132:317,1,120,10|0,0:0|2:0,0:0:0:0:
111,296,228390,6,0,B|84:254|84:254|89:209|89:209|62:146,1,160,4|8,1:2|0:0,0:0:0:0:
32,52,228963,1,8,0:0:0:0:
32,52,229059,1,8,0:0:0:0:
32,52,229155,2,0,B|68:35|68:35|104:52,1,80,10|0,0:0|2:0,0:0:0:0:
187,171,229537,1,10,0:0:0:0:
184,44,229728,6,0,L|54:159,1,160,12|2,1:2|0:0,0:0:0:0:
187,171,230301,1,8,0:0:0:0:
256,59,230492,1,8,0:0:0:0:
256,59,230588,1,8,0:0:0:0:
256,59,230683,1,10,0:0:0:0:
328,171,230874,1,8,0:0:0:0:
328,171,230970,1,8,0:0:0:0:
328,171,231065,1,8,0:0:0:0:
386,59,231256,1,8,0:0:0:0:
386,59,231352,1,8,0:0:0:0:
386,59,231448,5,12,0:0:0:0:
240,148,231639,1,8,0:0:0:0:
240,148,231830,2,0,B|196:148|196:148|164:168|164:168|120:168,1,120,10|0,0:0|2:0,0:0:0:0:
84,168,232212,1,2,1:2:0:0:
136,280,232403,1,0,0:0:0:0:
240,148,232594,5,10,0:0:0:0:
312,304,232785,1,8,0:0:0:0:
312,304,232976,2,0,P|348:319|384:304,1,80,2|0,0:0|1:2,0:0:0:0:
456,196,233358,2,0,P|420:181|384:196,1,80,8|0,0:0|2:0,0:0:0:0:
312,304,233741,1,2,1:2:0:0:
256,172,233932,1,2,0:0:0:0:
256,172,234027,1,2,0:0:0:0:
256,172,234123,1,10,0:0:0:0:
200,304,234314,1,0,0:0:0:0:
344,220,234505,5,10,0:0:0:0:
168,220,234696,1,8,0:0:0:0:
168,220,234887,2,0,P|112:220|68:164,1,120,10|0,0:0|2:0,0:0:0:0:
60,136,235269,1,2,1:2:0:0:
28,28,235460,1,0,0:0:0:0:
192,56,235651,5,10,0:0:0:0:
168,220,235842,1,8,0:0:0:0:
168,220,236034,2,0,B|151:256|151:256|168:292,1,80,0|0,0:0|1:2,0:0:0:0:
304,248,236416,2,0,B|325:192|325:192|304:136,1,120,10|0,0:0|2:0,0:0:0:0:
280,100,236798,1,10,0:0:0:0:
124,52,236989,1,10,0:0:0:0:
224,4,237180,1,10,0:0:0:0:
180,148,237371,5,2,0:0:0:0:
180,148,237467,1,2,0:0:0:0:
180,148,237562,2,0,P|165:184|180:220,1,80,6|0,1:2|2:0,0:0:0:0:
324,328,237944,2,0,P|339:292|324:256,1,80,8|2,0:0|0:0,0:0:0:0:
180,148,238327,2,0,L|288:88,1,120,2|0,1:2|2:0,0:0:0:0:
320,68,238709,1,8,0:0:0:0:
416,168,238900,5,2,0:0:0:0:
416,168,238995,1,0,0:0:0:0:
416,168,239091,2,0,P|431:204|416:240,1,80,2|0,1:2|2:0,0:0:0:0:
324,328,239473,1,8,0:0:0:0:
232,240,239664,1,2,0:0:0:0:
232,240,239760,1,0,0:0:0:0:
232,240,239855,2,0,P|216:203|232:167,1,80,2|2,1:2|0:0,0:0:0:0:
324,80,240237,1,10,0:0:0:0:
200,44,240428,5,10,0:0:0:0:
200,44,240524,1,10,0:0:0:0:
200,44,240619,2,0,L|116:16,1,80,14|0,0:0|2:0,0:0:0:0:
28,104,241002,1,8,0:0:0:0:
72,224,241193,1,2,0:0:0:0:
72,224,241288,1,0,0:0:0:0:
72,224,241384,2,0,B|108:240|108:240|132:274|132:274|168:291,1,120,2|0,1:2|2:0,0:0:0:0:
208,304,241766,1,8,0:0:0:0:
288,172,241957,6,0,P|368:148|416:196,1,160,6|2,1:2|1:2,0:0:0:0:
328,276,242530,1,8,0:0:0:0:
424,164,242721,2,0,P|367:113|295:139,1,160,6|2,1:2|1:2,0:0:0:0:
328,276,243295,1,8,0:0:0:0:
295,139,243486,6,0,B|259:122|259:122|235:89|235:89|199:72,1,120,14|0,0:0|2:0,0:0:0:0:
160,56,243868,1,10,0:0:0:0:
160,56,243963,1,8,0:0:0:0:
160,56,244059,1,10,0:0:0:0:
68,144,244250,1,10,0:0:0:0:
136,252,244441,2,0,P|104:300|120:360,2,120,14|10|10,0:0|0:0|0:0,0:0:0:0:
136,252,246161,5,2,0:0:0:0:
236,280,246353,1,2,0:0:0:0:
266,181,246543,1,2,0:0:0:0:
166,153,246734,6,0,B|86:125|86:181|10:153,1,160,10|10,1:2|0:0,0:0:0:0:
40,68,247307,1,0,0:0:0:0:
10,153,247498,2,0,B|90:125|90:181|166:153,1,160,10|8,0:0|0:0,0:0:0:0:
264,91,248072,1,0,0:0:0:0:
393,257,248263,5,10,0:0:0:0:
349,121,248454,1,8,0:0:0:0:
464,205,248645,1,8,0:0:0:0:
321,205,248836,1,8,0:0:0:0:
437,121,249027,1,10,0:0:0:0:
393,257,249218,1,8,0:0:0:0:
349,121,249409,1,10,0:0:0:0:
321,205,249600,1,8,0:0:0:0:
321,205,249696,1,8,0:0:0:0:
321,205,249791,5,10,0:0:0:0:
256,124,249983,1,8,0:0:0:0:
108,172,250174,1,8,0:0:0:0:
199,47,250365,1,8,0:0:0:0:
199,202,250556,1,10,0:0:0:0:
108,76,250747,1,8,0:0:0:0:
199,202,250938,1,8,0:0:0:0:
199,47,251129,1,8,0:0:0:0:
256,124,251320,5,10,0:0:0:0:
417,72,251511,1,8,0:0:0:0:
318,208,251702,1,8,0:0:0:0:
318,39,251893,1,8,0:0:0:0:
417,176,252084,1,10,0:0:0:0:
318,39,252276,1,8,0:0:0:0:
318,208,252467,1,8,0:0:0:0:
417,72,252658,1,8,0:0:0:0:
417,72,252753,1,8,0:0:0:0:
417,72,252849,5,10,0:0:0:0:
318,208,253040,1,8,0:0:0:0:
318,39,253231,1,10,0:0:0:0:
256,124,253422,1,8,0:0:0:0:
83,68,253613,1,10,0:0:0:0:
190,214,253804,1,8,0:0:0:0:
190,33,253995,1,10,0:0:0:0:
83,180,254186,1,8,0:0:0:0:
190,33,254377,5,10,0:0:0:0:
190,214,254569,1,8,0:0:0:0:
190,214,254664,1,8,0:0:0:0:
190,214,254760,1,8,0:0:0:0:
190,214,254855,1,8,0:0:0:0:
190,214,254951,1,8,0:0:0:0:
190,214,255046,1,8,0:0:0:0:
190,214,255142,6,0,B|253:198|239:248|332:219,1,120,10|0,0:0|2:0,0:0:0:0:
336,215,255524,2,0,P|353:270|329:331,1,120,12|0,0:0|2:0,0:0:0:0:
308,344,255906,6,0,P|271:328|235:343,1,80,2|8,1:2|0:0,0:0:0:0:
92,248,256288,2,0,P|128:263|164:248,1,80,0|2,0:0|1:2,0:0:0:0:
332,141,256670,2,0,B|256:169|256:113|176:141,1,160,12|2,0:0|1:2,0:0:0:0:
294,76,257244,1,8,0:0:0:0:
294,76,257339,1,8,0:0:0:0:
294,76,257435,6,0,B|374:48|374:104|450:76,1,160,2|0,1:2|1:2,0:0:0:0:
405,11,258008,1,10,0:0:0:0:
468,157,258199,2,0,B|485:193|485:193|468:229,1,80,2|10,0:0|0:0,0:0:0:0:
361,319,258581,2,0,B|344:283|344:283|361:247,1,80,8|10,0:0|0:0,0:0:0:0:
468,157,258963,6,0,P|416:157|376:120,1,107.999996704102,6|0,1:2|2:0,0:0:0:0:
352,84,259346,1,2,1:2:0:0:
256,140,259537,1,2,0:0:0:0:
256,140,259632,1,2,0:0:0:0:
256,140,259728,1,2,1:2:0:0:
160,84,259919,1,0,0:0:0:0:
48,192,260110,6,0,P|28:240|48:292,1,107.999996704102,12|0,0:0|2:0,0:0:0:0:
76,320,260492,2,0,P|125:338|174:318,1,107.999996704102,2|0,1:2|2:0,0:0:0:0:
202,290,260874,1,2,1:2:0:0:
292,224,261065,1,2,0:0:0:0:
292,224,261161,1,2,0:0:0:0:
292,224,261256,2,0,L|340:280,1,71.9999978027344,2|8,1:2|0:0,0:0:0:0:
248,344,261639,2,0,L|201:289,1,71.9999978027344,8|0,0:0|0:0,0:0:0:0:
292,224,262021,6,0,B|334:188|334:188|369:185|369:185|412:149,1,143.999995605469,6|2,1:2|1:2,0:0:0:0:
392,40,262594,1,2,0:0:0:0:
392,40,262690,1,2,0:0:0:0:
392,40,262785,2,0,L|334:90,1,71.9999978027344,2|0,1:2|0:0,0:0:0:0:
208,112,263167,6,0,B|160:108|136:136|136:136|68:136,1,143.999995605469,12|2,0:0|1:2,0:0:0:0:
70,248,263741,2,0,B|136:248|136:248|160:276|208:272,1,143.999995605469,8|10,0:0|0:0,0:0:0:0:
308,340,264314,1,2,1:2:0:0:
380,244,264505,1,8,0:0:0:0:
280,176,264696,1,8,0:0:0:0:
208,272,264887,5,10,0:0:0:0:
208,272,264983,1,10,0:0:0:0:
208,272,265078,2,0,P|171:287|135:272,1,80,12|2,0:0|0:0,0:0:0:0:
52,164,265460,1,10,0:0:0:0:
135,272,265651,1,8,0:0:0:0:
192,148,265842,1,10,0:0:0:0:
60,244,266034,1,8,0:0:0:0:
108,96,266225,1,10,0:0:0:0:
200,228,266416,1,8,0:0:0:0:
292,88,266607,5,10,0:0:0:0:
400,216,266798,1,8,0:0:0:0:
496,80,266989,1,10,0:0:0:0:
288,200,267180,1,8,0:0:0:0:
396,72,267371,1,10,0:0:0:0:
492,208,267562,1,8,0:0:0:0:
332,132,267753,1,8,0:0:0:0:
368,304,267944,5,10,0:0:0:0:
368,304,268040,1,10,0:0:0:0:
368,304,268135,2,0,L|300:352,1,80,14|8,0:0|0:0,0:0:0:0:
180,212,268518,1,10,0:0:0:0:
302,350,268709,1,8,0:0:0:0:
124,304,268900,1,10,0:0:0:0:
272,192,269091,1,8,0:0:0:0:
208,368,269282,1,10,0:0:0:0:
96,216,269473,1,10,0:0:0:0:
152,36,269664,5,10,0:0:0:0:
152,36,269760,1,10,0:0:0:0:
152,36,269855,1,10,0:0:0:0:
272,192,270046,1,8,0:0:0:0:
376,24,270237,1,10,0:0:0:0:
376,24,270333,1,10,0:0:0:0:
376,24,270428,6,0,L|420:56,1,40,10|8,0:0|0:0,0:0:0:0:
448,72,270619,1,8,0:0:0:0:
471,104,270714,1,8,0:0:0:0:
480,143,270810,1,10,0:0:0:0:
474,182,270905,1,8,0:0:0:0:
454,216,271001,1,8,0:0:0:0:
422,240,271096,1,8,0:0:0:0:
384,251,271193,6,0,L|289:228,1,88.000002685547,12|0,0:0|2:0,0:0:0:0:
148,338,271575,2,0,L|243:315,1,88.000002685547,10|8,0:0|0:0,0:0:0:0:
268,306,271862,1,8,0:0:0:0:
268,306,271957,1,10,0:0:0:0:
305,150,272148,1,0,0:0:0:0:
370,324,272339,1,10,0:0:0:0:
208,191,272530,1,2,0:0:0:0:
208,191,272626,1,2,0:0:0:0:
208,191,272721,6,0,B|209:126|209:126|178:93|178:93|176:17,1,176.000005371094,2|8,1:2|0:0,0:0:0:0:
120,170,273295,1,8,0:0:0:0:
120,170,273390,1,8,0:0:0:0:
120,170,273486,2,0,L|85:198,1,44.0000013427735,10|8,0:0|0:0,0:0:0:0:
50,223,273677,1,8,0:0:0:0:
212,339,273868,1,10,0:0:0:0:
66,331,274059,1,2,0:0:0:0:
66,331,274155,1,2,0:0:0:0:
66,331,274250,6,0,L|224:203,1,176.000005371094,2|10,1:2|0:0,0:0:0:0:
296,145,274823,1,8,0:0:0:0:
296,145,274919,1,8,0:0:0:0:
296,145,275014,2,0,P|334:171|355:214,1,88.000002685547,10|0,0:0|2:0,0:0:0:0:
204,154,275397,2,0,P|204:111|234:71,1,88.000002685547,10|2,0:0|0:0,0:0:0:0:
256,44,275683,1,2,0:0:0:0:
256,44,275779,5,2,1:2:0:0:
108,152,275970,1,0,0:0:0:0:
255,258,276161,1,8,0:0:0:0:
115,380,276352,1,8,0:0:0:0:
115,380,276448,1,8,0:0:0:0:
115,380,276543,2,0,L|164:366,1,44.0000013427735,10|8,0:0|0:0,0:0:0:0:
198,358,276734,1,8,0:0:0:0:
196,187,276925,1,10,0:0:0:0:
87,285,277116,1,8,0:0:0:0:
87,285,277212,1,8,0:0:0:0:
87,285,277307,6,0,B|156:266|156:266|191:278|191:278|272:254,1,176.000005371094,12|10,0:0|0:0,0:0:0:0:
400,167,277881,1,8,0:0:0:0:
400,167,277976,1,8,0:0:0:0:
400,167,278072,2,0,L|385:263,1,88.000002685547,10|8,0:0|0:0,0:0:0:0:
320,95,278454,2,0,L|408:83,1,88.000002685547,10|8,0:0|3:0,0:0:0:0:
443,80,278741,1,8,3:0:0:0:
443,80,278836,5,12,0:0:0:0:
311,206,279027,1,8,0:0:0:0:
311,206,279123,1,8,0:0:0:0:
311,206,279218,1,8,0:0:0:0:
311,206,279314,1,8,0:0:0:0:
311,206,279409,1,8,0:0:0:0:
311,206,279505,1,8,0:0:0:0:
311,206,279600,6,0,L|223:218,1,88.000002685547,10|8,0:0|0:0,0:0:0:0:
192,226,279887,1,8,0:0:0:0:
192,226,279983,1,12,0:0:0:0:
256,108,280174,1,2,0:0:0:0:
205,317,280365,6,0,L|293:305,1,88.000002685547,2|0,1:2|2:0,0:0:0:0:
109,272,280747,2,0,L|124:368,1,88.000002685547,8|10,0:0|0:0,0:0:0:0:
205,317,281034,1,8,0:0:0:0:
205,317,281129,2,0,L|293:305,1,88.000002685547,8|0,0:0|2:0,0:0:0:0:
155,189,281511,2,0,L|67:201,1,88.000002685547,8|10,0:0|0:0,0:0:0:0:
36,206,281798,1,8,0:0:0:0:
36,206,281893,6,0,B|66:151|66:151|54:98|54:98|87:36,1,176.000005371094,8|8,0:0|0:0,0:0:0:0:
211,0,282467,1,10,0:0:0:0:
195,179,282658,1,8,0:0:0:0:
195,179,282753,1,8,0:0:0:0:
195,179,282849,1,10,0:0:0:0:
321,119,283040,2,0,L|222:89,1,88.000002685547,8|8,0:0|0:0,0:0:0:0:
206,87,283327,1,8,0:0:0:0:
206,87,283422,5,12,0:0:0:0:
108,0,283613,1,0,0:0:0:0:
12,88,283804,2,0,P|-3:128|12:168,1,88.000002685547,8|10,0:0|0:0,0:0:0:0:
36,204,284091,1,8,0:0:0:0:
36,204,284186,1,8,0:0:0:0:
136,288,284377,1,2,0:0:0:0:
236,372,284569,6,0,B|275:332|275:332|329:312|329:312|374:267,1,176.000005371094,10|0,0:0|1:2,0:0:0:0:
416,120,285142,1,0,0:0:0:0:
273,184,285333,2,0,B|233:223|233:223|179:243|179:243|134:288,1,176.000005371094,10|8,0:0|0:0,0:0:0:0:
32,204,285906,1,10,0:0:0:0:
135,287,286097,1,8,0:0:0:0:
168,160,286288,1,2,0:0:0:0:
168,160,286384,1,2,0:0:0:0:
168,160,286479,6,0,P|212:132|208:56,1,132.00000402832,12|0,0:0|2:0,0:0:0:0:
184,24,286862,1,8,0:0:0:0:
380,48,287053,1,10,0:0:0:0:
380,48,287148,1,8,0:0:0:0:
380,48,287244,2,0,L|292:36,1,88.000002685547,8|0,0:0|2:0,0:0:0:0:
328,144,287626,2,0,B|389:154|389:154|445:140|445:140|500:150,1,176.000005371094,10|0,0:0|1:2,0:0:0:0:
500,150,288199,1,0,0:0:0:0:
480,308,288390,5,10,0:0:0:0:
312,288,288581,1,2,0:0:0:0:
312,288,288677,1,2,0:0:0:0:
312,288,288772,1,10,0:0:0:0:
332,130,288963,1,10,0:0:0:0:
216,256,289155,1,10,0:0:0:0:
397,189,289346,6,0,P|409:107|342:42,1,176.000005371094,12|2,0:0|0:0,0:0:0:0:
256,148,289919,1,8,0:0:0:0:
164,44,290110,1,8,0:0:0:0:
164,44,290205,1,8,0:0:0:0:
164,44,290301,2,0,L|108:120,1,88.000002685547,8|2,0:0|0:0,0:0:0:0:
32,220,290683,1,8,0:0:0:0:
200,320,290874,1,2,0:0:0:0:
200,320,290970,1,2,0:0:0:0:
200,320,291065,6,0,P|256:351|312:320,1,132.00000402832,2|0,1:2|2:0,0:0:0:0:
336,288,291448,1,8,0:0:0:0:
316,104,291639,1,10,0:0:0:0:
316,104,291734,1,8,0:0:0:0:
316,104,291830,1,8,0:0:0:0:
432,184,292021,1,2,0:0:0:0:
220,208,292212,1,8,0:0:0:0:
304,16,292403,1,2,0:0:0:0:
304,16,292498,1,2,0:0:0:0:
304,16,292594,6,0,B|257:28|257:28|231:56|231:56|181:69,1,132.00000402832,6|0,1:2|2:0,0:0:0:0:
144,80,292976,1,8,0:0:0:0:
0,120,293167,1,12,0:0:0:0:
108,224,293358,1,8,0:0:0:0:
108,224,293454,1,8,0:0:0:0:
108,224,293549,1,8,0:0:0:0:
144,80,293741,1,8,0:0:0:0:
260,176,293932,5,8,3:0:0:0:
260,176,294027,1,8,3:0:0:0:
260,176,294123,2,0,B|300:158|300:158|340:176,1,88.000002685547,10|8,3:2|0:0,0:0:0:0:
380,192,294409,1,8,0:0:0:0:
380,192,294505,1,10,0:0:0:0:
440,344,294696,1,8,0:0:0:0:
440,344,294791,1,8,0:0:0:0:
440,344,294887,1,10,0:0:0:0:
508,196,295078,5,8,0:0:0:0:
495,153,295173,1,8,0:0:0:0:
471,117,295269,1,10,0:0:0:0:
435,91,295364,1,8,0:0:0:0:
394,78,295460,1,8,0:0:0:0:
350,78,295555,1,8,0:0:0:0:
309,93,295651,6,0,L|215:74,1,88.000002685547,12|0,0:0|2:0,0:0:0:0:
95,84,296034,1,8,0:0:0:0:
136,208,296225,1,8,0:0:0:0:
136,208,296320,1,8,0:0:0:0:
136,208,296416,2,0,L|230:227,1,88.000002685547,10|0,0:0|2:0,0:0:0:0:
364,248,296798,1,8,0:0:0:0:
253,343,296989,1,2,0:0:0:0:
253,343,297084,1,2,0:0:0:0:
253,343,297180,6,0,B|157:369|172:308|79:336,1,176.000005371094,2|8,1:2|0:0,0:0:0:0:
19,225,297753,1,8,0:0:0:0:
19,225,297849,1,8,0:0:0:0:
19,225,297944,2,0,L|10:269,1,44.0000013427735,10|8,0:0|0:0,0:0:0:0:
5,310,298135,1,8,0:0:0:0:
169,189,298327,2,0,P|128:168|84:176,1,88.000002685547,8|0,0:0|0:0,0:0:0:0:
114,269,298709,6,0,L|151:85,1,176.000005371094,6|8,1:2|0:0,0:0:0:0:
292,38,299282,1,8,0:0:0:0:
292,38,299378,1,8,0:0:0:0:
292,38,299473,2,0,L|248:33,1,44.0000013427735,10|8,0:0|0:0,0:0:0:0:
205,29,299664,1,8,0:0:0:0:
324,128,299855,2,0,P|361:149|405:141,1,88.000002685547,8|8,0:0|0:0,0:0:0:0:
382,47,300237,6,0,L|345:231,1,176.000005371094,6|10,1:2|0:0,0:0:0:0:
318,343,300811,1,8,0:0:0:0:
318,343,300907,1,8,0:0:0:0:
318,343,301002,2,0,L|362:355,1,44.0000013427735,10|8,0:0|0:0,0:0:0:0:
403,362,301193,1,8,0:0:0:0:
205,294,301384,2,0,B|166:274|166:274|126:291,1,88.000002685547,10|8,0:0|3:0,0:0:0:0:
60,331,301670,1,8,3:0:0:0:
60,331,301766,6,0,B|43:295|43:295|60:259,1,80,4|8,1:2|0:0,0:0:0:0:
114,209,302053,1,8,0:0:0:0:
114,209,302148,1,8,0:0:0:0:
324,160,302339,1,10,0:0:0:0:
294,133,302434,1,8,0:0:0:0:
256,124,302530,1,8,0:0:0:0:
217,133,302625,1,8,0:0:0:0:
188,160,302721,2,0,P|167:131|161:111,1,40,10|8,0:0|0:0,0:0:0:0:
242,225,302912,2,0,P|212:246|192:252,1,40,8|8,0:0|0:0,0:0:0:0:
256,124,303104,1,12,0:0:0:0:
305,319,303868,5,8,3:0:0:0:
305,319,303963,1,8,3:0:0:0:
305,319,304059,2,0,B|344:275|344:275|387:271|387:271|439:219,1,160,4|0,3:2|2:0,0:0:0:0:
364,193,304632,1,0,1:0:0:0:
364,193,304728,1,0,1:0:0:0:
364,193,304823,6,0,L|360:112,1,80,10|8,0:0|3:0,0:0:0:0:
428,229,305205,1,10,0:0:0:0:
278,171,305397,2,0,P|230:159|158:200,1,120,8|0,3:0|2:0,0:0:0:0:
124,255,305779,2,0,P|172:267|244:226,1,120,2|0,1:2|2:0,0:0:0:0:
184,77,306161,6,0,P|156:129|167:187,1,120,12|0,0:0|2:0,0:0:0:0:
132,264,306543,1,0,1:0:0:0:
132,264,306639,1,0,1:0:0:0:
132,264,306734,2,0,P|109:308|106:224,1,256,14|0,0:0|2:0,0:0:0:0:
