osu file format v14

[General]
AudioFilename: audio.mp3
AudioLeadIn: 0
PreviewTime: 134972
Countdown: 0
SampleSet: None
StackLeniency: 0.4
Mode: 0
LetterboxInBreaks: 0
WidescreenStoryboard: 0

[Editor]
DistanceSpacing: 2.3
BeatDivisor: 4
GridSize: 8
TimelineZoom: 1

[Metadata]
Title:Way Back Home
TitleUnicode:Way Back Home
Artist:SHAUN
ArtistUnicode:숀
Creator:Rieri
Version:comfort
Source:
Tags:
BeatmapID:2109686
BeatmapSetID:1007995

[Difficulty]
HPDrainRate:5.2
CircleSize:4.7
OverallDifficulty:8.2
ApproachRate:8.3
SliderMultiplier:1.6
SliderTickRate:1

[Events]
//Background and Video events
0,0,"bg60.jpg",0,0
//Break Periods
2,154522,172218
//Storyboard Layer 0 (Background)
//Storyboard Layer 1 (Fail)
//Storyboard Layer 2 (Pass)
//Storyboard Layer 3 (Foreground)
//Storyboard Sound Samples

[TimingPoints]
722,600,4,2,1,40,1,0
722,-125,4,2,1,40,0,0
19922,-100,4,2,1,50,0,0
39722,-111.111111111111,4,2,1,40,0,0
55922,-142.857142857143,4,2,1,40,0,0
56522,-153.846153846154,4,2,1,40,0,0
57122,-166.666666666667,4,2,1,40,0,0
57722,-125,4,2,1,40,0,0
58322,-100,4,2,1,50,0,0
96722,-80,4,2,1,60,0,0
115172,-100,4,2,1,50,0,0
135122,-80,4,2,1,60,0,0
154322,-100,4,2,1,40,0,0
173522,-76.9230769230769,4,2,1,70,0,0
192722,-111.111111111111,4,2,1,45,0,0

[Colours]
Combo1 : 201,153,255
Combo2 : 255,176,176
Combo3 : 255,230,162
Combo4 : 179,255,153
Combo5 : 153,235,255

[HitObjects]
87,328,722,5,0,0:0:0:0:
242,342,1022,1,0,0:0:0:0:
96,333,1172,2,0,P|137:317|178:321,1,64
167,322,1622,1,0,0:0:0:0:
246,349,1922,2,0,P|284:357|335:344,1,64
393,327,2522,1,0,0:0:0:0:
393,327,2822,1,0,0:0:0:0:
465,231,3122,5,0,0:0:0:0:
311,197,3422,1,0,0:0:0:0:
460,239,3572,2,0,P|422:244|373:239,1,64
384,240,4022,1,0,0:0:0:0:
308,186,4322,1,0,0:0:0:0:
308,186,4922,1,0,0:0:0:0:
311,197,5222,1,0,0:0:0:0:
216,289,5522,5,0,0:0:0:0:
240,134,5822,1,0,0:0:0:0:
206,284,5972,2,0,P|201:245|207:211,1,64
209,210,6422,1,0,0:0:0:0:
248,129,6722,2,0,P|258:86|254:52,1,64
184,11,7322,1,0,0:0:0:0:
184,11,7622,1,0,0:0:0:0:
57,89,7922,5,0,0:0:0:0:
223,118,8222,1,0,0:0:0:0:
65,96,8372,2,0,P|96:114|139:120,1,64
136,121,8822,1,0,0:0:0:0:
228,111,9122,1,0,0:0:0:0:
310,216,9722,1,0,0:0:0:0:
308,233,10022,1,0,0:0:0:0:
228,111,10322,6,0,P|207:71|204:29,1,64
289,151,10772,2,0,P|283:189|266:229,1,64
257,235,11222,1,0,0:0:0:0:
132,197,11522,2,0,P|167:191|201:190,2,64
127,207,12422,1,0,0:0:0:0:
26,321,12722,6,0,L|111:332,1,64
161,380,13172,2,0,L|236:373,1,64
251,371,13622,1,0,0:0:0:0:
329,275,13922,1,0,0:0:0:0:
329,275,14522,1,0,0:0:0:0:
331,290,14822,1,0,0:0:0:0:
431,206,15122,6,0,P|438:246|427:288,1,64
384,154,15572,2,0,P|399:117|427:90,1,64
430,91,16022,1,0,0:0:0:0:
512,211,16322,2,0,L|421:204,1,64
352,241,16922,1,0,0:0:0:0:
279,257,17222,1,0,0:0:0:0:
279,257,19322,6,0,L|286:328,1,64
144,303,19922,6,0,P|197:301|239:337,1,80
300,253,20372,2,0,L|294:353,1,80
228,219,20822,1,0,0:0:0:0:
367,149,21122,2,0,P|321:118|241:136,1,120
184,148,21722,1,0,0:0:0:0:
240,43,22022,1,0,0:0:0:0:
48,76,22322,6,0,P|87:94|95:153,1,80
34,234,22772,2,0,P|69:209|124:231,1,80
168,249,23222,1,0,0:0:0:0:
131,379,23522,2,0,P|155:346|241:345,1,120
285,381,24122,1,0,0:0:0:0:
303,287,24422,1,0,0:0:0:0:
419,185,24722,6,0,L|428:91,1,80
322,127,25172,2,0,L|312:39,1,80
389,12,25622,1,0,0:0:0:0:
329,136,25922,2,0,P|275:124|215:170,1,120
218,225,26522,1,0,0:0:0:0:
161,85,26822,1,0,0:0:0:0:
48,170,27122,6,0,L|146:159,1,80
146,248,27572,2,0,L|48:259,1,80
30,336,28022,1,0,0:0:0:0:
230,353,28322,2,0,L|100:342,1,120
30,336,28922,1,0,0:0:0:0:
10,209,29222,1,0,0:0:0:0:
122,77,29522,6,0,P|173:106|219:99,1,80
284,181,29972,2,0,P|330:158|354:126,1,80
348,38,30422,1,0,0:0:0:0:
457,107,30722,2,0,L|447:201,1,80
419,349,31322,2,0,L|412:269,1,80
258,248,31922,6,0,P|297:236|346:251,1,80
339,358,32372,2,0,P|300:370|251:355,1,80
196,310,32822,1,0,0:0:0:0:
42,317,33122,2,0,P|87:312|140:381,1,120
196,310,33722,1,0,0:0:0:0:
137,224,34022,1,0,0:0:0:0:
289,130,34322,6,0,L|392:135,1,80
231,74,34772,2,0,L|142:79,1,80
289,28,35222,1,0,0:0:0:0:
217,148,35522,2,0,P|209:208|232:273,1,120
292,291,36122,1,0,0:0:0:0:
183,351,36422,1,0,0:0:0:0:
296,382,36722,6,0,L|404:375,1,80
450,309,37172,2,0,L|349:298,1,80
292,291,37622,1,0,0:0:0:0:
353,116,37922,2,0,P|385:161|320:226,2,160
339,114,39722,1,0,0:0:0:0:
253,182,39872,6,0,L|184:177,2,35.9999989013672
353,228,40322,2,0,P|311:235|275:261,1,71.9999978027344
223,310,40772,1,0,0:0:0:0:
223,310,40922,2,0,P|265:317|284:327,2,35.9999989013672
100,382,41522,5,0,0:0:0:0:
51,211,41972,1,0,0:0:0:0:
29,279,42122,1,0,0:0:0:0:
111,378,42422,6,0,L|164:374,1,35.9999989013672
244,295,42722,2,0,P|239:340|236:379,1,71.9999978027344
160,231,43172,1,0,0:0:0:0:
160,231,43322,2,0,P|164:254|168:293,1,35.9999989013672
249,190,43622,1,0,0:0:0:0:
146,100,43922,5,0,0:0:0:0:
4,215,44372,1,0,0:0:0:0:
66,170,44522,1,0,0:0:0:0:
78,28,44672,6,0,P|103:28|127:24,2,35.9999989013672
25,81,45122,2,0,P|64:98|119:92,1,71.9999978027344
205,54,45572,1,0,0:0:0:0:
205,54,45722,2,0,L|201:112,1,35.9999989013672
195,167,46022,1,0,0:0:0:0:
321,103,46322,5,0,0:0:0:0:
412,258,46772,1,0,0:0:0:0:
482,230,46922,1,0,0:0:0:0:
328,108,47222,6,0,L|326:166,1,35.9999989013672
246,198,47522,2,0,P|297:212|318:246,1,71.9999978027344
394,239,47972,1,0,0:0:0:0:
394,239,48122,2,0,P|376:258|368:276,1,35.9999989013672
441,307,48422,2,0,P|449:324|465:341,1,35.9999989013672
509,258,48722,5,0,0:0:0:0:
342,365,49172,1,0,0:0:0:0:
312,299,49322,1,0,0:0:0:0:
393,212,49472,6,0,L|441:215,2,35.9999989013672
291,148,49922,2,0,P|326:140|375:153,1,71.9999978027344
447,95,50372,1,0,0:0:0:0:
447,95,50522,2,0,L|451:151,1,35.9999989013672
376,20,50822,2,0,L|372:72,1,35.9999989013672
254,114,51122,5,0,0:0:0:0:
65,38,51572,1,0,0:0:0:0:
119,85,51722,1,0,0:0:0:0:
32,216,52022,5,0,0:0:0:0:
191,279,52322,2,0,P|143:263|106:273,1,71.9999978027344
47,357,52772,1,0,0:0:0:0:
47,357,52922,2,0,L|40:303,1,35.9999989013672
136,379,53222,2,0,L|144:327,1,35.9999989013672
277,338,53522,6,0,L|269:233,1,71.9999978027344
256,131,53972,1,0,0:0:0:0:
307,185,54122,2,0,P|332:178|359:180,1,35.9999989013672
449,205,54422,2,0,P|424:204|401:192,1,35.9999989013672
399,55,54722,2,0,L|394:143,1,71.9999978027344
287,12,55322,2,0,L|296:99,1,71.9999978027344
131,28,55922,6,0,P|93:43|59:46,1,55.9999982910157
64,53,56522,2,0,P|64:98|58:119,1,51.999997619629
160,143,57122,2,0,P|192:150|212:152,1,47.9999985351563
224,148,57572,1,0,0:0:0:0:
158,233,57722,2,0,L|107:227,1,32
226,269,58022,2,0,L|264:266,1,32
106,328,58322,6,0,P|150:317|194:353,1,80
231,383,58772,1,0,0:0:0:0:
332,339,58922,2,0,L|264:333,1,40
226,269,59222,2,0,L|273:266,1,40
379,220,59522,6,0,L|484:231,1,80
469,139,59972,1,0,0:0:0:0:
469,139,60122,2,0,L|364:128,1,80
193,136,60722,6,0,P|235:137|278:181,1,80
288,228,61172,1,0,0:0:0:0:
181,280,61322,2,0,L|229:278,1,40
114,233,61622,2,0,L|59:232,1,40
174,127,61922,6,0,P|168:173|208:219,1,80
285,106,62372,1,0,0:0:0:0:
271,179,62522,2,0,P|307:207|367:195,1,80
479,161,63122,6,0,L|487:67,1,80
494,8,63572,1,0,0:0:0:0:
390,21,63722,2,0,P|408:30|440:60,1,40
369,88,64022,2,0,P|376:105|378:131,1,40
229,118,64322,6,0,L|336:123,1,80
227,215,64772,1,0,0:0:0:0:
227,215,64922,2,0,L|120:210,1,80
80,172,65372,1,0,0:0:0:0:
101,33,65522,5,0,0:0:0:0:
156,89,65672,2,0,P|152:118|131:156,1,40
74,181,65972,2,0,P|78:210|99:248,1,40
149,278,66272,1,0,0:0:0:0:
49,331,66422,2,0,P|74:332|101:327,1,40
213,227,66722,6,0,P|258:223|301:261,1,80
372,169,67172,1,0,0:0:0:0:
422,223,67322,2,0,P|422:271|380:313,1,80
222,365,67922,6,0,L|329:359,1,80
372,357,68372,1,0,0:0:0:0:
512,323,68522,2,0,L|509:376,1,40
452,272,68822,2,0,L|437:321,1,40
427,201,69122,6,0,P|396:223|341:219,1,80
324,121,69572,1,0,0:0:0:0:
324,121,69722,2,0,P|355:99|410:103,1,80
494,132,70322,5,0,0:0:0:0:
468,27,70472,2,0,P|483:49|491:73,1,40
414,204,70772,2,0,P|423:184|426:156,1,40
394,99,71072,1,0,0:0:0:0:
303,23,71222,2,0,P|320:37|352:46,1,40
196,95,71522,6,0,P|243:83|286:113,1,80
141,179,71972,1,0,0:0:0:0:
95,121,72122,2,0,P|108:74|155:52,1,80
5,14,72722,6,0,L|13:112,1,80
14,115,73172,1,0,0:0:0:0:
104,188,73322,2,0,L|97:273,1,80
173,111,73922,6,0,P|232:129|265:119,1,80
269,120,74372,1,0,0:0:0:0:
375,46,74522,2,0,P|430:41|477:68,1,80
469,235,75122,6,0,P|497:206|466:170,1,80
459,163,75572,1,0,0:0:0:0:
378,263,75722,2,0,L|387:366,1,80
287,208,76322,5,0,0:0:0:0:
268,303,76622,1,0,0:0:0:0:
284,218,76922,1,0,0:0:0:0:
270,292,77222,1,0,0:0:0:0:
279,256,77522,5,0,0:0:0:0:
132,317,77822,1,0,0:0:0:0:
177,222,77972,2,0,L|183:272,1,40
125,308,78272,1,0,0:0:0:0:
105,194,78422,2,0,L|98:252,1,40
23,125,78722,6,0,L|32:237,1,80
38,281,79172,1,0,0:0:0:0:
144,197,79322,2,0,L|80:191,1,40
185,261,79622,2,0,L|141:273,1,40
85,349,79922,5,0,0:0:0:0:
255,318,80222,1,0,0:0:0:0:
95,341,80372,2,0,L|136:347,1,40
197,383,80672,1,0,0:0:0:0:
260,308,80822,2,0,L|315:302,1,40
379,207,81122,6,0,L|370:304,1,80
424,361,81572,1,0,0:0:0:0:
496,294,81722,2,0,L|502:354,1,40
462,195,82022,2,0,L|452:256,1,40
497,102,82322,6,0,P|440:129|402:118,1,80
342,8,82772,1,0,0:0:0:0:
372,72,82922,2,0,P|362:94|337:125,1,40
249,88,83222,2,0,P|222:92|192:90,1,40
109,6,83522,6,0,P|140:49|136:103,1,80
123,148,83972,1,0,0:0:0:0:
10,59,84122,2,0,P|17:97|43:127,1,80
210,151,84722,6,0,L|131:158,1,80
78,217,85172,1,0,0:0:0:0:
132,328,85322,2,0,P|151:283|135:233,1,80
14,142,85922,6,0,L|110:150,1,80
164,155,86372,1,0,0:0:0:0:
206,58,86522,1,0,0:0:0:0:
335,30,86822,1,0,0:0:0:0:
500,114,87122,6,0,L|494:29,1,80
437,171,87572,1,0,0:0:0:0:
362,99,87722,2,0,L|433:106,1,40
507,233,88022,2,0,L|436:240,1,40
288,187,88322,6,0,P|344:167|385:178,1,80
343,247,88772,1,0,0:0:0:0:
400,344,88922,2,0,L|403:304,1,40
343,247,89222,1,0,0:0:0:0:
177,268,89522,6,0,P|236:272|274:306,1,80
200,342,89972,1,0,0:0:0:0:
106,246,90122,2,0,L|102:297,1,40
161,198,90422,1,0,0:0:0:0:
0,122,90722,6,0,B|86:128,1,80
171,17,91322,2,0,P|164:42|168:68,1,40
222,103,91622,2,0,P|229:128|225:154,1,40
158,225,91922,6,0,P|201:213|248:255,1,80
274,290,92372,1,0,0:0:0:0:
315,144,92522,2,0,L|309:232,1,80
449,365,93122,6,0,L|440:255,1,80
470,154,93572,1,0,0:0:0:0:
424,210,93722,1,0,0:0:0:0:
290,256,94022,1,0,0:0:0:0:
290,256,96122,6,0,L|299:172,1,80
426,45,96722,6,0,P|379:27|305:57,1,100
230,158,97172,2,0,L|239:52,1,100
131,66,97622,2,0,L|122:6,1,50
158,174,97922,6,0,P|106:151|46:174,1,100
194,256,98372,1,0,0:0:0:0:
19,272,98522,2,0,L|78:260,1,50
117,364,98822,2,0,L|177:378,1,50
355,295,99122,6,0,L|232:304,1,100
123,214,99572,2,0,L|222:221,1,100
274,103,100022,2,0,L|279:164,1,50
435,181,100322,6,0,P|467:236|454:294,1,100
354,175,100772,1,0,0:0:0:0:
398,109,100922,2,0,P|433:100|464:104,1,50
281,202,101222,2,0,P|276:172|287:125,1,50
427,294,101522,6,0,L|292:289,1,100
206,249,101972,2,0,P|227:311|205:363,1,100
129,222,102422,2,0,L|123:161,1,50
221,39,102722,6,0,P|200:101|231:153,1,100
377,138,103172,1,0,0:0:0:0:
334,206,103322,2,0,L|271:200,1,50
452,129,103622,2,0,L|515:123,1,50
291,22,103922,6,0,L|169:13,1,100
30,66,104372,2,0,P|88:71|133:108,1,100
149,184,104822,1,0,0:0:0:0:
337,70,105122,6,0,L|326:204,1,100
369,239,105572,1,0,0:0:0:0:
461,201,105722,1,0,0:0:0:0:
276,276,106022,1,0,0:0:0:0:
483,361,106322,6,0,P|423:324|359:372,1,150
276,276,106922,1,0,0:0:0:0:
276,276,107072,1,0,0:0:0:0:
393,222,107222,2,0,L|319:225,1,50
174,183,107522,6,0,L|296:194,2,100
35,241,108422,1,0,0:0:0:0:
69,81,108722,6,0,P|97:136|79:184,1,100
29,235,109172,2,0,P|1:290|19:338,1,100
130,286,109622,2,0,L|62:293,1,50
150,377,109922,6,0,L|272:382,1,100
382,342,110372,1,0,0:0:0:0:
311,318,110522,2,0,P|309:348|319:386,1,50
453,317,110822,2,0,P|455:347|445:385,1,50
384,243,111122,6,0,P|439:241|491:192,1,100
504,122,111572,1,0,0:0:0:0:
504,122,111722,1,0,0:0:0:0:
384,13,112022,2,0,L|389:78,1,50
295,131,112322,6,0,P|355:134|398:170,1,100
322,216,112772,1,0,0:0:0:0:
230,94,112922,2,0,L|219:155,1,50
136,106,113222,2,0,L|104:152,1,50
22,13,113522,6,0,P|28:69|26:128,1,100
74,218,113972,2,0,P|68:273|74:345,1,100
149,170,114422,1,0,0:0:0:0:
320,243,114722,1,0,0:0:0:0:
122,363,115172,5,0,0:0:0:0:
230,343,115322,2,0,L|179:337,1,40
124,278,115622,2,0,L|182:273,1,40
317,209,115922,6,0,P|263:226|211:203,1,80
183,129,116372,1,0,0:0:0:0:
250,98,116522,2,0,L|310:103,2,40
85,37,117122,2,0,P|98:76|93:140,1,80
33,244,117722,2,0,P|19:202|24:138,1,80
188,262,118322,5,0,0:0:0:0:
43,357,118622,1,0,0:0:0:0:
137,362,118772,2,0,P|90:344|37:356,1,80
18,241,119222,2,0,L|23:292,1,40
105,176,119522,2,0,L|96:287,1,80
217,294,119972,1,0,0:0:0:0:
283,260,120122,2,0,L|278:187,1,40
231,154,120422,2,0,L|236:96,1,40
394,21,120722,6,0,P|409:64|384:122,1,80
327,63,121172,1,0,0:0:0:0:
327,63,121322,2,0,P|310:89|288:106,1,40
258,29,121622,1,0,0:0:0:0:
121,120,121922,2,0,L|127:233,1,80
184,251,122372,1,0,0:0:0:0:
184,251,122522,1,0,0:0:0:0:
246,213,122672,2,0,L|308:222,2,40
125,199,123122,5,0,0:0:0:0:
81,291,123272,2,0,P|77:263|66:230,1,40
196,174,123572,2,0,P|201:146|218:114,1,40
98,100,123872,1,0,0:0:0:0:
154,14,124022,2,0,P|159:35|162:83,1,40
18,166,124322,2,0,P|68:170|105:203,1,80
171,267,124772,1,0,0:0:0:0:
171,267,124922,2,0,P|196:278|221:281,1,40
284,344,125222,2,0,P|311:337|343:316,1,40
444,262,125522,6,0,L|438:356,1,80
357,217,125972,2,0,L|364:281,1,40
440,137,126272,1,0,0:0:0:0:
440,137,126422,2,0,L|435:192,1,40
412,47,126722,2,0,P|466:56|508:27,1,80
354,116,127322,2,0,P|316:104|278:115,1,80
214,245,127922,5,0,0:0:0:0:
320,269,128072,2,0,P|286:276|257:288,1,40
178,328,128372,2,0,P|205:335|228:345,1,40
282,376,128672,1,0,0:0:0:0:
389,326,128822,2,0,P|362:333|337:345,1,40
480,362,129122,2,0,L|484:257,1,80
389,197,129572,1,0,0:0:0:0:
389,197,129722,2,0,L|384:98,1,80
486,23,130322,6,0,P|435:31|392:24,1,80
384,20,130772,1,0,0:0:0:0:
294,67,130922,2,0,L|302:154,1,80
73,198,131522,6,0,P|124:206|167:199,1,80
175,195,131972,1,0,0:0:0:0:
265,242,132122,2,0,L|257:329,1,80
246,150,132722,5,0,0:0:0:0:
249,159,133172,1,0,0:0:0:0:
252,167,133622,1,0,0:0:0:0:
255,176,133922,5,0,0:0:0:0:
330,155,134222,1,0,0:0:0:0:
341,79,134372,1,0,0:0:0:0:
341,79,134447,1,0,0:0:0:0:
341,79,134522,5,0,0:0:0:0:
330,155,134672,1,0,0:0:0:0:
348,0,134822,1,0,0:0:0:0:
497,169,135122,6,0,P|454:143|401:146,1,100
330,247,135572,1,0,0:0:0:0:
437,291,135722,2,0,L|358:300,1,50
298,379,136022,2,0,L|237:374,1,50
161,312,136322,6,0,L|283:304,1,100
316,192,136772,1,0,0:0:0:0:
246,142,136922,2,0,P|232:198|257:259,1,100
424,112,137522,6,0,L|316:109,1,100
226,18,137972,1,0,0:0:0:0:
357,23,138122,2,0,P|334:31|305:35,1,50
141,72,138422,2,0,P|173:81|210:112,1,50
17,187,138722,6,0,P|69:138|158:177,1,150
187,213,139322,1,0,0:0:0:0:
257,106,139622,1,0,0:0:0:0:
320,286,139922,6,0,P|261:275|208:306,1,100
49,341,140372,2,0,P|113:369|160:359,1,100
113,217,140822,2,0,L|117:291,1,50
200,188,141122,6,0,L|191:318,1,100
299,143,141572,1,0,0:0:0:0:
340,211,141722,2,0,P|367:215|412:211,1,50
397,86,142022,2,0,P|370:82|325:86,1,50
217,111,142322,6,0,L|226:-5,1,100
299,143,142772,1,0,0:0:0:0:
227,196,142922,2,0,L|168:191,1,50
86,182,143222,1,0,0:0:0:0:
218,309,143522,6,0,L|342:295,1,100
438,251,143972,1,0,0:0:0:0:
393,166,144122,2,0,P|379:194|377:237,1,50
488,103,144422,2,0,P|499:124|505:149,1,50
395,23,144722,6,0,P|339:58|265:37,1,100
144,28,145172,1,0,0:0:0:0:
216,113,145322,2,0,L|225:41,1,50
72,112,145622,2,0,L|63:40,1,50
143,182,145922,6,0,L|134:297,2,100
290,119,146822,1,0,0:0:0:0:
313,297,147122,6,0,L|448:307,1,100
500,214,147572,2,0,L|396:222,1,100
336,161,148022,1,0,0:0:0:0:
496,49,148322,6,0,P|445:78|388:65,1,100
281,20,148772,1,0,0:0:0:0:
242,84,148922,2,0,P|179:68|125:102,1,100
31,49,149522,6,0,L|40:170,1,100
138,193,149972,1,0,0:0:0:0:
234,140,150122,2,0,L|151:138,1,50
60,262,150422,2,0,L|125:257,1,50
18,341,150722,6,0,L|181:327,1,150
248,269,151322,1,0,0:0:0:0:
145,215,151622,1,0,0:0:0:0:
303,332,151922,6,0,P|328:280|317:225,1,100
215,174,152372,1,0,0:0:0:0:
317,105,152522,2,0,L|447:113,2,100
133,37,153572,1,0,0:0:0:0:
180,94,153722,5,0,0:0:0:0:
179,111,154022,1,0,0:0:0:0:
239,15,154322,5,0,0:0:0:0:
239,15,172922,6,0,L|249:123,1,80
452,147,173522,6,0,P|396:119|326:138,1,103.999995239258
479,235,173972,1,0,0:0:0:0:
373,308,174122,2,0,L|452:302,1,51.999997619629
388,219,174422,2,0,L|309:225,1,51.999997619629
194,278,174722,6,0,P|260:277|300:325,1,103.999995239258
325,380,175172,1,0,0:0:0:0:
382,256,175322,2,0,L|369:324,1,51.999997619629
296,165,175622,2,0,L|302:232,1,51.999997619629
345,70,175922,6,0,P|287:93|220:69,1,103.999995239258
112,16,176372,1,0,0:0:0:0:
165,98,176522,2,0,L|157:164,1,51.999997619629
25,146,176822,2,0,L|31:207,1,51.999997619629
158,258,177122,6,0,P|105:243|43:278,1,103.999995239258
12,377,177572,1,0,0:0:0:0:
117,369,177722,2,0,L|110:305,1,51.999997619629
224,358,178022,2,0,L|217:294,1,51.999997619629
331,180,178322,6,0,P|297:234|332:301,1,103.999995239258
482,232,178772,2,0,L|354:240,1,103.999995239258
507,149,179222,1,0,0:0:0:0:
346,32,179522,6,0,L|493:41,1,103.999995239258
270,104,180122,1,0,0:0:0:0:
408,172,180422,1,0,0:0:0:0:
232,227,180722,6,0,L|245:349,1,103.999995239258
86,195,181172,2,0,L|78:322,1,103.999995239258
160,136,181622,2,0,L|167:207,1,51.999997619629
23,75,181922,6,0,P|83:86|137:52,1,103.999995239258
257,0,182522,1,0,0:0:0:0:
257,0,182822,1,0,0:0:0:0:
457,46,183122,6,0,P|404:27|339:63,1,103.999995239258
311,106,183572,2,0,L|318:171,1,51.999997619629
459,196,184022,1,0,0:0:0:0:
433,296,184322,6,0,L|354:285,1,51.999997619629
331,352,184622,2,0,L|269:359,1,51.999997619629
154,286,184922,2,0,L|303:273,1,103.999995239258
380,151,185522,5,0,0:0:0:0:
191,145,185822,1,0,0:0:0:0:
241,88,185972,2,0,P|267:132|253:196,1,103.999995239258
144,227,186422,2,0,L|218:225,1,51.999997619629
85,173,186722,6,0,P|64:229|105:298,1,103.999995239258
179,362,187172,1,0,0:0:0:0:
312,295,187322,2,0,L|196:289,1,103.999995239258
356,201,187922,6,0,L|491:189,1,103.999995239258
296,136,188372,2,0,P|271:189|287:261,1,103.999995239258
382,115,188822,2,0,P|369:88|348:66,1,51.999997619629
181,41,189122,6,0,P|237:20|297:32,1,103.999995239258
150,127,189572,1,0,0:0:0:0:
87,57,189722,2,0,L|93:-4,1,51.999997619629
25,127,190022,2,0,L|33:188,1,51.999997619629
185,240,190322,5,0,0:0:0:0:
23,311,190622,1,0,0:0:0:0:
172,238,190772,2,0,L|164:325,1,51.999997619629
242,339,191072,1,0,0:0:0:0:
262,205,191222,2,0,L|272:273,1,51.999997619629
377,358,191522,6,0,P|439:374|491:350,1,103.999995239258
428,295,191972,1,0,0:0:0:0:
475,231,192122,2,0,P|425:218|376:234,1,103.999995239258
273,305,192722,5,0,0:0:0:0:
278,317,193172,1,0,0:0:0:0:
279,332,193622,1,0,0:0:0:0:
203,367,193922,2,0,L|75:359,1,107.999996704102
78,358,194522,1,0,0:0:0:0:
39,274,194822,1,0,0:0:0:0:
155,199,195122,5,0,0:0:0:0:
151,214,195572,1,0,0:0:0:0:
153,229,196022,1,0,0:0:0:0:
243,263,196322,2,0,L|354:254,1,107.999996704102
377,243,196922,2,0,L|369:324,1,71.9999978027344
458,146,197522,5,0,0:0:0:0:
462,161,197972,1,0,0:0:0:0:
460,176,198422,1,0,0:0:0:0:
382,159,198722,2,0,L|374:50,1,107.999996704102
371,27,199322,1,0,0:0:0:0:
294,80,199622,1,0,0:0:0:0:
196,20,199922,5,0,0:0:0:0:
194,35,200372,1,0,0:0:0:0:
198,50,200822,1,0,0:0:0:0:
275,95,201122,1,0,0:0:0:0:
275,95,201722,1,0,0:0:0:0:
306,21,202022,1,0,0:0:0:0:
195,115,202322,5,0,0:0:0:0:
195,127,202772,1,0,0:0:0:0:
195,139,203222,1,0,0:0:0:0:
252,204,203522,2,0,L|329:194,2,71.9999978027344
227,206,204272,2,0,P|231:224|232:254,1,35.9999989013672
96,235,204722,5,0,0:0:0:0:
98,247,205172,1,0,0:0:0:0:
100,259,205622,1,0,0:0:0:0:
70,337,205922,2,0,L|191:342,1,107.999996704102
205,344,206522,2,0,P|203:365|203:383,2,35.9999989013672
293,246,207122,5,0,0:0:0:0:
302,241,207572,1,0,0:0:0:0:
313,240,208022,1,0,0:0:0:0:
388,267,208322,2,0,P|434:274|481:228,1,107.999996704102
479,210,208922,1,0,0:0:0:0:
417,154,209222,1,0,0:0:0:0:
