osu file format v14

[General]
AudioFilename: audio.mp3
AudioLeadIn: 0
PreviewTime: 83230
Countdown: 0
SampleSet: None
StackLeniency: 0.4
Mode: 0
LetterboxInBreaks: 0
WidescreenStoryboard: 0

[Editor]
DistanceSpacing: 1.2
BeatDivisor: 8
GridSize: 4
TimelineZoom: 3.849998

[Metadata]
Title:Invasion
TitleUnicode:Invasion
Artist:SHARPS
ArtistUnicode:SHARPS
Creator:DeRandom Otaku
Version:Destruction
Source:
Tags:wub
BeatmapID:1977471
BeatmapSetID:946751

[Difficulty]
HPDrainRate:6
CircleSize:3.8
OverallDifficulty:9
ApproachRate:9.8
SliderMultiplier:2
SliderTickRate:1

[Events]
//Background and Video events
0,0,"a.jpg",0,0
//Break Periods
//Storyboard Layer 0 (Background)
//Storyboard Layer 1 (Fail)
//Storyboard Layer 2 (Pass)
//Storyboard Layer 3 (Foreground)
//Storyboard Sound Samples

[TimingPoints]
30,400,4,2,0,100,1,0
30,-666.666666666667,4,2,0,100,0,0
130,-666.666666666667,4,2,0,5,0,0
6430,-666.666666666667,4,2,0,100,0,0
6530,-666.666666666667,4,2,0,5,0,0
12830,-200,4,2,0,100,0,0
13230,-200,4,2,0,60,0,0
25630,-100,4,2,0,70,0,0
32030,-71.4285714285714,4,2,0,70,0,0
34430,-60.6060606060606,4,2,0,70,0,0
36830,-285.714285714286,4,2,0,70,0,0
37230,-285.714285714286,4,2,0,5,0,0
38430,-28.5714285714286,4,2,0,100,0,0
38496,-28.5714285714286,4,2,0,5,0,0
38830,-100,4,2,0,100,0,0
39030,-45.4545454545455,4,2,0,100,0,0
39230,-71.4285714285714,4,2,0,100,0,0
40030,-58.8235294117647,4,2,0,100,0,0
44030,-144.927536231884,4,2,0,100,0,0
44430,-58.8235294117647,4,2,0,100,0,0
44830,-28.5714285714286,4,2,0,100,0,0
44930,-28.5714285714286,4,2,0,20,0,0
45230,-28.5714285714286,4,2,0,100,0,0
45330,-28.5714285714286,4,2,0,20,0,0
45430,-76.9230769230769,4,2,0,100,0,0
49896,-100,4,2,0,100,0,0
50163,-133.333333333333,4,2,0,100,0,0
50430,-200,4,2,0,100,0,0
50830,-200,4,2,0,5,0,0
51230,-28.5714285714286,4,2,0,100,0,0
51296,-28.5714285714286,4,2,0,5,0,0
51630,-100,4,2,0,100,0,0
51830,-45.4545454545455,4,2,0,100,0,0
52030,-100,4,2,0,65,0,0
52430,-125,4,2,0,55,0,0
52830,-90.9090909090909,4,2,0,55,0,0
53230,-74.0740740740741,4,2,0,55,0,0
53630,-66.6666666666667,4,2,0,55,0,0
54030,-60.6060606060606,4,2,0,55,0,0
56830,-142.857142857143,4,2,0,55,0,0
57230,-57.1428571428571,4,2,0,55,0,0
57630,-28.5714285714286,4,2,0,100,0,0
57730,-28.5714285714286,4,2,0,20,0,0
58030,-28.5714285714286,4,2,0,100,0,0
58130,-28.5714285714286,4,2,0,20,0,0
58230,-76.9230769230769,4,2,0,100,0,0
62696,-100,4,2,0,100,0,0
62963,-133.333333333333,4,2,0,100,0,0
63230,-200,4,2,0,100,0,0
63630,-200,4,2,0,5,0,0
64030,-100,4,2,0,70,0,0
70430,-71.4285714285714,4,2,0,70,0,0
73630,-444.444444444444,4,2,0,70,0,0
74030,-444.444444444444,4,2,0,5,0,0
76830,-29.4117647058824,4,2,0,100,0,0
76896,-29.4117647058824,4,2,0,5,0,0
77230,-100,4,2,0,100,0,0
77430,-45.4545454545455,4,2,0,100,0,0
77630,-71.4285714285714,4,2,0,100,0,0
78430,-57.1428571428571,4,2,0,100,0,0
79630,-40,4,2,0,100,0,0
79763,-57.1428571428571,4,2,0,100,0,0
81230,-45.4545454545455,4,2,0,100,0,0
81630,-57.1428571428571,4,2,0,100,0,0
82430,-144.927536231884,4,2,0,100,0,0
82830,-58.8235294117647,4,2,0,100,0,0
83230,-28.5714285714286,4,2,0,100,0,0
83330,-28.5714285714286,4,2,0,5,0,0
83630,-28.5714285714286,4,2,0,100,0,0
83730,-28.5714285714286,4,2,0,5,0,0
83930,-34.4827586206897,4,2,0,100,0,0
84180,-34.4827586206897,4,2,0,5,0,0
84230,-34.4827586206897,4,2,0,100,0,0
84380,-34.4827586206897,4,2,0,5,0,0
84430,-384.615384615385,4,2,0,100,0,0
84730,-384.615384615385,4,2,0,5,0,0
84830,-34.4827586206897,4,2,0,100,0,0
84980,-34.4827586206897,4,2,0,5,0,0
85030,-34.4827586206897,4,2,0,100,0,0
85180,-34.4827586206897,4,2,0,5,0,0
85230,-384.615384615385,4,2,0,100,0,0
85530,-384.615384615385,4,2,0,5,0,0
85630,-33.3333333333333,4,2,0,100,0,0
85780,-33.3333333333333,4,2,0,5,0,0
85830,-33.3333333333333,4,2,0,100,0,0
85980,-33.3333333333333,4,2,0,5,0,0
86030,-100,4,2,0,100,0,0
86430,-32.258064516129,4,2,0,100,0,0
86580,-32.258064516129,4,2,0,5,0,0
86630,-32.258064516129,4,2,0,100,0,0
86780,-32.258064516129,4,2,0,5,0,0
86830,-400,4,2,0,100,0,0
87130,-400,4,2,0,5,0,0
87230,-32.258064516129,4,2,0,100,0,0
87380,-32.258064516129,4,2,0,5,0,0
87430,-32.258064516129,4,2,0,100,0,0
87580,-32.258064516129,4,2,0,5,0,0
87630,-100,4,2,0,100,0,0
88030,-33.3333333333333,4,2,0,100,0,0
88180,-33.3333333333333,4,2,0,5,0,0
88230,-33.3333333333333,4,2,0,100,0,0
88380,-33.3333333333333,4,2,0,5,0,0
88430,-33.3333333333333,4,2,0,100,0,0
88580,-33.3333333333333,4,2,0,5,0,0
88630,-33.3333333333333,4,2,0,100,0,0
88780,-33.3333333333333,4,2,0,5,0,0
88830,-250,4,2,0,100,0,0
89230,-250,4,2,0,5,0,0
89630,-29.4117647058824,4,2,0,100,0,0
89696,-29.4117647058824,4,2,0,5,0,0
90030,-100,4,2,0,100,0,0
90230,-45.4545454545455,4,2,0,100,0,0
90430,-71.4285714285714,4,2,0,100,0,0
91230,-57.1428571428571,4,2,0,100,0,0
92430,-40,4,2,0,100,0,0
92563,-57.1428571428571,4,2,0,100,0,0
94030,-45.4545454545455,4,2,0,100,0,0
94430,-57.1428571428571,4,2,0,100,0,0
95230,-144.927536231884,4,2,0,100,0,0
95630,-58.8235294117647,4,2,0,100,0,0
96030,-28.5714285714286,4,2,0,100,0,0
96130,-28.5714285714286,4,2,0,5,0,0
96430,-28.5714285714286,4,2,0,100,0,0
96530,-28.5714285714286,4,2,0,5,0,0
96730,-34.4827586206897,4,2,0,100,0,0
96980,-34.4827586206897,4,2,0,5,0,0
97030,-34.4827586206897,4,2,0,100,0,0
97180,-34.4827586206897,4,2,0,5,0,0
97230,-200,4,2,0,100,0,0
97530,-384.615384615385,4,2,0,5,0,0
97630,-26.6666666666667,4,2,0,100,0,0
97780,-26.6666666666667,4,2,0,5,0,0
97830,-26.6666666666667,4,2,0,100,0,0
97980,-26.6666666666667,4,2,0,5,0,0
98030,-200,4,2,0,100,0,0
98330,-384.615384615385,4,2,0,5,0,0
98430,-33.3333333333333,4,2,0,100,0,0
98580,-33.3333333333333,4,2,0,5,0,0
98630,-33.3333333333333,4,2,0,100,0,0
98780,-33.3333333333333,4,2,0,5,0,0
98830,-100,4,2,0,100,0,0
99230,-32.258064516129,4,2,0,100,0,0
99380,-32.258064516129,4,2,0,5,0,0
99430,-32.258064516129,4,2,0,100,0,0
99580,-32.258064516129,4,2,0,5,0,0
99630,-200,4,2,0,100,0,0
99930,-400,4,2,0,5,0,0
100030,-32.258064516129,4,2,0,100,0,0
100180,-32.258064516129,4,2,0,5,0,0
100230,-32.258064516129,4,2,0,100,0,0
100380,-32.258064516129,4,2,0,5,0,0
100430,-100,4,2,0,100,0,0
100830,-33.3333333333333,4,2,0,100,0,0
100980,-33.3333333333333,4,2,0,5,0,0
101030,-33.3333333333333,4,2,0,100,0,0
101180,-33.3333333333333,4,2,0,5,0,0
101230,-71.4285714285714,4,2,0,100,0,0
101630,-142.857142857143,4,2,0,100,0,0

[Colours]
Combo1 : 128,128,128
Combo2 : 128,128,255
Combo3 : 0,128,192
Combo4 : 192,192,192

[HitObjects]
38,55,30,6,0,B|331:33|153:262|423:248,1,464.999985809327
111,185,6430,6,0,B|84:236|36:257|36:257|119:284|194:237|194:237|257:326|359:326,1,464.999985809327
465,126,12830,6,0,P|412:129|358:143,1,100
272,228,13430,1,0,0:0:0:0:
272,228,13630,2,0,P|285:259|292:296,1,50
348,186,14030,2,0,P|355:162|366:140,1,50
254,237,14430,2,0,P|265:259|272:284,1,50
368,193,14830,2,0,P|375:169|386:147,1,50
236,246,15230,2,0,P|246:268|253:292,1,50
388,200,15630,2,0,P|394:175|405:153,1,50
32,32,16030,5,0,0:0:0:0:
32,32,16430,2,0,P|39:65|41:86,1,50
122,159,16830,2,0,P|125:134|130:109,3,50
40,236,17630,2,0,P|36:211|31:186,3,50
122,313,18430,2,0,P|125:288|130:263,3,50
283,57,19230,5,0,0:0:0:0:
283,57,19630,2,0,P|267:38|256:16,1,50
348,132,20030,2,0,P|364:113|376:91,3,50
282,206,20830,2,0,P|266:187|255:165,3,50
348,280,21630,2,0,P|364:261|376:239,3,50
480,32,22430,6,0,P|485:89|499:148,1,100
383,64,23030,1,0,0:0:0:0:
383,64,23230,2,0,P|393:95|401:132,1,50
287,27,23630,2,0,P|277:58|269:95,1,50
256,352,24030,5,0,0:0:0:0:
256,192,24130,12,0,25130,0:0:0:0:
194,289,25230,5,0,0:0:0:0:
256,192,25430,1,0,0:0:0:0:
360,363,25630,6,0,P|413:346|470:337,1,100
352,216,26030,2,0,P|303:207|256:191,1,100
445,107,26430,5,0,0:0:0:0:
495,244,26630,1,0,0:0:0:0:
433,114,26830,1,0,0:0:0:0:
483,251,27030,1,0,0:0:0:0:
292,90,27230,6,0,P|235:97|181:107,1,100
29,201,27630,2,0,P|86:208|140:218,1,100
293,308,28030,5,0,0:0:0:0:
75,340,28230,1,0,0:0:0:0:
361,369,28430,1,0,0:0:0:0:
7,279,28630,1,0,0:0:0:0:
313,210,28830,6,0,P|300:258|293:308,1,100
193,135,29230,2,0,P|185:85|172:37,1,100
176,316,29630,5,0,0:0:0:0:
411,279,29830,1,0,0:0:0:0:
174,301,30030,1,0,0:0:0:0:
409,264,30230,1,0,0:0:0:0:
193,135,30430,6,0,P|147:121|85:90,1,100
266,264,30830,2,0,P|219:279|174:301,1,100
316,116,31230,5,0,0:0:0:0:
332,332,31430,1,0,0:0:0:0:
405,85,31630,1,0,0:0:0:0:
243,363,31830,1,0,0:0:0:0:
100,98,32030,6,0,P|56:117|13:148,1,69.9999978637696
179,228,32230,1,0,0:0:0:0:
179,228,32330,1,0,0:0:0:0:
179,228,32430,2,0,P|135:209|92:178,1,69.9999978637696
258,98,32630,1,0,0:0:0:0:
258,98,32730,1,0,0:0:0:0:
258,98,32830,6,0,P|214:117|171:148,1,69.9999978637696
337,228,33030,1,0,0:0:0:0:
337,228,33130,1,0,0:0:0:0:
337,228,33230,2,0,P|293:209|250:178,1,69.9999978637696
426,104,33430,1,0,0:0:0:0:
458,116,33530,1,0,0:0:0:0:
488,134,33630,6,0,P|471:168|456:223,1,69.9999978637696
223,21,33830,1,0,0:0:0:0:
191,33,33930,1,0,0:0:0:0:
161,51,34030,2,0,P|178:85|193:140,1,69.9999978637696
167,344,34230,1,0,0:0:0:0:
146,299,34330,1,0,0:0:0:0:
125,254,34430,6,0,P|86:266|45:289,1,82.5000007867813
343,256,34630,1,0,0:0:0:0:
364,211,34730,1,0,0:0:0:0:
385,166,34830,2,0,P|424:178|465:201,1,82.5000007867813
187,115,35030,1,0,0:0:0:0:
166,70,35130,1,0,0:0:0:0:
145,25,35230,6,0,P|106:37|65:60,1,82.5000007867813
403,83,35430,2,0,P|442:95|483:118,1,82.5000007867813
200,285,35630,2,0,P|161:273|125:254,1,82.5000007867813
430,257,35830,2,0,P|469:245|510:222,1,82.5000007867813
112,157,36030,2,0,P|78:172|30:210,1,82.5000007867813
338,315,36230,2,0,P|375:332|408:356,1,82.5000007867813
200,166,36430,5,0,0:0:0:0:
214,67,36530,1,0,0:0:0:0:
297,180,36630,1,0,0:0:0:0:
313,83,36730,1,0,0:0:0:0:
238,242,36830,6,0,B|292:212|354:227|354:227|362:262|362:262|403:285|470:262,1,262.499991989136
466,263,38430,6,0,P|481:181|503:87,1,175.00000166893
445,27,38830,6,0,L|420:30,1,25,0|0,0:3|0:0,0:0:0:0:
313,58,39030,6,0,P|364:90|364:171,1,146.666671142578
331,263,39230,6,0,P|360:258|397:258,5,46.6666652425131
272,180,39630,5,0,0:0:0:0:
241,173,39696,1,0,0:0:0:0:
211,178,39763,1,0,0:0:0:0:
185,195,39830,1,0,0:0:0:0:
168,221,39896,1,0,0:0:0:0:
162,251,39963,1,0,0:0:0:0:
169,281,40030,6,0,L|95:273,5,56.6666677474976
275,269,40430,2,0,L|332:263,5,56.6666677474976
422,301,40830,5,0,0:0:0:0:
430,274,40896,1,0,0:0:0:0:
430,245,40962,1,0,0:0:0:0:
421,219,41030,1,0,0:0:0:0:
404,196,41096,1,0,0:0:0:0:
381,180,41163,1,0,0:0:0:0:
354,173,41230,5,0,0:0:0:0:
326,165,41297,1,0,0:0:0:0:
303,149,41364,1,0,0:0:0:0:
286,126,41430,1,0,0:0:0:0:
277,100,41496,1,0,0:0:0:0:
277,72,41564,1,0,0:0:0:0:
286,45,41630,6,0,L|204:54,5,56.6666677474976
66,112,42030,2,0,L|148:121,5,56.6666677474976
18,251,42430,5,0,0:0:0:0:
45,245,42496,1,0,0:0:0:0:
73,239,42562,1,0,0:0:0:0:
101,234,42630,1,0,0:0:0:0:
129,228,42696,1,0,0:0:0:0:
156,223,42763,1,0,0:0:0:0:
183,215,42830,2,0,P|200:243|211:282,1,56.6666677474976
286,349,42963,2,0,P|301:320|330:291,1,56.6666677474976
350,192,43096,2,0,P|317:192|277:182,1,56.6666677474976
114,103,43230,5,0,0:0:0:0:
89,115,43296,1,0,0:0:0:0:
68,134,43363,1,0,0:0:0:0:
55,159,43430,1,0,0:0:0:0:
52,187,43496,1,0,0:0:0:0:
58,215,43563,1,0,0:0:0:0:
72,239,43630,5,0,0:0:0:0:
97,250,43696,1,0,0:0:0:0:
118,269,43763,1,0,0:0:0:0:
131,294,43830,1,0,0:0:0:0:
134,322,43896,1,0,0:0:0:0:
128,350,43963,1,0,0:0:0:0:
113,374,44030,6,0,P|155:343|215:360,1,115.000000175476
212,357,44430,6,0,P|219:305|270:275,1,113.333335494995
294,273,44630,5,0,0:0:0:0:
83,38,44830,6,0,B|196:38|121:113|253:104,1,175.00000166893
76,56,45230,2,0,B|189:56|114:131|246:122,1,175.00000166893
227,122,45630,6,0,P|252:75|316:42,1,86.6666626993817
44,47,45896,1,2,0:0:0:0:
144,28,46030,1,0,0:0:0:0:
87,146,46163,2,0,L|73:242,1,86.6666626993817,2|0,0:0|0:0,0:0:0:0:
278,366,46430,6,0,L|265:280,1,86.6666626993817,2|0,0:0|0:0,0:0:0:0:
451,120,46696,1,2,0:0:0:0:
498,209,46830,1,0,0:0:0:0:
333,166,46963,2,0,L|237:177,1,86.6666626993817,2|0,0:0|0:0,0:0:0:0:
43,346,47230,6,0,P|62:304|72:241,1,86.6666626993817,2|0,0:0|0:0,0:0:0:0:
43,72,47496,1,2,0:0:0:0:
151,237,47630,6,0,L|195:242,1,43.3333313496908
106,80,47763,2,0,L|62:75,1,43.3333313496908,2|0,0:0|0:0,0:0:0:0:
27,269,47896,2,0,L|70:264,1,43.3333313496908
271,93,48030,6,0,P|249:156|247:202,1,86.6666626993817,2|0,0:0|0:0,0:0:0:0:
314,360,48296,1,2,0:0:0:0:
193,271,48430,1,0,0:0:0:0:
445,313,48563,2,0,P|456:272|481:213,1,86.6666626993817,2|0,0:0|0:0,0:0:0:0:
488,206,48763,1,0,0:0:0:0:
488,206,48830,6,0,P|477:165|452:106,1,86.6666626993817,2|0,0:0|0:0,0:0:0:0:
370,14,49096,1,0,0:0:0:0:
288,185,49230,6,0,L|242:174,1,43.3333313496908
418,134,49363,2,0,L|464:123,1,43.3333313496908
288,83,49496,2,0,L|242:72,1,43.3333313496908
367,260,49630,6,0,L|358:355,1,86.6666626993817
166,193,49896,6,0,L|174:279,1,66.6666666666667
367,126,50163,6,0,L|361:188,1,50.0000019073487
166,59,50430,6,0,B|75:97|127:145|32:184,1,175
45,178,51230,6,0,B|136:216|84:264|179:303,1,175
250,301,51630,6,0,L|243:346,1,25
207,215,51830,6,0,P|219:150|306:129,1,146.666671142578
370,129,52030,6,0,L|357:175,5,33.3333333333333
457,191,52430,2,0,L|470:237,5,26.6666666666667
467,359,52830,6,0,P|443:354|409:341,5,36.6666677856446
354,289,53230,2,0,P|330:294|296:307,5,45.0000001716614
233,361,53630,2,0,P|209:356|175:343,5,50.0000019073487
112,289,54030,2,0,P|88:294|54:307,5,55.0000005245209
186,267,54430,5,0,0:0:0:0:
183,240,54496,1,0,0:0:0:0:
181,212,54562,1,0,0:0:0:0:
178,185,54630,1,0,0:0:0:0:
176,158,54696,1,0,0:0:0:0:
173,130,54763,1,0,0:0:0:0:
171,103,54830,5,0,0:0:0:0:
198,100,54896,1,0,0:0:0:0:
226,98,54962,1,0,0:0:0:0:
253,95,55030,1,0,0:0:0:0:
280,93,55096,1,0,0:0:0:0:
308,90,55163,1,0,0:0:0:0:
335,88,55230,5,0,0:0:0:0:
337,115,55297,1,0,0:0:0:0:
340,143,55364,1,0,0:0:0:0:
342,170,55430,1,0,0:0:0:0:
345,197,55496,1,0,0:0:0:0:
347,225,55564,1,0,0:0:0:0:
350,252,55630,6,0,P|375:233|425:203,1,55.0000005245209
488,113,55763,2,0,P|463:94|413:64,1,55.0000005245209
262,200,55896,2,0,P|287:181|337:151,1,55.0000005245209
489,312,56030,5,0,0:0:0:0:
476,336,56096,1,0,0:0:0:0:
456,355,56163,1,0,0:0:0:0:
431,365,56230,1,0,0:0:0:0:
404,365,56297,1,0,0:0:0:0:
378,356,56363,1,0,0:0:0:0:
357,338,56430,5,0,0:0:0:0:
336,320,56497,1,0,0:0:0:0:
310,310,56563,1,0,0:0:0:0:
283,310,56630,1,0,0:0:0:0:
258,321,56697,1,0,0:0:0:0:
238,339,56764,1,0,0:0:0:0:
225,364,56830,6,0,P|205:319|141:317,1,116.666663106283
144,315,57230,6,0,P|144:265|87:236,1,116.666663106283
66,241,57430,5,0,0:0:0:0:
293,36,57630,6,0,B|385:87|332:113|424:166,1,175.00000166893
269,60,58030,2,0,B|361:111|308:137|400:190,1,175.00000166893
389,183,58430,6,0,P|381:213|371:276,1,86.6666626993817
269,60,58696,1,0,0:0:0:0:
209,141,58830,1,0,0:0:0:0:
420,87,58963,2,0,P|472:103|523:112,1,86.6666626993817
282,217,59230,6,0,P|239:226|198:239,1,86.6666626993817
486,260,59496,1,0,0:0:0:0:
422,352,59630,1,0,0:0:0:0:
347,161,59763,2,0,P|332:112|302:54,1,86.6666626993817
129,338,60030,6,0,L|256:329,1,86.6666626993817
31,192,60296,1,0,0:0:0:0:
205,112,60430,6,0,L|199:156,1,43.3333313496908
124,257,60563,2,0,L|118:214,1,43.3333313496908
22,115,60696,2,0,L|28:159,1,43.3333313496908
42,344,60830,6,0,L|129:338,1,86.6666626993817
347,264,61096,1,0,0:0:0:0:
297,360,61230,1,0,0:0:0:0:
199,154,61363,2,0,P|208:199|217:259,1,86.6666626993817
442,379,61630,6,0,P|448:336|457:293,1,86.6666626993817
332,70,61896,1,0,0:0:0:0:
443,164,62030,6,0,P|466:160|501:150,1,43.3333313496908
327,50,62163,2,0,P|304:54|269:64,1,43.3333313496908
446,184,62296,2,0,P|469:180|504:170,1,43.3333313496908
243,160,62430,6,0,P|202:145|159:139,1,86.6666626993817
315,255,62696,6,0,P|355:240|398:234,1,66.6666666666667
243,350,62963,6,0,P|211:338|177:333,1,50.0000019073487
28,158,63230,6,0,B|53:200|53:200|36:324,1,175
129,230,64030,6,0,L|112:346,1,100
300,156,64430,2,0,L|317:272,1,100
153,80,64830,5,0,0:0:0:0:
153,80,65030,1,0,0:0:0:0:
379,98,65230,1,0,0:0:0:0:
379,98,65430,1,0,0:0:0:0:
190,183,65630,6,0,P|140:170|73:161,1,100
387,116,66030,2,0,P|437:103|504:94,1,100
240,72,66430,5,0,0:0:0:0:
292,255,66630,1,0,0:0:0:0:
315,25,66830,1,0,0:0:0:0:
217,302,67030,1,0,0:0:0:0:
459,212,67230,6,0,P|448:277|442:341,1,100
277,156,67630,2,0,P|286:205|292:255,1,100
484,95,68030,5,0,0:0:0:0:
484,95,68230,1,0,0:0:0:0:
374,230,68430,1,0,0:0:0:0:
374,230,68630,1,0,0:0:0:0:
220,27,68830,6,0,P|169:44|117:67,1,100
351,132,69230,2,0,P|398:147|444:167,1,100
241,253,69630,5,0,0:0:0:0:
284,74,69830,1,0,0:0:0:0:
305,300,70030,1,0,0:0:0:0:
220,27,70230,1,0,0:0:0:0:
116,285,70430,6,0,L|121:361,1,69.9999978637696
245,183,70630,1,0,0:0:0:0:
245,183,70730,1,0,0:0:0:0:
245,183,70830,2,0,L|240:259,1,69.9999978637696
49,130,71030,1,0,0:0:0:0:
49,130,71130,1,0,0:0:0:0:
49,130,71230,6,0,L|54:206,1,69.9999978637696
304,41,71430,1,0,0:0:0:0:
304,41,71530,1,0,0:0:0:0:
304,41,71630,2,0,L|299:117,1,69.9999978637696
392,342,71830,1,0,0:0:0:0:
413,329,71930,1,0,0:0:0:0:
432,315,72030,6,0,L|343:296,1,69.9999978637696
299,110,72230,1,0,0:0:0:0:
320,123,72330,1,0,0:0:0:0:
339,137,72430,2,0,L|250:156,1,69.9999978637696
208,357,72630,1,0,0:0:0:0:
229,344,72730,1,0,0:0:0:0:
248,330,72830,6,0,L|159:311,1,69.9999978637696
115,95,73030,1,0,0:0:0:0:
136,108,73130,1,0,0:0:0:0:
155,122,73230,2,0,L|66:141,1,69.9999978637696
341,35,73430,1,0,0:0:0:0:
412,80,73530,1,0,0:0:0:0:
480,31,73630,6,0,B|397:246|548:164|485:371,1,348.749989356995
486,365,76830,6,0,B|427:331|368:350|368:350|414:386,1,170.000003242493
285,327,77230,6,0,L|284:352,1,25
346,259,77430,6,0,P|346:178|271:154,1,146.666671142578
207,137,77630,6,0,L|213:205,3,46.6666652425131
133,88,77896,1,0,0:0:0:0:
133,88,77963,1,0,0:0:0:0:
133,88,78030,6,0,L|50:98,1,46.6666652425131
256,27,78163,2,0,L|339:37,1,46.6666652425131
123,119,78296,2,0,L|40:129,1,46.6666652425131
295,151,78430,6,0,P|328:143|367:119,1,58.3333338896433
110,235,78563,2,0,P|77:243|38:267,1,58.3333338896433
280,329,78696,2,0,P|313:337|352:361,1,58.3333338896433
211,183,78830,6,0,L|214:104,1,58.3333338896433
118,320,78963,2,0,L|120:378,1,58.3333338896433
25,183,79096,2,0,L|22:104,1,58.3333338896433
291,250,79230,5,0,0:0:0:0:
320,247,79296,1,0,0:0:0:0:
349,245,79363,1,0,0:0:0:0:
378,243,79430,1,0,0:0:0:0:
407,240,79496,1,0,0:0:0:0:
436,238,79563,1,0,0:0:0:0:
466,235,79630,6,0,B|468:191|468:191|501:142,1,83.3333333333333
319,90,79763,2,0,L|332:171,1,58.3333338896433
281,307,79896,2,0,L|291:250,1,58.3333338896433
158,25,80030,5,0,0:0:0:0:
129,21,80096,1,0,0:0:0:0:
100,27,80163,1,0,0:0:0:0:
76,43,80230,1,0,0:0:0:0:
58,65,80296,1,0,0:0:0:0:
48,93,80363,1,0,0:0:0:0:
42,121,80430,6,0,P|71:126|98:135,1,58.3333338896433
233,197,80563,2,0,P|214:219|193:238,1,58.3333338896433
72,323,80696,2,0,P|61:296|56:268,1,58.3333338896433
188,90,80830,6,0,L|289:101,1,58.3333338896433
371,237,80963,2,0,L|270:248,1,58.3333338896433
180,110,81096,2,0,L|237:116,1,58.3333338896433
493,271,81230,6,0,B|512:306|512:306|502:357,1,73.3333355712891
341,133,81363,2,0,B|354:101|354:101|397:85,1,73.3333355712891
299,333,81496,2,0,B|259:335|259:335|225:305,1,73.3333355712891
430,173,81630,6,0,L|502:162,1,58.3333338896433
301,22,81763,5,0,0:0:0:0:
272,26,81830,1,0,0:0:0:0:
243,30,81896,1,0,0:0:0:0:
214,35,81963,1,0,0:0:0:0:
185,39,82030,6,0,L|240:77,1,58.3333338896433
303,315,82163,1,0,0:0:0:0:
308,279,82230,1,0,0:0:0:0:
313,243,82296,1,0,0:0:0:0:
319,207,82363,1,0,0:0:0:0:
324,170,82430,6,0,P|284:208|216:193,1,115.000000175476
228,202,82830,6,0,P|226:257|172:293,1,113.333335494995
160,299,83030,5,0,0:0:0:0:
55,34,83230,6,0,B|96:20|139:35|139:35|144:32|144:32|143:36|143:36|179:55|240:44,1,175.00000166893
54,60,83630,2,0,B|95:46|138:61|138:61|143:58|143:58|142:62|142:62|178:81|239:70,1,175.00000166893
219,72,84030,6,0,B|214:145|214:145|210:147|210:147|215:211|215:211|217:213|217:213|199:314,1,217.500006637573
104,303,84230,2,0,B|177:308|177:308|179:312|179:312|243:307|243:307|245:305|245:305|346:323,1,217.500006637573
405,317,84430,6,0,L|398:360,1,38.9999997619629
468,179,84830,6,0,B|395:184|395:184|393:180|393:180|335:184|335:184|332:181|332:181|228:189,1,217.500006637573
269,112,85030,2,0,B|346:106|346:106|349:109|349:109|407:105|407:105|409:109|409:109|482:104,1,217.500006637573
471,32,85230,6,0,L|432:34,1,38.9999997619629
226,41,85630,6,0,B|176:70|172:132|211:175|211:175|188:208|198:257,1,225.000008583069
128,308,85830,2,0,B|157:258|219:254|262:293|262:293|295:270|344:280,1,225.000008583069
403,317,86030,6,0,L|415:234,2,66.6666666666667
269,112,86430,6,0,B|213:95|168:128|168:128|150:120|150:120|104:164|41:140,1,232.500001773834
83,57,86630,2,0,B|66:112|99:157|99:157|91:175|91:175|135:221|114:273,1,232.500001773834
2,245,86830,6,0,L|40:241,1,37.5
271,342,87230,6,0,B|274:266|274:266|269:265|269:265|274:263|274:263|276:236|276:236|268:206|268:206|274:118,1,232.500001773834
350,93,87430,2,0,B|344:168|344:168|349:169|349:169|344:171|344:171|342:198|342:198|350:228|350:228|345:329,1,232.500001773834
415,358,87630,6,0,L|419:291,2,66.6666666666667
399,171,88030,6,0,B|262:217|348:266|225:317,1,225.000008583069
234,313,88230,2,0,B|116:271|195:214|60:167,1,225.000008583069
5,115,88430,2,0,P|59:36|129:112,1,225.000008583069
281,103,88630,2,0,B|218:124|218:124|211:122|211:122|149:145|149:145|140:143|140:143|69:170,1,225.000008583069
19,251,88830,6,0,B|20:302|20:302|108:293,1,140
108,293,89630,6,0,P|125:208|190:141,1,170.000003242493
245,91,90030,6,0,L|263:125,1,25
304,188,90230,6,0,P|362:188|396:109,1,146.666671142578
385,34,90430,6,0,L|451:41,3,46.6666652425131
488,134,90696,1,0,0:0:0:0:
488,134,90763,1,0,0:0:0:0:
488,134,90830,6,0,P|481:166|479:192,1,46.6666652425131
426,325,90963,2,0,P|423:301|417:279,1,46.6666652425131
398,115,91096,2,0,P|392:137|389:160,1,46.6666652425131
330,361,91230,6,0,P|304:324|281:304,1,58.3333338896433
224,105,91363,2,0,P|204:146|199:175,1,58.3333338896433
55,324,91496,2,0,P|100:319|128:310,1,58.3333338896433
270,222,91630,6,0,P|315:226|343:235,1,58.3333338896433
112,127,91763,2,0,P|84:121|55:120,1,58.3333338896433
269,32,91896,2,0,P|297:25|326:24,1,58.3333338896433
501,246,92030,5,0,0:0:0:0:
472,243,92096,1,0,0:0:0:0:
443,240,92163,1,0,0:0:0:0:
414,237,92230,1,0,0:0:0:0:
385,234,92296,1,0,0:0:0:0:
356,231,92363,1,0,0:0:0:0:
327,229,92430,6,0,B|345:273|345:273|347:355,1,83.3333333333333
224,105,92563,2,0,B|240:76|240:76|283:52,1,58.3333338896433
168,256,92696,2,0,B|134:256|134:256|92:231,1,58.3333338896433
325,139,92830,6,0,L|415:131,1,58.3333338896433
237,347,92963,2,0,L|147:355,1,58.3333338896433
336,118,93096,2,0,L|426:110,1,58.3333338896433
100,212,93230,5,0,0:0:0:0:
72,202,93296,1,0,0:0:0:0:
49,185,93363,1,0,0:0:0:0:
33,160,93430,1,0,0:0:0:0:
26,132,93496,1,0,0:0:0:0:
28,103,93563,1,0,0:0:0:0:
40,77,93630,5,0,0:0:0:0:
59,55,93697,1,0,0:0:0:0:
85,42,93763,1,0,0:0:0:0:
114,37,93830,1,0,0:0:0:0:
142,42,93896,1,0,0:0:0:0:
168,56,93963,1,0,0:0:0:0:
187,78,94030,6,0,P|180:19|173:-6,1,73.3333355712891
65,279,94163,2,0,P|57:314|54:351,1,73.3333355712891
241,165,94296,2,0,P|277:117|290:95,1,73.3333355712891
184,334,94430,6,0,L|273:323,1,58.3333338896433
25,208,94563,1,0,0:0:0:0:
28,178,94630,1,0,0:0:0:0:
31,149,94696,1,0,0:0:0:0:
34,120,94763,1,0,0:0:0:0:
37,91,94830,6,0,P|27:61|10:28,1,58.3333338896433
141,263,94963,1,0,0:0:0:0:
144,233,95030,1,0,0:0:0:0:
147,204,95096,1,0,0:0:0:0:
150,175,95163,1,0,0:0:0:0:
153,146,95230,6,0,P|186:106|250:104,1,115.000000175476
245,102,95630,6,0,P|240:50|290:17,1,113.333335494995
308,18,95830,5,0,0:0:0:0:
452,363,96030,6,0,B|375:320|375:320|281:349,1,175.00000166893
455,338,96430,2,0,B|378:295|378:295|284:324,1,175.00000166893
295,320,96830,6,0,B|308:217|308:217|312:214|312:214|308:211|308:211|314:167|314:167|310:162|310:162|316:158|316:158|326:91,1,217.500006637573
406,83,97030,2,0,B|303:70|303:70|300:66|300:66|297:69|297:69|253:64|253:64|248:68|248:68|244:62|244:62|177:52,1,217.500006637573
119,12,97230,6,0,L|107:78,1,50
97,332,97630,6,0,B|40:354|6:326|4:282|39:256|104:256|109:317|141:337|223:320,1,281.250006705523
279,228,97830,2,0,B|336:206|370:234|372:278|337:304|272:304|267:243|235:223|153:240,1,281.250006705523
56,200,98030,6,0,L|59:257,1,50
338,27,98430,6,0,B|399:53|411:118|411:118|416:118|416:118|411:120|411:120|434:180|487:202,1,225.000008583069
467,192,98630,2,0,B|406:218|394:283|394:283|389:283|389:283|394:285|394:285|371:345|318:367,1,225.000008583069
279,192,98830,6,0,L|350:192,2,66.6666666666667
38,75,99230,6,0,B|102:17|102:17|81:161,1,232.500001773834
124,247,99430,2,0,B|60:305|60:305|81:161,1,232.500001773834
174,59,99630,6,0,L|166:114,1,50
256,360,100030,6,0,B|374:329|301:257|453:226,1,232.500001773834
439,229,100230,2,0,B|321:198|394:126|242:95,1,232.500001773834
220,221,100430,6,0,L|289:221,2,66.6666666666667
102,45,100830,6,0,B|145:45|145:45|145:40|145:40|147:45|147:45|198:45|198:45|221:17|221:17|256:17|256:17|259:21|259:21|261:17|261:17|320:17,1,225.000008583069
454,70,101030,2,0,B|411:70|411:70|411:75|411:75|409:70|409:70|358:70|358:70|335:98|335:98|300:98|300:98|297:94|297:94|295:98|295:98|256:98,1,225.000008583069
39,94,101230,6,0,P|25:62|31:7,1,69.9999978637696
133,216,101430,1,0,0:0:0:0:
133,216,101530,1,0,0:0:0:0:
153,128,101630,6,0,P|221:197|113:305,1,279.999991455078
