osu file format v14

[General]
AudioFilename: audio.mp3
AudioLeadIn: 0
PreviewTime: -1
Countdown: 1
SampleSet: Normal
StackLeniency: 0.7
Mode: 0
LetterboxInBreaks: 0
WidescreenStoryboard: 0

[Editor]
DistanceSpacing: 0.8
BeatDivisor: 8
GridSize: 8
TimelineZoom: 1

[Metadata]
Title:[TF2 REMIX] Bonus Ducks!
TitleUnicode:[TF2 REMIX] Bonus Ducks!
Artist:SHARAX Official
ArtistUnicode:SHARAX Official
Creator:Boomer10o
Version:Hard
Source:
Tags:
BeatmapID:1228993
BeatmapSetID:580477

[Difficulty]
HPDrainRate:5
CircleSize:5
OverallDifficulty:5
ApproachRate:5
SliderMultiplier:1.4
SliderTickRate:2

[Events]
//Background and Video events
0,0,"bonus ducks.jpg",0,0
//Break Periods
2,62100,72220
2,84540,94780
2,141180,151300
//Storyboard Layer 0 (Background)
//Storyboard Layer 1 (Fail)
//Storyboard Layer 2 (Pass)
//Storyboard Layer 3 (Foreground)
//Storyboard Sound Samples

[TimingPoints]
100,480,4,1,0,100,1,0
100,-100,4,1,0,100,0,0

[HitObjects]
160,112,4220,5,0,0:0:0:0:
336,120,4620,1,0,0:0:0:0:
352,168,4980,1,0,0:0:0:0:
232,248,5340,1,0,0:0:0:0:
168,128,5660,1,0,0:0:0:0:
352,136,6340,1,0,0:0:0:0:
344,208,6660,1,0,0:0:0:0:
224,256,7020,1,0,0:0:0:0:
120,200,7780,1,0,0:0:0:0:
200,152,8100,1,0,0:0:0:0:
328,168,8460,1,0,0:0:0:0:
344,240,9140,1,0,0:0:0:0:
216,264,9500,1,0,0:0:0:0:
120,264,9860,1,0,0:0:0:0:
208,208,10580,1,0,0:0:0:0:
312,176,10940,1,0,0:0:0:0:
256,120,11300,1,0,0:0:0:0:
168,120,11940,1,0,0:0:0:0:
192,176,12300,1,0,0:0:0:0:
280,184,12660,1,0,0:0:0:0:
272,80,13420,1,0,0:0:0:0:
256,144,13740,1,0,0:0:0:0:
240,72,14180,1,0,0:0:0:0:
184,136,14820,1,0,0:0:0:0:
264,184,15180,1,0,0:0:0:0:
272,224,15540,1,0,0:0:0:0:
192,224,16260,1,0,0:0:0:0:
256,224,16940,2,8,L|256:120,9,105
256,176,20560,5,0,0:0:0:0:
216,224,21100,2,8,L|128:304,1,116.666666666667
288,224,21820,2,8,L|384:296,1,116.666666666667
256,176,22620,2,8,L|256:72,6,105
256,240,25020,2,8,L|256:352,7,105
304,192,27880,2,8,L|416:192,13,105
224,192,32860,2,8,L|120:192,16,105
256,160,39540,1,0,0:0:0:0:
256,160,39860,1,0,0:0:0:0:
216,208,40220,1,0,0:0:0:0:
288,232,40540,1,0,0:0:0:0:
296,296,40940,1,0,0:0:0:0:
200,256,41620,1,0,0:0:0:0:
216,232,41820,1,0,0:0:0:0:
256,208,41980,1,0,0:0:0:0:
288,208,42140,1,0,0:0:0:0:
336,216,42380,1,0,0:0:0:0:
352,224,42540,1,0,0:0:0:0:
376,248,42700,1,0,0:0:0:0:
384,280,42880,1,0,0:0:0:0:
360,320,43060,1,0,0:0:0:0:
304,304,43380,1,0,0:0:0:0:
256,264,43780,1,0,0:0:0:0:
256,224,44440,5,0,0:0:0:0:
248,200,44580,1,0,0:0:0:0:
248,184,44780,1,0,0:0:0:0:
248,160,44940,1,0,0:0:0:0:
232,144,45100,1,0,0:0:0:0:
216,144,45300,1,0,0:0:0:0:
184,144,45500,1,0,0:0:0:0:
160,152,45660,1,0,0:0:0:0:
144,184,45860,1,0,0:0:0:0:
168,224,46220,1,0,0:0:0:0:
256,232,46620,1,0,0:0:0:0:
336,232,47300,1,0,0:0:0:0:
336,232,47460,1,0,0:0:0:0:
336,232,47580,1,0,0:0:0:0:
336,232,47780,1,0,0:0:0:0:
320,208,48020,1,0,0:0:0:0:
312,192,48180,1,0,0:0:0:0:
304,184,48340,1,0,0:0:0:0:
288,176,48500,1,0,0:0:0:0:
248,168,48700,1,0,0:0:0:0:
192,184,49060,1,0,0:0:0:0:
184,232,49420,1,0,0:0:0:0:
208,232,50100,1,0,0:0:0:0:
208,232,50260,1,0,0:0:0:0:
208,232,50420,1,0,0:0:0:0:
208,232,50580,1,0,0:0:0:0:
208,232,50860,1,0,0:0:0:0:
224,216,51180,1,0,0:0:0:0:
256,200,51540,1,0,0:0:0:0:
288,184,51860,1,0,0:0:0:0:
344,176,52220,1,0,0:0:0:0:
360,192,52940,1,0,0:0:0:0:
352,216,53100,1,0,0:0:0:0:
376,232,53260,1,0,0:0:0:0:
376,240,53380,1,0,0:0:0:0:
376,256,53540,1,0,0:0:0:0:
368,272,53700,1,0,0:0:0:0:
352,272,53860,1,0,0:0:0:0:
328,272,54060,1,0,0:0:0:0:
320,272,54220,1,0,0:0:0:0:
304,264,54380,1,0,0:0:0:0:
280,240,54700,1,0,0:0:0:0:
216,208,55060,5,0,0:0:0:0:
192,264,55740,1,0,0:0:0:0:
216,280,55900,1,0,0:0:0:0:
248,288,56060,1,0,0:0:0:0:
280,280,56260,1,0,0:0:0:0:
288,280,56420,1,0,0:0:0:0:
296,256,56540,1,0,0:0:0:0:
296,240,56740,1,0,0:0:0:0:
280,224,56900,1,0,0:0:0:0:
256,200,57180,1,0,0:0:0:0:
256,200,57540,1,0,0:0:0:0:
256,184,57820,1,0,0:0:0:0:
248,136,58540,1,0,0:0:0:0:
248,136,58740,1,0,0:0:0:0:
240,128,58900,1,0,0:0:0:0:
240,120,59060,1,0,0:0:0:0:
240,112,59260,1,0,0:0:0:0:
224,104,59420,1,0,0:0:0:0:
184,104,59620,1,0,0:0:0:0:
168,120,59780,1,0,0:0:0:0:
160,144,59980,1,0,0:0:0:0:
168,176,60340,1,0,0:0:0:0:
168,176,60660,1,0,0:0:0:0:
192,176,61420,1,0,0:0:0:0:
232,176,61580,1,0,0:0:0:0:
256,176,61740,1,0,0:0:0:0:
280,184,61900,1,0,0:0:0:0:
176,96,73420,5,8,0:0:0:0:
320,240,74140,1,8,0:0:0:0:
128,312,74460,1,8,0:0:0:0:
128,152,74780,1,8,0:0:0:0:
312,40,75580,1,8,0:0:0:0:
392,136,75900,1,8,0:0:0:0:
304,328,76260,1,8,0:0:0:0:
120,288,76980,1,8,0:0:0:0:
216,56,77300,1,8,0:0:0:0:
432,200,77700,1,8,0:0:0:0:
272,320,78380,1,8,0:0:0:0:
216,120,78700,1,8,0:0:0:0:
104,304,79060,1,8,0:0:0:0:
344,64,79780,1,8,0:0:0:0:
352,232,80060,1,8,0:0:0:0:
200,344,80500,1,8,0:0:0:0:
152,216,81180,1,8,0:0:0:0:
240,56,81500,1,8,0:0:0:0:
416,56,81900,1,8,0:0:0:0:
280,120,82580,1,8,0:0:0:0:
416,296,82940,1,8,0:0:0:0:
224,312,83260,1,8,0:0:0:0:
160,208,84020,1,8,0:0:0:0:
312,112,84340,1,6,0:0:0:0:
256,200,95980,5,0,0:0:0:0:
312,208,96700,1,0,0:0:0:0:
208,200,97020,1,0,0:0:0:0:
256,152,97420,1,0,0:0:0:0:
328,144,98140,1,0,0:0:0:0:
352,200,98460,1,0,0:0:0:0:
264,248,98820,1,0,0:0:0:0:
176,208,99500,1,0,0:0:0:0:
288,200,99900,1,0,0:0:0:0:
392,216,100260,1,0,0:0:0:0:
392,216,100420,1,0,0:0:0:0:
392,216,100580,1,0,0:0:0:0:
392,216,100740,1,0,0:0:0:0:
392,216,100940,1,0,0:0:0:0:
392,216,101140,1,0,0:0:0:0:
392,216,101300,1,0,0:0:0:0:
272,168,101660,1,0,0:0:0:0:
368,160,102380,1,0,0:0:0:0:
352,232,102700,1,0,0:0:0:0:
176,240,103060,1,0,0:0:0:0:
224,144,103820,1,0,0:0:0:0:
312,144,104140,1,0,0:0:0:0:
360,208,104460,1,0,0:0:0:0:
272,256,105180,1,0,0:0:0:0:
264,152,105540,1,0,0:0:0:0:
264,184,105900,1,0,0:0:0:0:
264,184,106060,1,0,0:0:0:0:
264,184,106220,1,0,0:0:0:0:
264,184,106380,1,0,0:0:0:0:
264,184,106580,1,0,0:0:0:0:
264,184,106740,1,0,0:0:0:0:
264,184,106940,1,0,0:0:0:0:
208,184,107260,1,0,0:0:0:0:
360,224,107980,1,0,0:0:0:0:
224,296,108340,1,0,0:0:0:0:
160,240,108700,1,0,0:0:0:0:
304,176,109380,1,0,0:0:0:0:
224,128,109740,1,0,0:0:0:0:
344,88,110100,1,0,0:0:0:0:
288,184,110820,1,0,0:0:0:0:
224,192,111220,5,0,0:0:0:0:
224,224,111500,1,0,0:0:0:0:
224,224,111700,1,0,0:0:0:0:
224,224,111860,1,0,0:0:0:0:
224,224,112020,1,0,0:0:0:0:
224,224,112180,1,0,0:0:0:0:
224,224,112380,1,0,0:0:0:0:
224,224,112540,1,0,0:0:0:0:
312,224,112940,1,0,0:0:0:0:
360,312,113620,1,0,0:0:0:0:
232,320,113940,1,0,0:0:0:0:
240,232,114340,1,0,0:0:0:0:
320,200,115060,1,0,0:0:0:0:
264,168,115380,1,0,0:0:0:0:
184,152,115780,1,0,0:0:0:0:
152,224,116500,1,0,0:0:0:0:
208,256,116780,1,0,0:0:0:0:
288,248,117180,1,0,0:0:0:0:
288,248,117380,1,0,0:0:0:0:
288,248,117540,1,0,0:0:0:0:
288,248,117700,1,0,0:0:0:0:
288,248,117860,1,0,0:0:0:0:
288,248,118060,1,0,0:0:0:0:
288,248,118220,1,0,0:0:0:0:
272,192,118540,2,10,L|376:192,14,105
256,192,123860,2,10,L|152:192,14,105
256,136,129220,5,0,0:0:0:0:
320,168,129540,1,0,0:0:0:0:
320,224,129900,1,0,0:0:0:0:
264,256,130220,1,0,0:0:0:0:
192,240,130580,1,0,0:0:0:0:
224,184,130940,1,0,0:0:0:0:
304,176,131300,1,0,0:0:0:0:
328,176,131980,1,0,0:0:0:0:
328,176,132140,1,0,0:0:0:0:
328,176,132340,1,0,0:0:0:0:
328,176,132500,1,0,0:0:0:0:
328,168,132700,1,0,0:0:0:0:
320,168,132860,1,0,0:0:0:0:
312,160,133020,1,0,0:0:0:0:
312,160,133220,1,0,0:0:0:0:
296,160,133380,1,0,0:0:0:0:
240,160,133740,1,0,0:0:0:0:
200,208,134100,1,0,0:0:0:0:
240,272,134860,1,0,0:0:0:0:
248,272,135020,1,0,0:0:0:0:
248,272,135180,1,0,0:0:0:0:
248,272,135340,1,0,0:0:0:0:
256,256,135540,1,0,0:0:0:0:
256,248,135700,1,0,0:0:0:0:
272,232,135900,1,0,0:0:0:0:
296,224,136220,1,0,0:0:0:0:
328,208,136580,1,0,0:0:0:0:
384,216,136940,1,0,0:0:0:0:
392,248,137660,1,0,0:0:0:0:
384,256,137820,1,0,0:0:0:0:
368,272,138020,1,0,0:0:0:0:
360,272,138140,1,0,0:0:0:0:
352,272,138300,1,0,0:0:0:0:
336,272,138500,1,0,0:0:0:0:
320,272,138700,1,0,0:0:0:0:
312,272,138860,1,0,0:0:0:0:
304,272,139020,1,0,0:0:0:0:
280,256,139380,1,0,0:0:0:0:
248,224,139740,1,0,0:0:0:0:
240,160,140500,1,0,0:0:0:0:
240,160,140660,1,0,0:0:0:0:
240,160,140860,1,0,0:0:0:0:
232,144,140980,1,0,0:0:0:0:
224,104,152500,5,0,0:0:0:0:
224,104,152660,1,0,0:0:0:0:
224,104,152820,1,0,0:0:0:0:
224,104,152980,1,0,0:0:0:0:
224,104,153180,1,0,0:0:0:0:
224,104,153540,1,0,0:0:0:0:
224,104,153900,1,0,0:0:0:0:
352,112,154540,1,0,0:0:0:0:
352,112,154700,1,0,0:0:0:0:
352,112,154900,1,0,0:0:0:0:
344,96,155060,1,0,0:0:0:0:
344,88,155260,1,0,0:0:0:0:
344,88,155420,1,0,0:0:0:0:
344,88,155580,1,0,0:0:0:0:
336,88,155740,1,0,0:0:0:0:
328,88,155980,1,0,0:0:0:0:
320,88,156340,1,0,0:0:0:0:
304,88,156700,1,0,0:0:0:0:
184,208,157340,1,0,0:0:0:0:
192,208,157540,1,0,0:0:0:0:
184,208,157700,1,0,0:0:0:0:
192,208,157820,1,0,0:0:0:0:
192,208,158020,1,0,0:0:0:0:
200,224,158260,1,0,0:0:0:0:
200,224,158420,1,0,0:0:0:0:
200,224,158580,1,0,0:0:0:0:
200,224,158740,1,0,0:0:0:0:
208,216,159140,1,0,0:0:0:0:
240,184,159500,1,0,0:0:0:0:
336,192,160220,1,0,0:0:0:0:
344,232,160420,1,0,0:0:0:0:
344,256,160580,1,0,0:0:0:0:
328,264,160780,1,0,0:0:0:0:
304,264,160940,1,0,0:0:0:0:
272,264,161140,1,0,0:0:0:0:
256,264,161300,1,0,0:0:0:0:
248,256,161460,1,0,0:0:0:0:
240,256,161660,1,0,0:0:0:0:
232,248,162020,1,0,0:0:0:0:
232,248,162380,1,0,0:0:0:0:
256,192,163060,1,0,0:0:0:0:
256,192,163220,1,0,0:0:0:0:
256,192,163380,1,0,0:0:0:0:
256,192,163540,1,0,0:0:0:0:
152,80,164140,5,8,0:0:0:0:
352,80,164860,1,8,0:0:0:0:
152,272,165540,1,8,0:0:0:0:
352,272,166220,1,8,0:0:0:0:
256,192,166620,1,0,0:0:0:0:
288,208,167300,1,0,0:0:0:0:
304,224,167620,1,0,0:0:0:0:
224,248,167980,1,0,0:0:0:0:
224,248,168180,1,0,0:0:0:0:
224,240,168340,1,0,0:0:0:0:
224,240,168500,1,0,0:0:0:0:
224,240,168700,1,0,0:0:0:0:
224,232,168900,1,0,0:0:0:0:
224,232,169060,1,0,0:0:0:0:
288,184,169420,1,0,0:0:0:0:
248,168,170100,1,0,0:0:0:0:
208,176,170460,1,0,0:0:0:0:
176,216,170820,1,0,0:0:0:0:
232,256,171540,1,0,0:0:0:0:
304,264,171860,1,0,0:0:0:0:
360,232,172220,1,0,0:0:0:0:
328,192,172900,1,0,0:0:0:0:
288,160,173300,1,0,0:0:0:0:
240,160,173620,1,0,0:0:0:0:
240,160,173780,1,0,0:0:0:0:
240,160,173940,1,0,0:0:0:0:
240,160,174100,1,0,0:0:0:0:
240,160,174260,1,0,0:0:0:0:
240,160,174420,1,0,0:0:0:0:
240,160,174580,1,0,0:0:0:0:
240,160,174740,1,0,0:0:0:0:
192,208,175100,1,0,0:0:0:0:
272,248,175780,1,0,0:0:0:0:
192,256,176100,1,0,0:0:0:0:
384,256,176460,1,0,0:0:0:0:
352,192,177140,1,0,0:0:0:0:
312,120,177500,1,0,0:0:0:0:
240,80,177860,1,0,0:0:0:0:
176,152,178580,1,0,0:0:0:0:
192,208,178900,1,0,0:0:0:0:
248,232,179260,1,0,0:0:0:0:
248,232,179420,1,0,0:0:0:0:
248,232,179620,1,0,0:0:0:0:
248,232,179780,1,0,0:0:0:0:
248,232,179980,1,0,0:0:0:0:
248,232,180140,1,0,0:0:0:0:
248,232,180300,1,0,0:0:0:0:
256,184,180760,5,0,0:0:0:0:
320,208,181420,1,0,0:0:0:0:
264,256,181740,1,0,0:0:0:0:
176,232,182100,1,0,0:0:0:0:
288,176,182820,1,0,0:0:0:0:
208,152,183180,1,0,0:0:0:0:
296,128,183540,1,0,0:0:0:0:
184,200,184220,1,0,0:0:0:0:
264,232,184580,1,0,0:0:0:0:
256,248,184900,1,0,0:0:0:0:
272,264,185100,1,0,0:0:0:0:
272,264,185260,1,0,0:0:0:0:
272,264,185420,1,0,0:0:0:0:
272,264,185580,1,0,0:0:0:0:
272,264,185740,1,0,0:0:0:0:
272,264,185940,1,0,0:0:0:0:
216,208,186400,5,10,0:0:0:0:
288,192,187020,1,10,0:0:0:0:
232,192,187740,1,10,0:0:0:0:
232,192,188500,1,10,0:0:0:0:
320,192,189180,1,10,0:0:0:0:
320,192,189900,1,10,0:0:0:0:
200,200,190580,1,10,0:0:0:0:
200,200,191300,1,10,0:0:0:0:
336,192,191980,1,10,0:0:0:0:
336,200,192700,1,10,0:0:0:0:
248,264,193420,1,10,0:0:0:0:
248,264,194140,1,10,0:0:0:0:
256,152,194820,1,10,0:0:0:0:
256,144,195540,1,10,0:0:0:0:
192,120,196260,1,10,0:0:0:0:
192,120,196900,1,10,0:0:0:0:
328,112,197660,1,10,0:0:0:0:
328,120,198340,1,10,0:0:0:0:
184,248,199060,1,10,0:0:0:0:
192,248,199740,1,10,0:0:0:0:
328,256,200460,1,10,0:0:0:0:
328,256,201180,1,10,0:0:0:0:
304,120,201860,1,10,0:0:0:0:
304,120,202540,1,10,0:0:0:0:
160,120,203300,1,10,0:0:0:0:
160,120,203980,1,10,0:0:0:0:
192,288,204700,1,10,0:0:0:0:
192,288,205380,1,10,0:0:0:0:
344,288,206140,1,10,0:0:0:0:
344,288,206820,1,10,0:0:0:0:
256,184,207500,1,10,0:0:0:0:
256,192,208260,1,8,0:0:0:0:
256,192,208740,12,2,209620,0:0:0:0:
