osu file format v14

[General]
AudioFilename: audio.ogg
AudioLeadIn: 0
PreviewTime: 89115
Countdown: 0
SampleSet: Normal
StackLeniency: 0.7
Mode: 1
LetterboxInBreaks: 0
WidescreenStoryboard: 1

[Editor]
DistanceSpacing: 0.8
BeatDivisor: 4
GridSize: 16
TimelineZoom: 2.2

[Metadata]
Title:SEVENTH HAVEN (Mtell Remix)
TitleUnicode:SEVENTH HAVEN (Mtell Remix)
Artist:SEVENTH SISTERS
ArtistUnicode:セブンスシスターズ
Creator:ler1211
Version:Ph0eNiiXZ's MUZUKASHII
Source:Tokyo 7th シスターズ
Tags:ktyn kitajimayn yuni Ph0eNiiXZ phoeniixz phoenix Are You Ready 7th-TYPES?? Nanasaki Nicole 七咲ニコル Minase Inori 水瀬いのり Hanyuuda Mito 羽生田ミト Fuchigami Mai 渕上舞 Misonoo Mana 御園尾マナ Maeda Rena 前田 玲奈 Kotobuki Qruit 寿クルト Kurose Yuuko 黒瀬 ゆうこ Wakaouji Rui 若王子ルイ Kawasaki Meiko 川﨑芽衣子 Yusa Memoru 遊佐メモル Tsuji Ayumi 辻 あゆみ japanese electronic j-core jcore hardcore idol group bootleg videogame
BeatmapID:3597961
BeatmapSetID:1749857

[Difficulty]
HPDrainRate:6.5
CircleSize:2
OverallDifficulty:4.5
ApproachRate:10
SliderMultiplier:1.4
SliderTickRate:1

[Events]
//Background and Video events
0,0,"nana.jpg",0,100
//Break Periods
//Storyboard Layer 0 (Background)
//Storyboard Layer 1 (Fail)
//Storyboard Layer 2 (Pass)
//Storyboard Layer 3 (Foreground)
//Storyboard Layer 4 (Overlay)
//Storyboard Sound Samples

[TimingPoints]
1344,342.857142857143,4,1,0,80,1,0
11886,-100,4,1,0,80,0,0
21872,-100,4,1,0,50,0,0
22772,-100,4,1,0,80,0,0
56201,-100,4,1,0,80,0,1
56544,-100,4,1,0,80,0,0
57572,-100,4,1,0,80,0,1
57915,-100,4,1,0,80,0,0
58944,-100,4,1,0,80,0,1
59286,-100,4,1,0,80,0,0
60315,-100,4,1,0,80,0,1
60658,-100,4,1,0,80,0,0
65758,-100,4,1,0,50,0,0
67172,-100,4,1,0,90,0,1
76772,-100,4,1,0,80,0,0
78144,-100,4,1,0,90,0,1
87744,-100,4,1,0,80,0,0
89115,-100,4,1,0,90,0,1
99744,-100,4,1,0,90,0,0
100086,-100,4,1,0,90,0,1
109686,-100,4,1,0,80,0,0
198829,-100,4,1,0,80,0,1
199172,-100,4,1,0,80,0,0
200201,-100,4,1,0,80,0,1
200544,-100,4,1,0,80,0,0
201572,-100,4,1,0,80,0,1
201915,-100,4,1,0,80,0,0
202944,-100,4,1,0,80,0,1
203286,-100,4,1,0,80,0,0
208386,-100,4,1,0,50,0,0
209268,-100,4,1,0,80,0,0
209801,-100,4,1,0,90,0,1
220429,-100,4,1,0,90,0,0
220772,-100,4,1,0,90,0,1
230372,-100,4,1,0,80,0,0

[HitObjects]
256,192,1344,5,12,0:0:0:0:
256,192,1686,1,0,0:0:0:0:
256,192,2029,1,8,0:0:0:0:
256,192,2372,1,0,0:0:0:0:
256,192,2544,1,8,0:0:0:0:
256,192,2715,1,0,0:0:0:0:
256,192,3058,1,0,0:0:0:0:
256,192,3401,1,8,0:0:0:0:
256,192,3744,1,0,0:0:0:0:
256,192,3915,1,8,0:0:0:0:
256,192,4086,1,0,0:0:0:0:
256,192,4429,1,0,0:0:0:0:
256,192,4772,1,8,0:0:0:0:
256,192,5115,1,0,0:0:0:0:
256,192,5286,1,8,0:0:0:0:
256,192,5458,1,0,0:0:0:0:
256,192,5801,1,0,0:0:0:0:
256,192,6144,1,8,0:0:0:0:
256,192,6315,1,8,0:0:0:0:
256,192,6829,1,8,0:0:0:0:
256,192,7172,1,0,0:0:0:0:
256,192,7515,1,8,0:0:0:0:
256,192,7686,1,0,0:0:0:0:
256,192,8029,1,8,0:0:0:0:
256,192,8201,1,0,0:0:0:0:
256,192,8544,1,0,0:0:0:0:
256,192,8886,1,8,0:0:0:0:
256,192,9058,1,0,0:0:0:0:
256,192,9401,1,8,0:0:0:0:
256,192,9572,1,0,0:0:0:0:
256,192,9915,1,0,0:0:0:0:
256,192,10258,1,8,0:0:0:0:
256,192,10429,1,0,0:0:0:0:
256,192,10772,1,8,0:0:0:0:
256,192,11115,1,8,0:0:0:0:
256,192,11458,1,8,0:0:0:0:
256,192,11972,1,12,0:0:0:0:
256,192,12315,1,8,0:0:0:0:
256,192,12486,1,0,0:0:0:0:
256,192,12572,1,0,0:0:0:0:
256,192,12658,1,0,0:0:0:0:
256,192,12829,1,0,0:0:0:0:
256,192,13001,1,8,0:0:0:0:
256,192,13515,1,8,0:0:0:0:
256,192,13686,1,0,0:0:0:0:
256,192,13858,1,8,0:0:0:0:
256,192,13944,1,8,0:0:0:0:
256,192,14029,1,8,0:0:0:0:
256,192,14201,1,0,0:0:0:0:
256,192,14372,1,8,0:0:0:0:
256,192,14886,1,8,0:0:0:0:
256,192,15058,1,8,0:0:0:0:
256,192,15229,1,0,0:0:0:0:
256,192,15315,1,0,0:0:0:0:
256,192,15401,1,0,0:0:0:0:
256,192,15572,1,0,0:0:0:0:
256,192,15744,1,8,0:0:0:0:
256,192,16258,1,8,0:0:0:0:
256,192,16429,1,0,0:0:0:0:
256,192,16601,1,8,0:0:0:0:
256,192,16686,1,8,0:0:0:0:
256,192,16772,1,8,0:0:0:0:
256,192,16944,1,0,0:0:0:0:
256,192,17115,1,8,0:0:0:0:
256,192,17201,1,8,0:0:0:0:
256,192,17372,1,8,0:0:0:0:
256,192,17458,1,8,0:0:0:0:
256,192,17801,1,8,0:0:0:0:
256,192,17972,1,8,0:0:0:0:
256,192,18144,1,0,0:0:0:0:
256,192,18315,1,0,0:0:0:0:
256,192,18486,1,8,0:0:0:0:
256,192,18829,1,8,0:0:0:0:
256,192,19001,1,0,0:0:0:0:
256,192,19172,1,8,0:0:0:0:
256,192,19344,1,8,0:0:0:0:
256,192,19515,1,0,0:0:0:0:
256,192,19686,1,0,0:0:0:0:
256,192,19858,1,8,0:0:0:0:
256,192,20201,1,0,0:0:0:0:
256,192,20372,1,0,0:0:0:0:
256,192,20544,1,8,0:0:0:0:
256,192,20629,1,8,0:0:0:0:
256,192,20715,1,8,0:0:0:0:
256,192,20886,1,0,0:0:0:0:
256,192,21058,1,0,0:0:0:0:
256,192,21229,1,8,0:0:0:0:
256,192,21315,1,8,0:0:0:0:
256,192,21401,1,8,0:0:0:0:
256,192,21572,1,0,0:0:0:0:
256,192,21744,1,8,0:0:0:0:
256,192,22944,1,8,0:0:0:0:
256,192,23286,1,4,0:0:0:0:
256,192,24658,1,0,0:0:0:0:
256,192,26029,1,8,0:0:0:0:
256,192,27401,1,8,0:0:0:0:
256,192,28086,1,8,0:0:0:0:
256,192,28772,1,0,0:0:0:0:
256,192,30144,1,0,0:0:0:0:
256,192,31515,1,8,0:0:0:0:
256,192,32886,1,8,0:0:0:0:
256,192,34258,1,0,0:0:0:0:
256,192,35629,1,0,0:0:0:0:
256,192,37001,1,8,0:0:0:0:
256,192,38372,1,8,0:0:0:0:
256,192,39058,1,8,0:0:0:0:
256,192,39744,1,0,0:0:0:0:
256,192,41115,1,0,0:0:0:0:
256,192,42486,1,8,0:0:0:0:
256,192,42829,1,0,0:0:0:0:
256,192,43001,1,0,0:0:0:0:
256,192,43172,1,8,0:0:0:0:
256,192,43344,1,8,0:0:0:0:
256,192,43515,1,8,0:0:0:0:
256,192,43686,1,8,0:0:0:0:
256,192,44886,1,0,0:0:0:0:
256,192,45229,1,12,0:0:0:0:
256,192,45572,1,0,0:0:0:0:
256,192,45744,1,8,0:0:0:0:
256,192,46086,1,8,0:0:0:0:
256,192,46258,1,0,0:0:0:0:
256,192,46429,1,0,0:0:0:0:
256,192,46601,1,8,0:0:0:0:
256,192,46944,1,0,0:0:0:0:
256,192,47115,1,8,0:0:0:0:
256,192,47458,1,8,0:0:0:0:
256,192,47629,1,0,0:0:0:0:
256,176,47972,1,8,0:0:0:0:
256,176,48315,1,0,0:0:0:0:
256,176,48486,1,8,0:0:0:0:
256,192,48829,1,0,0:0:0:0:
256,192,49001,1,8,0:0:0:0:
256,176,49344,1,8,0:0:0:0:
256,176,49858,1,8,0:0:0:0:
256,192,50201,1,0,0:0:0:0:
256,176,50372,1,8,0:0:0:0:
256,192,50544,1,8,0:0:0:0:
256,176,50715,1,0,0:0:0:0:
256,176,51058,1,0,0:0:0:0:
256,176,51229,1,8,0:0:0:0:
256,176,51572,1,8,0:0:0:0:
256,176,51744,1,0,0:0:0:0:
256,176,51915,1,0,0:0:0:0:
256,176,52086,1,8,0:0:0:0:
256,176,52429,1,0,0:0:0:0:
256,176,52601,1,8,0:0:0:0:
256,176,52944,1,0,0:0:0:0:
256,176,53115,1,8,0:0:0:0:
256,176,53458,1,8,0:0:0:0:
256,176,53801,1,8,0:0:0:0:
256,176,53972,1,0,0:0:0:0:
256,176,54486,1,0,0:0:0:0:
256,176,54658,1,0,0:0:0:0:
256,176,54829,1,8,0:0:0:0:
256,176,55172,1,0,0:0:0:0:
256,176,55344,1,0,0:0:0:0:
256,176,55515,1,8,0:0:0:0:
256,176,55686,1,8,0:0:0:0:
256,176,55858,1,0,0:0:0:0:
256,192,56201,5,12,0:0:0:0:
256,192,56715,1,0,0:0:0:0:
256,192,57058,1,0,0:0:0:0:
256,192,57401,1,0,0:0:0:0:
256,192,57572,1,12,0:0:0:0:
256,192,58086,1,8,0:0:0:0:
256,192,58429,1,8,0:0:0:0:
256,192,58772,1,0,0:0:0:0:
256,192,58944,1,12,0:0:0:0:
256,192,59458,1,0,0:0:0:0:
256,192,59801,1,0,0:0:0:0:
256,192,60144,1,0,0:0:0:0:
256,192,60315,1,12,0:0:0:0:
256,192,60829,1,8,0:0:0:0:
256,192,61172,1,8,0:0:0:0:
256,192,61344,1,0,0:0:0:0:
256,192,61429,1,0,0:0:0:0:
256,192,61515,1,0,0:0:0:0:
256,192,61686,1,12,0:0:0:0:
256,192,62029,1,0,0:0:0:0:
256,192,62201,1,0,0:0:0:0:
256,192,62372,1,8,0:0:0:0:
256,192,62544,1,0,0:0:0:0:
256,192,62715,1,8,0:0:0:0:
256,192,62886,1,8,0:0:0:0:
256,192,63058,1,0,0:0:0:0:
256,192,63401,1,8,0:0:0:0:
256,192,63572,1,0,0:0:0:0:
256,192,63744,1,8,0:0:0:0:
256,192,63915,1,8,0:0:0:0:
256,192,64086,1,0,0:0:0:0:
256,192,64258,1,0,0:0:0:0:
256,192,64429,1,8,0:0:0:0:
256,192,64772,1,0,0:0:0:0:
256,192,64944,1,0,0:0:0:0:
256,192,65115,1,8,0:0:0:0:
256,192,65286,1,8,0:0:0:0:
256,192,65458,1,0,0:0:0:0:
256,192,65629,1,0,0:0:0:0:
256,192,65801,1,8,0:0:0:0:
256,192,66486,1,12,0:0:0:0:
256,192,66829,1,12,0:0:0:0:
256,192,67172,1,4,0:0:0:0:
256,192,67515,1,8,0:0:0:0:
256,192,67686,1,0,0:0:0:0:
256,192,67858,1,8,0:0:0:0:
256,192,67944,1,8,0:0:0:0:
256,192,68029,1,8,0:0:0:0:
256,192,68372,1,8,0:0:0:0:
256,192,68544,1,0,0:0:0:0:
256,192,68715,1,8,0:0:0:0:
256,192,68801,1,8,0:0:0:0:
256,192,68886,1,8,0:0:0:0:
256,192,69058,1,0,0:0:0:0:
256,192,69401,1,0,0:0:0:0:
256,192,69486,1,0,0:0:0:0:
256,192,69572,1,0,0:0:0:0:
256,192,69744,1,8,0:0:0:0:
256,192,69915,1,4,0:0:0:0:
256,192,70258,1,0,0:0:0:0:
256,192,70601,1,8,0:0:0:0:
256,192,70686,1,8,0:0:0:0:
256,192,70772,1,8,0:0:0:0:
256,192,70944,1,0,0:0:0:0:
256,192,71115,1,8,0:0:0:0:
256,192,71286,1,0,0:0:0:0:
256,192,71458,1,8,0:0:0:0:
256,192,71544,1,8,0:0:0:0:
256,192,71629,1,8,0:0:0:0:
256,192,71801,1,0,0:0:0:0:
256,192,72315,1,12,0:0:0:0:
256,192,72658,1,4,0:0:0:0:
256,192,73001,1,8,0:0:0:0:
256,192,73172,1,0,0:0:0:0:
256,192,73344,1,8,0:0:0:0:
256,192,73429,1,8,0:0:0:0:
256,192,73515,1,8,0:0:0:0:
256,192,73686,1,0,0:0:0:0:
256,192,74029,1,8,0:0:0:0:
256,192,74201,1,0,0:0:0:0:
256,192,74286,1,0,0:0:0:0:
256,192,74372,1,0,0:0:0:0:
256,192,74544,1,8,0:0:0:0:
256,192,74801,1,8,0:0:0:0:
256,192,74886,1,8,0:0:0:0:
256,192,75058,1,0,0:0:0:0:
256,192,75401,1,4,0:0:0:0:
256,192,75744,1,8,0:0:0:0:
256,192,75915,1,0,0:0:0:0:
256,192,76086,1,8,0:0:0:0:
256,192,76172,1,8,0:0:0:0:
256,192,76258,1,8,0:0:0:0:
256,192,76772,1,8,0:0:0:0:
256,192,77029,1,0,0:0:0:0:
256,192,77286,1,8,0:0:0:0:
256,192,77458,1,0,0:0:0:0:
256,192,77629,1,0,0:0:0:0:
256,192,77801,1,12,0:0:0:0:
256,192,78144,1,4,0:0:0:0:
256,192,78486,1,4,0:0:0:0:
256,192,78829,1,0,0:0:0:0:
256,192,79001,1,8,0:0:0:0:
256,192,79086,1,8,0:0:0:0:
256,192,79172,1,8,0:0:0:0:
259,196,79515,1,8,0:0:0:0:
256,192,79686,1,0,0:0:0:0:
256,192,79772,1,0,0:0:0:0:
256,192,79858,1,0,0:0:0:0:
256,192,80029,1,8,0:0:0:0:
256,192,80201,1,0,0:0:0:0:
256,192,80372,1,8,0:0:0:0:
256,192,80458,1,8,0:0:0:0:
256,192,80544,1,8,0:0:0:0:
256,192,80886,1,4,0:0:0:0:
256,192,81229,1,8,0:0:0:0:
256,192,81401,1,0,0:0:0:0:
256,192,81572,1,8,0:0:0:0:
256,192,81658,1,8,0:0:0:0:
256,192,81744,1,8,0:0:0:0:
256,192,81915,1,0,0:0:0:0:
256,192,82258,1,8,0:0:0:0:
256,192,82429,1,0,0:0:0:0:
256,192,82515,1,0,0:0:0:0:
256,192,82601,1,0,0:0:0:0:
256,192,82772,1,8,0:0:0:0:
256,192,83286,1,12,0:0:0:0:
256,192,83629,1,4,0:0:0:0:
256,192,83972,1,0,0:0:0:0:
256,192,84144,1,8,0:0:0:0:
256,192,84315,1,0,0:0:0:0:
256,192,84401,1,0,0:0:0:0:
256,192,84486,1,0,0:0:0:0:
256,192,84829,1,0,0:0:0:0:
256,192,85001,1,8,0:0:0:0:
256,192,85172,1,0,0:0:0:0:
256,192,85258,1,0,0:0:0:0:
256,192,85344,1,0,0:0:0:0:
256,192,85515,1,8,0:0:0:0:
256,192,85858,1,8,0:0:0:0:
256,192,85944,1,8,0:0:0:0:
256,192,86029,1,8,0:0:0:0:
256,192,86201,1,8,0:0:0:0:
256,192,86372,1,0,0:0:0:0:
256,192,86715,1,0,0:0:0:0:
256,192,86886,1,0,0:0:0:0:
256,192,87058,1,8,0:0:0:0:
256,192,87144,1,8,0:0:0:0:
256,192,87229,1,8,0:0:0:0:
256,192,87401,1,0,0:0:0:0:
256,192,87572,1,0,0:0:0:0:
256,192,87744,1,12,0:0:0:0:
256,192,88601,1,8,0:0:0:0:
256,192,88686,1,8,0:0:0:0:
256,192,88772,1,8,0:0:0:0:
256,192,89115,1,4,0:0:0:0:
256,192,89458,1,0,0:0:0:0:
256,192,89629,1,0,0:0:0:0:
256,192,89801,1,8,0:0:0:0:
256,192,89886,1,8,0:0:0:0:
256,192,90058,1,0,0:0:0:0:
256,192,90315,1,0,0:0:0:0:
256,192,90486,1,8,0:0:0:0:
256,192,90829,1,0,0:0:0:0:
256,192,91001,1,0,0:0:0:0:
256,192,91172,1,8,0:0:0:0:
256,192,91258,1,8,0:0:0:0:
256,192,91429,1,0,0:0:0:0:
256,192,91686,1,8,0:0:0:0:
256,192,91858,1,0,0:0:0:0:
256,192,92201,1,0,0:0:0:0:
256,192,92372,1,8,0:0:0:0:
256,192,92544,1,0,0:0:0:0:
256,192,92886,1,0,0:0:0:0:
256,192,93058,1,8,0:0:0:0:
256,192,93229,1,0,0:0:0:0:
256,192,93401,1,0,0:0:0:0:
256,192,93486,1,0,0:0:0:0:
256,192,93744,1,8,0:0:0:0:
256,192,93915,1,0,0:0:0:0:
256,192,94429,1,0,0:0:0:0:
256,192,94601,1,8,0:0:0:0:
256,192,94944,1,0,0:0:0:0:
256,192,95115,1,0,0:0:0:0:
256,192,95286,1,8,0:0:0:0:
256,192,95372,1,8,0:0:0:0:
256,192,95544,1,0,0:0:0:0:
256,192,95801,1,0,0:0:0:0:
256,192,95972,1,8,0:0:0:0:
256,192,96315,1,0,0:0:0:0:
256,192,96486,1,0,0:0:0:0:
256,192,96658,1,8,0:0:0:0:
256,192,96744,1,8,0:0:0:0:
256,192,96915,1,0,0:0:0:0:
256,192,97172,1,8,0:0:0:0:
256,192,97344,1,0,0:0:0:0:
256,192,97686,1,0,0:0:0:0:
256,192,97858,1,8,0:0:0:0:
256,192,98029,1,0,0:0:0:0:
256,192,98372,1,0,0:0:0:0:
256,192,98544,1,8,0:0:0:0:
256,192,98715,1,0,0:0:0:0:
256,192,98886,1,0,0:0:0:0:
256,192,98972,1,0,0:0:0:0:
256,192,99229,1,8,0:0:0:0:
256,192,99401,1,0,0:0:0:0:
256,192,99744,1,12,0:0:0:0:
256,192,100086,1,4,0:0:0:0:
256,192,100429,1,8,0:0:0:0:
256,192,100601,1,0,0:0:0:0:
256,192,100772,1,8,0:0:0:0:
256,192,100858,1,8,0:0:0:0:
256,192,101029,1,0,0:0:0:0:
256,192,101286,1,0,0:0:0:0:
256,192,101458,1,8,0:0:0:0:
256,192,101801,1,8,0:0:0:0:
256,192,101972,1,0,0:0:0:0:
256,192,102144,1,8,0:0:0:0:
256,192,102229,1,8,0:0:0:0:
256,192,102401,1,0,0:0:0:0:
256,192,102658,1,8,0:0:0:0:
256,192,102829,1,0,0:0:0:0:
256,192,103172,1,0,0:0:0:0:
256,192,103344,1,8,0:0:0:0:
256,192,103515,1,0,0:0:0:0:
256,192,103858,1,0,0:0:0:0:
256,192,104029,1,8,0:0:0:0:
256,192,104201,1,8,0:0:0:0:
256,192,104372,1,0,0:0:0:0:
256,192,104458,1,0,0:0:0:0:
256,192,104715,1,8,0:0:0:0:
256,192,104886,1,0,0:0:0:0:
256,192,105401,1,0,0:0:0:0:
256,192,105572,1,8,0:0:0:0:
256,192,105915,1,8,0:0:0:0:
256,192,106086,1,0,0:0:0:0:
256,192,106258,1,8,0:0:0:0:
256,192,106344,1,8,0:0:0:0:
256,192,106515,1,0,0:0:0:0:
256,192,106772,1,0,0:0:0:0:
256,192,106944,1,8,0:0:0:0:
256,192,107286,1,8,0:0:0:0:
256,192,107458,1,0,0:0:0:0:
256,192,107629,1,8,0:0:0:0:
256,192,107715,1,8,0:0:0:0:
256,192,107886,1,0,0:0:0:0:
256,192,108144,1,8,0:0:0:0:
256,192,108315,1,0,0:0:0:0:
256,192,108658,1,0,0:0:0:0:
256,192,108829,1,8,0:0:0:0:
256,192,109001,1,0,0:0:0:0:
256,192,109172,1,8,0:0:0:0:
256,192,109258,1,8,0:0:0:0:
256,192,109344,1,8,0:0:0:0:
256,192,109515,1,8,0:0:0:0:
256,192,109686,1,0,0:0:0:0:
256,192,110715,1,8,0:0:0:0:
256,192,111058,1,12,0:0:0:0:
256,192,111315,1,0,0:0:0:0:
256,192,111401,1,0,0:0:0:0:
256,192,111572,1,8,0:0:0:0:
256,192,111915,1,8,0:0:0:0:
256,192,112086,1,0,0:0:0:0:
256,192,112258,1,0,0:0:0:0:
256,192,112429,1,8,0:0:0:0:
256,192,112686,1,0,0:0:0:0:
256,176,112772,1,0,0:0:0:0:
256,176,112944,1,8,0:0:0:0:
256,192,113286,1,0,0:0:0:0:
256,176,113458,1,0,0:0:0:0:
256,176,113629,1,8,0:0:0:0:
256,192,113801,1,8,0:0:0:0:
256,192,114058,1,0,0:0:0:0:
256,176,114144,1,0,0:0:0:0:
256,176,114315,1,8,0:0:0:0:
256,192,114658,1,0,0:0:0:0:
256,176,114829,1,8,0:0:0:0:
256,192,115001,1,0,0:0:0:0:
256,192,115172,1,8,0:0:0:0:
256,176,115686,1,0,0:0:0:0:
256,192,116029,1,8,0:0:0:0:
256,192,116115,1,8,0:0:0:0:
256,176,116201,1,8,0:0:0:0:
256,192,116372,1,8,0:0:0:0:
256,192,116544,1,0,0:0:0:0:
256,192,116801,1,0,0:0:0:0:
256,176,116886,1,0,0:0:0:0:
256,176,117058,1,8,0:0:0:0:
256,176,117401,1,8,0:0:0:0:
256,176,117572,1,0,0:0:0:0:
256,192,117744,1,0,0:0:0:0:
256,192,117915,1,8,0:0:0:0:
256,192,118172,1,0,0:0:0:0:
256,176,118258,1,0,0:0:0:0:
256,176,118429,1,8,0:0:0:0:
256,176,118772,1,0,0:0:0:0:
256,176,118944,1,8,0:0:0:0:
256,176,119115,1,0,0:0:0:0:
256,176,119286,1,8,0:0:0:0:
256,176,119629,1,8,0:0:0:0:
256,176,119801,1,8,0:0:0:0:
256,176,119972,1,0,0:0:0:0:
256,192,120144,1,0,0:0:0:0:
256,176,120315,1,8,0:0:0:0:
256,192,120486,1,8,0:0:0:0:
256,176,120658,1,0,0:0:0:0:
256,192,120829,1,0,0:0:0:0:
256,176,120915,1,0,0:0:0:0:
256,176,121172,1,8,0:0:0:0:
256,176,121344,1,0,0:0:0:0:
256,192,121686,1,8,0:0:0:0:
256,192,122029,1,12,0:0:0:0:
256,192,122372,1,0,0:0:0:0:
256,192,122544,1,8,0:0:0:0:
256,192,122886,1,8,0:0:0:0:
256,192,123058,1,0,0:0:0:0:
256,192,123229,1,0,0:0:0:0:
256,192,123401,1,8,0:0:0:0:
256,192,123658,1,0,0:0:0:0:
256,176,123744,1,0,0:0:0:0:
256,176,123915,1,8,0:0:0:0:
256,176,124258,1,8,0:0:0:0:
256,192,124429,1,8,0:0:0:0:
256,176,124601,1,8,0:0:0:0:
256,176,124772,1,0,0:0:0:0:
256,192,125029,1,0,0:0:0:0:
256,176,125115,1,0,0:0:0:0:
256,176,125286,1,8,0:0:0:0:
256,176,125629,1,0,0:0:0:0:
256,192,125801,1,0,0:0:0:0:
256,176,125972,1,8,0:0:0:0:
256,192,126144,1,8,0:0:0:0:
256,176,126658,1,0,0:0:0:0:
256,192,127001,1,8,0:0:0:0:
256,192,127086,1,8,0:0:0:0:
256,192,127172,1,8,0:0:0:0:
256,192,127344,1,8,0:0:0:0:
256,192,127515,1,0,0:0:0:0:
256,192,127772,1,0,0:0:0:0:
256,176,127858,1,0,0:0:0:0:
256,176,128029,1,8,0:0:0:0:
256,176,128372,1,8,0:0:0:0:
256,176,128544,1,0,0:0:0:0:
256,192,128715,1,0,0:0:0:0:
256,192,128886,1,8,0:0:0:0:
256,192,129144,1,0,0:0:0:0:
256,176,129229,1,0,0:0:0:0:
256,176,129401,1,8,0:0:0:0:
256,176,129744,1,0,0:0:0:0:
256,176,129915,1,8,0:0:0:0:
256,176,130086,1,0,0:0:0:0:
256,176,130258,1,8,0:0:0:0:
256,176,130601,1,8,0:0:0:0:
256,176,130772,1,8,0:0:0:0:
256,176,130944,1,0,0:0:0:0:
256,192,131115,1,0,0:0:0:0:
256,176,131286,1,8,0:0:0:0:
256,176,131458,1,8,0:0:0:0:
256,176,131629,1,0,0:0:0:0:
256,176,132315,1,12,0:0:0:0:
256,176,132658,1,12,0:0:0:0:
256,176,133001,1,4,0:0:0:0:
256,192,133344,1,0,0:0:0:0:
256,176,133515,1,8,0:0:0:0:
256,176,133686,1,0,0:0:0:0:
256,192,133858,1,0,0:0:0:0:
256,176,134029,1,8,0:0:0:0:
256,176,134201,1,8,0:0:0:0:
256,176,134372,1,0,0:0:0:0:
256,192,134715,1,0,0:0:0:0:
256,192,134886,1,8,0:0:0:0:
256,192,135058,1,0,0:0:0:0:
256,192,135229,1,0,0:0:0:0:
256,192,135401,1,8,0:0:0:0:
256,192,135572,1,0,0:0:0:0:
256,192,135744,1,8,0:0:0:0:
256,176,136086,1,0,0:0:0:0:
256,192,136258,1,8,0:0:0:0:
256,176,136429,1,8,0:0:0:0:
256,176,136772,1,8,0:0:0:0:
256,192,136944,1,8,0:0:0:0:
256,192,137115,1,0,0:0:0:0:
256,176,137372,1,0,0:0:0:0:
256,192,137458,1,0,0:0:0:0:
256,192,137629,1,8,0:0:0:0:
256,192,137801,1,0,0:0:0:0:
256,192,137972,1,8,0:0:0:0:
256,176,138486,1,0,0:0:0:0:
256,176,138829,1,8,0:0:0:0:
256,176,139001,1,8,0:0:0:0:
256,176,139172,1,0,0:0:0:0:
256,192,139344,1,0,0:0:0:0:
256,176,139515,1,8,0:0:0:0:
256,176,139686,1,8,0:0:0:0:
256,176,139858,1,0,0:0:0:0:
256,176,140201,1,8,0:0:0:0:
256,176,140372,1,0,0:0:0:0:
256,176,140544,1,8,0:0:0:0:
256,192,140715,1,8,0:0:0:0:
256,192,140886,1,0,0:0:0:0:
256,176,141058,1,0,0:0:0:0:
256,176,141229,1,8,0:0:0:0:
256,192,141572,1,0,0:0:0:0:
256,192,141744,1,8,0:0:0:0:
256,192,141915,1,8,0:0:0:0:
256,192,142258,1,8,0:0:0:0:
256,192,142429,1,8,0:0:0:0:
256,192,142601,1,0,0:0:0:0:
256,192,142858,1,8,0:0:0:0:
256,192,142944,1,8,0:0:0:0:
256,192,143115,1,0,0:0:0:0:
256,192,143286,1,8,0:0:0:0:
256,192,143458,1,0,0:0:0:0:
256,192,143972,1,12,0:0:0:0:
256,176,144315,1,0,0:0:0:0:
256,176,144486,1,8,0:0:0:0:
256,192,144658,1,8,0:0:0:0:
256,176,144829,1,8,0:0:0:0:
256,176,145001,1,0,0:0:0:0:
256,176,145172,1,8,0:0:0:0:
256,176,145344,1,0,0:0:0:0:
256,192,145686,1,0,0:0:0:0:
256,176,145858,1,0,0:0:0:0:
256,176,146029,1,8,0:0:0:0:
256,176,146201,1,0,0:0:0:0:
256,176,146372,1,8,0:0:0:0:
256,192,146544,1,8,0:0:0:0:
256,192,146715,1,0,0:0:0:0:
256,176,147058,1,0,0:0:0:0:
256,176,147229,1,8,0:0:0:0:
256,192,147401,1,8,0:0:0:0:
256,192,147572,1,8,0:0:0:0:
256,192,147744,1,0,0:0:0:0:
258,193,147915,1,8,0:0:0:0:
258,193,148086,1,0,0:0:0:0:
256,176,148344,1,0,0:0:0:0:
256,192,148429,1,0,0:0:0:0:
256,192,148601,1,0,0:0:0:0:
256,192,148772,1,8,0:0:0:0:
256,192,148944,1,8,0:0:0:0:
256,176,149458,1,0,0:0:0:0:
256,176,149801,1,8,0:0:0:0:
256,176,149972,1,8,0:0:0:0:
256,176,150144,1,0,0:0:0:0:
256,176,150315,1,8,0:0:0:0:
256,192,150486,1,0,0:0:0:0:
256,176,150658,1,0,0:0:0:0:
256,176,150829,1,8,0:0:0:0:
256,192,151172,1,0,0:0:0:0:
256,176,151344,1,0,0:0:0:0:
256,176,151515,1,8,0:0:0:0:
256,192,151686,1,8,0:0:0:0:
256,176,151858,1,0,0:0:0:0:
256,192,152029,1,0,0:0:0:0:
256,192,152201,1,8,0:0:0:0:
256,176,152544,1,0,0:0:0:0:
256,192,152715,1,8,0:0:0:0:
256,192,152886,1,0,0:0:0:0:
256,192,153058,1,0,0:0:0:0:
256,192,153229,1,8,0:0:0:0:
256,192,153401,1,0,0:0:0:0:
256,192,153572,1,8,0:0:0:0:
256,192,153829,1,8,0:0:0:0:
256,192,153915,1,8,0:0:0:0:
256,192,154086,1,0,0:0:0:0:
256,192,154944,1,12,0:0:0:0:
256,192,155458,1,0,0:0:0:0:
256,192,155972,1,0,0:0:0:0:
256,192,156486,1,0,0:0:0:0:
256,192,157001,1,0,0:0:0:0:
256,192,157344,1,0,0:0:0:0:
256,192,157686,1,12,0:0:0:0:
256,192,158201,1,0,0:0:0:0:
256,192,158715,1,0,0:0:0:0:
256,192,159229,1,0,0:0:0:0:
256,192,159744,1,0,0:0:0:0:
256,192,160086,1,0,0:0:0:0:
256,192,160258,1,0,0:0:0:0:
256,192,160429,1,12,0:0:0:0:
256,192,160772,1,0,0:0:0:0:
256,192,160944,1,0,0:0:0:0:
256,192,161115,1,8,0:0:0:0:
256,192,161286,1,0,0:0:0:0:
256,192,161372,1,0,0:0:0:0:
256,192,161544,1,0,0:0:0:0:
256,192,161801,1,12,0:0:0:0:
256,192,162144,1,8,0:0:0:0:
256,192,162315,1,8,0:0:0:0:
256,192,162486,1,0,0:0:0:0:
256,192,162658,1,0,0:0:0:0:
256,192,162744,1,0,0:0:0:0:
256,192,162915,1,8,0:0:0:0:
256,192,163172,1,0,0:0:0:0:
256,192,163344,1,0,0:0:0:0:
256,192,163515,1,8,0:0:0:0:
256,192,163686,1,0,0:0:0:0:
256,192,163858,1,8,0:0:0:0:
256,192,164029,1,8,0:0:0:0:
256,192,164201,1,0,0:0:0:0:
256,192,164372,1,0,0:0:0:0:
256,192,164544,1,8,0:0:0:0:
256,192,164715,1,0,0:0:0:0:
256,192,164886,1,8,0:0:0:0:
256,192,165058,1,8,0:0:0:0:
256,192,165229,1,0,0:0:0:0:
256,192,165401,1,8,0:0:0:0:
256,192,165915,1,4,0:0:0:0:
256,192,167286,1,0,0:0:0:0:
256,192,168658,1,8,0:0:0:0:
256,192,170029,1,8,0:0:0:0:
256,192,170715,1,8,0:0:0:0:
256,192,171401,1,0,0:0:0:0:
256,192,172772,1,0,0:0:0:0:
256,192,174144,1,8,0:0:0:0:
256,192,175515,1,8,0:0:0:0:
256,192,176886,1,0,0:0:0:0:
256,192,178258,1,0,0:0:0:0:
256,192,179629,1,8,0:0:0:0:
256,192,181001,1,8,0:0:0:0:
256,192,181686,1,8,0:0:0:0:
256,192,182372,1,0,0:0:0:0:
256,192,183744,1,0,0:0:0:0:
256,192,185115,1,8,0:0:0:0:
256,192,187515,1,12,0:0:0:0:
256,192,187858,1,8,0:0:0:0:
256,192,188201,1,8,0:0:0:0:
256,192,188372,1,0,0:0:0:0:
256,192,188715,1,0,0:0:0:0:
256,192,188886,1,0,0:0:0:0:
256,192,189229,1,8,0:0:0:0:
256,192,189572,1,0,0:0:0:0:
256,192,189744,1,8,0:0:0:0:
256,192,190086,1,0,0:0:0:0:
256,192,190258,1,0,0:0:0:0:
256,192,190601,1,8,0:0:0:0:
256,192,190944,1,0,0:0:0:0:
256,192,191115,1,8,0:0:0:0:
256,192,191629,1,0,0:0:0:0:
256,192,191801,1,0,0:0:0:0:
256,192,191972,1,8,0:0:0:0:
256,192,192315,1,8,0:0:0:0:
256,192,192486,1,0,0:0:0:0:
256,192,192829,1,0,0:0:0:0:
256,192,193001,1,8,0:0:0:0:
256,192,193172,1,8,0:0:0:0:
256,192,193344,1,0,0:0:0:0:
256,192,193686,1,8,0:0:0:0:
256,192,193858,1,8,0:0:0:0:
256,192,194201,1,8,0:0:0:0:
256,192,194372,1,0,0:0:0:0:
256,192,194715,1,8,0:0:0:0:
256,192,195058,1,0,0:0:0:0:
256,192,195229,1,8,0:0:0:0:
256,192,195572,1,0,0:0:0:0:
256,192,195744,1,8,0:0:0:0:
256,192,195915,1,0,0:0:0:0:
256,192,196086,1,8,0:0:0:0:
256,192,196429,1,8,0:0:0:0:
256,192,196601,1,0,0:0:0:0:
256,192,196944,1,8,0:0:0:0:
256,192,197115,1,0,0:0:0:0:
256,192,197286,1,0,0:0:0:0:
256,192,197458,1,8,0:0:0:0:
256,192,197972,1,8,0:0:0:0:
256,192,198144,1,8,0:0:0:0:
256,192,198315,1,8,0:0:0:0:
256,192,198486,1,0,0:0:0:0:
263,189,198829,1,12,0:0:0:0:
256,192,199172,1,0,0:0:0:0:
256,192,199515,1,0,0:0:0:0:
256,192,199858,1,0,0:0:0:0:
256,192,200029,1,0,0:0:0:0:
265,193,200201,1,12,0:0:0:0:
256,192,200544,1,0,0:0:0:0:
256,192,200886,1,0,0:0:0:0:
256,192,201229,1,0,0:0:0:0:
256,192,201401,1,0,0:0:0:0:
265,193,201572,1,12,0:0:0:0:
256,192,201915,1,0,0:0:0:0:
256,192,202258,1,0,0:0:0:0:
256,192,202601,1,0,0:0:0:0:
256,192,202772,1,0,0:0:0:0:
265,193,202944,1,12,0:0:0:0:
256,192,203286,1,0,0:0:0:0:
256,192,203629,1,8,0:0:0:0:
256,192,203801,1,0,0:0:0:0:
256,192,203886,1,0,0:0:0:0:
256,192,203972,1,0,0:0:0:0:
256,192,204144,1,0,0:0:0:0:
265,193,204315,1,12,0:0:0:0:
256,192,204658,1,0,0:0:0:0:
256,192,204829,1,0,0:0:0:0:
256,192,205001,1,8,0:0:0:0:
256,192,205172,1,8,0:0:0:0:
256,192,205344,1,0,0:0:0:0:
256,192,205515,1,0,0:0:0:0:
265,193,205686,1,12,0:0:0:0:
265,193,206029,1,8,0:0:0:0:
265,193,206201,1,0,0:0:0:0:
265,193,206372,1,8,0:0:0:0:
256,192,206544,1,8,0:0:0:0:
256,192,206715,1,0,0:0:0:0:
256,192,206886,1,0,0:0:0:0:
256,192,207058,1,12,0:0:0:0:
256,192,207401,1,0,0:0:0:0:
256,192,207572,1,0,0:0:0:0:
256,192,207744,1,8,0:0:0:0:
256,192,207915,1,0,0:0:0:0:
256,192,208086,1,8,0:0:0:0:
256,192,208172,1,8,0:0:0:0:
265,193,208258,1,8,0:0:0:0:
265,193,208429,1,0,0:0:0:0:
260,190,208601,1,0,0:0:0:0:
260,190,208772,1,8,0:0:0:0:
260,190,209115,1,0,0:0:0:0:
256,192,209458,1,8,0:0:0:0:
256,192,209801,1,12,0:0:0:0:
256,192,210144,1,0,0:0:0:0:
256,192,210315,1,0,0:0:0:0:
256,192,210486,1,8,0:0:0:0:
256,192,210572,1,8,0:0:0:0:
256,192,210744,1,0,0:0:0:0:
256,192,211001,1,0,0:0:0:0:
256,192,211172,1,8,0:0:0:0:
256,192,211515,1,0,0:0:0:0:
256,192,211686,1,0,0:0:0:0:
256,192,211858,1,8,0:0:0:0:
256,192,211944,1,8,0:0:0:0:
256,192,212115,1,0,0:0:0:0:
256,192,212372,1,8,0:0:0:0:
256,192,212544,1,0,0:0:0:0:
256,192,212886,1,0,0:0:0:0:
256,192,213058,1,8,0:0:0:0:
256,192,213229,1,0,0:0:0:0:
256,192,213572,1,0,0:0:0:0:
256,192,213744,1,8,0:0:0:0:
256,192,213915,1,0,0:0:0:0:
256,192,214086,1,0,0:0:0:0:
256,192,214172,1,0,0:0:0:0:
256,192,214429,1,8,0:0:0:0:
256,192,214601,1,0,0:0:0:0:
256,192,215115,1,0,0:0:0:0:
256,192,215286,1,8,0:0:0:0:
256,192,215629,1,0,0:0:0:0:
256,192,215801,1,0,0:0:0:0:
256,192,215972,1,8,0:0:0:0:
256,192,216058,1,8,0:0:0:0:
256,192,216229,1,0,0:0:0:0:
256,192,216486,1,0,0:0:0:0:
256,192,216658,1,8,0:0:0:0:
256,192,217001,1,0,0:0:0:0:
256,192,217172,1,0,0:0:0:0:
256,192,217344,1,8,0:0:0:0:
256,192,217429,1,8,0:0:0:0:
256,192,217601,1,0,0:0:0:0:
256,192,217858,1,8,0:0:0:0:
256,192,218029,1,0,0:0:0:0:
256,192,218372,1,0,0:0:0:0:
256,192,218544,1,8,0:0:0:0:
256,192,218715,1,0,0:0:0:0:
256,192,219058,1,0,0:0:0:0:
256,192,219229,1,8,0:0:0:0:
256,192,219401,1,0,0:0:0:0:
256,192,219572,1,0,0:0:0:0:
256,192,219658,1,0,0:0:0:0:
256,192,219915,1,8,0:0:0:0:
256,192,220086,1,0,0:0:0:0:
256,192,220429,1,12,0:0:0:0:
256,192,220772,1,4,0:0:0:0:
256,192,221115,1,8,0:0:0:0:
256,192,221286,1,0,0:0:0:0:
256,192,221458,1,8,0:0:0:0:
256,192,221544,1,8,0:0:0:0:
256,192,221715,1,0,0:0:0:0:
256,192,221972,1,0,0:0:0:0:
256,192,222144,1,8,0:0:0:0:
256,192,222486,1,8,0:0:0:0:
256,192,222658,1,0,0:0:0:0:
256,192,222829,1,8,0:0:0:0:
256,192,222915,1,8,0:0:0:0:
256,192,223086,1,0,0:0:0:0:
256,192,223344,1,8,0:0:0:0:
256,192,223515,1,0,0:0:0:0:
256,192,223858,1,0,0:0:0:0:
256,192,224029,1,8,0:0:0:0:
256,192,224201,1,0,0:0:0:0:
256,192,224544,1,0,0:0:0:0:
256,192,224715,1,8,0:0:0:0:
256,192,224886,1,8,0:0:0:0:
256,192,225058,1,0,0:0:0:0:
256,192,225144,1,0,0:0:0:0:
256,192,225401,1,8,0:0:0:0:
256,192,225572,1,0,0:0:0:0:
256,192,226086,1,0,0:0:0:0:
256,192,226258,1,8,0:0:0:0:
256,192,226601,1,8,0:0:0:0:
256,192,226772,1,0,0:0:0:0:
256,192,226944,1,8,0:0:0:0:
256,192,227029,1,8,0:0:0:0:
256,192,227201,1,0,0:0:0:0:
256,192,227458,1,0,0:0:0:0:
256,192,227629,1,8,0:0:0:0:
256,192,227972,1,8,0:0:0:0:
256,192,228144,1,0,0:0:0:0:
256,192,228315,1,8,0:0:0:0:
256,192,228401,1,8,0:0:0:0:
256,192,228572,1,0,0:0:0:0:
256,192,228829,1,8,0:0:0:0:
256,192,229001,1,0,0:0:0:0:
256,192,229344,1,0,0:0:0:0:
256,192,229515,1,8,0:0:0:0:
256,192,229686,1,0,0:0:0:0:
256,192,229858,1,8,0:0:0:0:
256,192,229944,1,8,0:0:0:0:
256,192,230029,1,8,0:0:0:0:
256,192,230201,1,8,0:0:0:0:
256,192,230372,1,0,0:0:0:0:
256,192,231401,1,8,0:0:0:0:
256,192,231744,1,12,0:0:0:0:
256,192,232001,1,0,0:0:0:0:
256,192,232086,1,0,0:0:0:0:
256,192,232258,1,8,0:0:0:0:
256,192,232601,1,8,0:0:0:0:
256,192,232772,1,0,0:0:0:0:
256,192,232944,1,0,0:0:0:0:
256,192,233115,1,8,0:0:0:0:
256,192,233372,1,0,0:0:0:0:
256,176,233458,1,0,0:0:0:0:
256,176,233629,1,8,0:0:0:0:
256,192,233972,1,0,0:0:0:0:
256,176,234144,1,0,0:0:0:0:
256,176,234315,1,8,0:0:0:0:
256,192,234486,1,8,0:0:0:0:
256,192,234744,1,0,0:0:0:0:
256,176,234829,1,0,0:0:0:0:
256,176,235001,1,8,0:0:0:0:
256,192,235344,1,0,0:0:0:0:
256,176,235515,1,8,0:0:0:0:
256,192,235686,1,0,0:0:0:0:
256,192,235858,1,8,0:0:0:0:
256,176,236372,1,0,0:0:0:0:
256,192,236715,1,8,0:0:0:0:
256,192,236801,1,8,0:0:0:0:
256,176,236886,1,8,0:0:0:0:
256,192,237058,1,8,0:0:0:0:
256,192,237229,1,0,0:0:0:0:
256,192,237486,1,0,0:0:0:0:
256,176,237572,1,0,0:0:0:0:
256,176,237744,1,8,0:0:0:0:
256,176,238086,1,8,0:0:0:0:
256,176,238258,1,0,0:0:0:0:
256,192,238429,1,0,0:0:0:0:
256,192,238601,1,8,0:0:0:0:
256,192,238858,1,0,0:0:0:0:
256,176,238944,1,0,0:0:0:0:
256,176,239115,1,8,0:0:0:0:
256,176,239458,1,0,0:0:0:0:
256,176,239629,1,8,0:0:0:0:
256,176,239801,1,0,0:0:0:0:
256,176,239972,1,8,0:0:0:0:
256,176,240315,1,8,0:0:0:0:
256,176,240486,1,8,0:0:0:0:
256,176,240658,1,0,0:0:0:0:
256,192,240829,1,0,0:0:0:0:
256,176,241001,1,8,0:0:0:0:
256,192,241172,1,8,0:0:0:0:
256,176,241344,1,0,0:0:0:0:
256,192,241515,1,0,0:0:0:0:
256,176,241601,1,0,0:0:0:0:
256,176,241858,1,8,0:0:0:0:
256,176,242029,1,0,0:0:0:0:
256,192,242372,1,8,0:0:0:0:
256,192,242715,1,12,0:0:0:0:
256,192,243058,1,0,0:0:0:0:
256,192,243229,1,8,0:0:0:0:
256,192,243572,1,8,0:0:0:0:
256,192,243744,1,0,0:0:0:0:
256,192,243915,1,0,0:0:0:0:
256,192,244086,1,8,0:0:0:0:
256,192,244344,1,0,0:0:0:0:
256,176,244429,1,0,0:0:0:0:
256,176,244601,1,8,0:0:0:0:
256,176,244944,1,8,0:0:0:0:
256,192,245115,1,8,0:0:0:0:
256,176,245286,1,8,0:0:0:0:
256,176,245458,1,0,0:0:0:0:
256,192,245715,1,0,0:0:0:0:
256,176,245801,1,0,0:0:0:0:
256,176,245972,1,8,0:0:0:0:
256,176,246315,1,0,0:0:0:0:
256,192,246486,1,0,0:0:0:0:
256,176,246658,1,8,0:0:0:0:
256,192,246829,1,8,0:0:0:0:
256,176,247344,1,0,0:0:0:0:
256,192,247686,1,8,0:0:0:0:
256,192,247772,1,8,0:0:0:0:
256,192,247858,1,8,0:0:0:0:
256,192,248029,1,8,0:0:0:0:
256,192,248201,1,0,0:0:0:0:
256,192,248458,1,0,0:0:0:0:
256,176,248544,1,0,0:0:0:0:
256,176,248715,1,8,0:0:0:0:
256,176,249058,1,8,0:0:0:0:
256,176,249229,1,0,0:0:0:0:
256,192,249401,1,0,0:0:0:0:
256,192,249572,1,8,0:0:0:0:
256,192,249829,1,0,0:0:0:0:
256,176,249915,1,0,0:0:0:0:
256,176,250086,1,8,0:0:0:0:
256,176,250429,1,0,0:0:0:0:
256,176,250601,1,8,0:0:0:0:
256,176,250772,1,0,0:0:0:0:
256,176,250944,1,8,0:0:0:0:
256,176,251286,1,8,0:0:0:0:
256,176,251458,1,8,0:0:0:0:
256,176,251629,1,0,0:0:0:0:
256,192,251801,1,0,0:0:0:0:
256,176,251972,1,8,0:0:0:0:
256,176,252144,1,8,0:0:0:0:
256,176,252315,1,0,0:0:0:0:
256,192,253001,1,12,0:0:0:0:
256,192,253344,1,12,0:0:0:0:
256,192,253686,1,4,0:0:0:0:
256,192,254029,1,0,0:0:0:0:
256,192,254372,1,8,0:0:0:0:
256,192,254715,1,0,0:0:0:0:
256,192,254886,1,8,0:0:0:0:
256,192,255058,1,0,0:0:0:0:
256,192,255401,1,0,0:0:0:0:
256,192,255744,1,8,0:0:0:0:
256,192,256086,1,0,0:0:0:0:
256,192,256258,1,8,0:0:0:0:
256,192,256429,1,0,0:0:0:0:
256,192,256772,1,0,0:0:0:0:
256,192,257115,1,8,0:0:0:0:
256,192,257458,1,0,0:0:0:0:
256,192,257629,1,8,0:0:0:0:
256,192,257801,1,0,0:0:0:0:
256,192,258144,1,0,0:0:0:0:
256,192,258486,1,8,0:0:0:0:
256,192,258658,1,8,0:0:0:0:
256,192,259172,1,8,0:0:0:0:
256,192,259515,1,0,0:0:0:0:
256,192,259858,1,8,0:0:0:0:
256,192,260029,1,0,0:0:0:0:
256,192,260372,1,8,0:0:0:0:
256,192,260544,1,0,0:0:0:0:
256,192,260886,1,0,0:0:0:0:
256,192,261229,1,8,0:0:0:0:
256,192,261401,1,0,0:0:0:0:
256,192,261744,1,8,0:0:0:0:
256,192,261915,1,0,0:0:0:0:
256,192,262258,1,0,0:0:0:0:
256,192,262601,1,8,0:0:0:0:
256,192,262772,1,0,0:0:0:0:
256,192,263115,1,8,0:0:0:0:
256,192,263458,1,8,0:0:0:0:
256,192,263801,1,8,0:0:0:0:
256,192,264144,1,8,0:0:0:0:
256,192,264658,1,4,0:0:0:0:
256,192,265001,1,0,0:0:0:0:
256,192,265172,1,0,0:0:0:0:
256,192,265344,1,8,0:0:0:0:
256,192,265515,1,8,0:0:0:0:
256,192,265858,1,8,0:0:0:0:
256,192,266029,1,4,0:0:0:0:
256,192,266372,1,8,0:0:0:0:
256,192,266544,1,0,0:0:0:0:
256,192,266715,1,8,0:0:0:0:
256,192,266886,1,0,0:0:0:0:
256,192,267229,1,8,0:0:0:0:
256,192,267401,1,4,0:0:0:0:
256,192,267744,1,0,0:0:0:0:
256,192,267915,1,0,0:0:0:0:
256,192,268086,1,8,0:0:0:0:
256,192,268258,1,8,0:0:0:0:
256,192,268601,1,8,0:0:0:0:
256,192,268772,1,4,0:0:0:0:
256,192,269115,1,0,0:0:0:0:
256,192,269286,1,0,0:0:0:0:
256,192,269458,1,8,0:0:0:0:
256,192,269544,1,8,0:0:0:0:
256,192,269715,1,8,0:0:0:0:
256,192,269801,1,8,0:0:0:0:
256,192,270144,1,8,0:0:0:0:
256,192,270315,1,8,0:0:0:0:
256,192,270486,1,0,0:0:0:0:
256,192,270658,1,0,0:0:0:0:
256,192,270829,1,8,0:0:0:0:
256,192,271172,1,8,0:0:0:0:
256,192,271344,1,0,0:0:0:0:
256,192,271515,1,8,0:0:0:0:
256,192,271686,1,8,0:0:0:0:
256,192,271858,1,0,0:0:0:0:
256,192,272029,1,0,0:0:0:0:
256,192,272201,1,8,0:0:0:0:
256,192,272544,1,0,0:0:0:0:
256,192,272715,1,0,0:0:0:0:
256,192,272886,1,8,0:0:0:0:
256,192,272972,1,8,0:0:0:0:
256,192,273058,1,8,0:0:0:0:
256,192,273229,1,0,0:0:0:0:
256,192,273401,1,0,0:0:0:0:
256,192,273572,1,8,0:0:0:0:
256,192,273658,1,8,0:0:0:0:
256,192,273744,1,8,0:0:0:0:
256,192,273915,1,0,0:0:0:0:
256,192,274086,1,8,0:0:0:0:
256,192,274258,1,0,0:0:0:0:
256,192,274944,1,12,0:0:0:0:
256,192,275286,1,12,0:0:0:0:
