osu file format v14

[General]
AudioFilename: audio.ogg
AudioLeadIn: 0
PreviewTime: 89115
Countdown: 0
SampleSet: Normal
StackLeniency: 0.7
Mode: 1
LetterboxInBreaks: 0
WidescreenStoryboard: 1

[Editor]
DistanceSpacing: 0.8
BeatDivisor: 4
GridSize: 16
TimelineZoom: 2.999999

[Metadata]
Title:SEVENTH HAVEN (Mtell Remix)
TitleUnicode:SEVENTH HAVEN (Mtell Remix)
Artist:SEVENTH SISTERS
ArtistUnicode:セブンスシスターズ
Creator:ler1211
Version:ONI
Source:Tokyo 7th シスターズ
Tags:ktyn kitajimayn yuni Ph0eNiiXZ phoeniixz phoenix Are You Ready 7th-TYPES?? Nanasaki Nicole 七咲ニコル Minase Inori 水瀬いのり Hanyuuda Mito 羽生田ミト Fuchigami Mai 渕上舞 Misonoo Mana 御園尾マナ Maeda Rena 前田 玲奈 Kotobuki Qruit 寿クルト Kurose Yuuko 黒瀬 ゆうこ Wakaouji Rui 若王子ルイ Kawasaki Meiko 川﨑芽衣子 Yusa Memoru 遊佐メモル Tsuji Ayumi 辻 あゆみ japanese electronic j-core jcore hardcore idol group bootleg videogame
BeatmapID:3579864
BeatmapSetID:1749857

[Difficulty]
HPDrainRate:6
CircleSize:5
OverallDifficulty:5
ApproachRate:5
SliderMultiplier:1.4
SliderTickRate:1

[Events]
//Background and Video events
0,0,"nana.jpg",0,100
//Break Periods
//Storyboard Layer 0 (Background)
//Storyboard Layer 1 (Fail)
//Storyboard Layer 2 (Pass)
//Storyboard Layer 3 (Foreground)
//Storyboard Layer 4 (Overlay)
//Storyboard Sound Samples

[TimingPoints]
1344,342.857142857143,4,1,0,80,1,0
11886,-71.4285714285714,4,1,0,80,0,0
12229,-100,4,1,0,80,0,0
17798,-100,4,1,0,80,0,0
17884,-99.709252777513,4,1,0,80,0,0
17969,-99.4193508944999,4,1,0,80,0,0
18055,-99.1302918931596,4,1,0,80,0,0
18141,-98.842073322837,4,1,0,80,0,0
18227,-98.5546927400023,4,1,0,80,0,0
18312,-98.2681477082301,4,1,0,80,0,0
18398,-97.9824357981791,4,1,0,80,0,0
18484,-97.6975545875708,4,1,0,80,0,0
18569,-97.4135016611697,4,1,0,80,0,0
18655,-97.1302746107625,4,1,0,80,0,0
18741,-96.8478710351378,4,1,0,80,0,0
18827,-96.5662885400654,4,1,0,80,0,0
18912,-96.2855247382764,4,1,0,80,0,0
18998,-96.0055772494428,4,1,0,80,0,0
19084,-95.7264437001575,4,1,0,80,0,0
19169,-95.4481217239137,4,1,0,80,0,0
19255,-95.1706089610854,4,1,0,80,0,0
19341,-94.8939030589071,4,1,0,80,0,0
19427,-94.6180016714539,4,1,0,80,0,0
19512,-94.3429024596214,4,1,0,80,0,0
19598,-94.0686030911065,4,1,0,80,0,0
19684,-93.7951012403868,4,1,0,80,0,0
19769,-93.5223945887015,4,1,0,80,0,0
19855,-93.2504808240316,4,1,0,80,0,0
19941,-92.9793576410799,4,1,0,80,0,0
20027,-92.7090227412523,4,1,0,80,0,0
20112,-92.4394738326373,4,1,0,80,0,0
20198,-92.1707086299873,4,1,0,80,0,0
20284,-91.902724854699,4,1,0,80,0,0
20369,-91.6355202347942,4,1,0,80,0,0
20455,-91.3690925049,4,1,0,80,0,0
20541,-91.1034394062305,4,1,0,80,0,0
20627,-90.8385586865667,4,1,0,80,0,0
20712,-90.5744481002383,4,1,0,80,0,0
20798,-90.311105408104,4,1,0,80,0,0
20884,-90.0485283775326,4,1,0,80,0,0
20969,-89.7867147823846,4,1,0,80,0,0
21055,-89.5256624029925,4,1,0,80,0,0
21141,-89.2653690261427,4,1,0,80,0,0
21227,-89.0058324450565,4,1,0,80,0,0
21312,-88.747050459371,4,1,0,80,0,0
21398,-88.4890208751213,4,1,0,80,0,0
21484,-88.231741504721,4,1,0,80,0,0
21569,-87.9752101669441,4,1,0,80,0,0
21655,-87.7194246869066,4,1,0,80,0,0
21741,-87.4643828960479,4,1,0,80,0,0
21827,-87.2100826321123,4,1,0,80,0,0
21872,-87.2100826321123,4,1,0,50,0,0
21912,-86.9565217391308,4,1,0,50,0,0
22772,-71.4285714285714,4,1,0,80,0,0
23286,-108.695652173913,4,1,0,80,0,0
44801,-83.3333333333333,4,1,0,80,0,0
45229,-100,4,1,0,80,0,0
56201,-83.3333333333333,4,1,0,80,0,1
56544,-100,4,1,0,80,0,0
57572,-83.3333333333333,4,1,0,80,0,1
57915,-100,4,1,0,80,0,0
58944,-83.3333333333333,4,1,0,80,0,1
59286,-100,4,1,0,80,0,0
60315,-83.3333333333333,4,1,0,80,0,1
60401,-100,4,1,0,80,0,1
60658,-100,4,1,0,80,0,0
61683,-83.3333333333333,4,1,0,80,0,0
61769,-99.709252777513,4,1,0,80,0,0
61854,-99.4193508944999,4,1,0,80,0,0
61940,-99.1302918931596,4,1,0,80,0,0
62026,-98.842073322837,4,1,0,80,0,0
62112,-98.5546927400023,4,1,0,80,0,0
62197,-98.2681477082301,4,1,0,80,0,0
62283,-97.9824357981791,4,1,0,80,0,0
62369,-97.6975545875708,4,1,0,80,0,0
62454,-97.4135016611697,4,1,0,80,0,0
62540,-97.1302746107625,4,1,0,80,0,0
62626,-96.8478710351378,4,1,0,80,0,0
62712,-96.5662885400654,4,1,0,80,0,0
62797,-96.2855247382764,4,1,0,80,0,0
62883,-96.0055772494428,4,1,0,80,0,0
62969,-95.7264437001575,4,1,0,80,0,0
63054,-95.4481217239137,4,1,0,80,0,0
63140,-95.1706089610854,4,1,0,80,0,0
63226,-94.8939030589071,4,1,0,80,0,0
63312,-94.6180016714539,4,1,0,80,0,0
63397,-94.3429024596214,4,1,0,80,0,0
63483,-94.0686030911065,4,1,0,80,0,0
63569,-93.7951012403868,4,1,0,80,0,0
63654,-93.5223945887015,4,1,0,80,0,0
63740,-93.2504808240316,4,1,0,80,0,0
63826,-92.9793576410799,4,1,0,80,0,0
63912,-92.7090227412523,4,1,0,80,0,0
63997,-92.4394738326373,4,1,0,80,0,0
64083,-92.1707086299873,4,1,0,80,0,0
64169,-91.902724854699,4,1,0,80,0,0
64254,-91.6355202347942,4,1,0,80,0,0
64340,-91.3690925049,4,1,0,80,0,0
64426,-91.1034394062305,4,1,0,80,0,0
64512,-90.8385586865667,4,1,0,80,0,0
64597,-90.5744481002383,4,1,0,80,0,0
64683,-90.311105408104,4,1,0,80,0,0
64769,-90.0485283775326,4,1,0,80,0,0
64854,-89.7867147823846,4,1,0,80,0,0
64940,-89.5256624029925,4,1,0,80,0,0
65026,-89.2653690261427,4,1,0,80,0,0
65112,-89.0058324450565,4,1,0,80,0,0
65197,-88.747050459371,4,1,0,80,0,0
65283,-88.4890208751213,4,1,0,80,0,0
65369,-88.231741504721,4,1,0,80,0,0
65454,-87.9752101669441,4,1,0,80,0,0
65540,-87.7194246869066,4,1,0,80,0,0
65626,-87.4643828960479,4,1,0,80,0,0
65712,-87.2100826321123,4,1,0,80,0,0
65758,-87.2100826321123,4,1,0,50,0,0
65797,-86.9565217391308,4,1,0,50,0,0
66358,-71.4285714285714,4,1,0,50,0,0
67172,-89.2857142857143,4,1,0,90,0,1
76772,-89.2857142857143,4,1,0,80,0,0
77715,-71.4285714285714,4,1,0,80,0,0
77972,-89.2857142857143,4,1,0,80,0,0
78144,-89.2857142857143,4,1,0,90,0,1
87744,-89.2857142857143,4,1,0,80,0,0
88686,-71.4285714285714,4,1,0,80,0,0
89115,-90.9090909090909,4,1,0,90,0,1
99744,-71.4285714285714,4,1,0,90,0,0
100086,-90.9090909090909,4,1,0,90,0,1
109686,-90.9090909090909,4,1,0,80,0,0
110629,-71.4285714285714,4,1,0,80,0,0
111058,-90.9090909090909,4,1,0,80,0,0
121601,-71.4285714285714,4,1,0,80,0,0
121858,-90.9090909090909,4,1,0,80,0,0
132229,-71.4285714285714,4,1,0,80,0,0
133001,-100,4,1,0,80,0,0
154941,-71.4285714285714,4,1,0,80,0,0
155112,-72.1835879798912,4,1,0,80,0,0
155284,-72.9465852311097,4,1,0,80,0,0
155455,-73.7176475400742,4,1,0,80,0,0
155627,-74.4968601563138,4,1,0,80,0,0
155798,-75.284309230465,4,1,0,80,0,0
155970,-76.0800818237965,4,1,0,80,0,0
156141,-76.8842659178347,4,1,0,80,0,0
156312,-77.6969504240912,4,1,0,80,0,0
156484,-78.5182251938929,4,1,0,80,0,0
156655,-79.3481810283159,4,1,0,80,0,0
156827,-80.1869096882248,4,1,0,80,0,0
156998,-81.0345039044179,4,1,0,80,0,0
157170,-81.8910573878795,4,1,0,80,0,0
157341,-82.7566648401405,4,1,0,80,0,0
157512,-83.6314219637491,4,1,0,80,0,0
157684,-84.5154254728516,4,1,0,80,0,0
157855,-85.4087731038853,4,1,0,80,0,0
158027,-86.3115636263842,4,1,0,80,0,0
158198,-87.2238968538992,4,1,0,80,0,0
158370,-88.1458736550334,4,1,0,80,0,0
158541,-89.0775959645947,4,1,0,80,0,0
158712,-90.0191667948653,4,1,0,80,0,0
158884,-90.9706902469913,4,1,0,80,0,0
159055,-91.9322715224918,4,1,0,80,0,0
159227,-92.9040169348905,4,1,0,80,0,0
159398,-93.8860339214696,4,1,0,80,0,0
159570,-94.8784310551483,4,1,0,80,0,0
159741,-95.8813180564867,4,1,0,80,0,0
159912,-96.8948058058168,4,1,0,80,0,0
160084,-97.9190063555011,4,1,0,80,0,0
160255,-98.9540329423218,4,1,0,80,0,0
160427,-99.9999999999999,4,1,0,80,0,0
160512,-99.7155279582202,4,1,0,80,0,0
160597,-99.431865159866,4,1,0,80,0,0
160683,-99.149009302866,4,1,0,80,0,0
160769,-98.8669580916978,4,1,0,80,0,0
160855,-98.5857092373688,4,1,0,80,0,0
160940,-98.3052604573982,4,1,0,80,0,0
161026,-98.0256094757981,4,1,0,80,0,0
161112,-97.7467540230552,4,1,0,80,0,0
161197,-97.4686918361124,4,1,0,80,0,0
161283,-97.1914206583502,4,1,0,80,0,0
161369,-96.9149382395686,4,1,0,80,0,0
161455,-96.639242335969,4,1,0,80,0,0
161540,-96.3643307101353,4,1,0,80,0,0
161626,-96.0902011310168,4,1,0,80,0,0
161712,-95.8168513739091,4,1,0,80,0,0
161797,-95.5442792204367,4,1,0,80,0,0
161883,-95.2724824585346,4,1,0,80,0,0
161969,-95.0014588824305,4,1,0,80,0,0
162055,-94.7312062926271,4,1,0,80,0,0
162140,-94.4617224958838,4,1,0,80,0,0
162226,-94.1930053051995,4,1,0,80,0,0
162312,-93.9250525397941,4,1,0,80,0,0
162397,-93.6578620250914,4,1,0,80,0,0
162483,-93.3914315927013,4,1,0,80,0,0
162569,-93.1257590804022,4,1,0,80,0,0
162655,-92.8608423321233,4,1,0,80,0,0
162740,-92.5966791979272,4,1,0,80,0,0
162826,-92.3332675339926,4,1,0,80,0,0
162912,-92.0706052025967,4,1,0,80,0,0
162997,-91.8086900720979,4,1,0,80,0,0
163083,-91.5475200169186,4,1,0,80,0,0
163169,-91.2870929175277,4,1,0,80,0,0
163255,-91.0274066604238,4,1,0,80,0,0
163340,-90.7684591381177,4,1,0,80,0,0
163426,-90.5102482491155,4,1,0,80,0,0
163512,-90.2527718979013,4,1,0,80,0,0
163597,-89.9960279949205,4,1,0,80,0,0
163683,-89.7400144565627,4,1,0,80,0,0
163769,-89.4847292051447,4,1,0,80,0,0
163855,-89.2301701688937,4,1,0,80,0,0
163940,-88.9763352819307,4,1,0,80,0,0
164026,-88.7232224842534,4,1,0,80,0,0
164112,-88.4708297217196,4,1,0,80,0,0
164197,-88.2191549460307,4,1,0,80,0,0
164283,-87.9681961147149,4,1,0,80,0,0
164369,-87.7179511911106,4,1,0,80,0,0
164455,-87.4684181443498,4,1,0,80,0,0
164540,-87.2195949493422,4,1,0,80,0,0
164626,-86.9714795867577,4,1,0,80,0,0
164712,-86.7240700430112,4,1,0,80,0,0
164797,-86.4773643102453,4,1,0,80,0,0
164883,-86.2313603863146,4,1,0,80,0,0
164969,-85.9860562747692,4,1,0,80,0,0
165055,-85.7414499848385,4,1,0,80,0,0
165140,-85.4975395314151,4,1,0,80,0,0
165226,-85.2543229350386,4,1,0,80,0,0
165312,-85.0117982218798,4,1,0,80,0,0
165397,-84.7699634237243,4,1,0,80,0,0
165483,-84.5288165779569,4,1,0,80,0,0
165569,-84.2883557275453,4,1,0,80,0,0
165826,-108.695652173913,4,1,0,80,0,0
176883,-108.695652173913,4,1,0,80,0,0
176969,-108.522370616743,4,1,0,80,0,0
177054,-108.349365303355,4,1,0,80,0,0
177140,-108.176635793364,4,1,0,80,0,0
177226,-108.004181647086,4,1,0,80,0,0
177312,-107.832002425541,4,1,0,80,0,0
177397,-107.660097690445,4,1,0,80,0,0
177483,-107.488467004214,4,1,0,80,0,0
177569,-107.317109929963,4,1,0,80,0,0
177654,-107.146026031502,4,1,0,80,0,0
177740,-106.975214873337,4,1,0,80,0,0
177826,-106.804676020668,4,1,0,80,0,0
177912,-106.634409039388,4,1,0,80,0,0
177997,-106.464413496082,4,1,0,80,0,0
178083,-106.294688958027,4,1,0,80,0,0
178169,-106.125234993189,4,1,0,80,0,0
178254,-105.956051170222,4,1,0,80,0,0
178340,-105.787137058469,4,1,0,80,0,0
178426,-105.618492227958,4,1,0,80,0,0
178512,-105.450116249406,4,1,0,80,0,0
178597,-105.282008694209,4,1,0,80,0,0
178683,-105.11416913445,4,1,0,80,0,0
178769,-104.946597142894,4,1,0,80,0,0
178854,-104.779292292986,4,1,0,80,0,0
178940,-104.612254158851,4,1,0,80,0,0
179026,-104.445482315294,4,1,0,80,0,0
179112,-104.278976337796,4,1,0,80,0,0
179197,-104.112735802516,4,1,0,80,0,0
179283,-103.94676028629,4,1,0,80,0,0
179369,-103.781049366626,4,1,0,80,0,0
179454,-103.615602621708,4,1,0,80,0,0
179540,-103.450419630389,4,1,0,80,0,0
179626,-103.285499972197,4,1,0,80,0,0
179712,-103.120843227329,4,1,0,80,0,0
179797,-102.956448976651,4,1,0,80,0,0
179883,-102.792316801696,4,1,0,80,0,0
179969,-102.628446284667,4,1,0,80,0,0
180054,-102.464837008432,4,1,0,80,0,0
180140,-102.301488556521,4,1,0,80,0,0
180226,-102.138400513132,4,1,0,80,0,0
180312,-101.975572463125,4,1,0,80,0,0
180397,-101.813003992019,4,1,0,80,0,0
180483,-101.650694685998,4,1,0,80,0,0
180569,-101.488644131902,4,1,0,80,0,0
180654,-101.326851917231,4,1,0,80,0,0
180740,-101.165317630144,4,1,0,80,0,0
180826,-101.004040859455,4,1,0,80,0,0
180912,-100.843021194633,4,1,0,80,0,0
180997,-100.682258225804,4,1,0,80,0,0
181083,-100.521751543744,4,1,0,80,0,0
181169,-100.361500739884,4,1,0,80,0,0
181254,-100.201505406305,4,1,0,80,0,0
181340,-100.041765135739,4,1,0,80,0,0
181426,-99.882279521567,4,1,0,80,0,0
181512,-99.7230481578183,4,1,0,80,0,0
181597,-99.5640706391693,4,1,0,80,0,0
181683,-99.4053465609426,4,1,0,80,0,0
181769,-99.2468755191059,4,1,0,80,0,0
181854,-99.088657110271,4,1,0,80,0,0
181940,-98.9306909316929,4,1,0,80,0,0
182026,-98.7729765812685,4,1,0,80,0,0
182112,-98.6155136575359,4,1,0,80,0,0
182197,-98.4583017596729,4,1,0,80,0,0
182283,-98.3013404874966,4,1,0,80,0,0
182369,-98.144629441462,4,1,0,80,0,0
182454,-97.988168222661,4,1,0,80,0,0
182540,-97.8319564328213,4,1,0,80,0,0
182626,-97.6759936743058,4,1,0,80,0,0
182712,-97.5202795501112,4,1,0,80,0,0
182797,-97.364813663867,4,1,0,80,0,0
182883,-97.2095956198346,4,1,0,80,0,0
182969,-97.0546250229064,4,1,0,80,0,0
183054,-96.8999014786047,4,1,0,80,0,0
183140,-96.7454245930805,4,1,0,80,0,0
183226,-96.5911939731128,4,1,0,80,0,0
183312,-96.4372092261074,4,1,0,80,0,0
183397,-96.283469960096,4,1,0,80,0,0
183483,-96.1299757837353,4,1,0,80,0,0
183569,-95.9767263063055,4,1,0,80,0,0
183654,-95.8237211377102,4,1,0,80,0,0
183740,-95.6709598884744,4,1,0,80,0,0
183826,-95.5184421697444,4,1,0,80,0,0
183912,-95.3661675932861,4,1,0,80,0,0
183997,-95.2141357714845,4,1,0,80,0,0
184083,-95.0623463173424,4,1,0,80,0,0
184169,-94.9107988444797,4,1,0,80,0,0
184254,-94.7594929671322,4,1,0,80,0,0
184340,-94.6084283001506,4,1,0,80,0,0
184426,-94.4576044589997,4,1,0,80,0,0
184512,-94.3070210597573,4,1,0,80,0,0
184597,-94.1566777191132,4,1,0,80,0,0
184683,-94.0065740543683,4,1,0,80,0,0
184769,-93.8567096834337,4,1,0,80,0,0
184854,-93.7070842248294,4,1,0,80,0,0
184940,-93.5576972976837,4,1,0,80,0,0
185026,-93.4085485217322,4,1,0,80,0,0
185112,-93.2596375173163,4,1,0,80,0,0
185197,-93.1109639053832,4,1,0,80,0,0
185283,-92.9625273074839,4,1,0,80,0,0
185369,-92.814327345773,4,1,0,80,0,0
185454,-92.6663636430074,4,1,0,80,0,0
185540,-92.5186358225453,4,1,0,80,0,0
185626,-92.3711435083455,4,1,0,80,0,0
185712,-92.2238863249661,4,1,0,80,0,0
185797,-92.0768638975639,4,1,0,80,0,0
185883,-91.9300758518932,4,1,0,80,0,0
185969,-91.7835218143048,4,1,0,80,0,0
186054,-91.6372014117454,4,1,0,80,0,0
186140,-91.4911142717562,4,1,0,80,0,0
186226,-91.3452600224724,4,1,0,80,0,0
186312,-91.1996382926218,4,1,0,80,0,0
186397,-91.0542487115241,4,1,0,80,0,0
186483,-90.9090909090902,4,1,0,80,0,0
187429,-71.4285714285714,4,1,0,80,0,0
187858,-100,4,1,0,80,0,0
198829,-100,4,1,0,80,0,1
199172,-100,4,1,0,80,0,0
200201,-100,4,1,0,80,0,1
200544,-100,4,1,0,80,0,0
201572,-100,4,1,0,80,0,1
201915,-100,4,1,0,80,0,0
202944,-100,4,1,0,80,0,1
203286,-100,4,1,0,80,0,0
204294,-100,4,1,0,80,0,0
204380,-99.709252777513,4,1,0,80,0,0
204465,-99.4193508944999,4,1,0,80,0,0
204551,-99.1302918931596,4,1,0,80,0,0
204637,-98.842073322837,4,1,0,80,0,0
204723,-98.5546927400023,4,1,0,80,0,0
204808,-98.2681477082301,4,1,0,80,0,0
204894,-97.9824357981791,4,1,0,80,0,0
204980,-97.6975545875708,4,1,0,80,0,0
205065,-97.4135016611697,4,1,0,80,0,0
205151,-97.1302746107625,4,1,0,80,0,0
205237,-96.8478710351378,4,1,0,80,0,0
205323,-96.5662885400654,4,1,0,80,0,0
205408,-96.2855247382764,4,1,0,80,0,0
205494,-96.0055772494428,4,1,0,80,0,0
205580,-95.7264437001575,4,1,0,80,0,0
205665,-95.4481217239137,4,1,0,80,0,0
205751,-95.1706089610854,4,1,0,80,0,0
205837,-94.8939030589071,4,1,0,80,0,0
205923,-94.6180016714539,4,1,0,80,0,0
206008,-94.3429024596214,4,1,0,80,0,0
206094,-94.0686030911065,4,1,0,80,0,0
206180,-93.7951012403868,4,1,0,80,0,0
206265,-93.5223945887015,4,1,0,80,0,0
206351,-93.2504808240316,4,1,0,80,0,0
206437,-92.9793576410799,4,1,0,80,0,0
206523,-92.7090227412523,4,1,0,80,0,0
206608,-92.4394738326373,4,1,0,80,0,0
206694,-92.1707086299873,4,1,0,80,0,0
206780,-91.902724854699,4,1,0,80,0,0
206865,-91.6355202347942,4,1,0,80,0,0
206951,-91.3690925049,4,1,0,80,0,0
207037,-91.1034394062305,4,1,0,80,0,0
207123,-90.8385586865667,4,1,0,80,0,0
207208,-90.5744481002383,4,1,0,80,0,0
207294,-90.311105408104,4,1,0,80,0,0
207380,-90.0485283775326,4,1,0,80,0,0
207465,-89.7867147823846,4,1,0,80,0,0
207551,-89.5256624029925,4,1,0,80,0,0
207637,-89.2653690261427,4,1,0,80,0,0
207723,-89.0058324450565,4,1,0,80,0,0
207808,-88.747050459371,4,1,0,80,0,0
207894,-88.4890208751213,4,1,0,80,0,0
207980,-88.231741504721,4,1,0,80,0,0
208065,-87.9752101669441,4,1,0,80,0,0
208151,-87.7194246869066,4,1,0,80,0,0
208237,-87.4643828960479,4,1,0,80,0,0
208323,-87.2100826321123,4,1,0,80,0,0
208386,-87.2100826321123,4,1,0,50,0,0
208408,-86.9565217391308,4,1,0,50,0,0
209268,-71.4285714285714,4,1,0,80,0,0
209801,-90.9090909090909,4,1,0,90,0,1
220429,-71.4285714285714,4,1,0,90,0,0
220772,-90.9090909090909,4,1,0,90,0,1
230372,-90.9090909090909,4,1,0,80,0,0
231401,-71.4285714285714,4,1,0,80,0,0
231572,-90.9090909090909,4,1,0,80,0,0
242286,-71.4285714285714,4,1,0,80,0,0
242544,-90.9090909090909,4,1,0,80,0,0
252915,-71.4285714285714,4,1,0,80,0,0
253686,-100,4,1,0,80,0,0
264655,-100,4,1,0,80,0,0
264741,-99.8752903786111,4,1,0,80,0,0
264826,-99.7507362821189,4,1,0,80,0,0
264912,-99.6263375165689,4,1,0,80,0,0
264998,-99.5020938882483,4,1,0,80,0,0
265084,-99.3780052036863,4,1,0,80,0,0
265169,-99.254071269653,4,1,0,80,0,0
265255,-99.1302918931595,4,1,0,80,0,0
265341,-99.0066668814579,4,1,0,80,0,0
265426,-98.8831960420403,4,1,0,80,0,0
265512,-98.759879182639,4,1,0,80,0,0
265598,-98.6367161112262,4,1,0,80,0,0
265684,-98.5137066360135,4,1,0,80,0,0
265769,-98.3908505654516,4,1,0,80,0,0
265855,-98.2681477082301,4,1,0,80,0,0
265941,-98.1455978732773,4,1,0,80,0,0
266026,-98.0232008697597,4,1,0,80,0,0
266112,-97.9009565070818,4,1,0,80,0,0
266198,-97.7788645948857,4,1,0,80,0,0
266284,-97.6569249430511,4,1,0,80,0,0
266369,-97.5351373616946,4,1,0,80,0,0
266455,-97.4135016611697,4,1,0,80,0,0
266541,-97.2920176520664,4,1,0,80,0,0
266626,-97.1706851452109,4,1,0,80,0,0
266712,-97.0495039516653,4,1,0,80,0,0
266798,-96.9284738827274,4,1,0,80,0,0
266884,-96.8075947499303,4,1,0,80,0,0
266969,-96.686866365042,4,1,0,80,0,0
267055,-96.5662885400653,4,1,0,80,0,0
267141,-96.4458610872377,4,1,0,80,0,0
267226,-96.3255838190306,4,1,0,80,0,0
267312,-96.2054565481493,4,1,0,80,0,0
267398,-96.0854790875326,4,1,0,80,0,0
267484,-95.9656512503529,4,1,0,80,0,0
267569,-95.8459728500152,4,1,0,80,0,0
267655,-95.7264437001574,4,1,0,80,0,0
267741,-95.6070636146499,4,1,0,80,0,0
267826,-95.4878324075951,4,1,0,80,0,0
267912,-95.3687498933271,4,1,0,80,0,0
267998,-95.2498158864119,4,1,0,80,0,0
268084,-95.1310302016463,4,1,0,80,0,0
268169,-95.0123926540585,4,1,0,80,0,0
268255,-94.8939030589071,4,1,0,80,0,0
268341,-94.7755612316812,4,1,0,80,0,0
268426,-94.6573669881,4,1,0,80,0,0
268512,-94.5393201441125,4,1,0,80,0,0
268598,-94.4214205158971,4,1,0,80,0,0
268684,-94.3036679198617,4,1,0,80,0,0
268769,-94.1860621726431,4,1,0,80,0,0
268855,-94.0686030911065,4,1,0,80,0,0
268941,-93.9512904923457,4,1,0,80,0,0
269026,-93.8341241936828,4,1,0,80,0,0
269112,-93.7171040126672,4,1,0,80,0,0
269198,-93.6002297670765,4,1,0,80,0,0
269284,-93.4835012749148,4,1,0,80,0,0
269369,-93.3669183544138,4,1,0,80,0,0
269455,-93.2504808240315,4,1,0,80,0,0
269541,-93.1341885024526,4,1,0,80,0,0
269626,-93.0180412085876,4,1,0,80,0,0
269712,-92.902038761573,4,1,0,80,0,0
269798,-92.7861809807709,4,1,0,80,0,0
269884,-92.6704676857686,4,1,0,80,0,0
269969,-92.5548986963783,4,1,0,80,0,0
270055,-92.4394738326372,4,1,0,80,0,0
270141,-92.3241929148067,4,1,0,80,0,0
270226,-92.2090557633723,4,1,0,80,0,0
270312,-92.0940621990435,4,1,0,80,0,0
270398,-91.9792120427535,4,1,0,80,0,0
270484,-91.8645051156585,4,1,0,80,0,0
270569,-91.749941239138,4,1,0,80,0,0
270655,-91.6355202347941,4,1,0,80,0,0
270741,-91.5212419244516,4,1,0,80,0,0
270826,-91.4071061301572,4,1,0,80,0,0
270912,-91.2931126741797,4,1,0,80,0,0
270998,-91.1792613790097,4,1,0,80,0,0
271084,-91.0655520673587,4,1,0,80,0,0
271169,-90.9519845621598,4,1,0,80,0,0
271255,-90.8385586865667,4,1,0,80,0,0
271341,-90.7252742639536,4,1,0,80,0,0
271426,-90.612131117915,4,1,0,80,0,0
271512,-90.4991290722654,4,1,0,80,0,0
271598,-90.3862679510392,4,1,0,80,0,0
271684,-90.2735475784899,4,1,0,80,0,0
271769,-90.1609677790904,4,1,0,80,0,0
271855,-90.0485283775326,4,1,0,80,0,0
271941,-89.9362291987267,4,1,0,80,0,0
272026,-89.8240700678015,4,1,0,80,0,0
272112,-89.7120508101039,4,1,0,80,0,0
272198,-89.6001712511984,4,1,0,80,0,0
272284,-89.4884312168673,4,1,0,80,0,0
272369,-89.3768305331099,4,1,0,80,0,0
272455,-89.2653690261427,4,1,0,80,0,0
272541,-89.1540465223988,4,1,0,80,0,0
272626,-89.0428628485278,4,1,0,80,0,0
272712,-88.9318178313956,4,1,0,80,0,0
272798,-88.8209112980838,4,1,0,80,0,0
272884,-88.7101430758898,4,1,0,80,0,0
272969,-88.5995129923264,4,1,0,80,0,0
273055,-88.4890208751212,4,1,0,80,0,0
273141,-88.3786665522172,4,1,0,80,0,0
273226,-88.2684498517714,4,1,0,80,0,0
273312,-88.1583706021554,4,1,0,80,0,0
273398,-88.0484286319548,4,1,0,80,0,0
273484,-87.9386237699691,4,1,0,80,0,0
273569,-87.8289558452109,4,1,0,80,0,0
273655,-87.7194246869066,4,1,0,80,0,0
273741,-87.610030124495,4,1,0,80,0,0
273826,-87.5007719876281,4,1,0,80,0,0
273912,-87.39165010617,4,1,0,80,0,0
273998,-87.2826643101971,4,1,0,80,0,0
274084,-87.1738144299977,4,1,0,80,0,0
274169,-87.0651002960718,4,1,0,80,0,0
274255,-86.9565217391308,4,1,0,80,0,0
274858,-71.4285714285714,4,1,0,80,0,0

[HitObjects]
256,192,1344,5,0,0:0:0:0:
256,192,1515,1,8,0:0:0:0:
256,192,1601,1,8,0:0:0:0:
256,192,1858,1,0,0:0:0:0:
256,192,2029,1,0,0:0:0:0:
256,192,2201,1,8,0:0:0:0:
256,192,2544,1,0,0:0:0:0:
256,192,2715,1,8,0:0:0:0:
256,192,2886,1,8,0:0:0:0:
256,192,3229,1,8,0:0:0:0:
256,192,3401,1,0,0:0:0:0:
256,192,3572,1,8,0:0:0:0:
256,192,3915,1,8,0:0:0:0:
256,192,4086,1,0,0:0:0:0:
256,192,4258,1,8,0:0:0:0:
256,192,4344,1,8,0:0:0:0:
256,192,4601,1,0,0:0:0:0:
256,192,4772,1,0,0:0:0:0:
256,192,4944,1,8,0:0:0:0:
256,192,5286,1,8,0:0:0:0:
256,192,5458,1,0,0:0:0:0:
256,192,5629,1,0,0:0:0:0:
256,192,5972,1,0,0:0:0:0:
256,192,6144,1,8,0:0:0:0:
256,192,6315,1,8,0:0:0:0:
256,192,6829,1,0,0:0:0:0:
256,192,7001,1,8,0:0:0:0:
256,192,7086,1,8,0:0:0:0:
256,192,7344,1,8,0:0:0:0:
256,192,7515,1,0,0:0:0:0:
256,192,7686,1,8,0:0:0:0:
256,192,8029,1,0,0:0:0:0:
256,192,8201,1,8,0:0:0:0:
256,192,8372,1,8,0:0:0:0:
256,192,8544,1,0,0:0:0:0:
256,192,8715,1,8,0:0:0:0:
256,192,8886,1,0,0:0:0:0:
256,192,9058,1,8,0:0:0:0:
256,192,9401,1,8,0:0:0:0:
256,192,9572,1,0,0:0:0:0:
256,192,9744,1,8,0:0:0:0:
256,192,9829,1,8,0:0:0:0:
256,192,10086,1,0,0:0:0:0:
256,192,10258,1,8,0:0:0:0:
256,192,10429,1,8,0:0:0:0:
256,192,10601,1,0,0:0:0:0:
256,192,10772,1,8,0:0:0:0:
256,192,11115,1,8,0:0:0:0:
256,192,11458,1,8,0:0:0:0:
256,192,11801,1,0,0:0:0:0:
256,192,11972,1,12,0:0:0:0:
256,192,12315,1,0,0:0:0:0:
256,192,12486,1,8,0:0:0:0:
256,192,12572,1,8,0:0:0:0:
256,192,12658,1,0,0:0:0:0:
256,192,12829,1,8,0:0:0:0:
256,192,13001,1,0,0:0:0:0:
256,192,13172,1,0,0:0:0:0:
256,192,13344,1,8,0:0:0:0:
256,192,13686,1,8,0:0:0:0:
256,192,13858,1,0,0:0:0:0:
256,192,13944,1,8,0:0:0:0:
256,192,14029,1,0,0:0:0:0:
256,192,14201,1,8,0:0:0:0:
256,192,14372,1,0,0:0:0:0:
256,192,14458,1,0,0:0:0:0:
256,192,14544,1,0,0:0:0:0:
256,192,14715,1,8,0:0:0:0:
256,192,15058,1,0,0:0:0:0:
256,192,15229,1,8,0:0:0:0:
256,192,15315,1,8,0:0:0:0:
256,192,15401,1,0,0:0:0:0:
256,192,15572,1,8,0:0:0:0:
256,192,15744,1,0,0:0:0:0:
256,192,15915,1,0,0:0:0:0:
256,192,16086,1,8,0:0:0:0:
256,192,16429,1,0,0:0:0:0:
256,192,16601,1,8,0:0:0:0:
256,192,16686,1,8,0:0:0:0:
256,192,16772,1,0,0:0:0:0:
256,192,16944,1,8,0:0:0:0:
256,192,17115,1,0,0:0:0:0:
256,192,17201,1,0,0:0:0:0:
256,192,17286,1,8,0:0:0:0:
256,192,17372,1,0,0:0:0:0:
256,192,17458,1,8,0:0:0:0:
256,192,17629,1,0,0:0:0:0:
256,192,17801,1,8,0:0:0:0:
256,192,17972,1,0,0:0:0:0:
256,192,18058,1,8,0:0:0:0:
256,192,18315,1,0,0:0:0:0:
256,192,18486,1,8,0:0:0:0:
256,192,18658,1,0,0:0:0:0:
256,192,18744,1,8,0:0:0:0:
256,192,19001,1,8,0:0:0:0:
256,192,19172,1,0,0:0:0:0:
256,192,19258,1,0,0:0:0:0:
256,192,19344,1,8,0:0:0:0:
256,192,19429,1,8,0:0:0:0:
256,192,19686,1,0,0:0:0:0:
256,192,19858,1,8,0:0:0:0:
256,192,20201,1,0,0:0:0:0:
256,192,20372,1,8,0:0:0:0:
256,192,20544,1,0,0:0:0:0:
256,192,20629,1,0,0:0:0:0:
256,192,20715,1,8,0:0:0:0:
256,192,20801,1,0,0:0:0:0:
256,192,20886,1,8,0:0:0:0:
256,192,21058,1,0,0:0:0:0:
256,192,21229,1,8,0:0:0:0:
256,192,21315,1,8,0:0:0:0:
256,192,21401,1,0,0:0:0:0:
256,192,21486,1,0,0:0:0:0:
256,192,21572,1,8,0:0:0:0:
256,192,21744,1,8,0:0:0:0:
256,192,21915,1,0,0:0:0:0:
256,192,22086,1,0,0:0:0:0:
256,192,22258,1,8,0:0:0:0:
256,192,22601,1,0,0:0:0:0:
256,192,22944,1,12,0:0:0:0:
256,192,23286,1,4,0:0:0:0:
256,192,23629,1,8,0:0:0:0:
256,192,23801,1,8,0:0:0:0:
256,192,23972,1,0,0:0:0:0:
256,192,24058,1,8,0:0:0:0:
256,192,24229,1,0,0:0:0:0:
256,192,24486,1,8,0:0:0:0:
256,192,24658,1,0,0:0:0:0:
256,192,25001,1,8,0:0:0:0:
256,192,25172,1,0,0:0:0:0:
256,192,25258,1,8,0:0:0:0:
256,192,25429,1,0,0:0:0:0:
256,192,25601,1,8,0:0:0:0:
256,192,25858,1,8,0:0:0:0:
256,192,26029,1,8,0:0:0:0:
256,192,26544,1,8,0:0:0:0:
256,192,26715,1,8,0:0:0:0:
256,192,27229,1,8,0:0:0:0:
256,192,27401,1,0,0:0:0:0:
256,192,27572,1,8,0:0:0:0:
256,192,27658,1,0,0:0:0:0:
256,192,27915,1,8,0:0:0:0:
256,192,28086,1,0,0:0:0:0:
256,192,28601,1,8,0:0:0:0:
256,192,28772,1,0,0:0:0:0:
256,192,29115,1,0,0:0:0:0:
256,192,29287,1,0,0:0:0:0:
256,192,29458,1,8,0:0:0:0:
256,192,29544,1,0,0:0:0:0:
256,192,29715,1,8,0:0:0:0:
256,192,29972,1,0,0:0:0:0:
256,192,30144,1,8,0:0:0:0:
256,192,30487,1,8,0:0:0:0:
256,192,30658,1,0,0:0:0:0:
256,192,30829,1,8,0:0:0:0:
256,192,30915,1,8,0:0:0:0:
256,192,31087,1,0,0:0:0:0:
256,192,31344,1,8,0:0:0:0:
256,192,31515,1,8,0:0:0:0:
256,192,32030,1,8,0:0:0:0:
256,192,32201,1,8,0:0:0:0:
256,192,32715,1,8,0:0:0:0:
256,192,32887,1,0,0:0:0:0:
256,192,33058,1,8,0:0:0:0:
256,192,33144,1,0,0:0:0:0:
256,192,33401,1,0,0:0:0:0:
256,192,33572,1,8,0:0:0:0:
256,192,33744,1,8,0:0:0:0:
256,192,33915,1,0,0:0:0:0:
256,192,34087,1,8,0:0:0:0:
256,192,34258,1,0,0:0:0:0:
256,192,34601,1,8,0:0:0:0:
256,192,34773,1,8,0:0:0:0:
256,192,34944,1,0,0:0:0:0:
256,192,35030,1,8,0:0:0:0:
256,192,35201,1,0,0:0:0:0:
256,192,35458,1,8,0:0:0:0:
256,192,35630,1,0,0:0:0:0:
256,192,35973,1,8,0:0:0:0:
256,192,36144,1,0,0:0:0:0:
256,192,36230,1,8,0:0:0:0:
256,192,36401,1,0,0:0:0:0:
256,192,36573,1,8,0:0:0:0:
256,192,36830,1,8,0:0:0:0:
256,192,37001,1,8,0:0:0:0:
256,192,37516,1,8,0:0:0:0:
256,192,37687,1,8,0:0:0:0:
256,192,38201,1,8,0:0:0:0:
256,192,38373,1,0,0:0:0:0:
256,192,38544,1,8,0:0:0:0:
256,192,38630,1,0,0:0:0:0:
256,192,38887,1,8,0:0:0:0:
256,192,39058,1,0,0:0:0:0:
256,192,39572,1,8,0:0:0:0:
256,192,39743,1,0,0:0:0:0:
256,192,40086,1,0,0:0:0:0:
256,192,40258,1,0,0:0:0:0:
256,192,40429,1,8,0:0:0:0:
256,192,40515,1,0,0:0:0:0:
256,192,40686,1,8,0:0:0:0:
256,192,40943,1,0,0:0:0:0:
256,192,41115,1,8,0:0:0:0:
256,192,41458,1,0,0:0:0:0:
256,192,41629,1,8,0:0:0:0:
256,192,41800,1,0,0:0:0:0:
256,192,41886,1,8,0:0:0:0:
256,192,42058,1,8,0:0:0:0:
256,192,42144,1,0,0:0:0:0:
256,192,42315,1,8,0:0:0:0:
256,192,42486,1,8,0:0:0:0:
256,192,42658,1,0,0:0:0:0:
256,192,42829,1,0,0:0:0:0:
256,192,43001,1,8,0:0:0:0:
256,192,43172,1,8,0:0:0:0:
256,192,43343,1,0,0:0:0:0:
256,192,43515,1,0,0:0:0:0:
256,192,43686,1,8,0:0:0:0:
256,192,43858,1,0,0:0:0:0:
256,192,44029,1,8,0:0:0:0:
256,192,44115,1,0,0:0:0:0:
256,192,44372,1,8,0:0:0:0:
256,192,44543,1,0,0:0:0:0:
256,192,44629,1,0,0:0:0:0:
256,192,44715,1,0,0:0:0:0:
256,192,44886,1,12,0:0:0:0:
256,192,45229,1,4,0:0:0:0:
256,192,45572,1,0,0:0:0:0:
256,192,45744,1,0,0:0:0:0:
256,192,45915,1,8,0:0:0:0:
256,192,46086,1,0,0:0:0:0:
256,192,46172,1,0,0:0:0:0:
256,192,46258,1,8,0:0:0:0:
256,192,46429,1,8,0:0:0:0:
256,192,46601,1,0,0:0:0:0:
256,192,46944,1,0,0:0:0:0:
256,192,47115,1,8,0:0:0:0:
256,192,47286,1,0,0:0:0:0:
256,192,47458,1,8,0:0:0:0:
256,192,47544,1,8,0:0:0:0:
256,192,47629,1,0,0:0:0:0:
256,192,47801,1,8,0:0:0:0:
256,192,47972,1,0,0:0:0:0:
256,192,48315,1,8,0:0:0:0:
256,192,48486,1,0,0:0:0:0:
256,192,48658,1,8,0:0:0:0:
256,192,48829,1,0,0:0:0:0:
256,192,48915,1,0,0:0:0:0:
256,192,49001,1,8,0:0:0:0:
256,192,49172,1,8,0:0:0:0:
256,192,49344,1,0,0:0:0:0:
256,192,49515,1,8,0:0:0:0:
256,192,49601,1,8,0:0:0:0:
256,192,49858,1,0,0:0:0:0:
256,192,50029,1,8,0:0:0:0:
256,192,50115,1,8,0:0:0:0:
256,192,50201,1,0,0:0:0:0:
256,192,50372,1,8,0:0:0:0:
256,192,50715,1,0,0:0:0:0:
256,192,51058,1,0,0:0:0:0:
256,192,51230,1,0,0:0:0:0:
256,192,51401,1,8,0:0:0:0:
256,192,51572,1,0,0:0:0:0:
256,192,51658,1,0,0:0:0:0:
256,192,51744,1,8,0:0:0:0:
256,192,51915,1,8,0:0:0:0:
256,192,52087,1,0,0:0:0:0:
256,192,52430,1,0,0:0:0:0:
256,192,52601,1,8,0:0:0:0:
256,192,52772,1,0,0:0:0:0:
256,192,52944,1,8,0:0:0:0:
256,192,53030,1,8,0:0:0:0:
256,192,53115,1,0,0:0:0:0:
256,192,53287,1,8,0:0:0:0:
256,192,53458,1,0,0:0:0:0:
256,192,53801,1,8,0:0:0:0:
256,192,53972,1,0,0:0:0:0:
256,192,54144,1,8,0:0:0:0:
256,192,54315,1,0,0:0:0:0:
256,192,54401,1,0,0:0:0:0:
256,192,54487,1,8,0:0:0:0:
256,192,54658,1,8,0:0:0:0:
256,192,54830,1,0,0:0:0:0:
256,192,55001,1,8,0:0:0:0:
256,192,55087,1,8,0:0:0:0:
256,192,55344,1,0,0:0:0:0:
256,192,55515,1,8,0:0:0:0:
256,192,55601,1,8,0:0:0:0:
256,192,55687,1,8,0:0:0:0:
256,192,55858,1,0,0:0:0:0:
256,192,56201,1,12,0:0:0:0:
256,192,56715,1,8,0:0:0:0:
256,192,56886,1,8,0:0:0:0:
256,192,57058,1,0,0:0:0:0:
256,192,57144,1,8,0:0:0:0:
256,192,57315,1,0,0:0:0:0:
256,192,57572,1,12,0:0:0:0:
256,192,58086,1,0,0:0:0:0:
256,192,58258,1,8,0:0:0:0:
256,192,58429,1,0,0:0:0:0:
256,192,58515,1,8,0:0:0:0:
256,192,58686,1,0,0:0:0:0:
256,192,58944,1,12,0:0:0:0:
256,192,59286,1,8,0:0:0:0:
256,192,59458,1,0,0:0:0:0:
256,192,59629,1,8,0:0:0:0:
256,192,59801,1,0,0:0:0:0:
256,192,59886,1,8,0:0:0:0:
256,192,60058,1,0,0:0:0:0:
256,192,60315,1,12,0:0:0:0:
256,192,60486,1,0,0:0:0:0:
256,192,60572,1,8,0:0:0:0:
256,192,60744,1,0,0:0:0:0:
256,192,61001,1,8,0:0:0:0:
256,192,61172,1,0,0:0:0:0:
256,192,61258,1,8,0:0:0:0:
256,192,61344,1,8,0:0:0:0:
256,192,61429,1,8,0:0:0:0:
256,192,61515,1,0,0:0:0:0:
256,192,61686,1,12,0:0:0:0:
256,192,62029,1,0,0:0:0:0:
256,192,62201,1,0,0:0:0:0:
256,192,62372,1,8,0:0:0:0:
256,192,62544,1,0,0:0:0:0:
247,192,62629,1,8,0:0:0:0:
256,192,62801,1,8,0:0:0:0:
256,192,62886,1,0,0:0:0:0:
257,182,63058,1,8,0:0:0:0:
256,192,63229,1,0,0:0:0:0:
256,190,63401,1,8,0:0:0:0:
256,192,63572,1,0,0:0:0:0:
256,192,63658,1,0,0:0:0:0:
256,192,63744,1,8,0:0:0:0:
256,192,63915,1,0,0:0:0:0:
256,190,64001,1,0,0:0:0:0:
256,190,64172,1,8,0:0:0:0:
256,192,64429,1,0,0:0:0:0:
256,192,64601,1,8,0:0:0:0:
256,192,64686,1,8,0:0:0:0:
256,192,64772,1,0,0:0:0:0:
256,192,64858,1,0,0:0:0:0:
256,192,64944,1,8,0:0:0:0:
256,192,65115,1,0,0:0:0:0:
256,192,65286,1,8,0:0:0:0:
256,192,65372,1,0,0:0:0:0:
256,192,65458,1,8,0:0:0:0:
256,192,65544,1,8,0:0:0:0:
256,192,65629,1,0,0:0:0:0:
256,192,65801,1,8,0:0:0:0:
256,192,65972,1,0,0:0:0:0:
256,192,66144,1,8,0:0:0:0:
256,192,66486,1,12,0:0:0:0:
256,192,66829,1,12,0:0:0:0:
256,192,67172,1,4,0:0:0:0:
256,192,67515,1,8,0:0:0:0:
256,192,67686,1,0,0:0:0:0:
256,192,67858,1,8,0:0:0:0:
256,192,67944,1,8,0:0:0:0:
256,192,68029,1,0,0:0:0:0:
256,192,68115,1,8,0:0:0:0:
256,192,68201,1,0,0:0:0:0:
256,192,68372,1,8,0:0:0:0:
256,192,68544,1,0,0:0:0:0:
256,192,68715,1,8,0:0:0:0:
256,192,68801,1,8,0:0:0:0:
256,192,68886,1,0,0:0:0:0:
256,192,69058,1,8,0:0:0:0:
264,192,69229,1,0,0:0:0:0:
264,192,69315,1,0,0:0:0:0:
256,192,69401,1,8,0:0:0:0:
256,192,69486,1,8,0:0:0:0:
256,192,69572,1,0,0:0:0:0:
256,192,69744,1,8,0:0:0:0:
256,192,69915,1,4,0:0:0:0:
256,192,70258,1,0,0:0:0:0:
256,192,70429,1,8,0:0:0:0:
256,192,70601,1,8,0:0:0:0:
256,192,70686,1,8,0:0:0:0:
256,192,70772,1,0,0:0:0:0:
256,192,70858,1,0,0:0:0:0:
256,192,70944,1,8,0:0:0:0:
256,192,71115,1,0,0:0:0:0:
256,192,71286,1,8,0:0:0:0:
256,192,71372,1,0,0:0:0:0:
256,192,71458,1,8,0:0:0:0:
256,192,71544,1,8,0:0:0:0:
256,192,71629,1,0,0:0:0:0:
256,192,71801,1,8,0:0:0:0:
256,192,71972,1,0,0:0:0:0:
256,192,72058,1,8,0:0:0:0:
256,192,72144,1,0,0:0:0:0:
256,192,72315,1,12,0:0:0:0:
256,192,72658,1,4,0:0:0:0:
256,192,73001,1,0,0:0:0:0:
256,192,73172,1,8,0:0:0:0:
256,192,73344,1,0,0:0:0:0:
256,192,73429,1,0,0:0:0:0:
256,192,73515,1,8,0:0:0:0:
256,192,73601,1,0,0:0:0:0:
256,192,73687,1,8,0:0:0:0:
256,192,73858,1,0,0:0:0:0:
256,192,74029,1,8,0:0:0:0:
256,192,74201,1,0,0:0:0:0:
256,192,74286,1,0,0:0:0:0:
256,192,74372,1,8,0:0:0:0:
256,192,74544,1,8,0:0:0:0:
256,192,74715,1,0,0:0:0:0:
256,192,74801,1,8,0:0:0:0:
256,192,74886,1,8,0:0:0:0:
256,192,74972,1,8,0:0:0:0:
256,192,75058,1,0,0:0:0:0:
256,192,75229,1,8,0:0:0:0:
256,192,75401,1,4,0:0:0:0:
256,192,75744,1,8,0:0:0:0:
256,192,75915,1,0,0:0:0:0:
256,192,76086,1,8,0:0:0:0:
256,192,76172,1,8,0:0:0:0:
256,192,76258,1,0,0:0:0:0:
256,192,76344,1,8,0:0:0:0:
256,192,76429,1,0,0:0:0:0:
256,192,76601,1,8,0:0:0:0:
256,192,76772,1,0,0:0:0:0:
256,192,76944,1,0,0:0:0:0:
256,192,77029,1,8,0:0:0:0:
256,192,77201,1,8,0:0:0:0:
256,192,77286,1,0,0:0:0:0:
256,192,77458,1,8,0:0:0:0:
256,192,77629,1,0,0:0:0:0:
256,192,77801,1,12,0:0:0:0:
256,192,78144,1,4,0:0:0:0:
256,192,78486,1,4,0:0:0:0:
256,192,78829,1,0,0:0:0:0:
256,192,79001,1,8,0:0:0:0:
256,192,79086,1,8,0:0:0:0:
256,192,79172,1,0,0:0:0:0:
256,192,79344,1,0,0:0:0:0:
259,196,79515,1,8,0:0:0:0:
256,192,79601,1,0,0:0:0:0:
256,192,79686,1,8,0:0:0:0:
256,192,79772,1,8,0:0:0:0:
256,192,79858,1,0,0:0:0:0:
256,192,80029,1,8,0:0:0:0:
256,192,80201,1,0,0:0:0:0:
256,192,80286,1,0,0:0:0:0:
256,192,80372,1,8,0:0:0:0:
256,192,80458,1,8,0:0:0:0:
256,192,80544,1,0,0:0:0:0:
256,192,80715,1,8,0:0:0:0:
256,192,80886,1,4,0:0:0:0:
256,192,81229,1,8,0:0:0:0:
256,192,81401,1,0,0:0:0:0:
256,192,81572,1,8,0:0:0:0:
256,192,81658,1,8,0:0:0:0:
256,192,81744,1,0,0:0:0:0:
256,192,81829,1,0,0:0:0:0:
256,192,81915,1,8,0:0:0:0:
256,192,82086,1,0,0:0:0:0:
256,192,82258,1,8,0:0:0:0:
256,192,82429,1,8,0:0:0:0:
256,192,82515,1,8,0:0:0:0:
256,192,82601,1,0,0:0:0:0:
256,192,82772,1,8,0:0:0:0:
256,192,82944,1,0,0:0:0:0:
256,192,83115,1,0,0:0:0:0:
256,192,83286,1,12,0:0:0:0:
256,192,83629,1,4,0:0:0:0:
256,192,83972,1,0,0:0:0:0:
256,192,84143,1,8,0:0:0:0:
256,192,84315,1,0,0:0:0:0:
256,192,84401,1,0,0:0:0:0:
256,192,84486,1,8,0:0:0:0:
256,192,84572,1,0,0:0:0:0:
256,192,84658,1,8,0:0:0:0:
256,192,84829,1,0,0:0:0:0:
256,192,85001,1,8,0:0:0:0:
256,192,85172,1,0,0:0:0:0:
256,192,85258,1,0,0:0:0:0:
256,192,85344,1,8,0:0:0:0:
256,192,85515,1,8,0:0:0:0:
256,192,85686,1,0,0:0:0:0:
256,192,85772,1,8,0:0:0:0:
256,192,85858,1,8,0:0:0:0:
256,192,85944,1,8,0:0:0:0:
256,192,86029,1,0,0:0:0:0:
256,192,86200,1,8,0:0:0:0:
256,192,86372,1,0,0:0:0:0:
256,192,86544,1,8,0:0:0:0:
256,192,86629,1,8,0:0:0:0:
256,192,86715,1,0,0:0:0:0:
256,192,86886,1,0,0:0:0:0:
256,192,87058,1,8,0:0:0:0:
255,197,87144,1,0,0:0:0:0:
256,192,87229,1,8,0:0:0:0:
256,192,87315,1,8,0:0:0:0:
256,192,87400,1,0,0:0:0:0:
256,192,87572,1,8,0:0:0:0:
256,192,87744,1,0,0:0:0:0:
256,192,87915,1,0,0:0:0:0:
256,192,88001,1,8,0:0:0:0:
255,197,88172,1,8,0:0:0:0:
256,192,88258,1,0,0:0:0:0:
256,192,88429,1,8,0:0:0:0:
256,192,88515,1,8,0:0:0:0:
256,192,88601,1,0,0:0:0:0:
256,192,88772,1,12,0:0:0:0:
256,192,89115,1,4,0:0:0:0:
256,192,89458,1,8,0:0:0:0:
256,192,89629,1,0,0:0:0:0:
256,192,89801,1,8,0:0:0:0:
256,192,89886,1,0,0:0:0:0:
256,192,90058,1,0,0:0:0:0:
256,192,90144,1,8,0:0:0:0:
256,192,90315,1,0,0:0:0:0:
256,192,90486,1,8,0:0:0:0:
256,192,90658,1,0,0:0:0:0:
256,192,90744,1,0,0:0:0:0:
256,192,90829,1,8,0:0:0:0:
256,192,91001,1,0,0:0:0:0:
256,192,91172,1,8,0:0:0:0:
256,192,91258,1,0,0:0:0:0:
256,192,91429,1,0,0:0:0:0:
256,192,91515,1,8,0:0:0:0:
256,192,91686,1,0,0:0:0:0:
256,192,91858,1,8,0:0:0:0:
256,192,91944,1,8,0:0:0:0:
256,192,92029,1,0,0:0:0:0:
256,192,92201,1,8,0:0:0:0:
256,192,92372,1,0,0:0:0:0:
256,192,92544,1,8,0:0:0:0:
256,192,92629,1,8,0:0:0:0:
256,192,92715,1,0,0:0:0:0:
256,192,92801,1,0,0:0:0:0:
256,192,92886,1,8,0:0:0:0:
256,192,93058,1,0,0:0:0:0:
256,192,93229,1,8,0:0:0:0:
256,192,93401,1,0,0:0:0:0:
256,192,93486,1,8,0:0:0:0:
256,192,93744,1,0,0:0:0:0:
256,192,93915,1,8,0:0:0:0:
256,192,94001,1,8,0:0:0:0:
256,192,94086,1,0,0:0:0:0:
256,192,94258,1,8,0:0:0:0:
256,192,94344,1,0,0:0:0:0:
256,192,94429,1,8,0:0:0:0:
256,192,94601,1,0,0:0:0:0:
256,192,94944,1,8,0:0:0:0:
256,192,95115,1,0,0:0:0:0:
256,192,95286,1,8,0:0:0:0:
256,192,95372,1,0,0:0:0:0:
256,192,95544,1,0,0:0:0:0:
256,192,95629,1,8,0:0:0:0:
256,192,95801,1,8,0:0:0:0:
256,192,95972,1,0,0:0:0:0:
256,192,96058,1,0,0:0:0:0:
256,192,96144,1,8,0:0:0:0:
256,192,96315,1,0,0:0:0:0:
256,192,96486,1,8,0:0:0:0:
256,192,96572,1,8,0:0:0:0:
256,192,96658,1,0,0:0:0:0:
256,192,96744,1,8,0:0:0:0:
256,192,96915,1,8,0:0:0:0:
256,192,97001,1,0,0:0:0:0:
256,192,97172,1,0,0:0:0:0:
256,192,97344,1,8,0:0:0:0:
256,192,97429,1,8,0:0:0:0:
256,192,97515,1,0,0:0:0:0:
256,192,97686,1,8,0:0:0:0:
256,192,97858,1,0,0:0:0:0:
256,192,98029,1,8,0:0:0:0:
256,192,98115,1,8,0:0:0:0:
256,192,98201,1,0,0:0:0:0:
256,192,98286,1,8,0:0:0:0:
256,192,98372,1,0,0:0:0:0:
256,192,98544,1,8,0:0:0:0:
256,192,98715,1,0,0:0:0:0:
256,192,98886,1,8,0:0:0:0:
256,192,98972,1,8,0:0:0:0:
256,192,99229,1,0,0:0:0:0:
256,192,99401,1,8,0:0:0:0:
256,192,99486,1,8,0:0:0:0:
256,192,99572,1,0,0:0:0:0:
256,192,99744,1,12,0:0:0:0:
256,192,100086,1,4,0:0:0:0:
256,192,100429,1,8,0:0:0:0:
256,192,100600,1,0,0:0:0:0:
256,192,100772,1,8,0:0:0:0:
256,192,100857,1,0,0:0:0:0:
256,192,101029,1,0,0:0:0:0:
256,192,101115,1,8,0:0:0:0:
256,192,101286,1,0,0:0:0:0:
256,192,101457,1,8,0:0:0:0:
256,192,101629,1,0,0:0:0:0:
256,192,101715,1,0,0:0:0:0:
256,192,101800,1,8,0:0:0:0:
256,192,101972,1,0,0:0:0:0:
256,192,102143,1,8,0:0:0:0:
256,192,102229,1,0,0:0:0:0:
256,192,102400,1,0,0:0:0:0:
256,192,102486,1,8,0:0:0:0:
256,192,102657,1,0,0:0:0:0:
256,192,102829,1,8,0:0:0:0:
256,192,102915,1,8,0:0:0:0:
256,192,103000,1,0,0:0:0:0:
256,192,103172,1,8,0:0:0:0:
256,192,103343,1,0,0:0:0:0:
256,192,103515,1,8,0:0:0:0:
256,192,103600,1,8,0:0:0:0:
256,192,103686,1,0,0:0:0:0:
256,192,103772,1,0,0:0:0:0:
256,192,103857,1,8,0:0:0:0:
256,192,104029,1,0,0:0:0:0:
256,192,104200,1,8,0:0:0:0:
256,192,104372,1,0,0:0:0:0:
256,192,104457,1,8,0:0:0:0:
256,192,104715,1,0,0:0:0:0:
256,192,104886,1,8,0:0:0:0:
256,192,104972,1,8,0:0:0:0:
256,192,105057,1,0,0:0:0:0:
256,192,105229,1,8,0:0:0:0:
256,192,105315,1,0,0:0:0:0:
256,192,105400,1,8,0:0:0:0:
256,192,105572,1,0,0:0:0:0:
256,192,105915,1,8,0:0:0:0:
256,192,106086,1,0,0:0:0:0:
256,192,106257,1,8,0:0:0:0:
256,192,106343,1,0,0:0:0:0:
256,192,106515,1,0,0:0:0:0:
256,192,106600,1,8,0:0:0:0:
256,192,106772,1,0,0:0:0:0:
256,192,106943,1,8,0:0:0:0:
256,192,107029,1,8,0:0:0:0:
256,192,107115,1,0,0:0:0:0:
256,192,107286,1,8,0:0:0:0:
256,192,107457,1,0,0:0:0:0:
256,192,107543,1,0,0:0:0:0:
256,192,107629,1,8,0:0:0:0:
256,192,107715,1,0,0:0:0:0:
256,192,107886,1,0,0:0:0:0:
256,192,107972,1,8,0:0:0:0:
256,192,108143,1,0,0:0:0:0:
256,192,108315,1,8,0:0:0:0:
256,192,108400,1,8,0:0:0:0:
256,192,108486,1,0,0:0:0:0:
256,192,108572,1,0,0:0:0:0:
256,192,108657,1,8,0:0:0:0:
256,192,108829,1,0,0:0:0:0:
256,192,109000,1,8,0:0:0:0:
256,192,109086,1,0,0:0:0:0:
256,192,109172,1,8,0:0:0:0:
256,192,109257,1,8,0:0:0:0:
256,192,109343,1,0,0:0:0:0:
256,192,109515,1,8,0:0:0:0:
256,192,109686,1,0,0:0:0:0:
256,192,109858,1,8,0:0:0:0:
256,192,109944,1,8,0:0:0:0:
256,192,110201,1,8,0:0:0:0:
256,192,110373,1,0,0:0:0:0:
256,192,110458,1,0,0:0:0:0:
256,192,110544,1,0,0:0:0:0:
256,192,110716,1,12,0:0:0:0:
256,176,111058,1,4,0:0:0:0:
256,176,111401,1,8,0:0:0:0:
256,176,111572,1,0,0:0:0:0:
256,176,111744,1,8,0:0:0:0:
256,176,111915,1,0,0:0:0:0:
256,176,112001,1,0,0:0:0:0:
256,176,112086,1,8,0:0:0:0:
256,176,112258,1,8,0:0:0:0:
256,176,112429,1,0,0:0:0:0:
256,176,112515,1,8,0:0:0:0:
256,176,112686,1,8,0:0:0:0:
256,176,112772,1,0,0:0:0:0:
256,176,112944,1,8,0:0:0:0:
256,176,113286,1,8,0:0:0:0:
256,176,113458,1,0,0:0:0:0:
256,176,113629,1,8,0:0:0:0:
256,176,113801,1,0,0:0:0:0:
256,176,113886,1,8,0:0:0:0:
256,176,114058,1,8,0:0:0:0:
256,176,114144,1,0,0:0:0:0:
256,176,114315,1,8,0:0:0:0:
256,176,114486,1,0,0:0:0:0:
256,176,114658,1,0,0:0:0:0:
256,176,114744,1,0,0:0:0:0:
256,176,114829,1,8,0:0:0:0:
256,176,115001,1,8,0:0:0:0:
256,176,115172,1,0,0:0:0:0:
256,176,115258,1,8,0:0:0:0:
256,176,115429,1,8,0:0:0:0:
256,176,115515,1,0,0:0:0:0:
256,176,115686,1,0,0:0:0:0:
256,176,115858,1,8,0:0:0:0:
256,176,115944,1,8,0:0:0:0:
256,176,116029,1,0,0:0:0:0:
256,176,116115,1,0,0:0:0:0:
256,176,116201,1,8,0:0:0:0:
256,176,116372,1,0,0:0:0:0:
256,176,116544,1,8,0:0:0:0:
256,176,116886,1,0,0:0:0:0:
256,176,117058,1,8,0:0:0:0:
256,176,117229,1,0,0:0:0:0:
256,176,117401,1,8,0:0:0:0:
256,176,117486,1,8,0:0:0:0:
256,176,117572,1,0,0:0:0:0:
256,176,117744,1,8,0:0:0:0:
256,176,117915,1,0,0:0:0:0:
256,176,118001,1,8,0:0:0:0:
256,176,118172,1,8,0:0:0:0:
256,176,118258,1,0,0:0:0:0:
256,176,118429,1,8,0:0:0:0:
256,176,118601,1,0,0:0:0:0:
256,176,118772,1,0,0:0:0:0:
256,176,118858,1,0,0:0:0:0:
256,176,118944,1,8,0:0:0:0:
256,176,119115,1,0,0:0:0:0:
256,176,119286,1,8,0:0:0:0:
256,176,119372,1,0,0:0:0:0:
256,176,119544,1,0,0:0:0:0:
256,176,119629,1,8,0:0:0:0:
256,176,119801,1,8,0:0:0:0:
256,176,119972,1,0,0:0:0:0:
256,176,120144,1,8,0:0:0:0:
256,176,120229,1,0,0:0:0:0:
256,176,120315,1,8,0:0:0:0:
256,176,120486,1,8,0:0:0:0:
256,176,120658,1,0,0:0:0:0:
256,176,120829,1,8,0:0:0:0:
256,176,120915,1,0,0:0:0:0:
256,176,121172,1,8,0:0:0:0:
256,176,121344,1,0,0:0:0:0:
256,176,121429,1,0,0:0:0:0:
256,176,121515,1,0,0:0:0:0:
256,176,121686,1,12,0:0:0:0:
256,176,122029,1,4,0:0:0:0:
256,176,122372,1,8,0:0:0:0:
256,176,122543,1,0,0:0:0:0:
256,176,122715,1,8,0:0:0:0:
256,176,122886,1,0,0:0:0:0:
256,176,122972,1,0,0:0:0:0:
256,176,123057,1,8,0:0:0:0:
256,176,123229,1,8,0:0:0:0:
256,176,123400,1,0,0:0:0:0:
256,176,123486,1,8,0:0:0:0:
256,176,123657,1,8,0:0:0:0:
256,176,123743,1,0,0:0:0:0:
256,176,123915,1,8,0:0:0:0:
256,176,124257,1,8,0:0:0:0:
256,176,124429,1,0,0:0:0:0:
256,176,124600,1,8,0:0:0:0:
256,176,124772,1,0,0:0:0:0:
256,176,124857,1,8,0:0:0:0:
256,176,125029,1,8,0:0:0:0:
256,176,125115,1,0,0:0:0:0:
256,176,125286,1,8,0:0:0:0:
256,176,125457,1,0,0:0:0:0:
256,176,125629,1,0,0:0:0:0:
256,176,125715,1,0,0:0:0:0:
256,176,125800,1,8,0:0:0:0:
256,176,125972,1,8,0:0:0:0:
256,176,126143,1,0,0:0:0:0:
256,176,126229,1,8,0:0:0:0:
256,176,126400,1,8,0:0:0:0:
256,176,126486,1,0,0:0:0:0:
256,176,126657,1,0,0:0:0:0:
256,176,126829,1,8,0:0:0:0:
256,176,126915,1,8,0:0:0:0:
256,176,127000,1,0,0:0:0:0:
256,176,127086,1,0,0:0:0:0:
256,176,127172,1,8,0:0:0:0:
256,176,127343,1,0,0:0:0:0:
256,176,127515,1,8,0:0:0:0:
256,176,127857,1,0,0:0:0:0:
256,176,128029,1,8,0:0:0:0:
256,176,128200,1,0,0:0:0:0:
256,176,128372,1,8,0:0:0:0:
256,176,128457,1,8,0:0:0:0:
256,176,128543,1,0,0:0:0:0:
256,176,128715,1,8,0:0:0:0:
256,176,128886,1,0,0:0:0:0:
256,176,128972,1,8,0:0:0:0:
256,176,129143,1,8,0:0:0:0:
256,176,129229,1,0,0:0:0:0:
256,176,129400,1,8,0:0:0:0:
256,176,129572,1,0,0:0:0:0:
256,176,129658,1,8,0:0:0:0:
256,176,129743,1,0,0:0:0:0:
256,176,129829,1,0,0:0:0:0:
256,176,129915,1,8,0:0:0:0:
256,176,130086,1,0,0:0:0:0:
256,176,130257,1,8,0:0:0:0:
256,176,130343,1,0,0:0:0:0:
256,176,130515,1,0,0:0:0:0:
256,176,130600,1,8,0:0:0:0:
256,176,130772,1,8,0:0:0:0:
256,176,130943,1,0,0:0:0:0:
256,176,131029,1,0,0:0:0:0:
256,176,131115,1,8,0:0:0:0:
256,176,131200,1,0,0:0:0:0:
256,176,131286,1,8,0:0:0:0:
256,176,131457,1,8,0:0:0:0:
256,176,131629,1,0,0:0:0:0:
256,176,131800,1,8,0:0:0:0:
256,176,131886,1,8,0:0:0:0:
256,176,132143,1,0,0:0:0:0:
256,176,132315,1,12,0:0:0:0:
256,176,132657,1,12,0:0:0:0:
256,176,133001,1,4,0:0:0:0:
256,176,133344,1,0,0:0:0:0:
256,176,133515,1,8,0:0:0:0:
256,176,133686,1,0,0:0:0:0:
256,176,133858,1,0,0:0:0:0:
256,176,134029,1,8,0:0:0:0:
256,176,134201,1,8,0:0:0:0:
256,176,134372,1,0,0:0:0:0:
256,176,134715,1,8,0:0:0:0:
256,176,134886,1,0,0:0:0:0:
256,176,135058,1,8,0:0:0:0:
256,176,135144,1,8,0:0:0:0:
256,176,135229,1,0,0:0:0:0:
256,176,135401,1,8,0:0:0:0:
256,176,135572,1,0,0:0:0:0:
256,176,135744,1,8,0:0:0:0:
256,176,136086,1,0,0:0:0:0:
256,176,136258,1,0,0:0:0:0:
256,176,136429,1,8,0:0:0:0:
256,176,136772,1,8,0:0:0:0:
256,176,136944,1,0,0:0:0:0:
256,176,137115,1,8,0:0:0:0:
256,176,137201,1,0,0:0:0:0:
256,176,137372,1,0,0:0:0:0:
256,176,137458,1,8,0:0:0:0:
256,176,137629,1,0,0:0:0:0:
256,176,137801,1,0,0:0:0:0:
256,176,137972,1,8,0:0:0:0:
256,176,138486,1,0,0:0:0:0:
256,176,138658,1,0,0:0:0:0:
256,176,138829,1,8,0:0:0:0:
256,176,139001,1,8,0:0:0:0:
256,176,139172,1,0,0:0:0:0:
256,176,139515,1,8,0:0:0:0:
256,176,139686,1,8,0:0:0:0:
256,176,139858,1,0,0:0:0:0:
256,176,139944,1,0,0:0:0:0:
256,176,140029,1,0,0:0:0:0:
256,176,140201,1,8,0:0:0:0:
256,176,140372,1,0,0:0:0:0:
256,176,140544,1,8,0:0:0:0:
256,176,140886,1,8,0:0:0:0:
256,176,141058,1,0,0:0:0:0:
256,176,141229,1,8,0:0:0:0:
256,176,141572,1,0,0:0:0:0:
256,192,141744,1,0,0:0:0:0:
256,192,141915,1,8,0:0:0:0:
256,192,142258,1,8,0:0:0:0:
256,192,142429,1,0,0:0:0:0:
256,192,142601,1,8,0:0:0:0:
256,192,142686,1,0,0:0:0:0:
256,192,142858,1,0,0:0:0:0:
256,192,142944,1,8,0:0:0:0:
256,192,143115,1,0,0:0:0:0:
256,192,143286,1,8,0:0:0:0:
256,192,143458,1,0,0:0:0:0:
256,192,143972,1,4,0:0:0:0:
256,176,144315,1,0,0:0:0:0:
256,176,144486,1,8,0:0:0:0:
256,176,144657,1,0,0:0:0:0:
256,176,144743,1,0,0:0:0:0:
256,176,144829,1,8,0:0:0:0:
256,176,145000,1,0,0:0:0:0:
256,176,145172,1,8,0:0:0:0:
256,176,145343,1,0,0:0:0:0:
256,176,145686,1,8,0:0:0:0:
256,176,145857,1,0,0:0:0:0:
256,176,146029,1,8,0:0:0:0:
256,176,146115,1,8,0:0:0:0:
256,176,146200,1,0,0:0:0:0:
256,176,146372,1,8,0:0:0:0:
256,176,146543,1,0,0:0:0:0:
256,176,146715,1,8,0:0:0:0:
256,176,147057,1,0,0:0:0:0:
256,176,147229,1,8,0:0:0:0:
256,176,147400,1,0,0:0:0:0:
256,176,147486,1,8,0:0:0:0:
256,176,147572,1,0,0:0:0:0:
256,176,147743,1,8,0:0:0:0:
256,176,147915,1,0,0:0:0:0:
256,176,148086,1,8,0:0:0:0:
256,176,148172,1,0,0:0:0:0:
256,176,148343,1,0,0:0:0:0:
256,176,148429,1,8,0:0:0:0:
256,176,148600,1,8,0:0:0:0:
256,176,148772,1,0,0:0:0:0:
256,176,148943,1,0,0:0:0:0:
256,176,149115,1,8,0:0:0:0:
256,176,149457,1,0,0:0:0:0:
256,176,149629,1,0,0:0:0:0:
256,176,149800,1,8,0:0:0:0:
256,176,149972,1,8,0:0:0:0:
256,176,150143,1,0,0:0:0:0:
256,176,150229,1,0,0:0:0:0:
256,176,150315,1,8,0:0:0:0:
256,176,150486,1,8,0:0:0:0:
256,176,150657,1,0,0:0:0:0:
256,176,150829,1,8,0:0:0:0:
256,176,151172,1,8,0:0:0:0:
256,176,151343,1,0,0:0:0:0:
256,176,151515,1,8,0:0:0:0:
256,176,151600,1,8,0:0:0:0:
256,176,151686,1,0,0:0:0:0:
256,176,151857,1,0,0:0:0:0:
256,176,152029,1,8,0:0:0:0:
256,176,152200,1,0,0:0:0:0:
256,176,152286,1,0,0:0:0:0:
256,176,152372,1,8,0:0:0:0:
256,176,152543,1,0,0:0:0:0:
256,192,152715,1,8,0:0:0:0:
256,192,152886,1,0,0:0:0:0:
256,192,152972,1,0,0:0:0:0:
256,192,153057,1,8,0:0:0:0:
256,192,153144,1,8,0:0:0:0:
256,192,153229,1,0,0:0:0:0:
256,192,153400,1,0,0:0:0:0:
256,192,153572,1,8,0:0:0:0:
256,192,153829,1,0,0:0:0:0:
256,192,153915,1,8,0:0:0:0:
256,192,154086,1,0,0:0:0:0:
256,192,154429,1,0,0:0:0:0:
256,192,154772,1,0,0:0:0:0:
256,192,154944,1,12,0:0:0:0:
256,192,155458,1,4,0:0:0:0:
256,192,155629,1,8,0:0:0:0:
256,192,155972,1,4,0:0:0:0:
256,192,156144,1,8,0:0:0:0:
256,192,156486,1,4,0:0:0:0:
256,192,156658,1,8,0:0:0:0:
256,192,157001,1,4,0:0:0:0:
256,192,157344,1,4,0:0:0:0:
256,192,157686,1,12,0:0:0:0:
256,192,158201,1,4,0:0:0:0:
256,192,158372,1,8,0:0:0:0:
256,192,158715,1,4,0:0:0:0:
256,192,158886,1,8,0:0:0:0:
256,192,159229,1,4,0:0:0:0:
256,192,159400,1,8,0:0:0:0:
256,192,159744,1,4,0:0:0:0:
256,192,160086,1,4,0:0:0:0:
256,192,160258,1,0,0:0:0:0:
256,192,160429,1,12,0:0:0:0:
256,192,160772,1,8,0:0:0:0:
256,192,160944,1,0,0:0:0:0:
256,192,161115,1,8,0:0:0:0:
256,192,161286,1,0,0:0:0:0:
256,192,161372,1,0,0:0:0:0:
256,192,161458,1,8,0:0:0:0:
256,192,161629,1,0,0:0:0:0:
256,192,161801,1,12,0:0:0:0:
256,192,162144,1,8,0:0:0:0:
256,192,162315,1,8,0:0:0:0:
256,192,162486,1,0,0:0:0:0:
256,192,162658,1,8,0:0:0:0:
256,192,162744,1,8,0:0:0:0:
256,192,162829,1,0,0:0:0:0:
256,192,163001,1,8,0:0:0:0:
256,192,163172,1,0,0:0:0:0:
256,192,163258,1,0,0:0:0:0:
256,192,163344,1,8,0:0:0:0:
256,192,163429,1,0,0:0:0:0:
256,192,163515,1,8,0:0:0:0:
256,192,163686,1,0,0:0:0:0:
256,192,163858,1,8,0:0:0:0:
256,192,163944,1,8,0:0:0:0:
256,192,164030,1,0,0:0:0:0:
256,192,164115,1,0,0:0:0:0:
256,192,164201,1,8,0:0:0:0:
256,192,164372,1,0,0:0:0:0:
256,192,164544,1,8,0:0:0:0:
256,192,164716,1,0,0:0:0:0:
256,192,164887,1,8,0:0:0:0:
256,192,165058,1,8,0:0:0:0:
256,192,165229,1,0,0:0:0:0:
256,192,165315,1,8,0:0:0:0:
256,192,165401,1,8,0:0:0:0:
256,192,165486,1,8,0:0:0:0:
256,192,165915,1,4,0:0:0:0:
256,192,166258,1,8,0:0:0:0:
256,192,166430,1,8,0:0:0:0:
256,192,166601,1,0,0:0:0:0:
256,192,166687,1,8,0:0:0:0:
256,192,166858,1,8,0:0:0:0:
256,192,166944,1,0,0:0:0:0:
256,192,167115,1,8,0:0:0:0:
256,192,167287,1,0,0:0:0:0:
256,192,167630,1,8,0:0:0:0:
256,192,167801,1,0,0:0:0:0:
256,192,167887,1,8,0:0:0:0:
256,192,168058,1,0,0:0:0:0:
256,192,168230,1,8,0:0:0:0:
256,192,168487,1,8,0:0:0:0:
256,192,168658,1,8,0:0:0:0:
256,192,168829,1,0,0:0:0:0:
256,192,169001,1,0,0:0:0:0:
256,192,169173,1,8,0:0:0:0:
256,192,169258,1,0,0:0:0:0:
256,192,169344,1,8,0:0:0:0:
256,192,169858,1,8,0:0:0:0:
256,192,170030,1,0,0:0:0:0:
256,192,170201,1,8,0:0:0:0:
256,192,170287,1,0,0:0:0:0:
256,192,170544,1,8,0:0:0:0:
256,192,170715,1,0,0:0:0:0:
256,192,171230,1,8,0:0:0:0:
256,192,171401,1,0,0:0:0:0:
256,192,171572,1,0,0:0:0:0:
256,192,171744,1,8,0:0:0:0:
256,192,171916,1,0,0:0:0:0:
256,192,172087,1,8,0:0:0:0:
256,192,172173,1,0,0:0:0:0:
256,192,172344,1,0,0:0:0:0:
256,192,172429,1,8,0:0:0:0:
256,192,172601,1,0,0:0:0:0:
256,192,172773,1,8,0:0:0:0:
256,192,173116,1,8,0:0:0:0:
256,192,173287,1,0,0:0:0:0:
256,192,173458,1,8,0:0:0:0:
256,192,173544,1,8,0:0:0:0:
256,192,173716,1,0,0:0:0:0:
256,192,173973,1,8,0:0:0:0:
256,192,174144,1,8,0:0:0:0:
256,192,174315,1,0,0:0:0:0:
256,192,174486,1,0,0:0:0:0:
256,192,174659,1,8,0:0:0:0:
256,192,174744,1,8,0:0:0:0:
256,192,174830,1,8,0:0:0:0:
256,192,175344,1,8,0:0:0:0:
256,192,175516,1,0,0:0:0:0:
256,192,175687,1,8,0:0:0:0:
256,192,175773,1,0,0:0:0:0:
256,192,176030,1,0,0:0:0:0:
256,192,176201,1,8,0:0:0:0:
256,192,176373,1,8,0:0:0:0:
256,192,176544,1,0,0:0:0:0:
256,192,176716,1,8,0:0:0:0:
256,192,176887,1,0,0:0:0:0:
256,192,177230,1,8,0:0:0:0:
256,192,177402,1,8,0:0:0:0:
256,192,177573,1,0,0:0:0:0:
256,192,177659,1,8,0:0:0:0:
256,192,177830,1,8,0:0:0:0:
256,192,177915,1,0,0:0:0:0:
256,192,178087,1,8,0:0:0:0:
256,192,178259,1,0,0:0:0:0:
256,192,178602,1,8,0:0:0:0:
256,192,178773,1,0,0:0:0:0:
256,192,178859,1,8,0:0:0:0:
256,192,179030,1,0,0:0:0:0:
256,192,179202,1,8,0:0:0:0:
256,192,179459,1,8,0:0:0:0:
256,192,179630,1,8,0:0:0:0:
256,192,179801,1,0,0:0:0:0:
256,192,179972,1,0,0:0:0:0:
256,192,180145,1,8,0:0:0:0:
256,192,180229,1,0,0:0:0:0:
256,192,180316,1,8,0:0:0:0:
256,192,180830,1,8,0:0:0:0:
256,192,181002,1,0,0:0:0:0:
256,192,181173,1,8,0:0:0:0:
256,192,181259,1,0,0:0:0:0:
256,192,181516,1,8,0:0:0:0:
256,192,181687,1,0,0:0:0:0:
256,192,182201,1,8,0:0:0:0:
256,192,182372,1,0,0:0:0:0:
256,192,182544,1,0,0:0:0:0:
256,192,182715,1,8,0:0:0:0:
256,192,182887,1,0,0:0:0:0:
256,192,183058,1,8,0:0:0:0:
256,192,183144,1,0,0:0:0:0:
256,192,183315,1,0,0:0:0:0:
256,192,183401,1,8,0:0:0:0:
256,192,183572,1,0,0:0:0:0:
256,192,183744,1,8,0:0:0:0:
256,192,184087,1,0,0:0:0:0:
256,192,184258,1,8,0:0:0:0:
256,192,184429,1,0,0:0:0:0:
256,192,184515,1,8,0:0:0:0:
256,192,184687,1,8,0:0:0:0:
256,192,184773,1,0,0:0:0:0:
256,192,184944,1,8,0:0:0:0:
256,192,185115,1,8,0:0:0:0:
256,192,185201,1,8,0:0:0:0:
256,192,185287,1,0,0:0:0:0:
256,192,185458,1,0,0:0:0:0:
256,192,185630,1,8,0:0:0:0:
256,192,185801,1,8,0:0:0:0:
256,192,185886,1,8,0:0:0:0:
256,192,185972,1,0,0:0:0:0:
256,192,186144,1,0,0:0:0:0:
256,192,186315,1,8,0:0:0:0:
256,192,186487,1,0,0:0:0:0:
256,192,186658,1,8,0:0:0:0:
256,192,186744,1,0,0:0:0:0:
256,192,187001,1,8,0:0:0:0:
256,192,187172,1,0,0:0:0:0:
256,192,187258,1,0,0:0:0:0:
256,192,187344,1,0,0:0:0:0:
256,192,187515,1,12,0:0:0:0:
256,192,187858,1,0,0:0:0:0:
256,192,188201,1,0,0:0:0:0:
257,189,188372,1,8,0:0:0:0:
263,189,188544,1,0,0:0:0:0:
262,187,188715,1,8,0:0:0:0:
263,189,188801,1,8,0:0:0:0:
262,187,188886,1,0,0:0:0:0:
263,189,189058,1,8,0:0:0:0:
263,189,189229,1,0,0:0:0:0:
262,187,189486,1,8,0:0:0:0:
263,189,189572,1,0,0:0:0:0:
263,189,189744,1,8,0:0:0:0:
263,189,189915,1,0,0:0:0:0:
262,187,190086,1,0,0:0:0:0:
262,187,190172,1,0,0:0:0:0:
262,187,190258,1,8,0:0:0:0:
263,189,190429,1,0,0:0:0:0:
263,189,190601,1,8,0:0:0:0:
262,187,190858,1,0,0:0:0:0:
263,189,190944,1,8,0:0:0:0:
263,189,191115,1,8,0:0:0:0:
263,189,191286,1,0,0:0:0:0:
263,189,191458,1,8,0:0:0:0:
262,187,191544,1,8,0:0:0:0:
262,187,191629,1,0,0:0:0:0:
263,189,191801,1,8,0:0:0:0:
263,189,191972,1,0,0:0:0:0:
263,189,192229,1,8,0:0:0:0:
262,187,192315,1,0,0:0:0:0:
263,189,192486,1,8,0:0:0:0:
263,189,192658,1,0,0:0:0:0:
263,189,192829,1,0,0:0:0:0:
262,187,193001,1,8,0:0:0:0:
263,189,193172,1,8,0:0:0:0:
263,189,193344,1,0,0:0:0:0:
262,193,193686,1,0,0:0:0:0:
263,189,193858,1,8,0:0:0:0:
263,189,194029,1,0,0:0:0:0:
262,193,194201,1,8,0:0:0:0:
263,189,194286,1,8,0:0:0:0:
262,193,194372,1,0,0:0:0:0:
263,189,194544,1,8,0:0:0:0:
263,189,194715,1,0,0:0:0:0:
262,193,194972,1,8,0:0:0:0:
263,189,195058,1,0,0:0:0:0:
262,193,195229,1,8,0:0:0:0:
263,189,195401,1,0,0:0:0:0:
262,193,195572,1,8,0:0:0:0:
263,189,195658,1,0,0:0:0:0:
262,193,195744,1,8,0:0:0:0:
262,193,195915,1,0,0:0:0:0:
263,189,196086,1,8,0:0:0:0:
262,193,196344,1,0,0:0:0:0:
263,189,196429,1,8,0:0:0:0:
262,193,196601,1,0,0:0:0:0:
263,189,196772,1,8,0:0:0:0:
263,189,196944,1,0,0:0:0:0:
263,189,197029,1,0,0:0:0:0:
262,193,197115,1,8,0:0:0:0:
259,188,197286,1,8,0:0:0:0:
263,189,197458,1,0,0:0:0:0:
263,189,197629,1,8,0:0:0:0:
263,189,197715,1,0,0:0:0:0:
259,188,197972,1,8,0:0:0:0:
263,189,198144,1,0,0:0:0:0:
263,189,198229,1,0,0:0:0:0:
263,189,198315,1,0,0:0:0:0:
263,189,198486,1,8,0:0:0:0:
262,193,198658,1,0,0:0:0:0:
263,189,198829,1,12,0:0:0:0:
263,189,199172,1,8,0:0:0:0:
262,193,199344,1,0,0:0:0:0:
263,189,199515,1,8,0:0:0:0:
263,189,199686,1,0,0:0:0:0:
263,189,199772,1,0,0:0:0:0:
263,189,199858,1,8,0:0:0:0:
262,193,200029,1,0,0:0:0:0:
265,193,200201,1,12,0:0:0:0:
265,193,200544,1,8,0:0:0:0:
265,193,200715,1,8,0:0:0:0:
265,193,200886,1,0,0:0:0:0:
265,193,201058,1,8,0:0:0:0:
265,193,201144,1,8,0:0:0:0:
265,193,201229,1,0,0:0:0:0:
265,193,201401,1,0,0:0:0:0:
265,193,201572,1,12,0:0:0:0:
265,193,201915,1,8,0:0:0:0:
265,193,202086,1,0,0:0:0:0:
265,193,202258,1,8,0:0:0:0:
265,193,202344,1,8,0:0:0:0:
265,193,202429,1,0,0:0:0:0:
265,193,202515,1,0,0:0:0:0:
265,193,202601,1,8,0:0:0:0:
265,193,202772,1,0,0:0:0:0:
265,193,202944,1,12,0:0:0:0:
265,193,203286,1,8,0:0:0:0:
265,193,203458,1,0,0:0:0:0:
265,193,203629,1,8,0:0:0:0:
265,193,203715,1,0,0:0:0:0:
265,193,203801,1,8,0:0:0:0:
265,193,203886,1,8,0:0:0:0:
265,193,203972,1,0,0:0:0:0:
265,193,204144,1,0,0:0:0:0:
265,193,204315,1,12,0:0:0:0:
265,193,204486,1,0,0:0:0:0:
265,193,204658,1,8,0:0:0:0:
265,193,204829,1,0,0:0:0:0:
265,193,205001,1,8,0:0:0:0:
265,193,205172,1,0,0:0:0:0:
265,193,205344,1,8,0:0:0:0:
265,193,205515,1,0,0:0:0:0:
265,193,205686,1,12,0:0:0:0:
265,193,205858,1,0,0:0:0:0:
265,193,206029,1,8,0:0:0:0:
265,193,206201,1,0,0:0:0:0:
265,193,206372,1,8,0:0:0:0:
265,193,206544,1,0,0:0:0:0:
265,193,206715,1,8,0:0:0:0:
265,193,206886,1,8,0:0:0:0:
265,193,207058,1,0,0:0:0:0:
265,193,207144,1,0,0:0:0:0:
265,193,207229,1,8,0:0:0:0:
265,193,207315,1,8,0:0:0:0:
265,193,207401,1,0,0:0:0:0:
265,193,207572,1,8,0:0:0:0:
265,193,207744,1,0,0:0:0:0:
265,193,207829,1,8,0:0:0:0:
265,193,207915,1,0,0:0:0:0:
265,193,208001,1,0,0:0:0:0:
265,193,208086,1,8,0:0:0:0:
265,193,208258,1,8,0:0:0:0:
265,193,208429,1,0,0:0:0:0:
260,190,208601,1,0,0:0:0:0:
260,190,208772,1,8,0:0:0:0:
260,190,209115,1,0,0:0:0:0:
260,190,209458,1,12,0:0:0:0:
260,190,209801,1,4,0:0:0:0:
256,192,210144,1,8,0:0:0:0:
256,192,210315,1,0,0:0:0:0:
256,192,210487,1,8,0:0:0:0:
256,192,210572,1,0,0:0:0:0:
256,192,210744,1,0,0:0:0:0:
256,192,210830,1,8,0:0:0:0:
256,192,211001,1,0,0:0:0:0:
256,192,211172,1,8,0:0:0:0:
256,192,211344,1,0,0:0:0:0:
256,192,211430,1,0,0:0:0:0:
256,192,211515,1,8,0:0:0:0:
256,192,211687,1,0,0:0:0:0:
256,192,211858,1,8,0:0:0:0:
256,192,211944,1,0,0:0:0:0:
256,192,212115,1,0,0:0:0:0:
256,192,212201,1,8,0:0:0:0:
256,192,212372,1,0,0:0:0:0:
256,192,212544,1,8,0:0:0:0:
256,192,212630,1,8,0:0:0:0:
256,192,212715,1,0,0:0:0:0:
256,192,212887,1,8,0:0:0:0:
256,192,213058,1,0,0:0:0:0:
256,192,213230,1,8,0:0:0:0:
256,192,213315,1,8,0:0:0:0:
256,192,213401,1,0,0:0:0:0:
256,192,213487,1,0,0:0:0:0:
256,192,213572,1,8,0:0:0:0:
256,192,213744,1,0,0:0:0:0:
256,192,213915,1,8,0:0:0:0:
256,192,214087,1,0,0:0:0:0:
256,192,214172,1,8,0:0:0:0:
256,192,214430,1,0,0:0:0:0:
256,192,214601,1,8,0:0:0:0:
256,192,214687,1,8,0:0:0:0:
256,192,214772,1,0,0:0:0:0:
256,192,214944,1,8,0:0:0:0:
256,192,215030,1,0,0:0:0:0:
256,192,215115,1,8,0:0:0:0:
256,192,215287,1,0,0:0:0:0:
256,192,215630,1,8,0:0:0:0:
256,192,215801,1,0,0:0:0:0:
256,192,215972,1,8,0:0:0:0:
256,192,216058,1,0,0:0:0:0:
256,192,216230,1,0,0:0:0:0:
256,192,216315,1,8,0:0:0:0:
256,192,216487,1,8,0:0:0:0:
256,192,216658,1,0,0:0:0:0:
256,192,216744,1,0,0:0:0:0:
256,192,216830,1,8,0:0:0:0:
256,192,217001,1,0,0:0:0:0:
256,192,217172,1,8,0:0:0:0:
256,192,217258,1,8,0:0:0:0:
256,192,217344,1,0,0:0:0:0:
256,192,217430,1,8,0:0:0:0:
256,192,217601,1,8,0:0:0:0:
256,192,217687,1,0,0:0:0:0:
256,192,217858,1,0,0:0:0:0:
256,192,218030,1,8,0:0:0:0:
256,192,218115,1,8,0:0:0:0:
256,192,218201,1,0,0:0:0:0:
256,192,218372,1,8,0:0:0:0:
256,192,218544,1,0,0:0:0:0:
256,192,218715,1,8,0:0:0:0:
256,192,218801,1,8,0:0:0:0:
256,192,218887,1,0,0:0:0:0:
256,192,218972,1,8,0:0:0:0:
256,192,219058,1,0,0:0:0:0:
256,192,219230,1,8,0:0:0:0:
256,192,219401,1,0,0:0:0:0:
256,192,219572,1,8,0:0:0:0:
256,192,219658,1,8,0:0:0:0:
256,192,219744,1,8,0:0:0:0:
256,192,219915,1,0,0:0:0:0:
256,192,220087,1,8,0:0:0:0:
256,192,220172,1,8,0:0:0:0:
256,192,220258,1,0,0:0:0:0:
256,192,220430,1,12,0:0:0:0:
256,192,220772,1,4,0:0:0:0:
256,192,221115,1,8,0:0:0:0:
256,192,221286,1,0,0:0:0:0:
256,192,221458,1,8,0:0:0:0:
256,192,221543,1,0,0:0:0:0:
256,192,221715,1,0,0:0:0:0:
256,192,221801,1,8,0:0:0:0:
256,192,221972,1,0,0:0:0:0:
256,192,222143,1,8,0:0:0:0:
256,192,222315,1,0,0:0:0:0:
256,192,222401,1,0,0:0:0:0:
256,192,222486,1,8,0:0:0:0:
256,192,222658,1,0,0:0:0:0:
256,192,222829,1,8,0:0:0:0:
256,192,222915,1,0,0:0:0:0:
256,192,223086,1,0,0:0:0:0:
256,192,223172,1,8,0:0:0:0:
256,192,223343,1,0,0:0:0:0:
256,192,223515,1,8,0:0:0:0:
256,192,223601,1,8,0:0:0:0:
256,192,223686,1,0,0:0:0:0:
256,192,223858,1,8,0:0:0:0:
256,192,224029,1,0,0:0:0:0:
256,192,224201,1,8,0:0:0:0:
256,192,224286,1,8,0:0:0:0:
256,192,224372,1,0,0:0:0:0:
256,192,224458,1,0,0:0:0:0:
256,192,224543,1,8,0:0:0:0:
256,192,224715,1,0,0:0:0:0:
256,192,224886,1,8,0:0:0:0:
256,192,225058,1,0,0:0:0:0:
256,192,225143,1,8,0:0:0:0:
256,192,225401,1,0,0:0:0:0:
256,192,225572,1,8,0:0:0:0:
256,192,225658,1,8,0:0:0:0:
256,192,225743,1,0,0:0:0:0:
256,192,225915,1,8,0:0:0:0:
256,192,226001,1,0,0:0:0:0:
256,192,226086,1,8,0:0:0:0:
256,192,226258,1,0,0:0:0:0:
256,192,226601,1,8,0:0:0:0:
256,192,226772,1,0,0:0:0:0:
256,192,226943,1,8,0:0:0:0:
256,192,227029,1,0,0:0:0:0:
256,192,227201,1,0,0:0:0:0:
256,192,227286,1,8,0:0:0:0:
256,192,227458,1,0,0:0:0:0:
256,192,227629,1,8,0:0:0:0:
256,192,227715,1,8,0:0:0:0:
256,192,227801,1,0,0:0:0:0:
256,192,227972,1,8,0:0:0:0:
256,192,228143,1,0,0:0:0:0:
256,192,228229,1,0,0:0:0:0:
256,192,228315,1,8,0:0:0:0:
256,192,228401,1,0,0:0:0:0:
256,192,228572,1,0,0:0:0:0:
256,192,228658,1,8,0:0:0:0:
256,192,228829,1,0,0:0:0:0:
256,192,229001,1,8,0:0:0:0:
256,192,229086,1,8,0:0:0:0:
256,192,229172,1,0,0:0:0:0:
256,192,229258,1,0,0:0:0:0:
256,192,229343,1,8,0:0:0:0:
256,192,229515,1,0,0:0:0:0:
256,192,229686,1,8,0:0:0:0:
256,192,229772,1,0,0:0:0:0:
256,192,229858,1,8,0:0:0:0:
256,192,229943,1,8,0:0:0:0:
256,192,230029,1,0,0:0:0:0:
256,192,230201,1,8,0:0:0:0:
256,192,230372,1,0,0:0:0:0:
256,192,230544,1,8,0:0:0:0:
256,192,230630,1,8,0:0:0:0:
256,192,230887,1,8,0:0:0:0:
256,192,231059,1,0,0:0:0:0:
256,192,231144,1,0,0:0:0:0:
256,192,231230,1,0,0:0:0:0:
256,192,231402,1,12,0:0:0:0:
256,176,231744,1,4,0:0:0:0:
256,176,232087,1,8,0:0:0:0:
256,176,232258,1,0,0:0:0:0:
256,176,232430,1,8,0:0:0:0:
256,176,232601,1,0,0:0:0:0:
256,176,232687,1,0,0:0:0:0:
256,176,232772,1,8,0:0:0:0:
256,176,232944,1,8,0:0:0:0:
256,176,233115,1,0,0:0:0:0:
256,176,233201,1,8,0:0:0:0:
256,176,233372,1,8,0:0:0:0:
256,176,233458,1,0,0:0:0:0:
256,176,233630,1,8,0:0:0:0:
256,176,233972,1,8,0:0:0:0:
256,176,234144,1,0,0:0:0:0:
256,176,234315,1,8,0:0:0:0:
256,176,234487,1,0,0:0:0:0:
256,176,234572,1,8,0:0:0:0:
256,176,234744,1,8,0:0:0:0:
256,176,234830,1,0,0:0:0:0:
256,176,235001,1,8,0:0:0:0:
256,176,235172,1,0,0:0:0:0:
256,176,235344,1,0,0:0:0:0:
256,176,235430,1,0,0:0:0:0:
256,176,235515,1,8,0:0:0:0:
256,176,235687,1,8,0:0:0:0:
256,176,235858,1,0,0:0:0:0:
256,176,235944,1,8,0:0:0:0:
256,176,236115,1,8,0:0:0:0:
256,176,236201,1,0,0:0:0:0:
256,176,236372,1,0,0:0:0:0:
256,176,236544,1,8,0:0:0:0:
256,176,236630,1,8,0:0:0:0:
256,176,236715,1,0,0:0:0:0:
256,176,236801,1,0,0:0:0:0:
256,176,236887,1,8,0:0:0:0:
256,176,237058,1,0,0:0:0:0:
256,176,237230,1,8,0:0:0:0:
256,176,237572,1,0,0:0:0:0:
256,176,237744,1,8,0:0:0:0:
256,176,237915,1,0,0:0:0:0:
256,176,238087,1,8,0:0:0:0:
256,176,238172,1,8,0:0:0:0:
256,176,238258,1,0,0:0:0:0:
256,176,238430,1,8,0:0:0:0:
256,176,238601,1,0,0:0:0:0:
256,176,238687,1,8,0:0:0:0:
256,176,238858,1,8,0:0:0:0:
256,176,238944,1,0,0:0:0:0:
256,176,239115,1,8,0:0:0:0:
256,176,239287,1,0,0:0:0:0:
256,176,239458,1,0,0:0:0:0:
256,176,239544,1,0,0:0:0:0:
256,176,239630,1,8,0:0:0:0:
256,176,239801,1,0,0:0:0:0:
256,176,239972,1,8,0:0:0:0:
256,176,240058,1,0,0:0:0:0:
256,176,240230,1,0,0:0:0:0:
256,176,240315,1,8,0:0:0:0:
256,176,240487,1,8,0:0:0:0:
256,176,240658,1,0,0:0:0:0:
256,176,240830,1,8,0:0:0:0:
256,176,240915,1,0,0:0:0:0:
256,176,241001,1,8,0:0:0:0:
256,176,241172,1,8,0:0:0:0:
256,176,241344,1,0,0:0:0:0:
256,176,241515,1,8,0:0:0:0:
256,176,241601,1,0,0:0:0:0:
256,176,241858,1,8,0:0:0:0:
256,176,242030,1,0,0:0:0:0:
256,176,242115,1,0,0:0:0:0:
256,176,242201,1,0,0:0:0:0:
256,176,242372,1,12,0:0:0:0:
256,176,242715,1,4,0:0:0:0:
256,176,243058,1,8,0:0:0:0:
256,176,243229,1,0,0:0:0:0:
256,176,243401,1,8,0:0:0:0:
256,176,243572,1,0,0:0:0:0:
256,176,243658,1,0,0:0:0:0:
256,176,243743,1,8,0:0:0:0:
256,176,243915,1,8,0:0:0:0:
256,176,244086,1,0,0:0:0:0:
256,176,244172,1,8,0:0:0:0:
256,176,244343,1,8,0:0:0:0:
256,176,244429,1,0,0:0:0:0:
256,176,244601,1,8,0:0:0:0:
256,176,244943,1,8,0:0:0:0:
256,176,245115,1,0,0:0:0:0:
256,176,245286,1,8,0:0:0:0:
256,176,245458,1,0,0:0:0:0:
256,176,245543,1,8,0:0:0:0:
256,176,245715,1,8,0:0:0:0:
256,176,245801,1,0,0:0:0:0:
256,176,245972,1,8,0:0:0:0:
256,176,246143,1,0,0:0:0:0:
256,176,246315,1,0,0:0:0:0:
256,176,246401,1,0,0:0:0:0:
256,176,246486,1,8,0:0:0:0:
256,176,246658,1,8,0:0:0:0:
256,176,246829,1,0,0:0:0:0:
256,176,246915,1,8,0:0:0:0:
256,176,247086,1,8,0:0:0:0:
256,176,247172,1,0,0:0:0:0:
256,176,247343,1,0,0:0:0:0:
256,176,247515,1,8,0:0:0:0:
256,176,247601,1,8,0:0:0:0:
256,176,247686,1,0,0:0:0:0:
256,176,247772,1,0,0:0:0:0:
256,176,247858,1,8,0:0:0:0:
256,176,248029,1,0,0:0:0:0:
256,176,248201,1,8,0:0:0:0:
256,176,248543,1,0,0:0:0:0:
256,176,248715,1,8,0:0:0:0:
256,176,248886,1,0,0:0:0:0:
256,176,249058,1,8,0:0:0:0:
256,176,249143,1,8,0:0:0:0:
256,176,249229,1,0,0:0:0:0:
256,176,249401,1,8,0:0:0:0:
256,176,249572,1,0,0:0:0:0:
256,176,249658,1,8,0:0:0:0:
256,176,249829,1,8,0:0:0:0:
256,176,249915,1,0,0:0:0:0:
256,176,250086,1,8,0:0:0:0:
256,176,250258,1,0,0:0:0:0:
256,176,250344,1,8,0:0:0:0:
256,176,250429,1,0,0:0:0:0:
256,176,250515,1,0,0:0:0:0:
256,176,250601,1,8,0:0:0:0:
256,176,250772,1,0,0:0:0:0:
256,176,250943,1,8,0:0:0:0:
256,176,251029,1,0,0:0:0:0:
256,176,251201,1,0,0:0:0:0:
256,176,251286,1,8,0:0:0:0:
256,176,251458,1,8,0:0:0:0:
256,176,251629,1,0,0:0:0:0:
256,176,251715,1,0,0:0:0:0:
256,176,251801,1,8,0:0:0:0:
256,176,251886,1,0,0:0:0:0:
256,176,251972,1,8,0:0:0:0:
256,176,252143,1,8,0:0:0:0:
256,176,252315,1,0,0:0:0:0:
256,176,252486,1,8,0:0:0:0:
256,176,252572,1,8,0:0:0:0:
256,176,252829,1,0,0:0:0:0:
256,176,253001,1,12,0:0:0:0:
256,176,253343,1,12,0:0:0:0:
256,192,253686,1,4,0:0:0:0:
256,192,254201,1,8,0:0:0:0:
256,192,254372,1,0,0:0:0:0:
256,192,254544,1,8,0:0:0:0:
256,192,254715,1,8,0:0:0:0:
256,192,254887,1,0,0:0:0:0:
256,192,255058,1,8,0:0:0:0:
256,192,255229,1,8,0:0:0:0:
256,192,255572,1,8,0:0:0:0:
256,192,255744,1,0,0:0:0:0:
256,192,255829,1,0,0:0:0:0:
256,192,255915,1,8,0:0:0:0:
256,192,256086,1,0,0:0:0:0:
256,192,256258,1,8,0:0:0:0:
256,192,256429,1,0,0:0:0:0:
256,192,256601,1,8,0:0:0:0:
256,192,256687,1,8,0:0:0:0:
256,192,256944,1,0,0:0:0:0:
256,192,257115,1,0,0:0:0:0:
256,192,257287,1,8,0:0:0:0:
256,192,257629,1,8,0:0:0:0:
256,192,257801,1,0,0:0:0:0:
256,192,257972,1,8,0:0:0:0:
256,192,258058,1,8,0:0:0:0:
256,192,258144,1,0,0:0:0:0:
256,192,258315,1,0,0:0:0:0:
256,192,258487,1,8,0:0:0:0:
256,192,258658,1,8,0:0:0:0:
256,192,259172,1,0,0:0:0:0:
256,192,259344,1,8,0:0:0:0:
256,192,259429,1,8,0:0:0:0:
256,192,259687,1,8,0:0:0:0:
256,192,259858,1,0,0:0:0:0:
256,192,260029,1,8,0:0:0:0:
256,192,260372,1,0,0:0:0:0:
256,192,260544,1,8,0:0:0:0:
256,192,260715,1,0,0:0:0:0:
256,192,260801,1,0,0:0:0:0:
256,192,260887,1,8,0:0:0:0:
256,192,261058,1,0,0:0:0:0:
256,192,261229,1,8,0:0:0:0:
256,192,261401,1,8,0:0:0:0:
256,192,261744,1,8,0:0:0:0:
256,192,261915,1,0,0:0:0:0:
256,192,262087,1,8,0:0:0:0:
256,192,262172,1,8,0:0:0:0:
256,192,262429,1,0,0:0:0:0:
256,192,262601,1,8,0:0:0:0:
256,192,262772,1,8,0:0:0:0:
256,192,262944,1,0,0:0:0:0:
256,192,263115,1,8,0:0:0:0:
256,192,263458,1,8,0:0:0:0:
256,192,263801,1,8,0:0:0:0:
256,192,264144,1,8,0:0:0:0:
256,192,264486,1,8,0:0:0:0:
256,192,264657,1,4,0:0:0:0:
256,192,265001,1,0,0:0:0:0:
256,192,265171,1,8,0:0:0:0:
256,192,265343,1,0,0:0:0:0:
256,192,265514,1,8,0:0:0:0:
256,192,265600,1,8,0:0:0:0:
256,192,265686,1,0,0:0:0:0:
256,192,265857,1,8,0:0:0:0:
256,192,266028,1,4,0:0:0:0:
256,192,266372,1,8,0:0:0:0:
256,192,266543,1,0,0:0:0:0:
256,192,266714,1,8,0:0:0:0:
256,192,266886,1,0,0:0:0:0:
256,192,266972,1,0,0:0:0:0:
256,192,267057,1,8,0:0:0:0:
256,192,267228,1,8,0:0:0:0:
256,192,267400,1,4,0:0:0:0:
256,192,267744,1,0,0:0:0:0:
256,192,267914,1,8,0:0:0:0:
256,192,268086,1,0,0:0:0:0:
256,192,268257,1,0,0:0:0:0:
256,192,268343,1,0,0:0:0:0:
256,192,268428,1,8,0:0:0:0:
256,192,268600,1,8,0:0:0:0:
256,192,268771,1,4,0:0:0:0:
256,192,269115,1,8,0:0:0:0:
256,192,269286,1,8,0:0:0:0:
256,192,269457,1,0,0:0:0:0:
256,192,269543,1,0,0:0:0:0:
256,192,269628,1,8,0:0:0:0:
256,192,269714,1,8,0:0:0:0:
256,192,269800,1,0,0:0:0:0:
256,192,269971,1,8,0:0:0:0:
256,192,270143,1,4,0:0:0:0:
256,192,270486,1,0,0:0:0:0:
256,192,270657,1,8,0:0:0:0:
256,192,270828,1,4,0:0:0:0:
256,192,271172,1,0,0:0:0:0:
256,192,271343,1,8,0:0:0:0:
256,192,271514,1,4,0:0:0:0:
256,192,271857,1,0,0:0:0:0:
256,192,272028,1,8,0:0:0:0:
256,192,272200,1,4,0:0:0:0:
256,192,272371,1,0,0:0:0:0:
256,192,272543,1,8,0:0:0:0:
256,192,272714,1,8,0:0:0:0:
256,192,272886,1,0,0:0:0:0:
256,192,272971,1,0,0:0:0:0:
256,192,273057,1,8,0:0:0:0:
256,192,273144,1,0,0:0:0:0:
256,192,273228,1,8,0:0:0:0:
256,192,273401,1,0,0:0:0:0:
256,192,273572,1,8,0:0:0:0:
256,192,273657,1,8,0:0:0:0:
256,192,273743,1,0,0:0:0:0:
256,192,273828,1,0,0:0:0:0:
256,192,273914,1,8,0:0:0:0:
256,192,274086,1,0,0:0:0:0:
256,192,274257,1,8,0:0:0:0:
256,192,274428,1,0,0:0:0:0:
256,192,274515,1,8,0:0:0:0:
256,192,274772,1,0,0:0:0:0:
256,192,274943,1,12,0:0:0:0:
256,192,275286,1,12,0:0:0:0:
