osu file format v14

[General]
AudioFilename: audio.mp3
AudioLeadIn: 0
PreviewTime: 36900
Countdown: 0
SampleSet: Soft
StackLeniency: 0.5
Mode: 0
LetterboxInBreaks: 0
WidescreenStoryboard: 1

[Editor]
Bookmarks: 4011,19749,37454,55158,70896,78642,78765,98437,114175,129913,153519,169257,183027,184995,186962,188683
DistanceSpacing: 1.2
BeatDivisor: 4
GridSize: 8
TimelineZoom: 1.5

[Metadata]
Title:VERY NICE
TitleUnicode:아주 NICE
Artist:SEVENTEEN
ArtistUnicode:세븐틴
Creator:Natsu
Version:NATSU & EUNY'S AJU EXTRA
Source:
Tags:PLEDIS ENTERTAINMENT 세븐틴 에스.쿱스 S.COUPS 우지 WOOZI 호시 HOSHI 민규 MINGYU 원우 WONWOO 버논 VERNON 승관 SEUNGKWAN 디노 DINO 준 JUN 도경 DK 조슈아 JOSHUA 정한 JEONGHAN 디에잇THE8 Love&Letter Repackage Album 17 euny kpop k-pop
BeatmapID:1312697
BeatmapSetID:618500

[Difficulty]
HPDrainRate:5.7
CircleSize:4
OverallDifficulty:8.5
ApproachRate:9.3
SliderMultiplier:2.79999990463257
SliderTickRate:2

[Events]
//Background and Video events
0,0,"KakaoTalk_20170526_202649144.jpg",0,0
Video,0,"--+Nice.avi"
//Break Periods
2,35195,36408
2,53267,54604
2,94456,95424
2,96300,97391
2,145359,146572
2,147326,148293
2,149293,150260
2,151506,152473
//Storyboard Layer 0 (Background)
//Storyboard Layer 1 (Fail)
//Storyboard Layer 2 (Pass)
//Storyboard Layer 3 (Foreground)
Sprite,Foreground,Centre,"KakaoTalk_20170705_170814254.png",320,240 F,0,36962,37454,0,1 M,0,37454,,117,431 S,0,37454,,0.7086899 F,0,37454,52699,1 F,0,52699,53191,1,0
Sprite,Foreground,Centre,"KakaoTalk_20170705_170814254.png",320,240 F,0,3519,4011,0,1 M,0,4011,,117,431 S,0,4011,,0.7086899 F,0,4011,19257,1 F,0,19257,19749,1,0
Sprite,Foreground,Centre,"KakaoTalk_20170705_170814254.png",320,240 F,0,113683,114175,0,1 M,0,114175,,117,431 S,0,114175,,0.7086899 F,0,114175,129421,1 F,0,129421,129913,1,0
Sprite,Foreground,Centre,"KakaoTalk_20170705_170814254.png",320,240 F,0,153027,153519,0,0.9955861 M,0,153519,,117,431 S,0,153519,,0.7086899 F,0,153519,168765,0.9955861 F,0,168765,169257,0.9955861,0
Sprite,Foreground,Centre,"KakaoTalk_20170705_170814254.png",320,240 F,0,184503,184995,0 M,0,184995,,117,431 S,0,184995,,0.7086899
Sprite,Foreground,Centre,"KakaoTalk_20170705_170814254.png",320,240 F,0,186470,186962,0,1 M,0,186962,,117,431 S,0,186962,,0.7086899 F,0,186962,188622,1 F,0,188622,188683,1,0
Sprite,Foreground,Centre,"KakaoTalk_20170705_170814397.png",320,240 F,0,19257,19749,0,1 M,0,19749,,530,422 S,0,19749,,0.6380687 F,0,19749,34995,1 F,0,34995,35486,1,0
Sprite,Foreground,Centre,"KakaoTalk_20170705_170814397.png",320,240 F,0,54666,55158,0,1 M,0,55158,,530,422 S,0,55158,,0.6380687 F,0,55158,70404,1 F,0,70404,70896,1,0
Sprite,Foreground,Centre,"KakaoTalk_20170705_170814397.png",320,240 F,0,97945,98277,0,0.6792105 F,0,98277,98437,0.6792105,1 M,0,98437,,530,422 S,0,98437,,0.6380687 F,0,98437,113683,1 F,0,113683,114175,1,0
Sprite,Foreground,Centre,"KakaoTalk_20170705_170814254.png",320,240 F,0,182536,183028,0,1 M,0,183028,,117,431 S,0,183028,,0.7086899 F,0,183028,184688,1 F,0,184688,184749,1,0
Sprite,Foreground,Centre,"KakaoTalk_20170705_170814254.png",320,240 F,0,70404,70896,0,1 M,0,70896,,117,431 S,0,70896,,0.7086899 F,0,70896,97699,1 F,0,97699,97945,1,0.01786428 F,0,97945,98437,0.01786428,0
Sprite,Foreground,Centre,"KakaoTalk_20170705_170814397.png",320,240 F,0,129421,129753,0,0.6792105 F,0,129753,129913,0.6792105,0.9955862 M,0,129913,,530,422 S,0,129913,,0.6380687 F,0,129913,153027,0.9955862 F,0,153027,153519,0.9955862,0
Sprite,Foreground,Centre,"KakaoTalk_20170705_170814397.png",320,240 F,0,168765,169097,0,0.6792105 F,0,169097,169257,0.6792105,1 M,0,169257,,530,422 S,0,169257,,0.6380687 F,0,169257,182536,1 F,0,182536,183027,1,0
Sprite,Foreground,Centre,"KakaoTalk_20170705_170814397.png",320,240 F,0,184503,184835,0,0.6792105 F,0,184835,184995,0.6792105,1 M,0,184995,,530,422 S,0,184995,,0.6380687 F,0,184995,186900,1,0.8322759 F,0,186900,186962,0.8322759,0
//Storyboard Sound Samples

[TimingPoints]
77,491.803278688525,4,2,1,50,1,0
4011,-76.9230769230769,4,2,1,50,0,0
5240,-100,4,2,1,50,0,0
7945,-76.9230769230769,4,2,1,50,0,0
9421,-100,4,2,1,50,0,0
11142,-142.857142857143,4,2,1,50,0,0
11634,-100,4,2,1,50,0,0
12863,-76.9230769230769,4,2,1,50,0,0
13601,-100,4,2,1,50,0,0
14831,-76.9230769230769,4,2,1,50,0,0
15814,-142.857142857143,4,2,1,50,0,0
17536,-142.857142857143,4,2,1,5,0,0
17781,-142.857142857143,4,2,1,50,0,0
17904,-142.857142857143,4,2,1,30,0,0
18027,-142.857142857143,4,2,1,50,0,0
18150,-142.857142857143,4,2,1,30,0,0
18273,-142.857142857143,4,2,1,50,0,0
18396,-142.857142857143,4,2,1,30,0,0
18519,-142.857142857143,4,2,1,50,0,0
18642,-142.857142857143,4,2,1,30,0,0
18765,-142.857142857143,4,2,1,60,0,0
19749,-100,4,2,1,50,0,0
31552,-142.857142857143,4,2,1,50,0,0
33519,-100,4,2,1,50,0,0
34011,-100,4,2,1,55,0,0
34503,-100,4,2,1,60,0,0
34995,-142.857142857143,4,2,1,60,0,0
36962,-76.9230769230769,4,2,1,50,0,0
37454,-76.9230769230769,4,2,1,70,0,1
37945,-90.9090909090909,4,2,1,50,0,1
40896,-90.9090909090909,4,2,1,70,0,1
41142,-90.9090909090909,4,2,1,50,0,0
41388,-76.9230769230769,4,2,1,70,0,1
41880,-90.9090909090909,4,2,1,50,0,1
44831,-83.3333333333333,4,2,1,70,0,1
45077,-83.3333333333333,4,2,1,50,0,0
45322,-76.9230769230769,4,2,1,50,0,1
45814,-90.9090909090909,4,2,1,50,0,1
48765,-90.9090909090909,4,2,1,70,0,1
49011,-90.9090909090909,4,2,1,50,0,0
49257,-76.9230769230769,4,2,1,70,0,1
49749,-90.9090909090909,4,2,1,50,0,1
53191,-142.857142857143,4,2,1,50,0,0
55158,-100,4,2,1,50,0,0
55404,-100,4,2,1,35,0,0
58601,-333.333333333333,4,2,1,30,0,0
59093,-100,4,2,1,50,0,0
59339,-100,4,2,1,35,0,0
62536,-333.333333333333,4,2,1,30,0,0
63027,-100,4,2,1,50,0,0
63273,-100,4,2,1,35,0,0
68929,-200,4,2,1,30,0,0
69667,-100,4,2,1,50,0,0
70281,-100,4,2,1,5,0,0
70404,-100,4,2,1,40,0,0
78273,-142.857142857143,4,2,1,50,0,0
78458,-142.857142857143,4,2,1,5,0,0
78765,-100,4,2,1,50,0,0
90568,-142.857142857143,4,2,1,50,0,0
92536,-100,4,2,1,50,0,0
93027,-100,4,2,1,55,0,0
93519,-100,4,2,1,60,0,0
94011,-142.857142857143,4,2,1,60,0,0
94257,-142.857142857143,4,2,1,20,0,0
95978,-76.9230769230769,4,2,1,50,0,0
98437,-76.9230769230769,4,2,1,70,0,1
98929,-90.9090909090909,4,2,1,50,0,1
101880,-90.9090909090909,4,2,1,70,0,1
102126,-90.9090909090909,4,2,1,50,0,0
102372,-76.9230769230769,4,2,1,70,0,1
102863,-90.9090909090909,4,2,1,50,0,1
105814,-83.3333333333333,4,2,1,70,0,1
106060,-83.3333333333333,4,2,1,50,0,0
106306,-76.9230769230769,4,2,1,70,0,1
106798,-90.9090909090909,4,2,1,50,0,1
109749,-90.9090909090909,4,2,1,70,0,1
109995,-90.9090909090909,4,2,1,50,0,0
110240,-76.9230769230769,4,2,1,70,0,1
110732,-90.9090909090909,4,2,1,50,0,1
112208,-142.857142857143,4,2,1,50,0,0
112638,-142.857142857143,4,2,1,5,0,0
112699,-142.857142857143,4,2,1,50,0,0
113130,-142.857142857143,4,2,1,5,0,0
113191,-142.857142857143,4,2,1,50,0,0
113622,-142.857142857143,4,2,1,5,0,0
113683,-142.857142857143,4,2,1,50,0,0
114113,-142.857142857143,4,2,1,5,0,0
114175,-125,4,2,1,35,0,0
121552,-111.111111111111,4,2,1,40,0,0
127699,-142.857142857143,4,2,1,20,0,0
128191,-142.857142857143,4,2,1,10,0,0
128929,-125,4,2,1,35,0,0
129913,-125,4,2,1,50,0,0
137781,-111.111111111111,4,2,1,50,0,0
144175,-111.111111111111,4,2,1,55,0,0
144667,-111.111111111111,4,2,1,60,0,0
145158,-142.857142857143,4,2,1,60,0,0
147126,-76.9230769230769,4,2,1,50,0,0
148847,-76.9230769230769,4,2,1,50,0,0
150814,-76.9230769230769,4,2,1,50,0,0
153027,-76.9230769230769,4,2,1,50,0,0
153519,-76.9230769230769,4,2,1,70,0,1
154011,-90.9090909090909,4,2,1,50,0,1
156962,-90.9090909090909,4,2,1,70,0,1
157208,-90.9090909090909,4,2,1,50,0,0
157454,-76.9230769230769,4,2,1,70,0,1
157945,-90.9090909090909,4,2,1,50,0,1
160896,-83.3333333333333,4,2,1,70,0,1
161142,-83.3333333333333,4,2,1,50,0,0
161388,-76.9230769230769,4,2,1,70,0,1
161880,-90.9090909090909,4,2,1,50,0,1
164831,-90.9090909090909,4,2,1,70,0,1
165077,-90.9090909090909,4,2,1,50,0,0
165322,-76.9230769230769,4,2,1,70,0,1
165814,-90.9090909090909,4,2,1,50,0,1
169257,-76.9230769230769,4,2,1,70,0,0
170240,-90.9090909090909,4,2,1,50,0,0
173191,-76.9230769230769,4,2,1,70,0,0
174175,-90.9090909090909,4,2,1,50,0,0
177126,-76.9230769230769,4,2,1,70,0,0
178109,-90.9090909090909,4,2,1,50,0,0
181060,-76.9230769230769,4,2,1,70,0,0
182044,-90.9090909090909,4,2,1,50,0,0

[Colours]
Combo1 : 4,130,255
Combo2 : 0,99,198
Combo3 : 255,0,128
Combo4 : 163,163,163
Combo5 : 164,209,255
Combo6 : 255,159,64
SliderBorder : 98,98,255
SliderTrackOverride : 30,30,30

[HitObjects]
424,170,4011,22,0,P|483:45|370:119,1,363.999970939638,4|8,3:0|0:0,0:0:0:0:
357,296,4749,2,0,P|409:342|387:276,1,181.999985469819,2|8,0:0|3:0,0:0:0:0:
162,157,5240,54,0,P|127:163|94:156,1,69.9999976158143,2|0,0:0|0:0,0:0:0:0:
195,84,5486,2,0,L|214:224,1,139.999995231629,8|2,0:0|0:0,0:0:0:0:
102,46,5978,69,8,3:0:0:0:
294,91,6224,1,2,0:0:0:0:
73,170,6470,2,0,L|144:184,1,69.9999976158143,8|0,0:0|0:0,0:0:0:0:
265,215,6716,2,0,L|140:284,1,139.999995231629,2|8,0:0|3:0,0:0:0:0:
398,232,7208,5,2,0:0:0:0:
398,232,7454,2,0,P|406:266|399:300,1,69.9999976158143,8|0,0:0|0:0,0:0:0:0:
265,215,7699,2,0,P|257:181|264:147,1,69.9999976158143,2|0,3:0|0:0,0:0:0:0:
330,328,7945,22,0,P|382:376|381:291,1,181.999985469819,4|0,3:0|0:0,0:0:0:0:
256,76,8437,1,8,0:0:0:0:
182,328,8683,70,0,P|130:376|131:291,1,181.999985469819,2|8,0:0|3:0,0:0:0:0:
256,76,9175,1,2,0:0:0:0:
182,328,9421,53,8,0:0:0:0:
350,236,9667,1,2,3:0:0:0:
93,115,9913,5,8,3:0:0:0:
285,160,10159,1,2,0:0:0:0:
64,239,10405,2,0,L|135:253,1,69.9999976158143,8|0,0:0|0:0,0:0:0:0:
256,284,10651,2,0,L|131:353,1,139.999995231629,2|8,0:0|3:0,0:0:0:0:
318,324,11142,38,0,P|330:278|311:234,1,97.9999936714175,2|8,0:0|0:0,0:0:0:0:
102,175,11634,21,2,3:0:0:0:
410,209,11880,1,4,0:0:0:0:
196,191,12126,1,2,0:0:0:0:
196,191,12249,2,0,L|202:268,1,69.9999976158143,2|8,0:0|0:0,0:0:0:0:
308,198,12495,1,2,0:0:0:0:
308,198,12618,2,0,L|314:121,1,69.9999976158143,2|0,0:0|0:0,0:0:0:0:
415,213,12863,37,8,3:0:0:0:
415,213,13109,2,0,P|469:239|433:177,1,181.999985469819,2|8,0:0|0:0,0:0:0:0:
256,312,13601,37,2,3:0:0:0:
256,312,13724,1,2,0:0:0:0:
256,312,13847,1,8,3:0:0:0:
313,133,14093,1,2,0:0:0:0:
313,133,14216,2,0,L|307:56,1,69.9999976158143,2|8,0:0|0:0,0:0:0:0:
201,126,14462,1,2,0:0:0:0:
201,126,14585,2,0,L|195:203,1,69.9999976158143,2|0,0:0|0:0,0:0:0:0:
100,116,14831,37,8,3:0:0:0:
100,116,15077,2,0,P|46:90|82:152,2,181.999985469819,2|8|8,0:0|0:0|3:0,0:0:0:0:
324,248,15814,6,0,L|332:360,1,97.9999936714175,4|0,3:0|0:0,0:0:0:0:
404,224,16306,2,0,L|412:336,1,97.9999936714175,8|2,0:0|3:0,0:0:0:0:
176,376,16798,5,8,0:0:0:0:
106,353,16921,1,2,0:0:0:0:
106,279,17044,1,8,3:0:0:0:
176,257,17166,1,2,0:0:0:0:
219,316,17290,2,0,P|268:328|320:308,1,97.9999936714175,8|0,0:0|0:0,0:0:0:0:
493,129,17781,5,8,3:0:0:0:
424,151,17903,1,2,0:0:0:0:
352,172,18027,2,0,L|358:235,1,48.9999968357087,8|2,3:0|0:0,0:0:0:0:
236,257,18273,5,8,0:0:0:0:
305,279,18395,1,2,0:0:0:0:
377,300,18519,2,0,L|371:363,1,48.9999968357087,8|2,3:0|0:0,0:0:0:0:
432,243,18765,21,8,3:0:0:0:
305,279,18888,1,8,3:0:0:0:
440,230,19011,1,8,3:0:0:0:
293,271,19134,1,8,3:0:0:0:
447,218,19257,1,12,3:0:0:0:
72,40,19749,38,0,L|76:136,1,69.9999976158143,4|0,0:0|0:0,0:0:0:0:
132,192,19995,2,0,L|164:108,1,69.9999976158143,2|0,0:0|0:0,0:0:0:0:
216,1,20240,1,8,0:0:0:0:
233,13,20486,1,2,0:0:0:0:
103,267,20732,2,0,P|74:248|55:218,1,69.9999976158143,8|0,3:0|0:0,0:0:0:0:
121,106,20978,1,2,0:0:0:0:
179,258,21224,6,0,P|211:197|190:132,1,139.999995231629,8|0,0:0|0:0,0:0:0:0:
118,88,21593,2,0,B|192:107|176:71|255:85,1,139.999995231629,2|0,0:0|0:0,0:0:0:0:
305,146,21962,1,2,0:0:0:0:
195,319,22208,2,0,P|198:249|249:191,2,139.999995231629,8|0|8,0:0|0:0|3:0,0:0:0:0:
339,135,22945,69,2,0:0:0:0:
395,361,23191,1,8,0:0:0:0:
177,308,23437,1,2,0:0:0:0:
160,113,23683,6,0,L|165:223,1,69.9999976158143,4|0,0:0|0:0,0:0:0:0:
85,288,23929,2,0,L|61:208,1,69.9999976158143,2|0,0:0|0:0,0:0:0:0:
125,92,24175,70,0,L|130:202,1,69.9999976158143,8|0,0:0|0:0,0:0:0:0:
50,267,24421,2,0,L|26:187,1,69.9999976158143,2|0,0:0|0:0,0:0:0:0:
89,73,24667,5,8,3:0:0:0:
16,250,24913,1,2,0:0:0:0:
203,203,25158,1,8,0:0:0:0:
52,51,25404,1,2,0:0:0:0:
52,51,25527,1,0,0:0:0:0:
52,51,25650,70,0,L|69:200,2,139.999995231629,8|2|8,3:0|0:0|0:0,0:0:0:0:
15,249,26388,2,0,P|81:267|138:230,1,139.999995231629,2|8,0:0|3:0,0:0:0:0:
240,17,26880,5,2,0:0:0:0:
238,227,27126,1,8,0:0:0:0:
272,20,27372,1,2,0:0:0:0:
512,224,27617,69,4,0:0:0:0:
288,144,27863,1,2,0:0:0:0:
496,208,28109,1,8,0:0:0:0:
272,128,28355,2,0,L|292:266,1,139.999995231629,2|8,0:0|3:0,0:0:0:0:
191,97,28847,5,2,0:0:0:0:
51,138,29093,2,0,L|127:146,1,69.9999976158143,8|0,0:0|0:0,0:0:0:0:
0,247,29339,2,0,L|62:215,1,69.9999976158143,2|0,0:0|0:0,0:0:0:0:
1,331,29585,69,8,3:0:0:0:
211,227,29831,1,2,0:0:0:0:
211,227,30077,2,0,B|185:195|185:195|239:209|239:209|276:188|276:188|336:247|403:207,1,279.999990463257,8|8,0:0|3:0,0:0:0:0:
27,311,31060,6,0,L|24:218,2,93.333330154419,8|2|2,0:0|0:0|0:0,0:0:0:0:
100,360,31552,38,0,L|152:268,1,97.9999936714175,4|8,3:0|3:0,0:0:0:0:
136,360,32044,2,0,L|232:312,1,97.9999936714175,8|8,0:0|3:0,0:0:0:0:
412,360,32536,6,0,L|360:268,1,97.9999936714175,2|8,0:0|3:0,0:0:0:0:
376,360,33028,2,0,L|280:312,1,97.9999936714175,8|8,0:0|3:0,0:0:0:0:
440,208,33519,53,8,3:0:0:0:
376,256,33642,1,8,3:0:0:0:
379,121,33765,69,8,3:0:0:0:
328,192,33888,1,8,3:0:0:0:
254,63,34011,5,8,3:0:0:0:
256,160,34134,1,8,3:0:0:0:
125,112,34257,69,8,3:0:0:0:
184,192,34380,1,8,3:0:0:0:
72,208,34503,6,0,L|32:224,3,34.9999988079071,8|8|8|8,3:0|3:0|3:0|3:0,0:0:0:0:
136,256,34749,2,0,L|104:272,3,34.9999988079071,8|8|8|8,3:0|3:0|3:0|3:0,0:0:0:0:
192,304,34995,5,8,3:0:0:0:
102,288,36962,54,0,L|92:194,1,90.9999927349095,4|0,3:0|0:0,0:0:0:0:
92,197,37454,6,0,P|167:228|103:135,1,272.999978204728,6|0,0:0|0:0,0:0:0:0:
17,268,37945,69,14,1:0:0:0:
257,359,38191,1,2,1:0:0:0:
257,359,38314,1,2,1:0:0:0:
257,359,38437,1,10,1:0:0:0:
214,101,38683,1,2,1:0:0:0:
214,101,38806,1,2,1:0:0:0:
214,101,38929,1,8,1:0:0:0:
88,329,39175,5,2,1:0:0:0:
188,274,39298,1,2,1:0:0:0:
26,300,39421,2,0,L|39:376,1,76.9999997272492,10|2,1:0|1:0,0:0:0:0:
188,274,39667,69,2,1:0:0:0:
88,219,39790,1,2,1:0:0:0:
250,245,39913,2,0,L|237:321,1,76.9999997272492,10|2,1:0|1:0,0:0:0:0:
88,219,40158,5,2,1:0:0:0:
188,164,40281,1,2,1:0:0:0:
26,190,40404,2,0,L|39:266,1,76.9999997272492,10|0,1:0|0:0,0:0:0:0:
188,164,40650,69,2,1:0:0:0:
88,109,40773,1,2,1:0:0:0:
253,137,40896,2,0,P|243:209|174:234,1,153.999999454498,4|2,3:0|1:0,0:0:0:0:
174,234,41388,6,0,P|89:215|190:168,1,272.999978204728,6|0,0:0|0:0,0:0:0:0:
306,344,41880,69,14,1:0:0:0:
56,289,42126,1,2,1:0:0:0:
56,289,42249,1,2,1:0:0:0:
56,289,42372,1,10,1:0:0:0:
232,96,42618,1,2,1:0:0:0:
232,96,42741,1,2,1:0:0:0:
232,96,42864,1,8,1:0:0:0:
400,366,43109,5,2,1:0:0:0:
325,260,43232,1,2,1:0:0:0:
492,295,43355,2,0,L|405:292,1,76.9999997272492,14|2,1:0|1:0,0:0:0:0:
247,285,43601,69,10,1:0:0:0:
322,179,43724,1,2,1:0:0:0:
155,214,43847,2,0,L|241:211,1,76.9999997272492,14|2,1:0|1:0,0:0:0:0:
397,210,44093,5,10,1:0:0:0:
322,104,44216,1,2,1:0:0:0:
489,139,44339,2,0,L|402:136,1,76.9999997272492,14|2,1:0|1:0,0:0:0:0:
244,129,44585,69,2,1:0:0:0:
319,23,44708,1,2,1:0:0:0:
152,58,44831,2,0,L|164:234,1,167.999989151001,4|2,3:0|1:0,0:0:0:0:
163,225,45322,6,0,P|58:243|149:296,1,272.999978204728,6|0,0:0|0:0,0:0:0:0:
361,299,45814,69,14,1:0:0:0:
169,129,46060,1,2,1:0:0:0:
169,129,46183,1,2,1:0:0:0:
169,129,46306,1,10,1:0:0:0:
116,384,46552,1,2,1:0:0:0:
116,384,46675,1,2,1:0:0:0:
116,384,46798,1,8,1:0:0:0:
338,132,47044,5,2,1:0:0:0:
218,176,47167,1,2,1:0:0:0:
271,18,47290,2,0,L|268:116,1,76.9999997272492,10|2,1:0|1:0,0:0:0:0:
176,235,47536,69,2,1:0:0:0:
56,279,47659,1,2,1:0:0:0:
109,121,47782,2,0,L|106:219,1,76.9999997272492,10|2,1:0|1:0,0:0:0:0:
226,313,48027,5,2,1:0:0:0:
346,357,48150,1,2,1:0:0:0:
293,199,48273,2,0,L|296:297,1,76.9999997272492,10|0,1:0|0:0,0:0:0:0:
341,132,48519,69,2,1:0:0:0:
221,176,48642,1,2,1:0:0:0:
378,70,48765,2,0,P|413:122|362:201,1,153.999999454498,4|2,3:0|1:0,0:0:0:0:
374,196,49257,6,0,P|305:256|418:238,1,272.999978204728,6|0,0:0|0:0,0:0:0:0:
379,106,49749,69,14,1:0:0:0:
187,276,49995,1,2,1:0:0:0:
187,276,50118,1,2,1:0:0:0:
187,276,50241,1,10,1:0:0:0:
134,21,50487,1,2,1:0:0:0:
134,21,50610,1,2,1:0:0:0:
134,21,50733,1,8,1:0:0:0:
414,113,50978,5,2,1:0:0:0:
293,155,51100,1,2,1:0:0:0:
469,157,51224,2,0,L|385:184,1,76.9999997272492,10|2,1:0|1:0,0:0:0:0:
223,238,51470,69,2,1:0:0:0:
344,280,51592,1,2,1:0:0:0:
168,282,51716,2,0,L|252:309,1,76.9999997272492,10|2,1:0|1:0,0:0:0:0:
400,235,51962,2,0,L|316:208,1,76.9999997272492,2|2,1:0|1:0,0:0:0:0:
113,152,52208,5,10,1:0:0:0:
253,107,52331,1,2,1:0:0:0:
113,64,52454,1,2,1:0:0:0:
255,30,52577,70,0,L|252:113,1,76.9999997272492,2|12,1:0|1:0,0:0:0:0:
42,356,52945,2,0,L|45:273,1,76.9999997272492,2|0,1:0|0:0,0:0:0:0:
16,124,55158,54,0,L|16:216,1,69.9999976158143,12|0,0:0|0:0,0:0:0:0:
80,272,55404,2,0,L|92:200,1,69.9999976158143,2|2,0:0|0:0,0:0:0:0:
156,116,55650,6,0,L|171:206,1,69.9999976158143,8|0,3:0|0:0,0:0:0:0:
256,272,55896,1,2,0:0:0:0:
256,272,56020,70,0,L|272:200,1,69.9999976158143,2|8,0:0|3:0,0:0:0:0:
328,72,56266,2,0,L|344:152,1,69.9999976158143,2|0,0:0|0:0,0:0:0:0:
392,288,56512,6,0,L|408:208,1,69.9999976158143,2|8,0:0|3:0,0:0:0:0:
496,40,56880,1,0,0:0:0:0:
496,40,57003,1,2,0:0:0:0:
512,256,57126,70,0,L|472:184,1,69.9999976158143,8|0,3:0|0:0,0:0:0:0:
304,64,57372,2,0,L|300:148,1,69.9999976158143,2|2,0:0|0:0,0:0:0:0:
216,208,57617,1,8,3:0:0:0:
216,208,57740,6,0,L|171:124,1,69.9999976158143,2|0,0:0|0:0,0:0:0:0:
56,8,57986,1,2,0:0:0:0:
56,8,58108,1,8,3:0:0:0:
36,8,58601,38,0,L|36:28,1,20.9999986438752,2|0,0:0|0:0,0:0:0:0:
12,4,59093,22,0,L|20:100,1,69.9999976158143,12|0,0:0|0:0,0:0:0:0:
52,188,59339,2,0,L|84:108,1,69.9999976158143,2|2,0:0|0:0,0:0:0:0:
152,12,59585,6,0,L|160:88,1,69.9999976158143,8|0,3:0|0:0,0:0:0:0:
200,208,59831,1,2,0:0:0:0:
200,208,59954,70,0,L|240:128,1,69.9999976158143,2|8,0:0|3:0,0:0:0:0:
304,16,60199,1,2,0:0:0:0:
304,16,60322,2,0,L|312:112,1,69.9999976158143,2|0,0:0|0:0,0:0:0:0:
328,240,60568,6,0,L|360:160,1,69.9999976158143,8|0,3:0|0:0,0:0:0:0:
416,16,60814,2,0,L|440:96,1,69.9999976158143,2|0,0:0|0:0,0:0:0:0:
488,216,61060,70,0,L|440:152,1,69.9999976158143,8|0,3:0|0:0,0:0:0:0:
272,104,61306,1,2,0:0:0:0:
272,104,61429,2,0,L|368:88,1,69.9999976158143,2|8,0:0|3:0,0:0:0:0:
114,64,61675,6,0,L|184:64,1,69.9999976158143,2|0,0:0|0:0,0:0:0:0:
19,18,61921,1,2,0:0:0:0:
19,18,62044,1,8,3:0:0:0:
44,16,62536,38,0,L|44:40,1,20.9999986438752,2|0,0:0|0:0,0:0:0:0:
64,16,63027,37,12,0:0:0:0:
136,244,63273,69,2,0:0:0:0:
184,176,63396,1,2,0:0:0:0:
221,248,63519,1,8,0:0:0:0:
96,96,63765,1,2,0:0:0:0:
96,96,63888,2,0,L|108:176,1,69.9999976158143,2|8,0:0|3:0,0:0:0:0:
36,296,64134,2,0,L|59:229,1,69.9999976158143,2|0,0:0|0:0,0:0:0:0:
161,15,64380,1,2,0:0:0:0:
161,15,64503,6,0,P|184:42|191:76,1,69.9999976158143,8|0,0:0|0:0,0:0:0:0:
81,5,64749,1,2,0:0:0:0:
167,148,64995,70,0,P|234:143|268:85,1,139.999995231629,8|2,3:0|0:0,0:0:0:0:
389,22,65363,2,0,L|314:31,1,69.9999976158143,2|8,0:0|0:0,0:0:0:0:
434,136,65609,2,0,L|364:96,1,69.9999976158143,2|0,0:0|0:0,0:0:0:0:
438,254,65855,2,0,L|387:196,1,69.9999976158143,2|8,0:0|3:0,0:0:0:0:
464,254,66470,5,10,0:0:0:0:
464,254,66593,1,2,0:0:0:0:
181,309,66962,2,0,B|260:309|260:309|316:285|316:285|406:282,1,209.999992847443,8|0,3:0|0:0,0:0:0:0:
455,336,67454,1,8,0:0:0:0:
455,336,67577,1,2,0:0:0:0:
225,109,67945,69,8,3:0:0:0:
225,109,68068,1,2,0:0:0:0:
328,224,68191,1,2,3:0:0:0:
328,224,68314,1,2,0:0:0:0:
361,73,68437,2,0,L|510:68,1,139.999995231629,8|0,0:0|0:0,0:0:0:0:
243,117,68929,54,0,P|160:123|123:49,1,174.999994039536,8|2,3:0|0:0,0:0:0:0:
123,49,69667,70,0,B|150:16|150:16|185:345,1,349.999988079071,2|0,0:0|0:0,0:0:0:0:
99,313,70404,37,10,3:0:0:0:
99,313,70527,1,2,0:0:0:0:
133,384,70650,1,2,0:0:0:0:
133,384,70773,1,2,0:0:0:0:
172,228,70896,6,0,P|230:203|314:235,1,139.999995231629,4|2,0:0|0:0,0:0:0:0:
384,296,71265,1,2,0:0:0:0:
384,296,71388,2,0,P|448:321|395:214,1,279.999990463257,8|8,0:0|3:0,0:0:0:0:
104,232,72126,69,2,0:0:0:0:
384,296,72372,1,8,0:0:0:0:
179,250,72617,1,2,0:0:0:0:
429,357,72863,6,0,P|460:300|421:230,1,139.999995231629,8|2,3:0|0:0,0:0:0:0:
180,129,73355,2,0,P|149:186|188:256,1,139.999995231629,8|0,0:0|0:0,0:0:0:0:
291,192,73724,2,0,P|257:184|223:191,1,69.9999976158143,2|8,0:0|3:0,0:0:0:0:
17,366,74339,69,2,0:0:0:0:
17,366,74462,1,2,0:0:0:0:
41,245,74585,1,2,0:0:0:0:
41,245,74708,1,2,0:0:0:0:
209,311,74831,6,0,P|273:334|338:311,1,139.999995231629,8|2,3:0|0:0,0:0:0:0:
425,226,75199,1,2,0:0:0:0:
425,226,75322,2,0,P|405:116|334:202,1,279.999990463257,8|8,0:0|3:0,0:0:0:0:
487,368,76060,69,2,0:0:0:0:
512,84,76306,1,8,0:0:0:0:
495,291,76552,1,2,0:0:0:0:
316,181,76798,6,0,P|251:156|188:182,1,139.999995231629,8|2,2:0|0:0,0:0:0:0:
10,274,77290,2,0,P|74:298|137:272,1,139.999995231629,8|0,0:0|0:0,0:0:0:0:
188,182,77658,2,0,L|200:111,1,69.9999976158143,2|8,0:0|3:0,0:0:0:0:
199,112,78273,38,0,P|258:96|207:65,1,146.999990507126,8|0,0:0|0:0,0:0:0:0:
88,119,78765,38,0,P|80:153|89:187,1,69.9999976158143,6|0,0:0|0:0,0:0:0:0:
128,318,79011,2,0,P|135:284|126:250,1,69.9999976158143,2|0,0:0|0:0,0:0:0:0:
19,219,79256,1,8,0:0:0:0:
256,192,79502,1,2,0:0:0:0:
19,219,79749,2,0,P|49:210|89:215,1,69.9999976158143,8|0,3:0|0:0,0:0:0:0:
192,276,79994,1,2,0:0:0:0:
325,123,80240,70,0,L|314:275,1,139.999995231629,8|0,0:0|0:0,0:0:0:0:
192,276,80609,2,0,P|240:243|324:271,1,139.999995231629,2|0,0:0|0:0,0:0:0:0:
394,327,80978,1,2,0:0:0:0:
192,276,81224,2,0,L|181:136,2,139.999995231629,8|0|8,0:0|0:0|3:0,0:0:0:0:
394,327,81961,5,2,0:0:0:0:
144,368,82207,1,8,0:0:0:0:
319,296,82453,1,2,0:0:0:0:
60,245,82699,70,0,L|75:333,1,69.9999976158143,4|0,0:0|0:0,0:0:0:0:
137,228,82945,2,0,L|125:158,1,69.9999976158143,2|0,0:0|0:0,0:0:0:0:
256,228,83191,6,0,L|271:316,1,69.9999976158143,8|0,0:0|0:0,0:0:0:0:
333,211,83437,2,0,L|321:141,1,69.9999976158143,2|0,0:0|0:0,0:0:0:0:
103,35,83683,69,8,3:0:0:0:
3,191,83929,1,2,0:0:0:0:
268,143,84174,1,8,0:0:0:0:
111,42,84420,1,2,0:0:0:0:
111,42,84543,1,0,0:0:0:0:
111,42,84666,6,0,P|91:103|124:176,2,139.999995231629,8|2|8,3:0|0:0|0:0,0:0:0:0:
189,240,85404,2,0,P|126:267|60:247,1,139.999995231629,2|8,0:0|3:0,0:0:0:0:
256,110,85896,69,2,0:0:0:0:
302,334,86142,1,8,0:0:0:0:
431,193,86388,1,2,0:0:0:0:
81,191,86634,5,4,0:0:0:0:
210,334,86880,1,2,0:0:0:0:
256,110,87126,1,8,0:0:0:0:
81,191,87371,2,0,P|31:170|87:143,1,139.999995231629,2|8,0:0|3:0,0:0:0:0:
256,295,87863,69,2,0:0:0:0:
297,92,88109,2,0,P|331:85|364:93,1,69.9999976158143,8|0,0:0|0:0,0:0:0:0:
216,111,88355,2,0,P|181:118|148:110,1,69.9999976158143,2|0,0:0|0:0,0:0:0:0:
57,37,88601,5,8,3:0:0:0:
17,220,88847,1,2,0:0:0:0:
216,111,89093,2,0,P|274:68|220:144,1,279.999990463257,8|8,0:0|3:0,0:0:0:0:
16,276,90077,70,0,L|27:372,2,93.333330154419,8|2|2,0:0|0:0|0:0,0:0:0:0:
131,192,90568,54,0,L|141:290,1,97.9999936714175,4|8,3:0|3:0,0:0:0:0:
164,124,91060,2,0,L|174:222,1,97.9999936714175,8|8,0:0|3:0,0:0:0:0:
381,192,91552,6,0,L|371:94,1,97.9999936714175,8|8,3:0|3:0,0:0:0:0:
348,260,92044,2,0,L|338:162,1,97.9999936714175,8|8,0:0|3:0,0:0:0:0:
106,242,92536,21,8,3:0:0:0:
19,222,92658,1,8,3:0:0:0:
147,177,92781,21,8,3:0:0:0:
85,105,92903,1,8,3:0:0:0:
215,141,93027,69,8,3:0:0:0:
217,43,93149,1,8,3:0:0:0:
289,159,93272,5,8,3:0:0:0:
350,79,93396,1,8,3:0:0:0:
344,211,93519,70,0,L|325:242,3,34.9999988079071,8|8|8|8,3:0|3:0|3:0|3:0,0:0:0:0:
388,282,93765,2,0,L|371:318,3,34.9999988079071,8|8|8|8,3:0|3:0|3:0|3:0,0:0:0:0:
316,367,94011,22,0,P|267:352|222:367,1,97.9999936714175,8|0,3:0|0:0,0:0:0:0:
179,38,95978,54,0,L|191:134,1,90.9999927349095,12|0,0:0|0:0,0:0:0:0:
324,376,97945,6,0,L|310:264,1,90.9999927349095,4|0,3:0|0:0,0:0:0:0:
313,286,98437,70,0,B|356:272|408:308|408:308|372:228|416:128,1,272.999978204728,6|0,0:0|0:0,0:0:0:0:
512,0,98928,5,14,1:0:0:0:
320,96,99175,1,2,1:0:0:0:
320,96,99297,1,2,1:0:0:0:
320,96,99420,1,10,1:0:0:0:
128,192,99666,1,2,1:0:0:0:
128,192,99789,1,2,1:0:0:0:
128,192,99912,1,8,1:0:0:0:
76,28,100158,69,2,1:0:0:0:
176,48,100281,1,2,1:0:0:0:
4,116,100404,2,0,P|-3:78|1:40,1,76.9999997272492,10|2,1:0|1:0,0:0:0:0:
240,104,100650,5,2,1:0:0:0:
140,124,100773,1,2,1:0:0:0:
312,192,100896,2,0,P|319:154|315:116,1,76.9999997272492,10|2,1:0|1:0,0:0:0:0:
76,180,101142,69,2,1:0:0:0:
176,200,101265,1,2,1:0:0:0:
4,268,101388,2,0,P|-3:230|1:192,1,76.9999997272492,10|0,1:0|0:0,0:0:0:0:
240,256,101634,5,2,1:0:0:0:
140,276,101757,1,2,1:0:0:0:
237,357,101880,2,0,P|215:301|195:358,1,153.999999454498,4|2,3:0|1:0,0:0:0:0:
193,356,102372,70,0,B|202:262|160:192|160:192|272:240,1,272.999978204728,6|0,0:0|0:0,0:0:0:0:
512,384,102863,5,14,1:0:0:0:
320,288,103109,1,2,1:0:0:0:
320,288,103232,1,2,1:0:0:0:
320,288,103355,1,10,1:0:0:0:
128,192,103601,1,2,1:0:0:0:
128,192,103724,1,2,1:0:0:0:
128,192,103847,1,8,1:0:0:0:
320,96,104092,69,2,1:0:0:0:
192,64,104215,1,2,1:0:0:0:
384,32,104339,2,0,L|352:128,1,76.9999997272492,14|2,1:0|1:0,0:0:0:0:
96,160,104585,5,10,1:0:0:0:
224,128,104708,1,2,1:0:0:0:
32,96,104832,2,0,L|64:192,1,76.9999997272492,14|2,1:0|1:0,0:0:0:0:
384,224,105077,69,10,1:0:0:0:
256,192,105200,1,2,1:0:0:0:
448,160,105322,2,0,L|416:256,1,76.9999997272492,14|2,1:0|1:0,0:0:0:0:
160,288,105568,5,2,1:0:0:0:
288,256,105691,1,2,1:0:0:0:
88,196,105814,2,0,L|138:360,1,167.999989151001,4|2,3:0|1:0,0:0:0:0:
136,356,106306,70,0,B|69:388|69:388|104:255|47:191,1,272.999978204728,6|0,0:0|0:0,0:0:0:0:
0,0,106797,5,14,1:0:0:0:
192,96,107044,1,2,1:0:0:0:
192,96,107167,1,2,1:0:0:0:
192,96,107289,1,10,1:0:0:0:
384,192,107536,1,2,1:0:0:0:
384,192,107658,1,2,1:0:0:0:
384,192,107782,1,8,1:0:0:0:
217,296,108027,69,2,1:0:0:0:
313,264,108150,1,2,1:0:0:0:
149,336,108273,2,0,P|139:297|148:260,1,76.9999997272492,10|2,1:0|1:0,0:0:0:0:
389,214,108519,5,2,1:0:0:0:
293,182,108642,1,2,1:0:0:0:
457,254,108765,2,0,P|467:215|458:178,1,76.9999997272492,10|2,1:0|1:0,0:0:0:0:
227,139,109011,69,2,1:0:0:0:
323,107,109134,1,2,1:0:0:0:
159,179,109257,2,0,P|149:140|158:103,1,76.9999997272492,10|0,1:0|0:0,0:0:0:0:
399,84,109503,5,2,1:0:0:0:
305,34,109626,1,2,1:0:0:0:
471,100,109749,2,0,P|466:46|378:10,1,153.999999454498,4|2,3:0|1:0,0:0:0:0:
382,9,110240,70,0,B|353:1|305:34|305:34|405:81|327:201,1,272.999978204728,6|0,0:0|0:0,0:0:0:0:
224,384,110732,5,14,1:0:0:0:
128,192,110978,1,2,1:0:0:0:
128,192,111101,1,2,1:0:0:0:
128,192,111224,1,10,1:0:0:0:
32,0,111470,1,2,1:0:0:0:
32,0,111593,1,2,1:0:0:0:
32,0,111716,1,12,1:0:0:0:
512,46,112208,6,0,L|324:65,1,171.499988924981,2|0,0:0|0:0,0:0:0:0:
275,25,112699,6,0,B|300:-20|206:-8|264:47|264:47|271:129,1,171.499988924981,2|0,0:0|0:0,0:0:0:0:
313,188,113191,70,0,B|337:214|337:214|191:173,1,171.499988924981,2|0,0:0|0:0,0:0:0:0:
150,125,113683,6,0,B|94:208|172:207|129:297,1,171.499988924981,2|0,0:0|0:0,0:0:0:0:
59,284,114175,70,0,P|135:362|206:278,2,223.999992370606,8|8|8,3:0|3:0|3:0,0:0:0:0:
224,92,115404,5,2,0:0:0:0:
205,300,115650,1,8,3:0:0:0:
217,169,115896,2,0,L|212:231,1,55.9999980926514,2|0,0:0|0:0,0:0:0:0:
138,223,116142,70,0,P|214:301|285:217,2,223.999992370606,8|8|8,3:0|3:0|3:0,0:0:0:0:
303,31,117372,5,2,0:0:0:0:
284,239,117618,1,8,3:0:0:0:
296,108,117864,2,0,L|291:170,1,55.9999980926514,2|0,0:0|0:0,0:0:0:0:
229,285,118109,70,0,P|276:311|328:295,1,111.999996185303,8|2,3:0|0:0,0:0:0:0:
176,228,118601,2,0,P|149:275|165:327,1,111.999996185303,8|2,3:0|0:0,0:0:0:0:
231,177,119093,2,0,P|183:150|131:166,2,111.999996185303,8|2|8,3:0|0:0|3:0,0:0:0:0:
81,221,119831,5,2,0:0:0:0:
81,221,119954,1,0,0:0:0:0:
81,221,120077,2,0,P|54:173|70:121,1,111.999996185303,8|2,3:0|0:0,0:0:0:0:
139,275,120569,2,0,P|91:301|39:285,1,111.999996185303,8|2,3:0|0:0,0:0:0:0:
190,220,121061,2,0,P|216:267|200:319,1,111.999996185303,8|2,3:0|0:0,0:0:0:0:
99,161,121552,5,8,0:0:0:0:
170,146,121675,1,2,0:0:0:0:
240,133,121798,1,2,0:0:0:0:
310,120,121921,1,2,0:0:0:0:
381,105,122044,6,0,L|371:243,1,125.999991863251,4|2,0:0|0:0,0:0:0:0:
300,270,122413,2,0,L|293:332,2,62.9999959316255,2|8|2,0:0|0:0|0:0,0:0:0:0:
310,120,122781,69,2,0:0:0:0:
239,135,122904,1,2,0:0:0:0:
169,148,123027,2,0,L|159:286,1,125.999991863251,8|2,3:0|0:0,0:0:0:0:
229,309,123396,2,0,L|222:371,1,62.9999959316255,2|8,0:0|0:0,0:0:0:0:
297,364,123642,1,2,0:0:0:0:
367,351,123765,1,2,0:0:0:0:
437,338,123888,1,2,0:0:0:0:
507,322,124011,6,0,L|497:184,1,125.999991863251,8|2,3:0|0:0,0:0:0:0:
424,163,124380,2,0,L|417:101,1,62.9999959316255,2|8,0:0|0:0,0:0:0:0:
342,114,124626,1,2,0:0:0:0:
272,127,124749,1,2,0:0:0:0:
202,140,124872,1,2,0:0:0:0:
132,156,124995,70,0,L|142:294,1,125.999991863251,8|2,3:0|0:0,0:0:0:0:
215,315,125364,2,0,L|222:377,1,62.9999959316255,2|8,0:0|0:0,0:0:0:0:
299,334,125609,2,0,L|292:272,1,62.9999959316255,2|2,0:0|0:0,0:0:0:0:
255,20,125978,6,0,L|245:158,1,125.999991863251,8|2,3:0|0:0,0:0:0:0:
174,185,126347,2,0,L|167:247,2,62.9999959316255,2|8|2,0:0|0:0|0:0,0:0:0:0:
245,145,126716,1,2,0:0:0:0:
91,34,126962,70,0,L|81:172,1,125.999991863251,8|2,3:0|0:0,0:0:0:0:
10,199,127331,2,0,L|4:263,2,62.9999959316255,2|8|0,0:0|0:0|0:0,0:0:0:0:
81,242,127699,54,0,L|76:308,2,48.9999968357087,2|2|8,0:0|0:0|3:0,0:0:0:0:
217,134,128191,1,2,0:0:0:0:
217,135,128314,2,0,P|273:165|346:131,1,146.999990507126,2|2,0:0|0:0,0:0:0:0:
488,248,128929,70,0,L|488:275,7,27.9999990463257,2|0|0|0|2|0|0|0,0:0|0:0|0:0|0:0|0:0|0:0|0:0|0:0,0:0:0:0:
416,296,129421,2,0,L|416:323,7,27.9999990463257,2|0|0|0|2|0|0|0,0:0|0:0|0:0|0:0|0:0|0:0|0:0|0:0,0:0:0:0:
344,336,129913,5,4,0:0:0:0:
336,104,130158,1,2,0:0:0:0:
264,200,130404,1,8,3:0:0:0:
240,24,130650,1,2,0:0:0:0:
242,108,130896,2,0,B|201:113|169:60|169:60|155:116|155:116|171:151,1,167.999994277954,8|0,3:0|0:0,0:0:0:0:
224,192,131388,5,8,3:0:0:0:
224,192,131634,1,2,0:0:0:0:
272,360,131880,69,8,3:0:0:0:
328,192,132126,1,2,0:0:0:0:
184,288,132372,1,8,3:0:0:0:
368,296,132617,1,2,0:0:0:0:
208,176,132863,2,0,B|153:166|153:166|262:142,1,167.999994277954,8|0,3:0|0:0,0:0:0:0:
352,120,133355,5,8,3:0:0:0:
352,120,133601,1,2,0:0:0:0:
472,344,133847,69,4,0:0:0:0:
424,186,134093,1,2,0:0:0:0:
296,344,134339,1,8,3:0:0:0:
408,288,134585,1,2,0:0:0:0:
217,366,134831,2,0,P|230:296|313:264,1,167.999994277954,8|0,3:0|0:0,0:0:0:0:
392,368,135322,5,8,3:0:0:0:
392,368,135568,1,2,0:0:0:0:
144,304,135814,69,8,3:0:0:0:
144,160,136060,1,2,0:0:0:0:
288,160,136306,1,8,3:0:0:0:
288,304,136552,1,2,0:0:0:0:
131,327,136798,5,8,3:0:0:0:
131,148,137044,1,2,0:0:0:0:
309,148,137290,1,8,3:0:0:0:
309,327,137536,1,2,0:0:0:0:
413,135,137781,6,0,B|444:175|377:208|433:267|433:267|387:250,1,188.999987794877,4|2,0:0|0:0,0:0:0:0:
235,198,138273,2,0,P|265:203|297:200,1,62.9999959316255,8|2,0:0|0:0,0:0:0:0:
413,135,138519,2,0,P|382:140|350:137,1,62.9999959316255,2|0,0:0|0:0,0:0:0:0:
248,70,138765,6,0,P|305:26|233:26,1,188.999987794877,8|0,3:0|0:0,0:0:0:0:
158,76,139257,69,8,0:0:0:0:
184,152,139380,1,0,0:0:0:0:
216,224,139503,1,2,0:0:0:0:
248,296,139626,1,2,0:0:0:0:
288,360,139749,6,0,L|104:304,1,188.999987794877,8|2,3:0|0:0,0:0:0:0:
18,262,140240,2,0,L|82:235,1,62.9999959316255,8|2,0:0|0:0,0:0:0:0:
182,189,140486,2,0,L|112:169,1,62.9999959316255,2|0,0:0|0:0,0:0:0:0:
4,124,140732,70,0,L|184:68,1,188.999987794877,8|0,3:0|0:0,0:0:0:0:
282,26,141224,2,0,L|254:88,1,62.9999959316255,8|0,0:0|0:0,0:0:0:0:
391,14,141470,2,0,L|345:72,1,62.9999959316255,2|0,0:0|0:0,0:0:0:0:
480,0,141716,6,0,B|432:86|536:86|480:176,1,188.999987794877,4|2,0:0|0:0,0:0:0:0:
416,320,142208,2,0,B|463:233|359:233|416:144,1,188.999987794877,8|0,0:0|0:0,0:0:0:0:
254,179,142699,70,0,P|288:183|317:177,1,62.9999959316255,8|0,3:0|0:0,0:0:0:0:
281,91,142945,1,2,0:0:0:0:
281,91,143068,1,2,0:0:0:0:
193,120,143191,2,0,P|176:146|171:177,1,62.9999959316255,8|2,0:0|0:0,0:0:0:0:
137,253,143437,2,0,P|111:230|94:198,1,62.9999959316255,2|0,0:0|0:0,0:0:0:0:
233,271,143683,21,8,3:0:0:0:
168,342,143806,1,8,3:0:0:0:
314,279,143929,5,8,3:0:0:0:
249,350,144052,1,8,3:0:0:0:
393,288,144175,69,8,3:0:0:0:
328,360,144298,1,8,3:0:0:0:
475,296,144421,5,8,3:0:0:0:
410,367,144544,1,8,3:0:0:0:
464,200,144667,70,0,L|416:224,3,31.4999979658128,8|8|8|8,3:0|3:0|3:0|3:0,0:0:0:0:
440,104,144913,2,0,L|416:136,3,31.4999979658128,8|8|8|8,3:0|3:0|3:0|3:0,0:0:0:0:
416,24,145159,21,8,3:0:0:0:
239,140,147126,69,12,0:0:0:0:
256,112,148847,69,12,0:0:0:0:
69,307,149093,1,12,0:0:0:0:
86,308,150814,5,12,0:0:0:0:
457,303,151060,1,12,0:0:0:0:
254,50,151306,1,12,0:0:0:0:
424,152,153027,70,0,L|464:120,6,45.4999963674547,4|0|0|0|0|0|0,3:0|0:0|0:0|0:0|0:0|0:0|0:0,0:0:0:0:
433,167,153519,6,0,P|506:201|394:216,1,272.999978204728,6|0,0:0|0:0,0:0:0:0:
260,173,154010,69,14,1:0:0:0:
500,82,154256,1,2,1:0:0:0:
500,82,154379,1,2,1:0:0:0:
500,82,154502,1,10,1:0:0:0:
457,340,154748,1,2,1:0:0:0:
457,340,154871,1,2,1:0:0:0:
457,340,154994,1,8,1:0:0:0:
157,233,155240,5,2,1:0:0:0:
257,288,155363,1,2,1:0:0:0:
91,265,155486,2,0,P|84:229|101:186,1,76.9999997272492,10|2,1:0|1:0,0:0:0:0:
257,178,155732,69,2,1:0:0:0:
157,233,155855,1,2,1:0:0:0:
323,210,155978,2,0,P|330:174|313:131,1,76.9999997272492,10|2,1:0|1:0,0:0:0:0:
157,123,156224,5,2,1:0:0:0:
257,178,156347,1,2,1:0:0:0:
91,155,156470,2,0,P|84:119|101:76,1,76.9999997272492,10|0,1:0|0:0,0:0:0:0:
257,68,156716,69,2,1:0:0:0:
157,123,156839,1,2,1:0:0:0:
323,100,156962,2,0,P|323:41|264:92,1,153.999999454498,4|2,3:0|1:0,0:0:0:0:
257,67,157453,6,0,P|273:164|313:81,1,230.999999181748,6|0,0:0|0:0,0:0:0:0:
481,26,157945,69,14,1:0:0:0:
334,262,158191,1,2,1:0:0:0:
334,262,158314,1,2,1:0:0:0:
334,262,158437,1,10,1:0:0:0:
158,69,158683,1,2,1:0:0:0:
158,69,158806,1,2,1:0:0:0:
158,69,158929,1,8,1:0:0:0:
182,384,159174,5,2,1:0:0:0:
257,278,159297,1,2,1:0:0:0:
90,313,159421,2,0,P|129:323|176:310,1,76.9999997272492,14|2,1:0|1:0,0:0:0:0:
330,297,159667,69,10,1:0:0:0:
255,191,159790,1,2,1:0:0:0:
422,226,159913,2,0,P|383:236|336:223,1,76.9999997272492,14|2,1:0|1:0,0:0:0:0:
181,207,160158,5,10,1:0:0:0:
256,101,160281,1,2,1:0:0:0:
89,136,160404,2,0,P|128:146|175:133,1,76.9999997272492,14|2,1:0|1:0,0:0:0:0:
331,118,160650,69,2,1:0:0:0:
256,12,160773,1,2,1:0:0:0:
420,73,160896,2,0,P|444:58|385:55,1,167.999989151001,4|2,3:0|1:0,0:0:0:0:
382,49,161388,6,0,P|322:135|317:27,1,272.999978204728,6|0,0:0|0:0,0:0:0:0:
472,70,161879,69,14,1:0:0:0:
312,269,162125,1,2,1:0:0:0:
312,269,162248,1,2,1:0:0:0:
312,269,162371,1,10,1:0:0:0:
215,27,162617,1,2,1:0:0:0:
215,27,162740,1,2,1:0:0:0:
215,27,162863,1,8,1:0:0:0:
173,370,163109,5,2,1:0:0:0:
217,250,163232,1,2,1:0:0:0:
59,303,163355,2,0,L|157:300,1,76.9999997272492,10|2,1:0|1:0,0:0:0:0:
302,291,163601,69,2,1:0:0:0:
258,171,163724,1,2,1:0:0:0:
416,224,163847,2,0,L|318:221,1,76.9999997272492,10|2,1:0|1:0,0:0:0:0:
183,221,164093,5,2,1:0:0:0:
227,101,164216,1,2,1:0:0:0:
69,154,164339,2,0,L|167:151,1,76.9999997272492,10|0,1:0|0:0,0:0:0:0:
312,142,164585,69,2,1:0:0:0:
268,22,164708,1,2,1:0:0:0:
426,75,164831,2,0,P|424:30|396:85,1,153.999999454498,4|2,3:0|1:0,0:0:0:0:
384,79,165322,6,0,P|369:169|307:69,1,272.999978204728,6|0,0:0|0:0,0:0:0:0:
446,24,165814,69,14,1:0:0:0:
505,273,166060,1,2,1:0:0:0:
505,273,166183,1,2,1:0:0:0:
505,273,166306,1,10,1:0:0:0:
255,200,166552,1,2,1:0:0:0:
255,200,166675,1,2,1:0:0:0:
255,200,166798,1,8,1:0:0:0:
512,125,167043,5,2,1:0:0:0:
391,167,167167,1,2,1:0:0:0:
433,40,167290,2,0,L|444:124,1,76.9999997272492,10|2,1:0|1:0,0:0:0:0:
356,265,167536,69,10,1:0:0:0:
477,223,167658,1,2,1:0:0:0:
435,350,167781,2,0,L|424:266,1,76.9999997272492,10|2,1:0|1:0,0:0:0:0:
277,169,168027,2,0,L|288:253,1,76.9999997272492,10|2,1:0|1:0,0:0:0:0:
144,367,168273,5,10,1:0:0:0:
284,322,168396,1,2,1:0:0:0:
144,279,168519,1,10,1:0:0:0:
286,245,168642,70,0,L|283:328,1,76.9999997272492,2|14,1:0|1:0,0:0:0:0:
37,136,169011,2,0,L|40:53,1,76.9999997272492,10|0,1:0|0:0,0:0:0:0:
312,156,169257,6,0,B|335:171|335:171|271:187|271:187|239:167|239:167|175:215|106:178,1,272.999978204728,4|0,0:0|0:0,0:0:0:0:
131,58,169749,2,0,P|175:113|183:43,1,181.999985469819,8|0,0:0|0:0,0:0:0:0:
24,235,170240,54,0,P|16:273|18:311,1,76.9999997272492,8|0,0:0|0:0,0:0:0:0:
80,168,170486,1,2,0:0:0:0:
108,248,170609,1,2,0:0:0:0:
108,248,170732,2,0,P|145:256|181:245,1,76.9999997272492,8|0,0:0|0:0,0:0:0:0:
316,304,170978,2,0,P|278:295|242:306,1,76.9999997272492,2|0,0:0|0:0,0:0:0:0:
387,360,171224,70,0,P|386:251|283:218,1,230.999999181748,8|0,0:0|0:0,0:0:0:0:
283,218,171716,2,0,L|323:152,1,76.9999997272492,8|0,0:0|0:0,0:0:0:0:
180,180,171962,2,0,L|248:128,1,76.9999997272492,2|0,0:0|0:0,0:0:0:0:
88,112,172208,6,0,B|176:80|176:80|104:64,2,153.999999454498,8|2|8,0:0|0:0|0:0,0:0:0:0:
312,48,172945,1,0,0:0:0:0:
82,224,173191,22,0,B|69:246|69:246|69:186|38:144|38:144|94:68|94:68|85:126,1,272.999978204728,4|0,0:0|0:0,0:0:0:0:
112,307,173683,2,0,P|26:309|-4:229,1,181.999985469819,8|0,0:0|0:0,0:0:0:0:
36,68,174175,54,0,P|43:112|33:153,1,76.9999997272492,8|0,0:0|0:0,0:0:0:0:
92,4,174420,1,2,0:0:0:0:
124,84,174543,1,2,0:0:0:0:
124,84,174667,2,0,P|161:92|197:81,1,76.9999997272492,8|0,0:0|0:0,0:0:0:0:
324,24,174913,2,0,P|286:15|250:26,1,76.9999997272492,2|0,0:0|0:0,0:0:0:0:
332,160,175158,70,0,L|291:94,1,76.9999997272492,8|0,0:0|0:0,0:0:0:0:
360,184,175404,2,0,L|368:104,1,76.9999997272492,2|0,0:0|0:0,0:0:0:0:
376,224,175650,2,0,L|412:144,1,76.9999997272492,8|0,0:0|0:0,0:0:0:0:
356,268,175896,2,0,L|432:232,1,76.9999997272492,2|0,0:0|0:0,0:0:0:0:
330,307,176142,6,0,B|224:304|224:304|288:280,1,153.999999454498,8|2,0:0|0:0,0:0:0:0:
156,315,176634,2,0,P|152:297|159:279,6,38.4999998636246,8|0|0|0|0|0|0,0:0|0:0|0:0|0:0|0:0|0:0|0:0,0:0:0:0:
86,361,177126,22,0,B|55:274|107:221|107:221|83:174|83:174|129:161|150:121,1,272.999978204728,4|0,0:0|0:0,0:0:0:0:
30,67,177617,2,0,P|53:100|86:76,1,90.9999927349095,8|0,0:0|0:0,0:0:0:0:
76,0,177863,1,2,0:0:0:0:
8,236,178109,54,0,P|0:198|1:160,1,76.9999997272492,8|0,0:0|0:0,0:0:0:0:
45,310,178355,1,2,0:0:0:0:
108,248,178478,1,2,0:0:0:0:
108,248,178601,2,0,P|145:240|181:251,1,76.9999997272492,8|0,0:0|0:0,0:0:0:0:
294,175,178847,70,0,P|256:166|220:177,1,76.9999997272492,2|0,0:0|0:0,0:0:0:0:
360,232,179093,2,0,P|378:197|377:160,1,76.9999997272492,8|0,0:0|0:0,0:0:0:0:
280,260,179339,2,0,P|298:294|330:314,1,76.9999997272492,2|0,0:0|0:0,0:0:0:0:
456,140,179585,2,0,P|437:105|405:85,1,76.9999997272492,8|0,0:0|0:0,0:0:0:0:
440,224,179831,2,0,P|479:224|511:206,1,76.9999997272492,2|0,0:0|0:0,0:0:0:0:
328,88,180077,6,0,B|156:108,2,153.999999454498,8|2|8,0:0|0:0|0:0,0:0:0:0:
88,32,180814,1,0,0:0:0:0:
38,259,181060,22,0,B|60:203|6:159|6:159|25:83|25:83|-1:48|11:6,1,272.999978204728,4|0,0:0|0:0,0:0:0:0:
126,224,181552,2,0,P|115:311|38:353,1,181.999985469819,8|0,0:0|0:0,0:0:0:0:
116,68,182044,54,0,P|108:106|110:144,1,76.9999997272492,8|0,0:0|0:0,0:0:0:0:
178,9,182290,1,2,0:0:0:0:
203,89,182413,1,2,0:0:0:0:
203,89,182536,2,0,P|240:97|276:86,1,76.9999997272492,8|0,0:0|0:0,0:0:0:0:
141,149,182781,2,0,P|161:180|194:198,1,76.9999997272492,2|0,0:0|0:0,0:0:0:0:
342,223,183027,21,14,1:0:0:0:
231,291,183150,1,2,1:0:0:0:
350,247,183273,69,10,1:0:0:0:
222,266,183396,1,2,1:0:0:0:
356,278,183519,6,0,P|337:322|233:300,1,153.999999454498,10|8,1:0|1:0,0:0:0:0:
71,149,184011,69,14,1:0:0:0:
182,81,184134,1,2,1:0:0:0:
63,125,184257,5,10,1:0:0:0:
191,106,184380,1,2,1:0:0:0:
57,94,184503,70,0,P|40:58|44:19,1,76.9999997272492,10|0,1:0|0:0,0:0:0:0:
190,131,184749,2,0,P|206:166|203:206,1,76.9999997272492,10|0,1:0|0:0,0:0:0:0:
32,281,184995,5,14,1:0:0:0:
149,327,185118,1,2,1:0:0:0:
41,250,185241,69,10,1:0:0:0:
163,297,185364,1,2,1:0:0:0:
50,221,185487,6,0,L|206:203,1,153.999999454498,10|8,1:0|1:0,0:0:0:0:
369,94,185979,69,14,1:0:0:0:
440,202,186102,1,2,1:0:0:0:
392,86,186225,5,10,1:0:0:0:
416,212,186348,1,2,1:0:0:0:
423,78,186471,70,0,L|412:-5,1,76.9999997272492,10|0,1:0|0:0,0:0:0:0:
391,212,186717,2,0,L|402:290,1,76.9999997272492,10|0,1:0|0:0,0:0:0:0:
456,160,186962,5,14,1:0:0:0:
325,151,187085,1,2,1:0:0:0:
451,134,187208,69,10,1:0:0:0:
329,178,187331,1,2,1:0:0:0:
442,104,187454,6,0,P|404:74|323:142,1,153.999999454498,14|8,1:0|1:0,0:0:0:0:
188,328,187946,69,14,1:0:0:0:
299,260,188069,1,2,1:0:0:0:
180,304,188192,5,10,1:0:0:0:
308,285,188315,1,2,1:0:0:0:
174,273,188438,70,0,P|157:237|161:198,1,76.9999997272492,14|0,1:0|0:0,0:0:0:0:
307,310,188683,2,0,P|323:345|320:385,1,76.9999997272492,10|0,1:0|0:0,0:0:0:0:
