osu file format v14

[General]
AudioFilename: audio.mp3
AudioLeadIn: 0
PreviewTime: 36900
Countdown: 0
SampleSet: Soft
StackLeniency: 0.7
Mode: 0
LetterboxInBreaks: 0
WidescreenStoryboard: 1

[Editor]
Bookmarks: 4011,19749,37454,55158,70896,78765,98437,114175,129913,153519,169257,188929
DistanceSpacing: 1.2
BeatDivisor: 4
GridSize: 4
TimelineZoom: 1.2

[Metadata]
Title:VERY NICE
TitleUnicode:아주 NICE
Artist:SEVENTEEN
ArtistUnicode:세븐틴
Creator:Natsu
Version:AJU NORMAL
Source:
Tags:PLEDIS ENTERTAINMENT 세븐틴 에스.쿱스 S.COUPS 우지 WOOZI 호시 HOSHI 민규 MINGYU 원우 WONWOO 버논 VERNON 승관 SEUNGKWAN 디노 DINO 준 JUN 도경 DK 조슈아 JOSHUA 정한 JEONGHAN 디에잇THE8 Love&Letter Repackage Album 17 euny kpop k-pop
BeatmapID:1364328
BeatmapSetID:618500

[Difficulty]
HPDrainRate:4
CircleSize:3
OverallDifficulty:4
ApproachRate:5.5
SliderMultiplier:1.4
SliderTickRate:2

[Events]
//Background and Video events
0,0,"KakaoTalk_20170526_202649144.jpg",0,0
Video,0,"--+Nice.avi"
//Break Periods
2,35486,36329
2,53191,54033
2,94211,97312
2,112208,113050
2,145650,152394
//Storyboard Layer 0 (Background)
//Storyboard Layer 1 (Fail)
//Storyboard Layer 2 (Pass)
//Storyboard Layer 3 (Foreground)
//Storyboard Sound Samples

[TimingPoints]
77,491.803278688525,4,2,1,50,1,0
15814,-100,4,2,1,50,0,0
17781,-100,4,2,1,50,0,0
18765,-100,4,2,1,60,0,0
19749,-100,4,2,1,50,0,0
31552,-100,4,2,1,50,0,0
33519,-100,4,2,1,50,0,0
34011,-100,4,2,1,55,0,0
34503,-100,4,2,1,60,0,0
34995,-100,4,2,1,60,0,0
37454,-100,4,2,1,70,0,1
37945,-100,4,2,1,50,0,1
40896,-100,4,2,1,70,0,1
41142,-100,4,2,1,50,0,0
41388,-100,4,2,1,70,0,1
41880,-100,4,2,1,50,0,1
44831,-100,4,2,1,70,0,1
45077,-100,4,2,1,50,0,0
45322,-100,4,2,1,50,0,1
45814,-100,4,2,1,50,0,1
48765,-100,4,2,1,70,0,1
49011,-100,4,2,1,50,0,0
49257,-100,4,2,1,70,0,1
49749,-100,4,2,1,50,0,1
53191,-100,4,2,1,50,0,0
55158,-100,4,2,1,50,0,0
55404,-100,4,2,1,35,0,0
59093,-100,4,2,1,50,0,0
59339,-100,4,2,1,35,0,0
63027,-100,4,2,1,50,0,0
63273,-100,4,2,1,35,0,0
68929,-100,4,2,1,40,0,0
69667,-100,4,2,1,50,0,0
70404,-100,4,2,1,40,0,0
78273,-100,4,2,1,50,0,0
78765,-100,4,2,1,50,0,0
90568,-100,4,2,1,50,0,0
92536,-100,4,2,1,50,0,0
93027,-100,4,2,1,55,0,0
93519,-100,4,2,1,60,0,0
94011,-100,4,2,1,60,0,0
98437,-100,4,2,1,70,0,1
98929,-100,4,2,1,50,0,1
101880,-100,4,2,1,70,0,1
102126,-100,4,2,1,50,0,0
102372,-100,4,2,1,70,0,1
102863,-100,4,2,1,50,0,1
105814,-100,4,2,1,70,0,1
106060,-100,4,2,1,50,0,0
106306,-100,4,2,1,70,0,1
106798,-100,4,2,1,50,0,1
109749,-100,4,2,1,70,0,1
109995,-100,4,2,1,50,0,0
110240,-100,4,2,1,70,0,1
110732,-100,4,2,1,50,0,1
112208,-100,4,2,1,50,0,0
114175,-100,4,2,1,35,0,0
121552,-100,4,2,1,40,0,0
127699,-100,4,2,1,20,0,0
128191,-100,4,2,1,10,0,0
128929,-100,4,2,1,35,0,0
129913,-100,4,2,1,50,0,0
137781,-100,4,2,1,50,0,0
144175,-100,4,2,1,55,0,0
144667,-100,4,2,1,60,0,0
145158,-100,4,2,1,60,0,0
153519,-100,4,2,1,70,0,1
154011,-100,4,2,1,50,0,1
156962,-100,4,2,1,70,0,1
157208,-100,4,2,1,50,0,0
157454,-100,4,2,1,70,0,1
157945,-100,4,2,1,50,0,1
160896,-100,4,2,1,70,0,1
161142,-100,4,2,1,50,0,0
161388,-100,4,2,1,70,0,1
161880,-100,4,2,1,50,0,1
164831,-100,4,2,1,70,0,1
165077,-100,4,2,1,50,0,0
165322,-100,4,2,1,70,0,1
165814,-100,4,2,1,50,0,1
169257,-100,4,2,1,70,0,0
170240,-100,4,2,1,50,0,0
173191,-100,4,2,1,70,0,0
174175,-100,4,2,1,50,0,0
177126,-100,4,2,1,70,0,0
178109,-100,4,2,1,50,0,0
181060,-100,4,2,1,70,0,0
182044,-100,4,2,1,50,0,0

[Colours]
Combo1 : 4,130,255
Combo2 : 0,99,198
Combo3 : 255,0,128
Combo4 : 163,163,163
Combo5 : 164,209,255
Combo6 : 255,159,64
SliderBorder : 98,98,255
SliderTrackOverride : 30,30,30

[HitObjects]
73,108,4011,22,0,P|23:72|67:29,2,140,4|8|8,3:0|0:0|3:0,0:0:0:0:
240,91,5486,38,0,L|216:156,1,70,8|2,0:0|0:0,0:0:0:0:
293,191,5978,2,0,L|269:256,1,70,8|2,3:0|0:0,0:0:0:0:
343,297,6470,2,0,L|319:362,1,70,8|2,0:0|0:0,0:0:0:0:
151,363,7208,1,2,0:0:0:0:
151,363,7454,2,0,L|174:297,1,70,8|2,0:0|3:0,0:0:0:0:
150,215,7945,38,0,P|85:239|19:218,1,140,4|8,3:0|0:0,0:0:0:0:
17,134,8683,2,0,P|81:110|147:131,1,140,2|2,0:0|0:0,0:0:0:0:
220,172,9421,38,0,L|253:110,1,70,8|2,0:0|3:0,0:0:0:0:
329,145,9913,2,0,L|362:83,1,70,8|2,3:0|0:0,0:0:0:0:
442,111,10405,2,0,L|475:49,1,70,8|2,0:0|0:0,0:0:0:0:
311,12,11142,2,0,L|277:73,1,70,2|8,0:0|0:0,0:0:0:0:
202,224,11880,6,0,P|236:215|270:222,1,70,4|2,0:0|0:0,0:0:0:0:
340,270,12372,2,0,P|374:276|407:268,1,70,8|2,0:0|0:0,0:0:0:0:
468,210,12863,2,0,L|488:45,1,140,8|8,3:0|0:0,0:0:0:0:
316,76,13847,70,0,P|282:84|248:77,1,70,8|2,3:0|0:0,0:0:0:0:
179,30,14339,2,0,P|144:23|111:31,1,70,8|2,0:0|0:0,0:0:0:0:
51,90,14830,2,0,L|31:255,1,140,8|8,3:0|0:0,0:0:0:0:
190,291,15814,53,4,3:0:0:0:
190,291,16306,1,8,0:0:0:0:
190,291,16798,2,0,L|201:367,2,70,8|8|8,0:0|3:0|0:0,0:0:0:0:
199,123,17781,70,0,P|233:131|267:125,1,70
343,91,18273,2,0,P|377:84|410:92,1,70,8|8,0:0|3:0,0:0:0:0:
473,148,18765,2,0,L|485:223,1,70,8|8,3:0|3:0,0:0:0:0:
497,300,19256,1,12,3:0:0:0:
338,356,19749,53,4,0:0:0:0:
364,190,20240,1,8,0:0:0:0:
424,346,20732,1,8,3:0:0:0:
258,319,21224,1,8,0:0:0:0:
364,190,21716,1,8,3:0:0:0:
424,346,22208,70,0,P|353:352|365:286,1,140,8|8,0:0|3:0,0:0:0:0:
427,265,22945,1,2,0:0:0:0:
427,265,23191,2,0,L|427:175,1,70,8|2,0:0|0:0,0:0:0:0:
424,110,23683,5,4,0:0:0:0:
272,183,24175,1,8,0:0:0:0:
285,15,24667,1,8,3:0:0:0:
362,171,25159,1,8,0:0:0:0:
362,171,25404,70,0,P|387:228|358:309,1,140,2|2,0:0|0:0,0:0:0:0:
292,340,26142,2,0,B|226:376|226:316|157:340,1,140,8|8,0:0|3:0,0:0:0:0:
81,372,26880,1,2,0:0:0:0:
81,372,27126,2,0,L|68:291,1,70,8|2,0:0|0:0,0:0:0:0:
90,221,27617,6,0,P|155:239|217:210,1,140,4|8,0:0|0:0,0:0:0:0:
256,135,28355,1,2,0:0:0:0:
390,236,28847,1,2,0:0:0:0:
390,236,29093,2,0,L|387:325,1,70,8|2,0:0|0:0,0:0:0:0:
309,275,29585,2,0,L|306:364,1,70,8|2,3:0|0:0,0:0:0:0:
226,314,30077,2,0,P|161:292|95:311,1,140,8|8,0:0|3:0,0:0:0:0:
14,170,31060,37,8,0:0:0:0:
14,170,31552,2,0,B|62:170|62:170|95:144|95:144|160:144,1,140,4|8,3:0|0:0,0:0:0:0:
301,206,32536,2,0,B|253:206|253:206|220:232|220:232|155:232,1,140,2|8,0:0|0:0,0:0:0:0:
15,165,33519,70,0,L|94:157,1,70,8|8,3:0|3:0,0:0:0:0:
100,239,34011,2,0,L|179:231,1,70,8|8,3:0|3:0,0:0:0:0:
199,312,34503,2,0,L|278:304,1,70,8|8,3:0|3:0,0:0:0:0:
327,365,34995,1,8,3:0:0:0:
475,37,37454,69,6,0:0:0:0:
320,100,37945,5,14,1:0:0:0:
320,100,38191,1,2,1:0:0:0:
320,100,38437,2,0,L|323:211,1,105,10|2,1:0|1:0,0:0:0:0:
335,335,39175,69,2,1:0:0:0:
335,335,39421,2,0,P|301:325|267:330,1,70,10|2,1:0|1:0,0:0:0:0:
189,354,39913,2,0,P|154:359|121:349,1,70,10|2,1:0|1:0,0:0:0:0:
53,299,40404,2,0,L|44:221,1,70,10|2,1:0|1:0,0:0:0:0:
32,146,40896,5,4,3:0:0:0:
192,194,41388,1,6,0:0:0:0:
41,154,41880,69,14,1:0:0:0:
41,154,42126,1,2,1:0:0:0:
41,154,42372,2,0,L|38:267,1,105,10|2,1:0|1:0,0:0:0:0:
129,355,43109,5,2,1:0:0:0:
129,355,43355,2,0,P|162:343|197:346,1,70,14|10,1:0|1:0,0:0:0:0:
280,352,43847,2,0,P|314:355|347:343,1,70,14|10,1:0|1:0,0:0:0:0:
420,301,44339,2,0,L|425:217,1,70,14|2,1:0|1:0,0:0:0:0:
425,148,44830,69,4,3:0:0:0:
269,212,45322,1,6,0:0:0:0:
433,156,45815,5,14,1:0:0:0:
433,156,46060,1,2,1:0:0:0:
433,156,46306,2,0,L|391:266,1,105,10|2,1:0|1:0,0:0:0:0:
284,314,47044,69,2,1:0:0:0:
284,314,47290,2,0,P|247:306|211:315,1,70,10|2,1:0|1:0,0:0:0:0:
134,331,47781,2,0,P|99:337|66:329,1,70,10|2,1:0|1:0,0:0:0:0:
24,256,48273,2,0,L|20:180,1,70,10|2,1:0|1:0,0:0:0:0:
11,102,48765,5,4,3:0:0:0:
152,193,49257,1,6,0:0:0:0:
19,110,49749,69,14,1:0:0:0:
19,110,49995,1,2,1:0:0:0:
19,110,50241,2,0,L|30:228,1,105,10|2,1:0|1:0,0:0:0:0:
139,285,50978,5,2,1:0:0:0:
139,285,51224,2,0,P|173:276|216:288,1,70,10|2,1:0|1:0,0:0:0:0:
283,317,51716,2,0,P|317:323|350:314,1,70,10|2,1:0|1:0,0:0:0:0:
426,278,52208,2,0,L|443:159,2,105,10|2|2,1:0|1:0|1:0,0:0:0:0:
19,360,55158,38,0,L|27:275,2,70,12|2|8,0:0|0:0|3:0,0:0:0:0:
108,351,55896,1,2,0:0:0:0:
108,351,56142,2,0,P|169:323|247:357,1,140,8|8,3:0|3:0,0:0:0:0:
400,374,57126,1,8,3:0:0:0:
339,217,57617,2,0,P|319:143|351:79,1,140,8|8,3:0|3:0,0:0:0:0:
343,87,59093,6,0,L|429:88,2,70,12|2|8,0:0|0:0|3:0,0:0:0:0:
261,90,59831,1,2,0:0:0:0:
261,90,60077,2,0,P|239:154|263:232,1,140,8|8,3:0|3:0,0:0:0:0:
330,373,61061,1,8,3:0:0:0:
176,305,61552,2,0,P|115:283|31:314,1,140,8|8,3:0|3:0,0:0:0:0:
44,302,63027,70,0,L|37:210,2,70,12|2|8,0:0|0:0|0:0,0:0:0:0:
115,357,63765,1,2,0:0:0:0:
115,357,64011,2,0,P|176:326|254:350,1,140,8|8,3:0|0:0,0:0:0:0:
408,374,64995,1,8,3:0:0:0:
340,220,65486,2,0,P|322:145|351:81,1,140,8|8,0:0|3:0,0:0:0:0:
508,174,66470,53,10,0:0:0:0:
508,174,66962,1,8,3:0:0:0:
508,174,67454,1,8,0:0:0:0:
508,174,67945,2,0,L|507:250,2,70,8|2|8,3:0|3:0|0:0,0:0:0:0:
341,202,68929,6,0,P|299:249|259:189,2,140,8|0|2,3:0|0:0|0:0,0:0:0:0:
278,46,70404,6,0,L|196:39,1,70,10|2,3:0|0:0,0:0:0:0:
123,37,70896,2,0,L|141:112,1,70,4|2,0:0|0:0,0:0:0:0:
209,151,71388,2,0,P|152:188|75:159,1,140,8|8,0:0|3:0,0:0:0:0:
32,329,72372,6,0,L|114:336,1,70,8|2,0:0|0:0,0:0:0:0:
187,338,72864,2,0,L|169:263,1,70,8|2,3:0|0:0,0:0:0:0:
101,224,73356,2,0,P|158:187|235:216,1,140,8|8,0:0|3:0,0:0:0:0:
328,336,74339,70,0,P|363:345|400:334,1,70,2|2,0:0|0:0,0:0:0:0:
461,284,74831,2,0,P|470:249|459:212,1,70,8|2,3:0|0:0,0:0:0:0:
403,154,75322,2,0,P|338:132|273:155,1,140,8|8,0:0|3:0,0:0:0:0:
208,310,76306,6,0,P|217:275|206:238,1,70,8|2,0:0|0:0,0:0:0:0:
156,177,76798,2,0,P|121:168|84:179,1,70,8|2,2:0|0:0,0:0:0:0:
27,234,77289,2,0,P|4:299|27:364,1,140,8|8,0:0|3:0,0:0:0:0:
182,297,78273,1,8,0:0:0:0:
27,234,78765,69,6,0:0:0:0:
193,212,79256,1,8,0:0:0:0:
35,152,79748,1,8,3:0:0:0:
201,129,80240,1,8,0:0:0:0:
43,70,80732,1,8,3:0:0:0:
209,47,81224,6,0,P|266:81|271:168,1,140,8|8,0:0|3:0,0:0:0:0:
259,234,81961,1,2,0:0:0:0:
259,234,82208,2,0,L|328:230,1,70,8|2,0:0|0:0,0:0:0:0:
413,225,82699,69,4,0:0:0:0:
261,152,83191,1,8,0:0:0:0:
428,146,83683,1,8,3:0:0:0:
276,72,84175,1,8,0:0:0:0:
276,72,84421,6,0,L|244:219,1,140,2|2,0:0|0:0,0:0:0:0:
201,280,85158,2,0,L|171:143,1,140,8|8,0:0|3:0,0:0:0:0:
96,103,85896,1,2,0:0:0:0:
96,103,86142,2,0,L|88:189,1,70,8|2,0:0|0:0,0:0:0:0:
39,240,86634,70,0,P|100:258|164:208,1,140,4|8,0:0|0:0,0:0:0:0:
196,142,87371,1,2,0:0:0:0:
343,222,87863,1,2,0:0:0:0:
343,222,88109,2,0,P|350:260|338:303,1,70,8|2,0:0|0:0,0:0:0:0:
267,326,88601,2,0,P|230:319|199:328,1,70,8|2,3:0|0:0,0:0:0:0:
125,369,89093,2,0,P|113:315|171:248,1,140,8|8,0:0|3:0,0:0:0:0:
326,221,90076,53,8,0:0:0:0:
326,221,90568,2,0,B|374:221|374:221|407:195|407:195|472:195,1,140,4|8,3:0|0:0,0:0:0:0:
511,35,91552,2,0,B|463:35|463:35|430:61|430:61|365:61,1,140,8|8,3:0|0:0,0:0:0:0:
212,67,92535,70,0,L|202:142,1,70,8|8,3:0|3:0,0:0:0:0:
118,132,93027,2,0,L|107:210,1,70,8|8,3:0|3:0,0:0:0:0:
22,206,93519,2,0,L|9:286,1,70,8|8,3:0|3:0,0:0:0:0:
0,360,94011,1,8,3:0:0:0:
23,37,98437,69,6,0:0:0:0:
188,99,98928,5,14,1:0:0:0:
188,99,99174,1,2,1:0:0:0:
188,99,99421,2,0,L|178:205,1,105,10|2,1:0|1:0,0:0:0:0:
173,336,100158,69,2,1:0:0:0:
173,336,100404,2,0,P|139:326|105:331,1,70,10|2,1:0|1:0,0:0:0:0:
37,280,100896,2,0,L|16:196,1,70,10|2,1:0|1:0,0:0:0:0:
97,180,101388,2,0,L|111:101,1,70,10|2,1:0|1:0,0:0:0:0:
130,29,101879,5,4,3:0:0:0:
280,103,102371,1,6,0:0:0:0:
138,38,102863,69,14,1:0:0:0:
138,38,103109,1,2,1:0:0:0:
138,38,103355,2,0,L|145:150,1,105,10|2,1:0|1:0,0:0:0:0:
167,274,104092,5,2,1:0:0:0:
167,274,104339,2,0,P|200:262|235:265,1,70,14|10,1:0|1:0,0:0:0:0:
312,296,104831,2,0,L|328:215,1,70,14|10,1:0|1:0,0:0:0:0:
262,171,105322,2,0,L|241:90,1,70,14|2,1:0|1:0,0:0:0:0:
220,22,105813,69,4,3:0:0:0:
67,92,106306,1,6,0:0:0:0:
229,31,106798,5,14,1:0:0:0:
229,31,107043,1,2,1:0:0:0:
229,31,107290,2,0,L|223:148,1,105,10|2,1:0|1:0,0:0:0:0:
215,269,108027,69,2,1:0:0:0:
215,269,108273,2,0,P|178:261|142:270,1,70,10|2,1:0|1:0,0:0:0:0:
63,277,108765,2,0,L|41:205,1,70,10|2,1:0|1:0,0:0:0:0:
120,177,109257,2,0,L|132:106,1,70,10|2,1:0|1:0,0:0:0:0:
149,25,109748,5,4,3:0:0:0:
289,116,110240,1,6,0:0:0:0:
158,34,110732,69,14,1:0:0:0:
158,34,110978,1,2,1:0:0:0:
158,34,111224,2,0,L|138:118,2,70,10|2|12,1:0|1:0|1:0,0:0:0:0:
366,318,114175,22,0,P|424:351|444:295,2,140,8|8|8,3:0|3:0|3:0,0:0:0:0:
256,192,115650,1,8,3:0:0:0:
146,318,116142,2,0,P|88:351|68:295,2,140,8|8|8,3:0|3:0|3:0,0:0:0:0:
268,204,117617,5,8,3:0:0:0:
268,204,118109,1,8,3:0:0:0:
268,204,118601,1,8,3:0:0:0:
268,204,119093,2,0,P|333:229|407:199,1,140,8|8,3:0|3:0,0:0:0:0:
341,68,120077,69,8,3:0:0:0:
341,68,120568,1,8,3:0:0:0:
341,68,121060,1,8,3:0:0:0:
341,68,121552,22,0,L|248:68,1,70,8|2,0:0|0:0,0:0:0:0:
203,118,122044,2,0,P|227:187|188:261,1,140,4|8,0:0|0:0,0:0:0:0:
144,306,122781,1,2,0:0:0:0:
225,326,123027,2,0,L|369:326,1,140,8|8,3:0|0:0,0:0:0:0:
486,209,124011,6,0,P|461:141|490:74,1,140,8|8,3:0|0:0,0:0:0:0:
418,27,124749,1,2,0:0:0:0:
355,83,124995,2,0,P|287:105|219:79,1,140,8|8,3:0|0:0,0:0:0:0:
66,26,125978,70,0,L|80:171,1,140,8|8,3:0|0:0,0:0:0:0:
89,249,126716,1,2,0:0:0:0:
42,319,126962,2,0,P|106:334|168:276,1,140,8|8,3:0|0:0,0:0:0:0:
255,152,127945,1,8,3:0:0:0:
255,152,129913,54,0,P|318:176|381:150,2,140,4|8|8,0:0|3:0|3:0,0:0:0:0:
121,49,131388,2,0,L|105:194,1,140,8|8,3:0|3:0,0:0:0:0:
220,311,132372,2,0,L|235:167,1,140,8|8,3:0|3:0,0:0:0:0:
341,42,133355,1,8,3:0:0:0:
400,199,133847,1,4,0:0:0:0:
234,171,134339,2,0,P|160:153|98:176,1,140,8|8,3:0|3:0,0:0:0:0:
31,326,135322,5,8,3:0:0:0:
198,313,135814,1,8,3:0:0:0:
102,174,136306,1,8,3:0:0:0:
118,341,136798,1,8,3:0:0:0:
254,243,137290,1,8,3:0:0:0:
102,174,137781,6,0,L|79:35,1,140,4|8,0:0|0:0,0:0:0:0:
163,43,138519,1,2,0:0:0:0:
245,51,138765,1,8,3:0:0:0:
365,167,139257,6,0,P|372:204|358:247,1,70,8|2,0:0|0:0,0:0:0:0:
297,285,139749,2,0,L|141:286,1,140,8|8,3:0|0:0,0:0:0:0:
108,217,140487,1,2,0:0:0:0:
63,146,140732,1,8,3:0:0:0:
215,75,141224,1,8,0:0:0:0:
194,241,141716,70,0,P|258:265|323:245,1,140,4|8,0:0|0:0,0:0:0:0:
398,94,142699,2,0,P|333:69|268:89,1,140,8|8,3:0|0:0,0:0:0:0:
197,135,143437,1,2,0:0:0:0:
126,180,143683,38,0,L|136:253,1,70,8|8,3:0|3:0,0:0:0:0:
158,330,144175,2,0,L|231:287,1,70,8|8,3:0|3:0,0:0:0:0:
295,260,144667,2,0,L|305:333,1,70,8|8,3:0|3:0,0:0:0:0:
385,307,145158,1,8,3:0:0:0:
475,37,153519,69,6,0:0:0:0:
320,100,154010,5,14,1:0:0:0:
320,100,154256,1,2,1:0:0:0:
320,100,154503,2,0,L|369:199,1,105,10|2,1:0|1:0,0:0:0:0:
429,310,155240,69,2,1:0:0:0:
429,310,155486,2,0,P|395:300|361:305,1,70,10|2,1:0|1:0,0:0:0:0:
288,345,155978,2,0,P|253:350|220:340,1,70,10|2,1:0|1:0,0:0:0:0:
147,298,156470,2,0,P|113:288|79:293,1,70,10|2,1:0|1:0,0:0:0:0:
1,324,156961,5,4,3:0:0:0:
62,167,157453,1,6,0:0:0:0:
182,296,157945,69,14,1:0:0:0:
182,296,158191,1,2,1:0:0:0:
182,296,158437,2,0,L|290:325,1,105,10|2,1:0|1:0,0:0:0:0:
411,362,159174,5,2,1:0:0:0:
411,362,159421,2,0,P|399:329|402:294,1,70,14|10,1:0|1:0,0:0:0:0:
468,238,159912,2,0,P|471:204|459:171,1,70,14|10,1:0|1:0,0:0:0:0:
380,139,160404,2,0,P|367:106|370:71,1,70,14|2,1:0|1:0,0:0:0:0:
427,9,160895,69,0,0:0:0:0:
264,51,161387,1,6,0:0:0:0:
392,173,161880,5,14,1:0:0:0:
392,173,162125,1,2,1:0:0:0:
392,173,162371,2,0,L|329:271,1,105,10|2,1:0|1:0,0:0:0:0:
250,360,163109,69,2,1:0:0:0:
250,360,163355,2,0,P|258:323|249:287,1,70,10|2,1:0|1:0,0:0:0:0:
177,253,163847,2,0,P|171:218|179:185,1,70,10|2,1:0|1:0,0:0:0:0:
255,148,164339,2,0,P|263:114|257:79,1,70,10|2,1:0|1:0,0:0:0:0:
195,23,164830,5,4,3:0:0:0:
359,59,165322,1,6,0:0:0:0:
211,138,165814,69,14,1:0:0:0:
211,138,166060,1,2,1:0:0:0:
211,138,166306,2,0,L|256:248,1,105,10|2,1:0|1:0,0:0:0:0:
341,333,167043,5,2,1:0:0:0:
341,333,167290,2,0,P|332:299|344:256,1,70,10|10,1:0|1:0,0:0:0:0:
383,195,167781,2,0,P|389:161|380:128,1,70,10|10,1:0|1:0,0:0:0:0:
305,86,168273,2,0,L|178:85,2,105,10|2|10,1:0|1:0|1:0,0:0:0:0:
389,86,169257,37,4,0:0:0:0:
258,192,169749,1,8,0:0:0:0:
418,239,170240,2,0,P|449:301|409:373,1,140,8|8,0:0|0:0,0:0:0:0:
363,302,170978,5,2,0:0:0:0:
329,225,171224,1,8,0:0:0:0:
171,284,171716,2,0,P|135:295|102:288,1,70,8|2,0:0|0:0,0:0:0:0:
35,239,172208,2,0,L|19:99,1,140,8|8,0:0|0:0,0:0:0:0:
173,32,173191,69,4,0:0:0:0:
256,177,173683,1,8,0:0:0:0:
410,110,174175,2,0,P|439:177|404:243,1,140,8|8,0:0|0:0,0:0:0:0:
355,173,174912,5,2,0:0:0:0:
305,104,175158,2,0,P|264:94|231:105,1,70,8|2,0:0|0:0,0:0:0:0:
167,148,175650,2,0,P|131:156|91:145,1,70,8|2,0:0|0:0,0:0:0:0:
27,103,176142,2,0,L|47:265,1,140,8|8,0:0|0:0,0:0:0:0:
157,366,177126,69,4,0:0:0:0:
219,210,177618,1,8,0:0:0:0:
332,333,178109,2,0,P|393:362|464:326,1,140,8|8,0:0|0:0,0:0:0:0:
395,276,178847,5,2,0:0:0:0:
332,220,179093,2,0,P|323:183|332:142,1,70,8|2,0:0|0:0,0:0:0:0:
404,117,179585,2,0,P|412:80|400:38,1,70,8|2,0:0|0:0,0:0:0:0:
323,31,180077,2,0,L|174:31,1,140,8|8,0:0|0:0,0:0:0:0:
15,21,181060,69,4,0:0:0:0:
97,167,181552,1,8,0:0:0:0:
215,48,182044,2,0,P|276:16|352:55,1,140,8|8,0:0|0:0,0:0:0:0:
282,102,182781,1,2,0:0:0:0:
205,136,183027,38,0,L|216:214,1,70,14|10,1:0|1:0,0:0:0:0:
230,287,183518,1,10,1:0:0:0:
375,201,184011,2,0,L|445:192,1,70,14|10,1:0|1:0,0:0:0:0:
483,117,184503,2,0,L|405:106,1,70,10|10,1:0|1:0,0:0:0:0:
331,125,184995,70,0,L|242:116,1,70,14|10,1:0|1:0,0:0:0:0:
178,103,185486,1,10,1:0:0:0:
295,223,185979,2,0,L|271:303,1,70,14|10,1:0|1:0,0:0:0:0:
201,332,186471,2,0,L|180:254,1,70,10|10,1:0|1:0,0:0:0:0:
217,187,186962,6,0,L|198:101,1,70,14|10,1:0|1:0,0:0:0:0:
182,36,187453,1,14,1:0:0:0:
330,115,187946,2,0,L|404:127,1,70,14|10,1:0|1:0,0:0:0:0:
481,143,188437,1,14,1:0:0:0:
426,206,188683,1,10,1:0:0:0:
