osu file format v14

[General]
AudioFilename: audio.mp3
AudioLeadIn: 0
PreviewTime: 36900
Countdown: 0
SampleSet: Soft
StackLeniency: 0.7
Mode: 0
LetterboxInBreaks: 0
WidescreenStoryboard: 1

[Editor]
Bookmarks: 4011,19749,37454,55158,70896,78765,98437,114175,129913,153519,169257,188929
DistanceSpacing: 1.8
BeatDivisor: 4
GridSize: 4
TimelineZoom: 1.2

[Metadata]
Title:VERY NICE
TitleUnicode:아주 NICE
Artist:SEVENTEEN
ArtistUnicode:세븐틴
Creator:Natsu
Version:AJU INSANE
Source:
Tags:PLEDIS ENTERTAINMENT 세븐틴 에스.쿱스 S.COUPS 우지 WOOZI 호시 HOSHI 민규 MINGYU 원우 WONWOO 버논 VERNON 승관 SEUNGKWAN 디노 DINO 준 JUN 도경 DK 조슈아 JOSHUA 정한 JEONGHAN 디에잇THE8 Love&Letter Repackage Album 17 euny kpop k-pop
BeatmapID:1327960
BeatmapSetID:618500

[Difficulty]
HPDrainRate:5
CircleSize:4
OverallDifficulty:8
ApproachRate:9
SliderMultiplier:2.3
SliderTickRate:2

[Events]
//Background and Video events
0,0,"KakaoTalk_20170526_202649144.jpg",0,0
Video,0,"--+Nice.avi"
//Break Periods
2,35440,36362
2,53267,54558
2,94456,95378
2,96300,97345
2,112208,113575
2,147448,148247
2,149293,150214
2,151506,152427
//Storyboard Layer 0 (Background)
//Storyboard Layer 1 (Fail)
//Storyboard Layer 2 (Pass)
//Storyboard Layer 3 (Foreground)
//Storyboard Sound Samples

[TimingPoints]
77,491.803278688525,4,2,1,50,1,0
4011,-76.9230769230769,4,2,1,50,0,0
5240,-100,4,2,1,50,0,0
7945,-76.9230769230769,4,2,1,50,0,0
9421,-100,4,2,1,50,0,0
11142,-142.857142857143,4,2,1,50,0,0
11634,-100,4,2,1,50,0,0
12863,-76.9230769230769,4,2,1,50,0,0
13601,-100,4,2,1,50,0,0
14831,-76.9230769230769,4,2,1,50,0,0
15814,-142.857142857143,4,2,1,50,0,0
17536,-142.857142857143,4,2,1,5,0,0
17781,-142.857142857143,4,2,1,50,0,0
17904,-142.857142857143,4,2,1,30,0,0
18027,-142.857142857143,4,2,1,50,0,0
18150,-142.857142857143,4,2,1,30,0,0
18273,-142.857142857143,4,2,1,50,0,0
18396,-142.857142857143,4,2,1,30,0,0
18519,-142.857142857143,4,2,1,50,0,0
18642,-142.857142857143,4,2,1,30,0,0
18765,-142.857142857143,4,2,1,60,0,0
19749,-100,4,2,1,50,0,0
31552,-142.857142857143,4,2,1,50,0,0
33519,-100,4,2,1,50,0,0
34011,-100,4,2,1,55,0,0
34503,-100,4,2,1,60,0,0
34995,-142.857142857143,4,2,1,60,0,0
35240,-142.857142857143,4,2,1,20,0,0
36962,-76.9230769230769,4,2,1,50,0,0
37454,-76.9230769230769,4,2,1,70,0,1
37945,-90.9090909090909,4,2,1,50,0,1
40896,-90.9090909090909,4,2,1,70,0,1
41142,-90.9090909090909,4,2,1,50,0,0
41388,-76.9230769230769,4,2,1,70,0,1
41880,-90.9090909090909,4,2,1,50,0,1
44831,-83.3333333333333,4,2,1,70,0,1
45077,-83.3333333333333,4,2,1,50,0,0
45322,-76.9230769230769,4,2,1,50,0,1
45814,-90.9090909090909,4,2,1,50,0,1
48765,-90.9090909090909,4,2,1,70,0,1
49011,-90.9090909090909,4,2,1,50,0,0
49257,-76.9230769230769,4,2,1,70,0,1
49749,-90.9090909090909,4,2,1,50,0,1
53191,-142.857142857143,4,2,1,50,0,0
55158,-100,4,2,1,50,0,0
55404,-100,4,2,1,35,0,0
58601,-200,4,2,1,30,0,0
59093,-100,4,2,1,50,0,0
59339,-100,4,2,1,35,0,0
62536,-200,4,2,1,30,0,0
63027,-100,4,2,1,50,0,0
63273,-100,4,2,1,35,0,0
68929,-142.857142857143,4,2,1,40,0,0
69667,-100,4,2,1,50,0,0
70158,-100,4,2,1,5,0,0
70404,-100,4,2,1,40,0,0
78273,-142.857142857143,4,2,1,50,0,0
78458,-142.857142857143,4,2,1,5,0,0
78765,-100,4,2,1,50,0,0
90568,-142.857142857143,4,2,1,50,0,0
92536,-100,4,2,1,50,0,0
93027,-100,4,2,1,55,0,0
93519,-100,4,2,1,60,0,0
94011,-142.857142857143,4,2,1,60,0,0
94257,-142.857142857143,4,2,1,20,0,0
95978,-76.9230769230769,4,2,1,50,0,0
97945,-76.9230769230769,4,2,1,50,0,0
98437,-76.9230769230769,4,2,1,70,0,1
98929,-90.9090909090909,4,2,1,50,0,1
101880,-90.9090909090909,4,2,1,70,0,1
102126,-90.9090909090909,4,2,1,50,0,0
102372,-76.9230769230769,4,2,1,70,0,1
102863,-90.9090909090909,4,2,1,50,0,1
105814,-83.3333333333333,4,2,1,70,0,1
106060,-83.3333333333333,4,2,1,50,0,0
106306,-76.9230769230769,4,2,1,70,0,1
106798,-90.9090909090909,4,2,1,50,0,1
109749,-90.9090909090909,4,2,1,70,0,1
109995,-90.9090909090909,4,2,1,50,0,0
110240,-76.9230769230769,4,2,1,70,0,1
110732,-90.9090909090909,4,2,1,50,0,1
112208,-142.857142857143,4,2,1,50,0,0
114175,-125,4,2,1,35,0,0
121552,-111.111111111111,4,2,1,40,0,0
127699,-142.857142857143,4,2,1,20,0,0
128191,-142.857142857143,4,2,1,10,0,0
128929,-125,4,2,1,35,0,0
129913,-125,4,2,1,50,0,0
137781,-111.111111111111,4,2,1,50,0,0
144175,-111.111111111111,4,2,1,55,0,0
144667,-111.111111111111,4,2,1,60,0,0
145158,-142.857142857143,4,2,1,60,0,0
145404,-142.857142857143,4,2,1,20,0,0
147126,-76.9230769230769,4,2,1,50,0,0
153519,-76.9230769230769,4,2,1,70,0,1
154011,-90.9090909090909,4,2,1,50,0,1
156962,-90.9090909090909,4,2,1,70,0,1
157208,-90.9090909090909,4,2,1,50,0,0
157454,-76.9230769230769,4,2,1,70,0,1
157945,-90.9090909090909,4,2,1,50,0,1
160896,-83.3333333333333,4,2,1,70,0,1
161142,-83.3333333333333,4,2,1,50,0,0
161388,-76.9230769230769,4,2,1,70,0,1
161880,-90.9090909090909,4,2,1,50,0,1
164831,-90.9090909090909,4,2,1,70,0,1
165077,-90.9090909090909,4,2,1,50,0,0
165322,-76.9230769230769,4,2,1,70,0,1
165814,-90.9090909090909,4,2,1,50,0,1
169257,-76.9230769230769,4,2,1,70,0,0
170240,-90.9090909090909,4,2,1,50,0,0
173191,-76.9230769230769,4,2,1,70,0,0
174175,-90.9090909090909,4,2,1,50,0,0
177126,-76.9230769230769,4,2,1,70,0,0
178109,-90.9090909090909,4,2,1,50,0,0
181060,-76.9230769230769,4,2,1,70,0,0
182044,-90.9090909090909,4,2,1,50,0,0

[Colours]
Combo1 : 4,130,255
Combo2 : 0,99,198
Combo3 : 255,0,128
Combo4 : 163,163,163
Combo5 : 164,209,255
Combo6 : 255,159,64
SliderBorder : 98,98,255
SliderTrackOverride : 30,30,30

[HitObjects]
153,159,4011,22,0,P|189:59|89:123,1,298.999986312867,4|8,3:0|0:0,0:0:0:0:
92,313,4749,2,0,P|40:349|24:287,1,149.499993156433,2|8,0:0|3:0,0:0:0:0:
153,159,5240,54,0,L|218:156,1,57.5,2|0,0:0|0:0,0:0:0:0:
312,171,5486,2,0,P|292:227|314:280,1,115,8|2,0:0|0:0,0:0:0:0:
512,310,5978,69,8,3:0:0:0:
373,366,6224,1,2,0:0:0:0:
312,171,6470,1,8,0:0:0:0:
451,227,6716,2,0,L|439:342,1,115,2|8,0:0|3:0,0:0:0:0:
234,292,7208,5,2,0:0:0:0:
280,281,7331,1,0,0:0:0:0:
324,268,7454,2,0,L|316:337,1,57.5,8|0,0:0|0:0,0:0:0:0:
234,292,7699,2,0,L|226:223,1,57.5,2|0,3:0|0:0,0:0:0:0:
158,135,7945,22,0,P|171:76|209:124,1,149.499993156433,4|0,3:0|0:0,0:0:0:0:
256,363,8437,1,8,0:0:0:0:
353,135,8683,2,0,P|340:76|303:124,1,149.499993156433,2|8,0:0|3:0,0:0:0:0:
256,363,9175,1,2,0:0:0:0:
384,231,9421,37,8,0:0:0:0:
243,182,9667,1,2,3:0:0:0:
450,154,9913,5,8,3:0:0:0:
311,210,10159,1,2,0:0:0:0:
250,15,10405,1,8,0:0:0:0:
389,71,10651,2,0,L|377:186,1,115,2|8,0:0|3:0,0:0:0:0:
352,344,11142,38,0,P|356:365|335:342,1,80.499997543335,2|8,0:0|0:0,0:0:0:0:
474,133,11634,21,2,3:0:0:0:
231,178,11880,1,4,0:0:0:0:
383,196,12126,1,2,0:0:0:0:
428,202,12249,2,0,L|419:262,1,57.5,2|8,0:0|0:0,0:0:0:0:
339,274,12495,1,2,0:0:0:0:
294,280,12618,2,0,L|303:340,1,57.5,2|0,0:0|0:0,0:0:0:0:
405,349,12863,37,8,3:0:0:0:
405,349,13109,2,0,L|428:202,1,149.499993156433,2|8,0:0|0:0,0:0:0:0:
459,13,13601,37,2,3:0:0:0:
216,58,13847,1,8,3:0:0:0:
368,76,14093,1,2,0:0:0:0:
413,82,14216,2,0,L|404:142,1,57.5,2|8,0:0|0:0,0:0:0:0:
324,154,14462,1,2,0:0:0:0:
279,160,14585,2,0,L|288:220,1,57.5,2|0,0:0|0:0,0:0:0:0:
390,229,14830,37,8,3:0:0:0:
390,229,15076,2,0,L|412:81,2,149.499993156433,2|8|8,0:0|0:0|3:0,0:0:0:0:
256,370,15814,6,0,L|268:291,1,80.499997543335,4|0,3:0|0:0,0:0:0:0:
191,318,16306,2,0,L|203:239,1,80.499997543335,8|2,0:0|3:0,0:0:0:0:
225,119,16798,5,8,0:0:0:0:
246,148,16921,1,2,0:0:0:0:
280,137,17044,1,8,3:0:0:0:
280,100,17167,1,2,0:0:0:0:
246,89,17290,2,0,P|234:47|245:9,1,80.499997543335,8|0,0:0|0:0,0:0:0:0:
424,59,17781,6,0,L|440:95,1,40.2499987716675,8|2,3:0|0:0,0:0:0:0:
397,162,18027,2,0,L|380:198,1,40.2499987716675,8|2,3:0|0:0,0:0:0:0:
449,238,18273,2,0,L|465:274,1,40.2499987716675,8|2,0:0|0:0,0:0:0:0:
422,341,18519,2,0,L|405:377,1,40.2499987716675,8|2,3:0|0:0,0:0:0:0:
310,354,18765,37,8,3:0:0:0:
256,318,18887,1,8,3:0:0:0:
192,305,19010,1,8,3:0:0:0:
128,315,19133,1,8,3:0:0:0:
46,366,19256,69,12,3:0:0:0:
46,366,19749,53,4,0:0:0:0:
0,223,19995,1,2,0:0:0:0:
223,236,20240,5,8,0:0:0:0:
80,282,20486,1,2,0:0:0:0:
89,62,20732,69,8,3:0:0:0:
135,205,20978,1,2,0:0:0:0:
313,76,21224,5,8,0:0:0:0:
170,122,21470,1,0,0:0:0:0:
170,122,21593,1,2,0:0:0:0:
170,122,21716,1,8,3:0:0:0:
275,230,21962,1,2,0:0:0:0:
43,284,22208,70,0,L|60:229,1,57.5,8|0,0:0|0:0,0:0:0:0:
130,172,22454,2,0,L|148:227,1,57.5,0|0,0:0|0:0,0:0:0:0:
176,308,22699,1,8,3:0:0:0:
263,131,22945,5,2,0:0:0:0:
263,131,23067,1,0,0:0:0:0:
263,131,23190,1,8,0:0:0:0:
331,265,23437,1,2,0:0:0:0:
109,267,23683,69,4,0:0:0:0:
252,221,23929,1,2,0:0:0:0:
113,49,24175,5,8,0:0:0:0:
159,192,24421,1,2,0:0:0:0:
336,64,24667,69,8,3:0:0:0:
193,110,24913,1,2,0:0:0:0:
193,110,25036,1,0,0:0:0:0:
193,110,25159,1,8,0:0:0:0:
298,218,25404,6,0,P|352:234|407:219,1,115,2|8,0:0|3:0,0:0:0:0:
213,165,25896,2,0,P|159:149|104:164,1,115,2|8,0:0|0:0,0:0:0:0:
256,344,26388,2,0,L|256:222,1,115,2|8,0:0|3:0,0:0:0:0:
263,37,26880,69,2,0:0:0:0:
263,37,27003,1,0,0:0:0:0:
263,37,27126,1,8,0:0:0:0:
126,99,27372,1,2,0:0:0:0:
390,192,27617,5,4,0:0:0:0:
257,259,27863,1,2,0:0:0:0:
455,317,28109,1,8,0:0:0:0:
322,384,28355,2,0,P|309:328|331:274,1,115,2|8,0:0|3:0,0:0:0:0:
512,165,28847,69,2,0:0:0:0:
312,104,29093,2,0,L|329:159,1,57.5,8|0,0:0|0:0,0:0:0:0:
399,216,29339,2,0,L|417:161,1,57.5,2|0,0:0|0:0,0:0:0:0:
445,80,29584,1,8,3:0:0:0:
271,113,29831,1,2,0:0:0:0:
371,253,30076,2,0,P|427:265|375:179,1,230,8|8,0:0|3:0,0:0:0:0:
136,293,31060,6,0,L|136:392,2,76.6666666666667,8|2|2,0:0|0:0|0:0,0:0:0:0:
218,261,31552,38,0,P|257:269|296:260,1,80.499997543335,4|8,3:0|3:0,0:0:0:0:
383,298,32044,2,0,P|391:258|382:219,1,80.499997543335,8|8,0:0|3:0,0:0:0:0:
293,122,32536,6,0,P|254:114|215:123,1,80.499997543335,2|8,0:0|3:0,0:0:0:0:
129,86,33028,2,0,P|120:125|129:164,1,80.499997543335,8|8,0:0|3:0,0:0:0:0:
252,249,33520,53,8,3:0:0:0:
307,215,33642,1,8,3:0:0:0:
373,215,33765,1,8,3:0:0:0:
430,248,33888,1,8,3:0:0:0:
506,308,34011,69,8,3:0:0:0:
471,251,34133,1,8,3:0:0:0:
471,186,34256,1,8,3:0:0:0:
504,129,34379,1,8,3:0:0:0:
454,54,34503,6,0,L|411:50,7,28.75,8|8|8|8|8|8|8|8,3:0|3:0|3:0|3:0|3:0|3:0|3:0|3:0,0:0:0:0:
392,80,34995,6,0,L|307:73,1,80.499997543335,8|0,3:0|0:0,0:0:0:0:
51,362,36962,70,0,L|68:284,1,74.7499965782167,4|0,3:0|0:0,0:0:0:0:
66,289,37454,70,0,P|134:300|65:229,1,224.24998973465,6|0,0:0|0:0,0:0:0:0:
9,233,37945,5,14,1:0:0:0:
105,43,38191,1,2,1:0:0:0:
105,43,38314,1,2,1:0:0:0:
105,43,38437,1,10,1:0:0:0:
190,237,38683,1,2,1:0:0:0:
190,237,38806,2,0,L|180:154,1,63.2500019302369,2|8,1:0|1:0,0:0:0:0:
255,41,39175,69,2,1:0:0:0:
255,41,39298,1,2,1:0:0:0:
255,41,39421,2,0,L|324:59,1,63.2500019302369,10|2,1:0|1:0,0:0:0:0:
421,109,39667,5,2,1:0:0:0:
421,109,39790,1,2,1:0:0:0:
421,109,39913,2,0,L|352:127,1,63.2500019302369,10|2,1:0|1:0,0:0:0:0:
258,182,40158,69,2,1:0:0:0:
258,182,40281,1,2,1:0:0:0:
258,182,40404,2,0,L|327:200,1,63.2500019302369,10|0,1:0|0:0,0:0:0:0:
424,250,40650,5,2,1:0:0:0:
424,250,40773,1,2,1:0:0:0:
424,250,40896,2,0,L|301:278,1,126.500003860474,4|2,3:0|1:0,0:0:0:0:
300,278,41388,70,0,P|342:331|244:322,1,224.24998973465,6|0,0:0|0:0,0:0:0:0:
225,254,41880,5,14,1:0:0:0:
418,155,42126,1,2,1:0:0:0:
418,155,42249,1,2,1:0:0:0:
418,155,42372,1,10,1:0:0:0:
221,73,42618,1,2,1:0:0:0:
221,73,42741,2,0,L|211:156,1,63.2500019302369,2|8,1:0|1:0,0:0:0:0:
205,318,43109,69,2,1:0:0:0:
134,300,43232,1,2,1:0:0:0:
65,283,43355,2,0,L|139:274,1,63.2500019302369,14|2,1:0|1:0,0:0:0:0:
270,259,43601,5,10,1:0:0:0:
341,241,43724,1,2,1:0:0:0:
410,224,43847,2,0,L|336:215,1,63.2500019302369,14|2,1:0|1:0,0:0:0:0:
200,201,44093,69,10,1:0:0:0:
129,183,44216,1,2,1:0:0:0:
60,166,44339,2,0,L|134:157,1,63.2500019302369,14|2,1:0|1:0,0:0:0:0:
265,142,44585,5,2,1:0:0:0:
336,124,44708,1,2,1:0:0:0:
405,107,44831,2,0,L|264:92,1,137.999995788574,4|2,3:0|1:0,0:0:0:0:
267,92,45322,70,0,P|309:145|211:136,1,224.24998973465,6|0,0:0|0:0,0:0:0:0:
190,64,45814,5,14,1:0:0:0:
91,257,46060,1,2,1:0:0:0:
91,257,46183,1,2,1:0:0:0:
91,257,46306,1,10,1:0:0:0:
9,60,46552,1,2,1:0:0:0:
9,60,46675,2,0,L|92:50,1,63.2500019302369,2|8,1:0|1:0,0:0:0:0:
306,35,47044,69,2,1:0:0:0:
306,35,47167,1,2,1:0:0:0:
306,35,47290,2,0,L|288:104,1,63.2500019302369,10|2,1:0|1:0,0:0:0:0:
238,201,47536,5,2,1:0:0:0:
238,201,47659,1,2,1:0:0:0:
238,201,47782,2,0,L|220:132,1,63.2500019302369,10|2,1:0|1:0,0:0:0:0:
165,38,48027,69,2,1:0:0:0:
165,38,48150,1,2,1:0:0:0:
165,38,48273,2,0,L|147:107,1,63.2500019302369,10|0,1:0|0:0,0:0:0:0:
97,204,48519,5,2,1:0:0:0:
97,204,48642,1,2,1:0:0:0:
97,204,48765,2,0,L|69:81,1,126.500003860474,4|2,3:0|1:0,0:0:0:0:
68,80,49257,70,0,P|149:116|124:30,1,224.24998973465,6|0,0:0|0:0,0:0:0:0:
55,6,49749,5,14,1:0:0:0:
122,212,49995,1,2,1:0:0:0:
122,212,50118,1,2,1:0:0:0:
122,212,50241,1,10,1:0:0:0:
234,30,50487,1,2,1:0:0:0:
234,30,50610,2,0,L|244:93,1,63.2500019302369,2|8,1:0|1:0,0:0:0:0:
266,360,50978,69,2,1:0:0:0:
266,360,51101,1,2,1:0:0:0:
266,360,51224,2,0,L|335:342,1,63.2500019302369,10|2,1:0|1:0,0:0:0:0:
432,292,51470,5,2,1:0:0:0:
432,292,51593,1,2,1:0:0:0:
432,292,51716,2,0,L|363:274,1,63.2500019302369,10|2,1:0|1:0,0:0:0:0:
258,233,51962,69,2,1:0:0:0:
258,233,52085,1,2,1:0:0:0:
258,233,52208,2,0,L|327:215,1,63.2500019302369,10|2,1:0|1:0,0:0:0:0:
424,165,52454,5,2,1:0:0:0:
424,165,52577,2,0,L|355:147,1,63.2500019302369,2|12,1:0|1:0,0:0:0:0:
112,74,52945,2,0,L|181:56,1,63.2500019302369,2|0,1:0|0:0,0:0:0:0:
192,152,55158,37,12,0:0:0:0:
156,304,55404,5,2,0:0:0:0:
156,304,55527,1,2,0:0:0:0:
156,304,55650,1,8,3:0:0:0:
300,260,55896,1,2,0:0:0:0:
300,260,56019,2,0,L|292:379,1,115,2|2,0:0|0:0,0:0:0:0:
147,189,56511,2,0,L|155:307,1,115,2|2,0:0|0:0,0:0:0:0:
308,145,57003,1,2,0:0:0:0:
308,145,57126,2,0,L|299:263,1,115,8|2,3:0|0:0,0:0:0:0:
227,326,57495,22,0,B|232:355|232:355|253:332,1,57.5,2|8,0:0|3:0,0:0:0:0:
230,240,57740,2,0,B|202:229|202:229|211:259,1,57.5,2|0,0:0|0:0,0:0:0:0:
304,284,57986,2,0,B|326:265|326:265|296:258,1,57.5,2|8,0:0|3:0,0:0:0:0:
212,285,58601,6,0,L|177:285,1,28.75,2|0,0:0|0:0,0:0:0:0:
212,285,59093,21,12,0:0:0:0:
363,321,59339,5,2,0:0:0:0:
363,321,59462,1,2,0:0:0:0:
363,321,59585,1,8,3:0:0:0:
485,193,59831,1,2,0:0:0:0:
485,193,59954,2,0,L|477:312,1,115,2|2,0:0|0:0,0:0:0:0:
470,382,60322,1,2,0:0:0:0:
322,265,60568,2,0,L|330:383,1,115,8|2,3:0|0:0,0:0:0:0:
485,193,61061,2,0,L|476:311,1,115,8|2,3:0|0:0,0:0:0:0:
399,349,61429,22,0,B|404:378|404:378|425:355,1,57.5,2|8,0:0|3:0,0:0:0:0:
401,264,61675,2,0,B|373:253|373:253|382:283,1,57.5,2|0,0:0|0:0,0:0:0:0:
476,307,61921,2,0,B|498:288|498:288|468:281,1,57.5,2|8,0:0|3:0,0:0:0:0:
380,308,62536,6,0,L|345:308,1,28.75,2|0,0:0|0:0,0:0:0:0:
380,308,63027,21,12,0:0:0:0:
499,183,63273,5,2,0:0:0:0:
499,183,63396,1,2,0:0:0:0:
499,183,63519,1,8,0:0:0:0:
367,114,63765,1,2,0:0:0:0:
367,114,63888,2,0,L|381:235,1,115,2|2,0:0|0:0,0:0:0:0:
512,68,64380,1,2,0:0:0:0:
512,68,64503,2,0,L|498:189,1,115,8|2,0:0|0:0,0:0:0:0:
358,40,64995,2,0,L|372:161,1,115,8|2,3:0|0:0,0:0:0:0:
352,248,65363,22,0,B|371:269|371:269|376:240,1,57.5,2|8,0:0|0:0,0:0:0:0:
302,173,65609,2,0,B|275:180|275:180|297:199,1,57.5,2|0,0:0|0:0,0:0:0:0:
391,169,65855,2,0,B|399:143|399:143|371:154,1,57.5,2|8,0:0|3:0,0:0:0:0:
161,261,66470,6,0,L|178:376,1,115,10|0,0:0|0:0,0:0:0:0:
144,147,66962,2,0,L|160:260,1,115,8|0,3:0|0:0,0:0:0:0:
127,33,67454,2,0,L|143:146,1,115,8|0,0:0|0:0,0:0:0:0:
176,374,67945,21,8,3:0:0:0:
206,339,68067,1,2,0:0:0:0:
247,318,68190,1,2,3:0:0:0:
292,313,68313,1,2,0:0:0:0:
373,333,68437,5,8,0:0:0:0:
373,333,68560,2,0,L|378:251,1,57.5,2|0,0:0|0:0,0:0:0:0:
386,126,68929,38,0,P|348:137|310:126,1,80.499997543335,8|2,3:0|0:0,0:0:0:0:
254,81,69298,2,0,P|215:70|177:81,1,80.499997543335,2|2,0:0|0:0,0:0:0:0:
139,146,69667,70,0,P|127:166|122:92,1,230,2|0,0:0|0:0,0:0:0:0:
256,192,70404,37,10,3:0:0:0:
300,202,70526,1,2,0:0:0:0:
346,195,70649,1,2,0:0:0:0:
385,173,70772,1,2,0:0:0:0:
439,109,70896,6,0,L|447:254,1,115,4|2,0:0|0:0,0:0:0:0:
449,303,71265,1,2,0:0:0:0:
449,303,71388,2,0,P|470:381|488:295,1,230,8|8,0:0|3:0,0:0:0:0:
348,194,72126,69,2,0:0:0:0:
256,384,72372,1,8,0:0:0:0:
203,242,72617,1,2,0:0:0:0:
401,347,72863,6,0,P|451:370|517:339,1,115,8|2,3:0|0:0,0:0:0:0:
461,173,73355,2,0,B|456:312,1,115,8|0,0:0|0:0,0:0:0:0:
401,347,73724,2,0,L|381:286,1,57.5,2|8,0:0|3:0,0:0:0:0:
92,281,74339,69,2,0:0:0:0:
129,255,74461,1,2,0:0:0:0:
174,245,74584,1,2,0:0:0:0:
219,252,74707,1,2,0:0:0:0:
292,292,74831,6,0,L|247:153,1,115,8|2,3:0|0:0,0:0:0:0:
232,108,75200,1,2,0:0:0:0:
232,108,75323,2,0,P|223:27|271:101,1,230,8|8,0:0|3:0,0:0:0:0:
180,260,76060,69,2,0:0:0:0:
88,70,76306,1,8,0:0:0:0:
35,212,76551,1,2,0:0:0:0:
232,108,76798,6,0,P|282:85|348:116,1,115,8|2,2:0|0:0,0:0:0:0:
293,281,77290,2,0,B|288:142,1,115,8|0,0:0|0:0,0:0:0:0:
232,108,77658,2,0,L|212:169,1,57.5,2|8,0:0|3:0,0:0:0:0:
214,162,78273,38,0,P|182:212|160:174,1,120.749996315003,8|0,0:0|0:0,0:0:0:0:
160,100,78765,21,6,0:0:0:0:
303,54,79011,1,2,0:0:0:0:
292,273,79256,5,8,0:0:0:0:
246,130,79502,1,2,0:0:0:0:
466,139,79748,69,8,3:0:0:0:
323,185,79994,1,2,0:0:0:0:
452,363,80240,5,8,0:0:0:0:
406,220,80486,1,0,0:0:0:0:
406,220,80609,1,2,0:0:0:0:
406,220,80732,1,8,3:0:0:0:
298,325,80978,1,2,0:0:0:0:
512,384,81224,70,0,L|495:329,1,57.5,8|0,0:0|0:0,0:0:0:0:
432,248,81470,2,0,L|414:303,1,57.5,0|0,0:0|0:0,0:0:0:0:
386,384,81715,1,8,3:0:0:0:
260,166,81961,5,2,0:0:0:0:
260,166,82085,1,0,0:0:0:0:
260,166,82208,1,0,0:0:0:0:
192,300,82453,1,2,0:0:0:0:
414,302,82699,69,4,0:0:0:0:
271,256,82945,1,2,0:0:0:0:
410,84,83191,5,8,0:0:0:0:
364,227,83437,1,2,0:0:0:0:
187,99,83683,69,8,3:0:0:0:
330,145,83929,1,2,0:0:0:0:
330,145,84052,1,0,0:0:0:0:
330,145,84175,1,8,0:0:0:0:
183,349,84421,6,0,P|167:295|182:240,1,115,2|8,0:0|3:0,0:0:0:0:
329,35,84913,2,0,P|345:89|330:144,1,115,2|8,0:0|0:0,0:0:0:0:
182,239,85404,2,0,L|308:228,1,115,2|8,0:0|3:0,0:0:0:0:
504,216,85896,69,2,0:0:0:0:
504,216,86019,1,0,0:0:0:0:
504,216,86142,1,8,0:0:0:0:
384,307,86388,1,2,0:0:0:0:
392,12,86633,5,4,0:0:0:0:
264,92,86879,1,2,0:0:0:0:
464,160,87125,1,8,0:0:0:0:
331,227,87371,2,0,P|318:171|340:117,1,115,2|8,0:0|3:0,0:0:0:0:
496,28,87863,69,2,0:0:0:0:
321,64,88109,2,0,L|338:119,1,57.5,8|0,0:0|0:0,0:0:0:0:
440,180,88355,2,0,L|458:125,1,57.5,2|0,0:0|0:0,0:0:0:0:
496,28,88600,1,8,3:0:0:0:
321,64,88847,1,2,0:0:0:0:
440,179,89093,2,0,P|528:175|457:125,1,230,8|8,0:0|3:0,0:0:0:0:
256,284,90076,6,0,L|256:383,2,76.6666666666667,8|2|2,0:0|0:0|0:0,0:0:0:0:
290,192,90568,38,0,L|383:178,1,80.499997543335,4|8,3:0|3:0,0:0:0:0:
474,168,91060,2,0,L|452:261,1,80.499997543335,8|8,0:0|3:0,0:0:0:0:
339,311,91552,6,0,L|246:325,1,80.499997543335,8|8,3:0|3:0,0:0:0:0:
155,335,92044,2,0,L|177:242,1,80.499997543335,8|8,0:0|3:0,0:0:0:0:
210,71,92536,53,8,3:0:0:0:
265,105,92658,1,8,3:0:0:0:
330,105,92781,1,8,3:0:0:0:
386,72,92904,1,8,3:0:0:0:
462,13,93027,69,8,3:0:0:0:
427,69,93149,1,8,3:0:0:0:
427,134,93272,1,8,3:0:0:0:
460,191,93395,1,8,3:0:0:0:
411,265,93519,6,0,L|368:269,7,28.75,8|8|8|8|8|8|8|8,3:0|3:0|3:0|3:0|3:0|3:0|3:0|3:0,0:0:0:0:
351,297,94011,6,0,L|266:304,1,80.499997543335,8|0,3:0|0:0,0:0:0:0:
387,114,95978,70,0,L|372:187,1,74.7499965782167,12|0,0:0|0:0,0:0:0:0:
125,270,97945,70,0,L|139:196,1,74.7499965782167,4|0,3:0|0:0,0:0:0:0:
138,196,98437,6,0,P|206:207|137:136,1,224.24998973465,6|0,0:0|0:0,0:0:0:0:
77,140,98928,69,14,1:0:0:0:
185,341,99174,1,2,1:0:0:0:
185,341,99297,1,2,1:0:0:0:
185,341,99420,1,10,1:0:0:0:
293,95,99666,1,2,1:0:0:0:
293,95,99790,2,0,L|310:181,1,63.2500019302369,2|8,1:0|1:0,0:0:0:0:
192,347,100158,5,2,1:0:0:0:
192,347,100281,1,2,1:0:0:0:
192,347,100404,2,0,P|158:354|120:345,1,63.2500019302369,10|2,1:0|1:0,0:0:0:0:
26,279,100650,69,2,1:0:0:0:
26,279,100773,1,2,1:0:0:0:
26,279,100896,2,0,P|60:286|98:277,1,63.2500019302369,10|2,1:0|1:0,0:0:0:0:
189,206,101141,5,2,1:0:0:0:
189,206,101264,1,2,1:0:0:0:
189,206,101388,2,0,P|155:213|117:204,1,63.2500019302369,10|0,1:0|0:0,0:0:0:0:
39,97,101633,69,2,1:0:0:0:
39,97,101756,1,2,1:0:0:0:
39,97,101880,2,0,L|21:239,1,126.500003860474,4|2,3:0|1:0,0:0:0:0:
23,222,102372,6,0,P|14:311|90:263,1,224.24998973465,6|0,0:0|0:0,0:0:0:0:
96,185,102863,69,14,1:0:0:0:
304,93,103109,1,2,1:0:0:0:
304,93,103232,1,2,1:0:0:0:
304,93,103355,1,10,1:0:0:0:
238,353,103601,1,2,1:0:0:0:
238,353,103724,2,0,L|213:269,1,63.2500019302369,2|8,1:0|1:0,0:0:0:0:
159,59,104092,5,2,1:0:0:0:
88,41,104215,1,2,1:0:0:0:
19,24,104339,2,0,L|40:93,1,63.2500019302369,14|2,1:0|1:0,0:0:0:0:
184,128,104585,69,10,1:0:0:0:
255,110,104708,1,2,1:0:0:0:
324,93,104831,2,0,L|303:162,1,63.2500019302369,14|2,1:0|1:0,0:0:0:0:
159,200,105077,5,10,1:0:0:0:
88,182,105200,1,2,1:0:0:0:
19,165,105323,2,0,L|40:234,1,63.2500019302369,14|2,1:0|1:0,0:0:0:0:
204,262,105568,69,0,0:0:0:0:
275,244,105691,1,0,0:0:0:0:
344,227,105814,2,0,B|328:327|328:327|373:287,1,137.999995788574,4|0,3:0|0:0,0:0:0:0:
355,302,106306,6,0,P|437:338|430:243,1,224.24998973465,6|0,0:0|0:0,0:0:0:0:
344,227,106798,69,14,1:0:0:0:
137,311,107044,1,2,1:0:0:0:
137,311,107167,1,2,1:0:0:0:
137,311,107290,1,10,1:0:0:0:
203,51,107536,1,2,1:0:0:0:
203,51,107659,2,0,L|228:134,1,63.2500019302369,2|8,1:0|1:0,0:0:0:0:
318,369,108027,5,2,1:0:0:0:
318,369,108150,1,2,1:0:0:0:
318,369,108273,2,0,P|302:340|302:301,1,63.2500019302369,10|2,1:0|1:0,0:0:0:0:
250,203,108519,69,2,1:0:0:0:
250,203,108642,1,2,1:0:0:0:
250,203,108765,2,0,P|247:234|232:261,1,63.2500019302369,10|2,1:0|1:0,0:0:0:0:
177,366,109010,5,2,1:0:0:0:
177,366,109133,1,2,1:0:0:0:
177,366,109257,2,0,P|161:337|161:298,1,63.2500019302369,10|0,1:0|0:0,0:0:0:0:
97,199,109502,69,2,1:0:0:0:
97,199,109625,1,2,1:0:0:0:
97,199,109749,2,0,P|93:270|59:310,1,126.500003860474,4|2,3:0|1:0,0:0:0:0:
58,310,110240,6,0,P|112:379|160:287,1,224.24998973465,6|0,0:0|0:0,0:0:0:0:
99,239,110732,69,14,1:0:0:0:
273,93,110978,1,2,1:0:0:0:
273,93,111101,1,2,1:0:0:0:
273,93,111224,1,10,1:0:0:0:
281,361,111470,1,2,1:0:0:0:
281,361,111593,1,2,1:0:0:0:
281,361,111716,2,0,P|243:301|249:245,1,126.500003860474,12|0,1:0|0:0,0:0:0:0:
393,322,114175,22,0,P|462:353|441:276,2,184,8|8|8,3:0|3:0|3:0,0:0:0:0:
376,211,115404,5,2,0:0:0:0:
376,211,115650,1,8,3:0:0:0:
264,258,115896,1,2,0:0:0:0:
264,258,116142,2,0,P|195:289|211:212,2,184,8|8|8,3:0|3:0|3:0,0:0:0:0:
305,143,117372,69,2,0:0:0:0:
196,94,117617,1,8,3:0:0:0:
205,213,117863,1,2,0:0:0:0:
375,181,118109,6,0,P|383:136|367:94,1,92,8|2,3:0|0:0,0:0:0:0:
260,39,118601,2,0,P|215:30|173:46,1,92,8|2,3:0|0:0,0:0:0:0:
106,146,119093,1,8,3:0:0:0:
106,146,119339,2,0,P|97:190|113:232,1,92,2|8,0:0|3:0,0:0:0:0:
296,295,119831,69,2,0:0:0:0:
296,295,120077,2,0,P|254:311|210:303,1,92,8|2,3:0|0:0,0:0:0:0:
113,232,120568,2,0,P|97:190|106:146,1,92,8|2,3:0|0:0,0:0:0:0:
172,46,121060,2,0,P|215:29|260:39,1,92,8|2,3:0|0:0,0:0:0:0:
382,173,121552,21,8,0:0:0:0:
357,212,121674,1,2,0:0:0:0:
350,257,121797,1,2,0:0:0:0:
359,302,121920,1,2,0:0:0:0:
396,379,122044,6,0,L|281:370,1,103.499996841431,4|2,0:0|0:0,0:0:0:0:
208,297,122413,2,0,L|323:288,1,103.499996841431,2|2,0:0|0:0,0:0:0:0:
394,200,122781,69,2,0:0:0:0:
394,200,122904,1,2,0:0:0:0:
394,200,123027,2,0,L|279:191,1,103.499996841431,8|2,3:0|0:0,0:0:0:0:
227,123,123396,2,0,L|286:107,1,51.7499984207154,2|8,0:0|0:0,0:0:0:0:
367,81,123642,2,0,L|416:67,2,51.7499984207154,2|2|2,0:0|0:0|0:0,0:0:0:0:
276,109,124011,6,0,P|293:159|277:208,1,103.499996841431,8|2,3:0|0:0,0:0:0:0:
188,231,124380,2,0,L|123:241,1,51.7499984207154,2|8,0:0|0:0,0:0:0:0:
44,258,124626,2,0,L|72:325,2,51.7499984207154,2|2|2,0:0|0:0|0:0,0:0:0:0:
77,170,124995,70,0,P|95:122|83:72,1,103.499996841431,8|2,3:0|0:0,0:0:0:0:
165,27,125363,2,0,L|237:17,1,51.7499984207154,2|8,0:0|0:0,0:0:0:0:
300,61,125609,2,0,L|372:71,1,51.7499984207154,2|2,0:0|0:0,0:0:0:0:
467,229,125978,6,0,P|449:277|464:326,1,103.499996841431,8|2,3:0|0:0,0:0:0:0:
372,345,126347,2,0,P|324:327|275:342,1,103.499996841431,2|2,0:0|0:0,0:0:0:0:
190,381,126716,1,2,0:0:0:0:
186,152,126962,70,0,L|200:268,1,103.499996841431,8|2,3:0|0:0,0:0:0:0:
278,205,127331,2,0,L|286:132,1,51.7499984207154,2|8,0:0|0:0,0:0:0:0:
408,80,127699,70,0,L|417:23,2,40.2499987716675,2|2|8,0:0|0:0|3:0,0:0:0:0:
386,224,128191,1,2,0:0:0:0:
386,224,128314,2,0,P|446:209|508:239,1,120.749996315003,2|2,0:0|0:0,0:0:0:0:
330,342,128929,54,0,L|293:348,15,23,2|0|0|0|2|0|0|0|2|0|0|0|2|0|0|0,0:0|0:0|0:0|0:0|0:0|0:0|0:0|0:0|0:0|0:0|0:0|0:0|0:0|0:0|0:0|0:0,0:0:0:0:
265,352,129913,6,0,P|271:307|251:266,1,92,4|2,0:0|0:0,0:0:0:0:
135,237,130404,2,0,P|129:282|149:323,1,92,8|2,3:0|0:0,0:0:0:0:
251,266,130896,2,0,P|257:221|237:180,1,92,8|0,3:0|0:0,0:0:0:0:
145,102,131388,5,8,3:0:0:0:
145,102,131634,1,2,0:0:0:0:
125,220,131880,1,8,3:0:0:0:
125,220,132126,1,2,0:0:0:0:
237,180,132372,69,8,3:0:0:0:
145,102,132617,1,2,0:0:0:0:
125,220,132863,2,0,L|138:318,1,92,8|0,3:0|0:0,0:0:0:0:
255,329,133355,5,8,3:0:0:0:
323,231,133601,1,2,0:0:0:0:
164,164,133847,2,0,L|177:262,1,92,4|2,0:0|0:0,0:0:0:0:
256,344,134339,69,8,3:0:0:0:
345,264,134585,1,2,0:0:0:0:
260,179,134831,2,0,L|269:275,1,92,8|0,3:0|0:0,0:0:0:0:
201,369,135322,5,8,3:0:0:0:
149,260,135568,1,2,0:0:0:0:
268,270,135814,2,0,P|312:282|364:261,1,92,8|2,3:0|0:0,0:0:0:0:
190,193,136306,2,0,P|146:181|94:202,1,92,8|2,3:0|0:0,0:0:0:0:
152,350,136798,70,0,P|164:306|143:254,1,92,8|2,3:0|0:0,0:0:0:0:
53,191,137290,1,8,3:0:0:0:
86,307,137536,1,2,0:0:0:0:
279,184,137781,22,0,L|266:302,1,103.499996841431,4|2,0:0|0:0,0:0:0:0:
323,362,138150,2,0,L|356:301,1,51.7499984207154,2|8,0:0|0:0,0:0:0:0:
399,238,138396,1,2,0:0:0:0:
399,238,138519,1,2,0:0:0:0:
230,318,138765,2,0,P|180:336|130:320,1,103.499996841431,8|0,3:0|0:0,0:0:0:0:
0,117,139257,6,0,L|16:231,1,103.499996841431,8|2,0:0|0:0,0:0:0:0:
95,172,139626,1,2,0:0:0:0:
95,172,139749,2,0,L|111:286,1,103.499996841431,8|2,3:0|0:0,0:0:0:0:
188,323,140117,2,0,L|195:256,1,51.7499984207154,2|8,0:0|0:0,0:0:0:0:
212,179,140363,1,2,0:0:0:0:
212,179,140486,1,2,0:0:0:0:
374,269,140732,2,0,P|423:281|472:267,1,103.499996841431,8|0,3:0|0:0,0:0:0:0:
468,80,141224,2,0,P|418:67|369:81,1,103.499996841431,8|2,0:0|0:0,0:0:0:0:
197,255,141716,70,0,L|174:127,1,103.499996841431,4|2,0:0|0:0,0:0:0:0:
105,93,142085,2,0,L|93:156,1,51.7499984207154,2|8,0:0|0:0,0:0:0:0:
21,201,142331,2,0,L|9:138,1,51.7499984207154,2|0,0:0|0:0,0:0:0:0:
169,52,142699,6,0,P|219:67|268:53,1,103.499996841431,8|2,3:0|0:0,0:0:0:0:
352,12,143068,2,0,L|362:81,1,51.7499984207154,2|8,0:0|0:0,0:0:0:0:
379,155,143314,1,2,0:0:0:0:
379,155,143437,1,2,0:0:0:0:
261,314,143683,21,8,3:0:0:0:
205,279,143805,1,8,3:0:0:0:
139,279,143928,1,8,3:0:0:0:
82,313,144051,1,8,3:0:0:0:
5,373,144174,69,8,3:0:0:0:
41,316,144298,1,8,3:0:0:0:
41,250,144421,1,8,3:0:0:0:
7,192,144544,1,8,3:0:0:0:
60,119,144667,6,0,L|100:115,7,25.8749992103577,8|8|8|8|8|8|8|8,3:0|3:0|3:0|3:0|3:0|3:0|3:0|3:0,0:0:0:0:
120,90,145158,6,0,L|205:83,1,80.499997543335,8|0,3:0|0:0,0:0:0:0:
256,99,147126,54,0,L|251:185,1,74.7499965782167,12|0,0:0|0:0,0:0:0:0:
96,216,148847,5,12,0:0:0:0:
416,168,149093,1,12,0:0:0:0:
165,349,150814,69,12,0:0:0:0:
165,33,151060,1,12,0:0:0:0:
436,192,151306,1,12,0:0:0:0:
101,91,153027,6,0,L|121:176,1,74.7499965782167,4|0,3:0|0:0,0:0:0:0:
119,163,153519,70,0,P|187:221|99:239,1,224.24998973465,6|0,0:0|0:0,0:0:0:0:
40,187,154011,5,14,1:0:0:0:
240,78,154257,1,2,1:0:0:0:
240,78,154380,1,2,1:0:0:0:
240,78,154503,1,10,1:0:0:0:
196,342,154749,1,2,1:0:0:0:
196,342,154872,2,0,P|188:307|195:270,1,63.2500019302369,2|8,1:0|1:0,0:0:0:0:
212,70,155240,69,2,1:0:0:0:
212,70,155363,1,2,1:0:0:0:
212,70,155486,2,0,L|281:88,1,63.2500019302369,10|2,1:0|1:0,0:0:0:0:
416,130,155732,5,2,1:0:0:0:
416,130,155855,1,2,1:0:0:0:
416,130,155978,2,0,L|347:148,1,63.2500019302369,10|2,1:0|1:0,0:0:0:0:
221,203,156224,69,2,1:0:0:0:
221,203,156347,1,2,1:0:0:0:
221,203,156470,2,0,L|290:221,1,63.2500019302369,10|0,1:0|0:0,0:0:0:0:
425,273,156716,5,2,1:0:0:0:
425,273,156839,1,2,1:0:0:0:
425,273,156962,2,0,L|294:300,1,126.500003860474,4|2,3:0|1:0,0:0:0:0:
301,298,157454,70,0,P|278:343|229:252,1,224.24998973465,6|0,0:0|0:0,0:0:0:0:
296,205,157945,5,14,1:0:0:0:
83,125,158191,1,2,1:0:0:0:
83,125,158314,1,2,1:0:0:0:
83,125,158437,1,10,1:0:0:0:
163,380,158683,1,2,1:0:0:0:
163,380,158806,2,0,L|175:313,1,63.2500019302369,2|8,1:0|1:0,0:0:0:0:
208,49,159175,69,2,1:0:0:0:
279,31,159298,1,2,1:0:0:0:
348,14,159421,2,0,L|327:83,1,63.2500019302369,14|2,1:0|1:0,0:0:0:0:
180,130,159668,5,10,1:0:0:0:
109,112,159791,1,2,1:0:0:0:
40,95,159914,2,0,L|61:164,1,63.2500019302369,14|2,1:0|1:0,0:0:0:0:
208,209,160158,69,10,1:0:0:0:
279,191,160281,1,2,1:0:0:0:
348,174,160404,2,0,L|327:243,1,63.2500019302369,14|2,1:0|1:0,0:0:0:0:
180,290,160651,5,2,1:0:0:0:
109,272,160774,1,2,1:0:0:0:
39,254,160897,2,0,B|57:358|57:358|84:320,1,137.999995788574,4|2,3:0|1:0,0:0:0:0:
76,332,161388,70,0,P|157:368|132:282,1,224.24998973465,6|0,0:0|0:0,0:0:0:0:
39,254,161880,5,14,1:0:0:0:
230,111,162126,1,2,1:0:0:0:
230,111,162249,1,2,1:0:0:0:
230,111,162372,1,10,1:0:0:0:
233,378,162618,1,2,1:0:0:0:
233,378,162741,2,0,P|220:340|226:315,1,63.2500019302369,2|8,1:0|1:0,0:0:0:0:
408,120,163109,69,2,1:0:0:0:
408,120,163232,1,2,1:0:0:0:
408,120,163355,2,0,L|390:189,1,63.2500019302369,10|2,1:0|1:0,0:0:0:0:
322,287,163601,5,2,1:0:0:0:
322,287,163724,1,2,1:0:0:0:
322,287,163847,2,0,L|304:218,1,63.2500019302369,10|2,1:0|1:0,0:0:0:0:
229,127,164093,69,2,1:0:0:0:
229,127,164216,1,2,1:0:0:0:
229,127,164339,2,0,L|211:196,1,63.2500019302369,10|0,1:0|0:0,0:0:0:0:
143,294,164585,5,2,1:0:0:0:
143,294,164708,1,2,1:0:0:0:
143,294,164831,2,0,L|107:161,1,126.500003860474,4|2,3:0|1:0,0:0:0:0:
109,171,165322,70,0,P|28:207|53:121,1,224.24998973465,6|0,0:0|0:0,0:0:0:0:
134,93,165814,5,14,1:0:0:0:
337,193,166060,1,2,1:0:0:0:
337,193,166183,1,2,1:0:0:0:
337,193,166306,1,10,1:0:0:0:
96,308,166552,1,2,1:0:0:0:
96,308,166675,2,0,L|82:231,1,63.2500019302369,2|8,1:0|1:0,0:0:0:0:
26,38,167043,69,2,1:0:0:0:
26,38,167166,1,2,1:0:0:0:
26,38,167290,2,0,L|91:54,1,63.2500019302369,10|2,1:0|1:0,0:0:0:0:
205,128,167536,5,10,1:0:0:0:
205,128,167659,1,2,1:0:0:0:
205,128,167782,2,0,L|140:144,1,63.2500019302369,10|2,1:0|1:0,0:0:0:0:
32,233,168027,69,10,1:0:0:0:
32,233,168150,1,2,1:0:0:0:
32,233,168273,2,0,L|97:249,1,63.2500019302369,10|2,1:0|1:0,0:0:0:0:
211,323,168520,5,10,1:0:0:0:
211,323,168642,2,0,L|146:339,1,63.2500019302369,2|14,1:0|1:0,0:0:0:0:
0,136,169011,2,0,L|69:118,1,63.2500019302369,10|0,1:0|0:0,0:0:0:0:
165,95,169257,70,0,P|104:103|131:48,1,149.499993156433,4|0,0:0|0:0,0:0:0:0:
346,95,169749,2,0,P|407:103|380:48,1,149.499993156433,8|0,0:0|0:0,0:0:0:0:
165,95,170240,53,8,0:0:0:0:
314,172,170486,1,2,0:0:0:0:
314,172,170609,2,0,L|292:251,1,63.2500019302369,2|8,0:0|0:0,0:0:0:0:
108,332,170978,6,0,L|86:253,1,63.2500019302369,2|0,0:0|0:0,0:0:0:0:
66,181,171224,2,0,P|126:199|181:171,1,126.500003860474,8|0,0:0|0:0,0:0:0:0:
255,24,171716,1,8,0:0:0:0:
121,122,171962,1,2,0:0:0:0:
316,227,172208,70,0,L|254:242,1,63.2500019302369,8|0,0:0|0:0,0:0:0:0:
198,315,172454,1,2,0:0:0:0:
198,315,172577,2,0,L|259:330,1,63.2500019302369,2|8,0:0|0:0,0:0:0:0:
405,48,173191,38,0,P|431:103|370:94,1,149.499993156433,4|0,0:0|0:0,0:0:0:0:
107,48,173683,2,0,P|80:103|141:94,1,149.499993156433,8|0,0:0|0:0,0:0:0:0:
328,28,174175,53,8,0:0:0:0:
203,148,174420,1,2,0:0:0:0:
203,148,174544,2,0,L|221:219,1,63.2500019302369,2|8,0:0|0:0,0:0:0:0:
372,367,174913,69,2,0:0:0:0:
446,134,175158,1,8,0:0:0:0:
248,277,175404,1,2,0:0:0:0:
493,277,175650,1,8,0:0:0:0:
295,134,175896,1,2,0:0:0:0:
372,367,176142,6,0,L|310:352,1,63.2500019302369,8|0,0:0|0:0,0:0:0:0:
185,325,176388,1,2,0:0:0:0:
185,325,176511,2,0,L|246:310,1,63.2500019302369,2|8,0:0|0:0,0:0:0:0:
405,48,177126,22,0,P|431:103|370:94,1,149.499993156433,4|0,0:0|0:0,0:0:0:0:
107,48,177618,2,0,P|80:103|141:94,1,149.499993156433,8|2,0:0|0:0,0:0:0:0:
331,31,178109,37,8,0:0:0:0:
205,140,178355,1,2,0:0:0:0:
205,140,178478,2,0,L|220:211,1,63.2500019302369,2|8,0:0|0:0,0:0:0:0:
121,363,178847,5,2,0:0:0:0:
47,130,179092,1,8,0:0:0:0:
245,273,179338,1,2,0:0:0:0:
0,273,179584,1,8,0:0:0:0:
198,130,179830,1,2,0:0:0:0:
121,363,180077,70,0,L|183:348,1,63.2500019302369,8|0,0:0|0:0,0:0:0:0:
308,321,180323,1,2,0:0:0:0:
308,321,180446,2,0,L|247:306,1,63.2500019302369,2|8,0:0|0:0,0:0:0:0:
107,48,181060,38,0,P|81:103|142:94,1,149.499993156433,4|0,0:0|0:0,0:0:0:0:
405,48,181552,2,0,P|432:103|371:94,1,149.499993156433,8|0,0:0|0:0,0:0:0:0:
191,35,182044,37,8,0:0:0:0:
320,153,182289,1,2,0:0:0:0:
320,153,182413,2,0,L|307:230,1,63.2500019302369,2|8,0:0|0:0,0:0:0:0:
133,303,182781,1,2,0:0:0:0:
370,369,183027,21,14,1:0:0:0:
428,371,183149,1,2,1:0:0:0:
446,315,183272,1,10,1:0:0:0:
397,283,183395,1,2,1:0:0:0:
349,318,183518,1,10,1:0:0:0:
349,318,184011,5,14,1:0:0:0:
290,320,184133,1,2,1:0:0:0:
272,264,184256,1,10,1:0:0:0:
321,232,184379,1,2,1:0:0:0:
372,262,184503,2,0,B|418:280|467:251|467:251|429:237,1,126.500003860474,10|10,1:0|1:0,0:0:0:0:
187,269,184995,69,14,1:0:0:0:
129,272,185117,1,2,1:0:0:0:
111,216,185240,1,10,1:0:0:0:
160,184,185363,1,2,1:0:0:0:
210,216,185486,1,10,1:0:0:0:
210,216,185978,5,14,1:0:0:0:
269,218,186100,1,2,1:0:0:0:
287,162,186223,1,10,1:0:0:0:
238,130,186346,1,2,1:0:0:0:
185,162,186470,2,0,B|139:180|90:151|90:151|128:137,1,126.500003860474,10|10,1:0|1:0,0:0:0:0:
370,168,186962,69,14,1:0:0:0:
428,171,187084,1,2,1:0:0:0:
446,115,187207,1,10,1:0:0:0:
397,83,187330,1,2,1:0:0:0:
349,115,187453,1,14,1:0:0:0:
349,115,187945,5,14,1:0:0:0:
290,117,188067,1,2,1:0:0:0:
272,61,188190,1,10,1:0:0:0:
321,29,188313,1,2,1:0:0:0:
374,61,188437,2,0,B|420:79|469:50|469:50|431:36,1,126.500003860474,14|10,1:0|1:0,0:0:0:0:
