osu file format v14

[General]
AudioFilename: audio.mp3
AudioLeadIn: 0
PreviewTime: 36900
Countdown: 0
SampleSet: Soft
StackLeniency: 0.7
Mode: 0
LetterboxInBreaks: 0
WidescreenStoryboard: 0

[Editor]
Bookmarks: 4011,19749,37454,55158,70896,78765,98437,114175,129913,153519,169257,188929
DistanceSpacing: 1.2
BeatDivisor: 4
GridSize: 4
TimelineZoom: 1.2

[Metadata]
Title:VERY NICE
TitleUnicode:아주 NICE
Artist:SEVENTEEN
ArtistUnicode:세븐틴
Creator:Natsu
Version:AJU NICE
Source:
Tags:PLEDIS ENTERTAINMENT 세븐틴 에스.쿱스 S.COUPS 우지 WOOZI 호시 HOSHI 민규 MINGYU 원우 WONWOO 버논 VERNON 승관 SEUNGKWAN 디노 DINO 준 JUN 도경 DK 조슈아 JOSHUA 정한 JEONGHAN 디에잇THE8 Love&Letter Repackage Album 17 euny kpop k-pop
BeatmapID:1303748
BeatmapSetID:618500

[Difficulty]
HPDrainRate:6
CircleSize:4
OverallDifficulty:9
ApproachRate:9.7
SliderMultiplier:3.2
SliderTickRate:2

[Events]
//Background and Video events
0,0,"KakaoTalk_20170526_202649144.jpg",0,0
Video,0,"--+Nice.avi"
//Break Periods
//Storyboard Layer 0 (Background)
//Storyboard Layer 1 (Fail)
//Storyboard Layer 2 (Pass)
//Storyboard Layer 3 (Foreground)
//Storyboard Sound Samples

[TimingPoints]
77,491.803278688525,4,2,1,50,1,0
4011,-76.9230769230769,4,2,1,50,0,0
4441,-76.9230769230769,4,2,1,20,0,0
4503,-76.9230769230769,4,2,1,50,0,0
5240,-100,4,2,1,50,0,0
7945,-76.9230769230769,4,2,1,50,0,0
9421,-100,4,2,1,50,0,0
11142,-142.857142857143,4,2,1,50,0,0
11634,-100,4,2,1,50,0,0
12863,-76.9230769230769,4,2,1,50,0,0
13601,-100,4,2,1,50,0,0
14831,-76.9230769230769,4,2,1,50,0,0
15814,-142.857142857143,4,2,1,50,0,0
17536,-142.857142857143,4,2,1,5,0,0
17781,-142.857142857143,4,2,1,50,0,0
17904,-142.857142857143,4,2,1,30,0,0
18027,-142.857142857143,4,2,1,50,0,0
18150,-142.857142857143,4,2,1,30,0,0
18273,-142.857142857143,4,2,1,50,0,0
18396,-142.857142857143,4,2,1,30,0,0
18519,-142.857142857143,4,2,1,50,0,0
18642,-142.857142857143,4,2,1,30,0,0
18765,-142.857142857143,4,2,1,60,0,0
19749,-100,4,2,1,50,0,0
31552,-142.857142857143,4,2,1,50,0,0
33519,-100,4,2,1,50,0,0
34011,-100,4,2,1,55,0,0
34503,-100,4,2,1,60,0,0
34995,-142.857142857143,4,2,1,60,0,0
35240,-142.857142857143,4,2,1,20,0,0
35486,-142.857142857143,4,2,1,30,0,0
36962,-76.9230769230769,4,2,1,50,0,0
37454,-76.9230769230769,4,2,1,70,0,1
37945,-90.9090909090909,4,2,1,50,0,1
40896,-90.9090909090909,4,2,1,70,0,1
41142,-90.9090909090909,4,2,1,50,0,0
41388,-76.9230769230769,4,2,1,70,0,1
41880,-90.9090909090909,4,2,1,50,0,1
44831,-83.3333333333333,4,2,1,70,0,1
45077,-83.3333333333333,4,2,1,50,0,0
45322,-76.9230769230769,4,2,1,50,0,1
45814,-90.9090909090909,4,2,1,50,0,1
48765,-90.9090909090909,4,2,1,70,0,1
49011,-90.9090909090909,4,2,1,50,0,0
49257,-76.9230769230769,4,2,1,70,0,1
49749,-90.9090909090909,4,2,1,50,0,1
53191,-142.857142857143,4,2,1,50,0,0
54298,-142.857142857143,4,2,1,20,0,0
55158,-100,4,2,1,50,0,0
55404,-100,4,2,1,35,0,0
58601,-333.333333333333,4,2,1,30,0,0
59093,-100,4,2,1,50,0,0
59339,-100,4,2,1,35,0,0
62536,-333.333333333333,4,2,1,30,0,0
63027,-100,4,2,1,50,0,0
63273,-100,4,2,1,35,0,0
68929,-142.857142857143,4,2,1,40,0,0
69052,-142.857142857143,4,2,1,30,0,0
69667,-100,4,2,1,50,0,0
69851,-100,4,2,1,5,0,0
69913,-100,4,2,1,50,0,0
70281,-100,4,2,1,5,0,0
70404,-100,4,2,1,40,0,0
78273,-142.857142857143,4,2,1,50,0,0
78458,-142.857142857143,4,2,1,5,0,0
78765,-100,4,2,1,50,0,0
90568,-142.857142857143,4,2,1,50,0,0
92536,-100,4,2,1,50,0,0
93027,-100,4,2,1,55,0,0
93519,-100,4,2,1,60,0,0
94011,-142.857142857143,4,2,1,60,0,0
94257,-142.857142857143,4,2,1,20,0,0
94503,-142.857142857143,4,2,1,30,0,0
95978,-76.9230769230769,4,2,1,50,0,0
96470,-142.857142857143,4,2,1,30,0,0
97638,-142.857142857143,4,2,1,5,0,0
97945,-76.9230769230769,4,2,1,50,0,0
98437,-76.9230769230769,4,2,1,70,0,1
98929,-90.9090909090909,4,2,1,50,0,1
101880,-90.9090909090909,4,2,1,70,0,1
102126,-90.9090909090909,4,2,1,50,0,0
102372,-76.9230769230769,4,2,1,70,0,1
102863,-90.9090909090909,4,2,1,50,0,1
105814,-83.3333333333333,4,2,1,70,0,1
106060,-83.3333333333333,4,2,1,50,0,0
106306,-76.9230769230769,4,2,1,70,0,1
106798,-90.9090909090909,4,2,1,50,0,1
109749,-90.9090909090909,4,2,1,70,0,1
109995,-90.9090909090909,4,2,1,50,0,0
110240,-76.9230769230769,4,2,1,70,0,1
110732,-90.9090909090909,4,2,1,50,0,1
112208,-142.857142857143,4,2,1,50,0,0
114175,-125,4,2,1,35,0,0
121552,-111.111111111111,4,2,1,40,0,0
127699,-142.857142857143,4,2,1,20,0,0
128191,-142.857142857143,4,2,1,10,0,0
128929,-125,4,2,1,35,0,0
129913,-125,4,2,1,50,0,0
137781,-111.111111111111,4,2,1,50,0,0
144175,-111.111111111111,4,2,1,55,0,0
144667,-111.111111111111,4,2,1,60,0,0
145158,-142.857142857143,4,2,1,60,0,0
145404,-142.857142857143,4,2,1,20,0,0
145650,-142.857142857143,4,2,1,30,0,0
146818,-142.857142857143,4,2,1,5,0,0
147126,-76.9230769230769,4,2,1,50,0,0
147617,-142.857142857143,4,2,1,30,0,0
148786,-142.857142857143,4,2,1,5,0,0
148847,-76.9230769230769,4,2,1,50,0,0
149585,-142.857142857143,4,2,1,30,0,0
149831,-142.857142857143,4,2,1,10,0,0
150077,-142.857142857143,4,2,1,30,0,0
150322,-142.857142857143,4,2,1,10,0,0
150568,-142.857142857143,4,2,1,30,0,0
150814,-76.9230769230769,4,2,1,50,0,0
151552,-111.111111111111,4,2,1,50,0,0
151675,-111.111111111111,4,2,1,5,0,0
153027,-76.9230769230769,4,2,1,50,0,0
153519,-76.9230769230769,4,2,1,70,0,1
154011,-90.9090909090909,4,2,1,50,0,1
156962,-90.9090909090909,4,2,1,70,0,1
157208,-90.9090909090909,4,2,1,50,0,0
157454,-76.9230769230769,4,2,1,70,0,1
157945,-90.9090909090909,4,2,1,50,0,1
160896,-83.3333333333333,4,2,1,70,0,1
161142,-83.3333333333333,4,2,1,50,0,0
161388,-76.9230769230769,4,2,1,70,0,1
161880,-90.9090909090909,4,2,1,50,0,1
164831,-90.9090909090909,4,2,1,70,0,1
165077,-90.9090909090909,4,2,1,50,0,0
165322,-76.9230769230769,4,2,1,70,0,1
165814,-90.9090909090909,4,2,1,50,0,1
169257,-76.9230769230769,4,2,1,70,0,0
170240,-90.9090909090909,4,2,1,50,0,0
173191,-76.9230769230769,4,2,1,70,0,0
174175,-90.9090909090909,4,2,1,50,0,0
177126,-76.9230769230769,4,2,1,70,0,0
178109,-90.9090909090909,4,2,1,50,0,0
181060,-76.9230769230769,4,2,1,70,0,0
182044,-90.9090909090909,4,2,1,50,0,0

[Colours]
Combo1 : 4,130,255
Combo2 : 0,99,198
Combo3 : 255,0,128
Combo4 : 163,163,163
Combo5 : 164,209,255
Combo6 : 255,159,64
SliderBorder : 98,98,255
SliderTrackOverride : 30,30,30

[HitObjects]
74,384,4011,22,0,P|120:246|13:346,1,363.999983337403,4|0,3:0|0:0,0:0:0:0:
78,308,4503,1,8,0:0:0:0:
358,268,4749,2,0,P|400:318|327:288,1,207.999990478516,2|8,0:0|3:0,0:0:0:0:
37,45,5240,54,0,P|75:35|114:43,1,80,2|0,0:0|0:0,0:0:0:0:
288,101,5486,2,0,P|249:111|210:103,1,80,8|0,0:0|0:0,0:0:0:0:
77,113,5732,2,0,L|68:204,1,80,2|0,0:0|0:0,0:0:0:0:
222,295,5978,70,0,L|231:204,1,80,8|0,3:0|0:0,0:0:0:0:
262,363,6224,2,0,P|224:373|185:365,1,80,2|0,0:0|0:0,0:0:0:0:
11,307,6470,2,0,P|50:297|89:305,1,80,8|0,0:0|0:0,0:0:0:0:
222,295,6716,2,0,L|239:134,1,160,2|8,0:0|3:0,0:0:0:0:
212,374,7208,6,0,L|221:294,1,80,2|0,0:0|0:0,0:0:0:0:
247,56,7454,2,0,L|238:136,1,80,8|0,0:0|0:0,0:0:0:0:
222,295,7699,2,0,L|231:215,1,80,2|0,3:0|0:0,0:0:0:0:
356,317,7945,22,0,P|401:379|403:291,1,207.999990478516,4|0,3:0|0:0,0:0:0:0:
170,36,8437,2,0,L|157:165,1,103.999995239258,8|0,0:0|0:0,0:0:0:0:
156,317,8683,70,0,P|111:379|109:291,1,207.999990478516,2|8,0:0|3:0,0:0:0:0:
342,36,9175,2,0,L|355:165,1,103.999995239258,2|0,0:0|0:0,0:0:0:0:
381,306,9421,54,0,P|343:316|304:308,1,80,8|0,0:0|0:0,0:0:0:0:
130,250,9667,2,0,P|169:240|208:248,1,80,2|0,3:0|0:0,0:0:0:0:
418,236,9913,6,0,L|427:145,1,80,8|0,3:0|0:0,0:0:0:0:
458,304,10159,2,0,P|420:314|381:306,1,80,2|0,0:0|0:0,0:0:0:0:
207,248,10405,2,0,P|246:238|285:246,1,80,8|0,0:0|0:0,0:0:0:0:
417,235,10651,2,0,L|434:74,1,160,2|8,0:0|3:0,0:0:0:0:
406,347,11142,38,0,L|419:217,1,111.999996582031,2|8,0:0|0:0,0:0:0:0:
95,148,11634,22,0,P|132:136|171:143,1,80,2|0,3:0|0:0,0:0:0:0:
416,235,11880,2,0,P|379:247|340:240,1,80,4|0,0:0|0:0,0:0:0:0:
175,223,12126,1,2,0:0:0:0:
256,152,12249,2,0,L|252:71,1,80,2|8,0:0|0:0,0:0:0:0:
337,161,12495,1,2,0:0:0:0:
256,232,12618,2,0,L|260:313,1,80,2|0,0:0|0:0,0:0:0:0:
56,192,12863,38,0,L|49:88,1,103.999995239258,8|0,3:0|0:0,0:0:0:0:
105,250,13109,2,0,P|22:268|57:191,1,207.999990478516,2|8,0:0|0:0,0:0:0:0:
440,72,13601,37,2,3:0:0:0:
348,16,13724,1,2,0:0:0:0:
341,123,13847,2,0,P|329:160|336:199,1,80,8|0,3:0|0:0,0:0:0:0:
399,361,14093,1,2,0:0:0:0:
328,280,14216,2,0,L|247:284,1,80,2|8,0:0|0:0,0:0:0:0:
337,199,14462,1,2,0:0:0:0:
408,280,14585,2,0,L|489:276,1,80,2|0,0:0|0:0,0:0:0:0:
256,87,14831,38,0,L|152:94,1,103.999995239258,8|0,3:0|0:0,0:0:0:0:
327,110,15077,2,0,P|345:193|268:158,2,207.999990478516,2|8|8,0:0|0:0|3:0,0:0:0:0:
0,18,15814,6,0,L|11:141,1,111.999996582031,4|0,3:0|0:0,0:0:0:0:
89,73,16183,1,2,0:0:0:0:
89,73,16306,2,0,L|100:196,1,111.999996582031,8|2,0:0|3:0,0:0:0:0:
208,376,16798,5,8,0:0:0:0:
133,371,16921,1,2,0:0:0:0:
178,261,17044,69,8,3:0:0:0:
115,300,17167,1,2,0:0:0:0:
235,308,17290,6,0,P|288:326|350:307,1,111.999996582031,8|0,0:0|0:0,0:0:0:0:
464,64,17781,5,8,3:0:0:0:
390,27,17904,1,2,0:0:0:0:
459,170,18027,5,8,3:0:0:0:
394,115,18150,1,2,0:0:0:0:
431,270,18273,69,8,0:0:0:0:
380,196,18396,1,2,0:0:0:0:
384,361,18519,5,8,3:0:0:0:
353,271,18642,1,2,0:0:0:0:
248,380,18765,21,8,3:0:0:0:
306,212,18888,1,8,3:0:0:0:
108,256,19011,1,8,3:0:0:0:
279,300,19134,1,8,3:0:0:0:
236,108,19257,1,12,3:0:0:0:
236,108,19749,38,0,P|224:147|233:185,1,80,4|0,0:0|0:0,0:0:0:0:
370,229,19995,2,0,P|382:190|373:152,1,80,2|0,0:0|0:0,0:0:0:0:
239,31,20240,2,0,P|227:70|236:108,1,80,8|0,0:0|0:0,0:0:0:0:
373,152,20486,2,0,P|385:113|376:75,1,80,2|0,0:0|0:0,0:0:0:0:
132,32,20732,6,0,L|37:25,1,80,8|0,3:0|0:0,0:0:0:0:
105,136,20978,2,0,L|61:203,1,80,2|0,0:0|0:0,0:0:0:0:
190,212,21224,1,8,0:0:0:0:
190,212,21347,2,0,L|224:284,1,80,2|0,0:0|0:0,0:0:0:0:
399,176,21593,69,2,0:0:0:0:
399,176,21716,2,0,P|360:164|317:176,1,80,8|0,3:0|0:0,0:0:0:0:
113,208,21962,2,0,P|152:220|195:208,1,80,2|0,0:0|0:0,0:0:0:0:
322,172,22208,6,0,P|251:271|189:198,1,240,8|0,0:0|0:0,0:0:0:0:
312,93,22699,2,0,L|324:186,1,80,8|0,3:0|0:0,0:0:0:0:
200,291,22945,70,0,L|188:198,1,80,2|0,0:0|0:0,0:0:0:0:
312,93,23191,2,0,P|353:101|397:86,1,80,8|0,0:0|0:0,0:0:0:0:
200,93,23437,2,0,P|159:85|115:100,1,80,2|0,0:0|0:0,0:0:0:0:
48,264,23683,6,0,L|60:173,1,80,4|0,0:0|0:0,0:0:0:0:
12,333,23929,2,0,P|53:341|97:326,1,80,2|0,0:0|0:0,0:0:0:0:
236,272,24175,2,0,L|224:363,1,80,8|0,0:0|0:0,0:0:0:0:
272,203,24421,2,0,P|231:195|187:210,1,80,2|0,0:0|0:0,0:0:0:0:
429,210,24667,70,0,P|470:218|514:203,1,80,8|0,3:0|0:0,0:0:0:0:
338,259,24913,2,0,P|310:290|301:336,1,80,2|0,0:0|0:0,0:0:0:0:
342,157,25158,2,0,P|328:117|293:86,1,80,8|0,0:0|0:0,0:0:0:0:
127,165,25404,6,0,P|66:153|119:119,1,160,2|8,0:0|3:0,0:0:0:0:
393,265,25896,2,0,P|445:230|384:218,1,160,2|8,0:0|0:0,0:0:0:0:
256,384,26388,70,0,L|256:223,1,160,2|8,0:0|3:0,0:0:0:0:
69,60,26880,6,0,P|38:34|0:24,1,80,2|0,0:0|0:0,0:0:0:0:
119,148,27126,2,0,P|111:186|122:225,1,80,8|0,0:0|0:0,0:0:0:0:
171,60,27372,2,0,P|208:47|236:19,1,80,2|0,0:0|0:0,0:0:0:0:
319,204,27617,70,0,L|315:292,1,80,4|0,0:0|0:0,0:0:0:0:
415,178,27863,2,0,L|503:182,1,80,2|0,0:0|0:0,0:0:0:0:
389,81,28109,2,0,L|393:-7,1,80,8|0,0:0|0:0,0:0:0:0:
293,107,28355,2,0,B|217:140|217:72|139:110,1,160,2|8,0:0|3:0,0:0:0:0:
415,178,28847,6,0,L|411:266,1,80,2|0,0:0|0:0,0:0:0:0:
237,365,29093,2,0,L|241:277,1,80,8|0,0:0|0:0,0:0:0:0:
329,226,29339,2,0,L|325:314,1,80,2|0,0:0|0:0,0:0:0:0:
182,157,29585,70,0,P|144:147|106:156,1,80,8|0,3:0|0:0,0:0:0:0:
329,226,29831,2,0,P|367:236|405:227,1,80,2|0,0:0|0:0,0:0:0:0:
183,158,30076,2,0,P|183:274|329:213,1,320,8|8,0:0|3:0,0:0:0:0:
20,32,31060,6,0,L|11:152,2,106.666666666667,8|2|2,0:0|0:0|0:0,0:0:0:0:
184,145,31552,38,0,L|180:267,1,111.999996582031,4|8,3:0|3:0,0:0:0:0:
104,92,32044,2,0,L|100:214,1,111.999996582031,8|8,0:0|3:0,0:0:0:0:
328,239,32536,6,0,L|332:117,1,111.999996582031,2|8,0:0|3:0,0:0:0:0:
408,292,33028,2,0,L|412:170,1,111.999996582031,8|8,0:0|3:0,0:0:0:0:
208,108,33519,5,8,3:0:0:0:
127,135,33641,1,8,3:0:0:0:
46,105,33764,1,8,3:0:0:0:
4,29,33887,1,8,3:0:0:0:
127,135,34011,5,8,3:0:0:0:
161,232,34133,1,8,3:0:0:0:
125,329,34256,1,8,3:0:0:0:
34,379,34379,1,8,3:0:0:0:
161,232,34503,21,8,3:0:0:0:
188,213,34564,1,8,3:0:0:0:
217,201,34625,1,8,3:0:0:0:
249,196,34687,1,8,3:0:0:0:
281,198,34748,1,8,3:0:0:0:
311,207,34810,1,8,3:0:0:0:
339,223,34871,1,8,3:0:0:0:
363,244,34933,1,8,3:0:0:0:
382,270,34995,6,0,L|392:155,1,111.999996582031,8|0,3:0|0:0,0:0:0:0:
136,344,35486,5,2,0:0:0:0:
382,270,35732,1,2,0:0:0:0:
393,252,35978,69,2,0:0:0:0:
147,178,36224,1,2,0:0:0:0:
132,160,36470,5,2,0:0:0:0:
378,86,36716,1,2,0:0:0:0:
393,74,36962,54,0,L|393:185,1,103.999995239258,4|0,3:0|0:0,0:0:0:0:
393,178,37454,70,0,P|387:268|452:164,1,311.999985717774,6|0,0:0|0:0,0:0:0:0:
282,88,37945,6,0,L|298:178,1,88.000002685547,14|0,1:0|0:0,0:0:0:0:
140,69,38191,1,2,1:0:0:0:
140,69,38314,1,2,1:0:0:0:
140,69,38437,2,0,L|156:159,1,88.000002685547,10|0,1:0|0:0,0:0:0:0:
0,34,38683,1,2,1:0:0:0:
0,34,38806,1,2,1:0:0:0:
0,34,38929,2,0,L|16:124,1,88.000002685547,8|0,1:0|0:0,0:0:0:0:
107,311,39175,69,2,1:0:0:0:
273,246,39298,1,2,1:0:0:0:
133,348,39421,5,10,1:0:0:0:
245,209,39544,1,2,1:0:0:0:
176,366,39667,69,2,1:0:0:0:
203,190,39790,1,2,1:0:0:0:
222,361,39913,5,10,1:0:0:0:
157,196,40036,1,2,1:0:0:0:
259,334,40158,69,2,1:0:0:0:
120,222,40281,1,2,1:0:0:0:
277,292,40404,6,0,P|324:304|374:282,1,88.000002685547,10|0,1:0|0:0,0:0:0:0:
101,265,40650,1,2,1:0:0:0:
101,265,40773,1,2,1:0:0:0:
101,265,40896,2,0,P|54:253|4:275,1,88.000002685547,4|0,3:0|0:0,0:0:0:0:
182,362,41142,1,2,1:0:0:0:
182,362,41388,70,0,P|272:368|168:303,1,311.999985717774,6|0,0:0|0:0,0:0:0:0:
369,353,41880,6,0,P|376:305|360:259,1,88.000002685547,14|0,1:0|0:0,0:0:0:0:
512,204,42126,1,2,1:0:0:0:
512,204,42249,1,2,1:0:0:0:
512,204,42372,2,0,P|476:170|429:157,1,88.000002685547,10|0,1:0|0:0,0:0:0:0:
512,22,42617,1,2,1:0:0:0:
512,22,42740,1,2,1:0:0:0:
512,22,42863,2,0,P|464:31|426:62,1,88.000002685547,8|0,1:0|0:0,0:0:0:0:
305,154,43109,69,2,1:0:0:0:
141,86,43232,1,2,1:0:0:0:
365,116,43355,2,0,L|353:236,1,88.000002685547,14|2,1:0|1:0,0:0:0:0:
141,222,43601,5,10,1:0:0:0:
305,154,43724,1,2,1:0:0:0:
81,184,43847,2,0,L|93:304,1,88.000002685547,14|2,1:0|1:0,0:0:0:0:
305,290,44093,69,10,1:0:0:0:
141,222,44216,1,2,1:0:0:0:
365,252,44339,2,0,L|353:372,1,88.000002685547,14|2,1:0|1:0,0:0:0:0:
141,358,44585,5,2,1:0:0:0:
305,290,44708,1,2,1:0:0:0:
116,275,44831,2,0,P|65:219|141:222,1,191.999994140625,4|2,3:0|1:0,0:0:0:0:
140,221,45322,70,0,P|22:235|129:261,1,311.999985717774,6|0,0:0|0:0,0:0:0:0:
332,192,45814,6,0,L|348:280,1,88.000002685547,14|0,1:0|0:0,0:0:0:0:
212,88,46060,1,2,1:0:0:0:
212,88,46183,1,2,1:0:0:0:
212,88,46306,2,0,L|196:176,1,88.000002685547,10|0,1:0|0:0,0:0:0:0:
394,31,46552,1,2,1:0:0:0:
394,31,46675,1,2,1:0:0:0:
394,31,46798,2,0,L|410:119,1,88.000002685547,8|0,1:0|0:0,0:0:0:0:
409,355,47044,69,2,1:0:0:0:
373,180,47167,1,2,1:0:0:0:
331,364,47290,5,10,1:0:0:0:
393,195,47413,1,2,1:0:0:0:
261,337,47536,69,2,1:0:0:0:
405,229,47659,1,2,1:0:0:0:
222,272,47781,5,10,1:0:0:0:
401,259,47904,1,2,1:0:0:0:
225,197,48027,69,2,1:0:0:0:
382,283,48150,1,2,1:0:0:0:
261,132,48273,6,0,P|252:90|263:48,1,88.000002685547,10|0,1:0|0:0,0:0:0:0:
344,300,48519,1,2,1:0:0:0:
344,300,48642,1,2,1:0:0:0:
344,300,48765,2,0,P|353:342|342:384,1,88.000002685547,4|0,3:0|0:0,0:0:0:0:
229,201,49011,1,2,1:0:0:0:
229,201,49257,70,0,P|219:110|288:212,1,311.999985717774,6|0,0:0|0:0,0:0:0:0:
156,340,49749,6,0,L|68:349,1,88.000002685547,14|0,1:0|0:0,0:0:0:0:
312,282,49995,1,2,1:0:0:0:
312,282,50118,1,2,1:0:0:0:
312,282,50240,2,0,L|224:272,1,88.000002685547,10|0,1:0|0:0,0:0:0:0:
464,347,50486,1,2,1:0:0:0:
464,347,50609,1,2,1:0:0:0:
464,347,50732,2,0,L|356:355,1,88.000002685547,8|0,1:0|0:0,0:0:0:0:
121,384,50978,69,2,1:0:0:0:
296,362,51100,1,2,1:0:0:0:
108,306,51223,5,10,1:0:0:0:
279,348,51346,1,2,1:0:0:0:
118,232,51470,69,2,1:0:0:0:
262,332,51593,1,2,1:0:0:0:
156,166,51716,5,10,1:0:0:0:
254,310,51839,1,2,1:0:0:0:
217,117,51962,69,2,1:0:0:0:
256,286,52085,1,2,1:0:0:0:
190,46,52208,5,10,1:0:0:0:
275,264,52331,1,2,1:0:0:0:
98,112,52454,69,2,1:0:0:0:
256,286,52577,1,2,1:0:0:0:
43,204,52699,6,0,P|30:245|40:287,1,88.000002685547,12|0,1:0|0:0,0:0:0:0:
253,309,52945,2,0,P|266:267|256:225,1,88.000002685547,2|0,1:0|0:0,0:0:0:0:
35,132,54298,5,2,0:0:0:0:
104,109,54421,1,2,0:0:0:0:
89,180,54544,1,2,0:0:0:0:
50,61,54667,5,2,0:0:0:0:
35,132,54790,1,2,0:0:0:0:
173,86,54913,69,2,0:0:0:0:
158,157,55036,1,2,0:0:0:0:
120,36,55158,37,12,0:0:0:0:
198,313,55404,69,2,0:0:0:0:
293,301,55527,1,2,0:0:0:0:
387,286,55650,2,0,L|387:199,1,80,8|0,3:0|0:0,0:0:0:0:
387,52,55896,5,2,0:0:0:0:
276,128,56019,2,0,P|313:140|352:132,1,80,2|8,0:0|3:0,0:0:0:0:
463,56,56265,2,0,P|425:44|386:52,1,80,2|0,0:0|0:0,0:0:0:0:
203,84,56511,70,0,P|190:121|199:159,1,80,2|8,0:0|3:0,0:0:0:0:
266,291,56757,2,0,P|278:253|269:215,1,80,2|0,0:0|0:0,0:0:0:0:
203,84,57003,5,2,0:0:0:0:
289,125,57126,2,0,L|378:125,1,80,8|0,3:0|0:0,0:0:0:0:
268,214,57372,1,2,0:0:0:0:
111,124,57495,22,0,B|104:84|104:84|132:114,1,80,2|8,0:0|3:0,0:0:0:0:
116,309,57740,2,0,B|82:334|82:334|94:295,1,80,2|0,0:0|0:0,0:0:0:0:
268,214,57986,2,0,B|303:231|303:231|263:239,1,80,2|8,0:0|3:0,0:0:0:0:
160,208,58601,6,0,L|130:209,1,23.9999992675781,2|0,0:0|0:0,0:0:0:0:
160,208,59093,37,12,0:0:0:0:
444,168,59339,69,2,0:0:0:0:
349,180,59462,1,2,0:0:0:0:
255,195,59585,2,0,L|255:282,1,80,8|0,3:0|0:0,0:0:0:0:
194,122,59831,5,2,0:0:0:0:
256,48,59954,2,0,P|294:38|332:48,1,80,2|8,0:0|3:0,0:0:0:0:
194,122,60199,1,2,0:0:0:0:
131,195,60322,2,0,P|92:204|54:195,1,80,2|0,0:0|0:0,0:0:0:0:
256,48,60568,70,0,P|294:38|332:48,1,80,8|0,3:0|0:0,0:0:0:0:
468,106,60814,2,0,P|430:116|392:106,1,80,2|0,0:0|0:0,0:0:0:0:
256,192,61061,6,0,L|269:286,1,80,8|0,3:0|0:0,0:0:0:0:
171,119,61306,1,2,0:0:0:0:
81,276,61429,22,0,B|41:283|41:283|71:255,1,80,2|8,0:0|3:0,0:0:0:0:
266,271,61675,2,0,B|291:305|291:305|252:293,1,80,2|0,0:0|0:0,0:0:0:0:
171,119,61921,2,0,B|188:84|188:84|196:124,1,80,2|8,0:0|3:0,0:0:0:0:
168,228,62536,6,0,L|164:256,1,23.9999992675781,2|0,0:0|0:0,0:0:0:0:
168,228,63027,37,12,0:0:0:0:
445,266,63273,69,2,0:0:0:0:
350,254,63396,1,2,0:0:0:0:
256,239,63519,2,0,L|256:152,1,80,8|0,0:0|0:0,0:0:0:0:
350,254,63765,5,2,0:0:0:0:
288,328,63888,2,0,P|250:338|212:328,1,80,2|8,0:0|3:0,0:0:0:0:
413,181,64134,2,0,P|452:172|490:181,1,80,2|0,0:0|0:0,0:0:0:0:
350,254,64380,1,2,0:0:0:0:
296,115,64503,70,0,P|285:152|294:191,1,80,8|0,0:0|0:0,0:0:0:0:
348,330,64749,2,0,P|358:292|349:253,1,80,2|0,0:0|0:0,0:0:0:0:
159,174,64995,6,0,L|60:174,1,80,8|0,3:0|0:0,0:0:0:0:
232,259,65240,1,2,0:0:0:0:
347,107,65363,22,0,B|342:66|342:66|324:103,1,80,2|8,0:0|0:0,0:0:0:0:
393,286,65609,2,0,B|432:300|432:300|410:266,1,80,2|0,0:0|0:0,0:0:0:0:
220,236,65855,2,0,B|191:261|191:261|231:258,1,80,2|8,0:0|3:0,0:0:0:0:
484,159,66470,5,10,0:0:0:0:
484,159,66593,2,0,L|495:241,1,80,2|0,0:0|0:0,0:0:0:0:
247,53,66962,6,0,L|267:219,1,160,8|0,3:0|0:0,0:0:0:0:
28,159,67454,69,8,0:0:0:0:
28,159,67577,2,0,L|39:241,1,80,2|0,0:0|0:0,0:0:0:0:
282,378,67945,37,8,3:0:0:0:
373,354,68067,1,2,0:0:0:0:
248,309,68191,69,2,3:0:0:0:
157,285,68313,1,2,0:0:0:0:
297,247,68437,5,8,0:0:0:0:
388,223,68560,2,0,P|396:181|383:140,1,80,2|0,0:0|0:0,0:0:0:0:
97,48,68929,38,0,L|173:42,1,55.9999982910157,8|0,3:0|0:0,0:0:0:0:
188,114,69175,1,2,0:0:0:0:
188,114,69298,2,0,L|262:109,1,55.9999982910157,2|0,0:0|0:0,0:0:0:0:
300,160,69544,1,2,0:0:0:0:
383,146,69667,70,0,P|420:156|373:181,1,120,2|0,0:0|0:0,0:0:0:0:
383,146,69913,2,0,P|449:139|376:160,1,240,2|0,0:0|0:0,0:0:0:0:
217,69,70404,37,10,3:0:0:0:
234,147,70526,1,2,0:0:0:0:
141,45,70650,5,2,0:0:0:0:
158,123,70772,1,2,0:0:0:0:
59,21,70896,70,0,L|78:105,1,80,4|0,0:0|0:0,0:0:0:0:
122,262,71142,1,2,0:0:0:0:
122,262,71265,1,2,0:0:0:0:
122,262,71388,2,0,P|82:318|64:211,1,240,8|0,0:0|0:0,0:0:0:0:
158,123,71880,1,8,3:0:0:0:
351,288,72126,6,0,P|373:311|378:277,1,80,2|0,0:0|0:0,0:0:0:0:
363,146,72372,2,0,P|331:152|358:174,1,80,8|0,0:0|0:0,0:0:0:0:
480,226,72617,2,0,P|488:194|457:207,1,80,2|0,0:0|0:0,0:0:0:0:
274,286,72863,70,0,P|311:297|350:288,1,80,8|0,3:0|0:0,0:0:0:0:
248,177,73109,2,0,P|210:165|171:174,1,80,2|0,0:0|0:0,0:0:0:0:
317,219,73355,2,0,B|340:185|320:142|320:142|388:196,1,160,8|0,0:0|0:0,0:0:0:0:
204,319,73724,2,0,P|195:281|207:243,1,80,2|8,0:0|3:0,0:0:0:0:
295,69,74339,5,2,0:0:0:0:
278,147,74462,1,2,0:0:0:0:
371,45,74585,69,2,0:0:0:0:
354,123,74707,1,2,0:0:0:0:
453,21,74831,6,0,L|434:105,1,80,8|0,3:0|0:0,0:0:0:0:
390,262,75077,1,2,0:0:0:0:
390,262,75200,1,2,0:0:0:0:
390,262,75323,2,0,P|430:318|448:211,1,240,8|0,0:0|0:0,0:0:0:0:
354,123,75815,1,8,3:0:0:0:
161,288,76060,70,0,P|139:311|134:277,1,80,2|0,0:0|0:0,0:0:0:0:
149,146,76306,2,0,P|181:152|154:174,1,80,8|0,0:0|0:0,0:0:0:0:
32,226,76552,2,0,P|24:194|55:207,1,80,2|0,0:0|0:0,0:0:0:0:
237,286,76798,6,0,P|200:297|161:288,1,80,8|0,2:0|0:0,0:0:0:0:
263,177,77044,2,0,P|301:165|340:174,1,80,2|0,0:0|0:0,0:0:0:0:
194,219,77290,2,0,B|171:185|191:142|191:142|123:196,1,160,8|0,0:0|0:0,0:0:0:0:
308,321,77658,2,0,P|316:282|305:244,1,80,2|8,0:0|3:0,0:0:0:0:
78,47,78273,38,0,P|6:54|73:81,1,195.999994018555,8|0,0:0|0:0,0:0:0:0:
150,78,78765,22,0,P|189:66|227:75,1,80,6|0,0:0|0:0,0:0:0:0:
271,212,79011,2,0,P|232:224|194:215,1,80,2|0,0:0|0:0,0:0:0:0:
73,81,79257,2,0,P|112:69|150:78,1,80,8|0,0:0|0:0,0:0:0:0:
194,215,79503,2,0,P|155:227|117:218,1,80,2|0,0:0|0:0,0:0:0:0:
301,176,79749,6,0,L|294:271,1,80,8|0,3:0|0:0,0:0:0:0:
386,126,79995,2,0,L|379:221,1,80,2|0,0:0|0:0,0:0:0:0:
469,78,80240,1,8,0:0:0:0:
469,78,80363,2,0,L|462:173,1,80,2|0,0:0|0:0,0:0:0:0:
399,342,80609,69,2,0:0:0:0:
399,342,80732,2,0,P|360:354|317:342,1,80,8|0,3:0|0:0,0:0:0:0:
113,310,80978,2,0,P|152:298|195:310,1,80,2|0,0:0|0:0,0:0:0:0:
322,346,81224,6,0,P|251:247|189:320,1,240,8|0,0:0|0:0,0:0:0:0:
322,345,81716,2,0,P|361:353|399:342,1,80,8|0,3:0|0:0,0:0:0:0:
189,306,81962,70,0,P|150:298|112:309,1,80,2|0,0:0|0:0,0:0:0:0:
275,253,82208,2,0,L|294:165,1,80,8|0,0:0|0:0,0:0:0:0:
322,345,82454,2,0,P|361:353|399:342,1,80,2|0,0:0|0:0,0:0:0:0:
332,107,82699,6,0,P|293:96|255:105,1,80,4|0,0:0|0:0,0:0:0:0:
275,253,82945,2,0,L|294:165,1,80,2|0,0:0|0:0,0:0:0:0:
433,230,83191,2,0,P|472:241|511:233,1,80,8|0,0:0|0:0,0:0:0:0:
464,84,83437,2,0,L|475:164,1,80,2|0,0:0|0:0,0:0:0:0:
352,250,83683,70,0,P|313:261|275:253,1,80,8|0,3:0|0:0,0:0:0:0:
147,133,83929,2,0,P|175:162|188:200,1,80,2|0,0:0|0:0,0:0:0:0:
146,369,84175,2,0,P|157:331|184:302,1,80,8|0,0:0|0:0,0:0:0:0:
352,250,84421,6,0,P|413:238|360:204,1,160,2|8,0:0|3:0,0:0:0:0:
43,272,84913,2,0,P|67:297|82:266,1,80,2|0,0:0|0:0,0:0:0:0:
20,120,85158,2,0,P|35:89|58:114,1,80,8|0,0:0|0:0,0:0:0:0:
172,192,85404,2,0,B|252:228|252:164|332:196,1,160,2|8,0:0|3:0,0:0:0:0:
68,252,85896,70,0,P|71:211|92:179,1,80,2|0,0:0|0:0,0:0:0:0:
250,102,86142,2,0,P|212:117|172:116,1,80,8|0,0:0|0:0,0:0:0:0:
30,17,86388,2,0,P|61:40|78:76,1,80,2|0,0:0|0:0,0:0:0:0:
180,304,86634,6,0,L|176:392,1,80,4|0,0:0|0:0,0:0:0:0:
87,268,86880,2,0,L|-1:264,1,80,2|0,0:0|0:0,0:0:0:0:
121,173,87126,2,0,L|124:84,1,80,8|0,0:0|0:0,0:0:0:0:
214,207,87371,2,0,B|286:246|292:178|367:223,1,160,2|8,0:0|3:0,0:0:0:0:
39,314,87863,70,0,L|43:226,1,80,2|0,0:0|0:0,0:0:0:0:
217,127,88109,2,0,L|213:215,1,80,8|0,0:0|0:0,0:0:0:0:
125,266,88355,2,0,L|129:178,1,80,2|0,0:0|0:0,0:0:0:0:
332,44,88601,6,0,P|371:38|407:51,1,80,8|0,3:0|0:0,0:0:0:0:
179,94,88847,2,0,P|140:100|104:87,1,80,2|0,0:0|0:0,0:0:0:0:
331,45,89093,2,0,P|318:160|180:84,1,320,8|8,0:0|3:0,0:0:0:0:
512,24,90077,70,0,L|512:152,2,106.666666666667,8|2|2,0:0|0:0|0:0,0:0:0:0:
348,112,90568,54,0,L|352:234,1,111.999996582031,4|8,3:0|3:0,0:0:0:0:
428,84,91060,2,0,L|432:206,1,111.999996582031,8|8,0:0|3:0,0:0:0:0:
164,272,91552,6,0,L|160:150,1,111.999996582031,8|8,3:0|3:0,0:0:0:0:
84,300,92044,2,0,L|80:178,1,111.999996582031,8|8,0:0|3:0,0:0:0:0:
297,48,92535,5,8,3:0:0:0:
369,91,92657,1,8,3:0:0:0:
455,78,92780,1,8,3:0:0:0:
512,13,92903,1,8,3:0:0:0:
369,91,93027,5,8,3:0:0:0:
316,178,93149,1,8,3:0:0:0:
331,281,93272,1,8,3:0:0:0:
410,348,93395,1,8,3:0:0:0:
316,178,93519,21,8,3:0:0:0:
292,155,93581,1,8,3:0:0:0:
265,139,93641,1,8,3:0:0:0:
234,130,93703,1,8,3:0:0:0:
202,127,93764,1,8,3:0:0:0:
171,131,93826,1,8,3:0:0:0:
141,144,93887,1,8,3:0:0:0:
114,162,93949,1,8,3:0:0:0:
91,184,94011,6,0,L|97:68,1,111.999996582031,8|0,3:0|0:0,0:0:0:0:
4,292,94502,5,2,0:0:0:0:
250,218,94748,1,2,0:0:0:0:
261,200,94994,69,2,0:0:0:0:
15,126,95240,1,2,0:0:0:0:
0,108,95486,5,2,0:0:0:0:
246,34,95732,1,2,0:0:0:0:
271,21,95978,54,0,L|267:141,1,103.999995239258,12|0,0:0|0:0,0:0:0:0:
251,379,96470,21,2,0:0:0:0:
497,305,96716,1,2,0:0:0:0:
508,287,96962,69,2,0:0:0:0:
262,213,97208,1,2,0:0:0:0:
215,211,97454,6,0,P|291:229|235:174,1,195.999994018555,2|0,0:0|0:0,0:0:0:0:
143,156,97945,54,0,L|143:272,1,103.999995239258,4|0,3:0|0:0,0:0:0:0:
143,260,98437,70,0,P|53:254|157:319,1,311.999985717774,6|0,0:0|0:0,0:0:0:0:
350,192,98929,6,0,L|336:292,1,88.000002685547,14|0,1:0|0:0,0:0:0:0:
232,103,99175,1,2,1:0:0:0:
232,103,99298,1,2,1:0:0:0:
232,103,99421,2,0,L|246:214,1,88.000002685547,10|0,1:0|0:0,0:0:0:0:
375,22,99667,1,2,1:0:0:0:
375,22,99790,1,2,1:0:0:0:
375,22,99913,2,0,L|361:133,1,88.000002685547,8|0,1:0|0:0,0:0:0:0:
334,303,100158,69,2,1:0:0:0:
500,238,100281,1,2,1:0:0:0:
327,272,100404,5,10,1:0:0:0:
493,207,100527,1,2,1:0:0:0:
321,241,100650,69,2,1:0:0:0:
487,176,100773,1,2,1:0:0:0:
314,210,100896,5,10,1:0:0:0:
480,145,101019,1,2,1:0:0:0:
307,180,101142,69,2,1:0:0:0:
473,115,101265,1,2,1:0:0:0:
299,145,101388,6,0,P|258:158|215:151,1,88.000002685547,10|0,1:0|0:0,0:0:0:0:
424,45,101633,1,2,1:0:0:0:
424,45,101756,1,2,1:0:0:0:
424,45,101880,2,0,P|465:31|508:38,1,88.000002685547,4|0,3:0|0:0,0:0:0:0:
417,170,102125,1,2,1:0:0:0:
417,170,102372,70,0,P|457:284|500:172,1,311.999985717774,6|0,0:0|0:0,0:0:0:0:
280,128,102863,6,0,L|292:232,1,88.000002685547,14|0,1:0|0:0,0:0:0:0:
156,84,103109,1,2,1:0:0:0:
156,84,103232,1,2,1:0:0:0:
156,84,103355,2,0,L|168:188,1,88.000002685547,10|0,1:0|0:0,0:0:0:0:
48,52,103601,1,2,1:0:0:0:
48,52,103724,1,2,1:0:0:0:
48,52,103847,2,0,L|60:156,1,88.000002685547,8|0,1:0|0:0,0:0:0:0:
340,142,104092,69,2,1:0:0:0:
176,74,104215,1,2,1:0:0:0:
399,98,104339,2,0,P|413:138|402:181,1,88.000002685547,14|2,1:0|1:0,0:0:0:0:
176,210,104585,5,10,1:0:0:0:
340,142,104708,1,2,1:0:0:0:
117,166,104831,2,0,P|102:206|113:249,1,88.000002685547,14|2,1:0|1:0,0:0:0:0:
340,278,105076,69,10,1:0:0:0:
176,210,105199,1,2,1:0:0:0:
399,234,105322,2,0,P|413:274|402:317,1,88.000002685547,14|2,1:0|1:0,0:0:0:0:
176,346,105568,5,2,1:0:0:0:
340,278,105691,1,2,1:0:0:0:
142,276,105814,2,0,P|91:220|167:223,1,191.999994140625,4|2,3:0|1:0,0:0:0:0:
166,222,106306,70,0,P|48:236|155:262,1,311.999985717774,6|0,0:0|0:0,0:0:0:0:
374,157,106798,6,0,L|391:255,1,88.000002685547,14|0,1:0|0:0,0:0:0:0:
228,112,107043,1,2,1:0:0:0:
228,112,107166,1,2,1:0:0:0:
228,112,107290,2,0,L|245:210,1,88.000002685547,10|0,1:0|0:0,0:0:0:0:
80,72,107536,1,2,1:0:0:0:
80,72,107659,1,2,1:0:0:0:
80,72,107781,2,0,L|95:158,1,88.000002685547,8|0,1:0|0:0,0:0:0:0:
204,384,108027,69,2,1:0:0:0:
38,319,108150,1,2,1:0:0:0:
211,353,108273,5,10,1:0:0:0:
45,288,108396,1,2,1:0:0:0:
217,322,108519,69,2,1:0:0:0:
51,257,108642,1,2,1:0:0:0:
224,291,108765,5,10,1:0:0:0:
58,226,108888,1,2,1:0:0:0:
231,261,109011,69,2,1:0:0:0:
65,196,109134,1,2,1:0:0:0:
239,226,109257,6,0,P|280:239|323:232,1,88.000002685547,10|0,1:0|0:0,0:0:0:0:
114,126,109502,1,2,1:0:0:0:
114,126,109625,1,2,1:0:0:0:
114,126,109749,2,0,P|73:112|30:119,1,88.000002685547,4|0,3:0|0:0,0:0:0:0:
121,251,109994,1,2,1:0:0:0:
121,251,110240,70,0,P|168:361|205:247,1,311.999985717774,6|0,0:0|0:0,0:0:0:0:
148,32,110732,6,0,P|135:73|144:116,1,88.000002685547,14|0,1:0|0:0,0:0:0:0:
367,116,110978,1,2,1:0:0:0:
367,116,111101,1,2,1:0:0:0:
367,116,111224,2,0,P|375:73|363:31,1,88.000002685547,10|0,1:0|0:0,0:0:0:0:
188,199,111470,1,2,1:0:0:0:
188,199,111593,1,2,1:0:0:0:
188,199,111716,2,0,P|256:246|320:190,1,176.000005371094,12|0,1:0|0:0,0:0:0:0:
44,26,112208,6,0,L|41:147,1,111.999996582031,2|0,0:0|0:0,0:0:0:0:
124,32,112699,2,0,L|121:143,1,111.999996582031,2|0,0:0|0:0,0:0:0:0:
192,324,113191,6,0,L|194:212,1,111.999996582031,2|0,0:0|0:0,0:0:0:0:
116,322,113683,2,0,L|119:201,1,111.999996582031,2|0,0:0|0:0,0:0:0:0:
298,152,114175,70,0,P|367:183|337:108,1,192,8|0,3:0|0:0,0:0:0:0:
250,93,114667,2,0,L|250:241,2,128,8|0|8,3:0|0:0|3:0,0:0:0:0:
78,249,115404,6,0,L|2:263,1,64,2|0,0:0|0:0,0:0:0:0:
152,277,115650,2,0,L|202:335,1,64,8|0,3:0|0:0,0:0:0:0:
140,198,115896,2,0,L|165:125,1,64,2|0,0:0|0:0,0:0:0:0:
301,222,116142,70,0,P|232:253|262:178,1,192,8|0,3:0|0:0,0:0:0:0:
349,163,116634,2,0,L|349:311,2,128,8|2|8,3:0|0:0|3:0,0:0:0:0:
62,135,117372,6,0,L|-14:149,1,64,2|0,0:0|0:0,0:0:0:0:
136,163,117618,2,0,L|186:221,1,64,8|0,3:0|0:0,0:0:0:0:
124,84,117864,2,0,L|149:11,1,64,2|0,0:0|0:0,0:0:0:0:
269,139,118109,70,0,L|243:211,1,64,8|0,3:0|0:0,0:0:0:0:
257,60,118355,2,0,L|206:1,1,64,2|0,0:0|0:0,0:0:0:0:
331,88,118601,2,0,L|462:69,1,128,8|2,3:0|0:0,0:0:0:0:
399,263,119093,6,0,P|391:230|400:202,1,64,8|0,3:0|0:0,0:0:0:0:
457,314,119339,2,0,L|331:296,1,128,2|8,0:0|3:0,0:0:0:0:
418,125,119831,70,0,L|494:139,1,64,2|0,0:0|0:0,0:0:0:0:
344,153,120077,2,0,L|294:211,1,64,8|0,3:0|0:0,0:0:0:0:
356,74,120323,2,0,L|331:1,1,64,2|0,0:0|0:0,0:0:0:0:
211,129,120568,6,0,L|237:201,1,64,8|0,3:0|0:0,0:0:0:0:
223,50,120814,2,0,L|274:-9,1,64,2|0,0:0|0:0,0:0:0:0:
149,78,121060,2,0,L|18:59,1,128,8|2,3:0|0:0,0:0:0:0:
173,284,121552,5,8,0:0:0:0:
250,266,121675,1,2,0:0:0:0:
232,189,121798,1,2,0:0:0:0:
155,206,121921,1,2,0:0:0:0:
250,266,122044,6,0,L|332:268,1,71.9999978027344,4|0,0:0|0:0,0:0:0:0:
159,209,122290,1,2,0:0:0:0:
159,209,122413,2,0,L|77:207,1,71.9999978027344,2|8,0:0|0:0,0:0:0:0:
232,102,122658,69,2,0:0:0:0:
306,145,122781,1,2,0:0:0:0:
232,189,122904,1,2,0:0:0:0:
304,56,123027,6,0,L|380:48,1,71.9999978027344,8|0,3:0|0:0,0:0:0:0:
236,192,123273,1,2,0:0:0:0:
236,192,123396,2,0,L|160:200,1,71.9999978027344,2|8,0:0|0:0,0:0:0:0:
304,311,123642,69,2,0:0:0:0:
378,267,123765,1,2,0:0:0:0:
304,224,123888,1,2,0:0:0:0:
448,224,124011,6,0,L|456:300,1,71.9999978027344,8|0,3:0|0:0,0:0:0:0:
308,228,124257,1,2,0:0:0:0:
308,228,124380,2,0,L|300:152,1,71.9999978027344,2|8,0:0|0:0,0:0:0:0:
275,301,124626,69,2,0:0:0:0:
297,384,124749,1,2,0:0:0:0:
358,322,124872,1,2,0:0:0:0:
189,312,124995,6,0,L|189:392,1,71.9999978027344,8|0,3:0|0:0,0:0:0:0:
112,269,125240,1,2,0:0:0:0:
32,227,125363,2,0,L|32:303,1,71.9999978027344,2|8,0:0|0:0,0:0:0:0:
189,312,125609,1,2,0:0:0:0:
269,270,125732,2,0,L|269:346,1,71.9999978027344,2|0,0:0|0:0,0:0:0:0:
112,197,125978,70,0,L|112:275,1,71.9999978027344,8|0,3:0|0:0,0:0:0:0:
199,154,126224,1,2,0:0:0:0:
288,114,126347,2,0,L|288:190,1,71.9999978027344,2|8,0:0|0:0,0:0:0:0:
112,197,126593,1,2,0:0:0:0:
23,157,126716,2,0,L|23:233,1,71.9999978027344,2|0,0:0|0:0,0:0:0:0:
199,82,126962,6,0,L|199:160,1,71.9999978027344,8|0,3:0|0:0,0:0:0:0:
103,50,127208,1,2,0:0:0:0:
0,16,127331,2,0,L|0:102,1,71.9999978027344,2|8,0:0|0:0,0:0:0:0:
2,300,127699,37,2,0:0:0:0:
2,300,127822,1,2,0:0:0:0:
2,300,127945,2,0,L|3:236,1,55.9999982910157,8|0,3:0|0:0,0:0:0:0:
89,272,128191,5,2,0:0:0:0:
89,273,128314,2,0,P|141:290|192:267,1,111.999996582031,2|0,0:0|0:0,0:0:0:0:
136,216,128683,1,2,0:0:0:0:
281,365,128929,54,0,L|277:333,3,32,2|0|0|0,0:0|0:0|0:0|0:0,0:0:0:0:
354,352,129175,2,0,L|350:320,3,32,2|0|0|0,0:0|0:0|0:0|0:0,0:0:0:0:
427,339,129421,2,0,L|423:307,3,32,2|0|0|0,0:0|0:0|0:0|0:0,0:0:0:0:
500,326,129667,2,0,L|496:294,3,32,2|0|0|0,0:0|0:0|0:0|0:0,0:0:0:0:
447,236,129913,6,0,L|437:151,1,64,4|0,0:0|0:0,0:0:0:0:
421,37,130158,2,0,L|431:122,1,64,2|0,0:0|0:0,0:0:0:0:
373,244,130404,6,0,L|363:159,1,64,8|0,3:0|0:0,0:0:0:0:
347,45,130650,2,0,L|357:130,1,64,2|0,0:0|0:0,0:0:0:0:
434,283,130896,2,0,P|383:316|324:298,1,128,8|0,3:0|0:0,0:0:0:0:
71,124,131388,70,0,L|81:209,1,64,8|0,3:0|0:0,0:0:0:0:
97,323,131634,2,0,L|87:238,1,64,2|0,0:0|0:0,0:0:0:0:
145,116,131880,6,0,L|155:201,1,64,8|0,3:0|0:0,0:0:0:0:
171,315,132126,2,0,L|161:230,1,64,2|0,0:0|0:0,0:0:0:0:
222,107,132372,70,0,L|232:192,1,64,8|0,3:0|0:0,0:0:0:0:
248,306,132617,2,0,L|238:221,1,64,2|0,0:0|0:0,0:0:0:0:
159,66,132864,2,0,P|211:33|271:51,1,128,8|0,3:0|0:0,0:0:0:0:
509,294,133355,6,0,L|499:209,1,64,8|0,3:0|0:0,0:0:0:0:
483,95,133601,2,0,L|493:180,1,64,2|0,0:0|0:0,0:0:0:0:
435,302,133847,70,0,L|425:217,1,64,4|0,0:0|0:0,0:0:0:0:
409,103,134093,2,0,L|419:188,1,64,2|0,0:0|0:0,0:0:0:0:
358,311,134339,6,0,L|348:226,1,64,8|0,3:0|0:0,0:0:0:0:
332,112,134585,2,0,L|342:197,1,64,2|0,0:0|0:0,0:0:0:0:
420,350,134831,2,0,P|367:383|308:364,1,128,8|0,3:0|0:0,0:0:0:0:
87,252,135322,70,0,L|78:189,1,64,8|0,3:0|0:0,0:0:0:0:
56,46,135568,2,0,L|65:109,1,64,2|0,0:0|0:0,0:0:0:0:
178,235,135814,6,0,L|187:298,1,64,8|0,3:0|0:0,0:0:0:0:
252,190,136060,2,0,L|315:181,1,64,2|0,0:0|0:0,0:0:0:0:
207,116,136306,2,0,L|198:53,1,64,8|0,3:0|0:0,0:0:0:0:
133,160,136552,2,0,L|70:168,1,64,2|0,0:0|0:0,0:0:0:0:
223,309,136798,70,0,L|232:372,1,64,8|0,3:0|0:0,0:0:0:0:
297,264,137044,2,0,L|360:255,1,64,2|0,0:0|0:0,0:0:0:0:
252,190,137290,2,0,L|243:127,1,64,8|0,3:0|0:0,0:0:0:0:
178,234,137536,2,0,L|115:242,1,64,2|0,0:0|0:0,0:0:0:0:
402,266,137781,22,0,L|490:256,1,71.9999978027344,4|0,0:0|0:0,0:0:0:0:
332,218,138027,1,2,0:0:0:0:
287,289,138150,2,0,L|208:300,1,71.9999978027344,2|8,0:0|0:0,0:0:0:0:
358,338,138396,1,2,0:0:0:0:
402,183,138519,6,0,L|394:102,1,71.9999978027344,2|0,0:0|0:0,0:0:0:0:
467,221,138765,2,0,P|413:259|340:224,1,143.999995605469,8|0,3:0|0:0,0:0:0:0:
55,105,139257,70,0,L|47:200,1,71.9999978027344,8|0,0:0|0:0,0:0:0:0:
107,37,139503,1,2,0:0:0:0:
20,27,139626,1,2,0:0:0:0:
135,118,139749,6,0,L|127:213,1,71.9999978027344,8|0,3:0|0:0,0:0:0:0:
187,50,139995,1,2,0:0:0:0:
55,105,140117,2,0,L|47:200,1,71.9999978027344,2|8,0:0|0:0,0:0:0:0:
107,37,140363,1,2,0:0:0:0:
219,129,140486,70,0,L|211:224,1,71.9999978027344,2|0,0:0|0:0,0:0:0:0:
284,93,140732,2,0,P|229:52|164:75,1,143.999995605469,8|0,3:0|0:0,0:0:0:0:
133,329,141224,6,0,P|167:320|202:328,1,71.9999978027344,8|0,0:0|0:0,0:0:0:0:
374,356,141470,2,0,P|339:364|304:356,1,71.9999978027344,2|0,0:0|0:0,0:0:0:0:
256,167,141716,70,0,L|256:259,1,71.9999978027344,4|0,0:0|0:0,0:0:0:0:
196,109,141962,1,2,0:0:0:0:
337,160,142085,2,0,P|372:167|406:159,1,71.9999978027344,2|8,0:0|0:0,0:0:0:0:
196,109,142331,2,0,P|160:101|126:109,1,71.9999978027344,2|0,0:0|0:0,0:0:0:0:
256,311,142699,6,0,L|256:219,1,71.9999978027344,8|0,3:0|0:0,0:0:0:0:
316,369,142945,1,2,0:0:0:0:
175,318,143068,2,0,P|140:310|106:318,1,71.9999978027344,2|8,0:0|0:0,0:0:0:0:
256,239,143314,1,2,0:0:0:0:
316,369,143437,2,0,P|352:376|386:368,1,71.9999978027344,2|0,0:0|0:0,0:0:0:0:
303,110,143683,69,8,3:0:0:0:
222,137,143805,1,8,3:0:0:0:
141,107,143928,1,8,3:0:0:0:
99,31,144051,1,8,3:0:0:0:
222,137,144175,5,8,3:0:0:0:
256,234,144297,1,8,3:0:0:0:
220,331,144420,1,8,3:0:0:0:
129,381,144543,1,8,3:0:0:0:
256,234,144667,21,8,3:0:0:0:
283,215,144728,1,8,3:0:0:0:
312,203,144789,1,8,3:0:0:0:
344,198,144851,1,8,3:0:0:0:
376,200,144912,1,8,3:0:0:0:
406,209,144974,1,8,3:0:0:0:
434,225,145035,1,8,3:0:0:0:
458,246,145097,1,8,3:0:0:0:
477,272,145159,6,0,L|487:157,1,111.999996582031,8|0,3:0|0:0,0:0:0:0:
420,365,145650,5,2,0:0:0:0:
174,291,145896,1,2,0:0:0:0:
163,273,146142,69,2,0:0:0:0:
409,199,146388,1,2,0:0:0:0:
412,179,146634,6,0,P|480:200|406:204,1,195.999994018555,2|0,0:0|0:0,0:0:0:0:
325,190,147126,54,0,L|311:74,1,103.999995239258,12|0,0:0|0:0,0:0:0:0:
218,269,147617,5,2,0:0:0:0:
464,195,147863,1,2,0:0:0:0:
475,177,148109,5,2,0:0:0:0:
229,103,148355,1,2,0:0:0:0:
218,83,148601,70,0,P|184:99|224:108,1,83.9999974365235,2|0,0:0|0:0,0:0:0:0:
314,117,148847,70,0,L|418:107,1,103.999995239258,12|0,0:0|0:0,0:0:0:0:
198,267,149093,2,0,L|94:277,1,103.999995239258,12|0,0:0|0:0,0:0:0:0:
314,117,149585,22,0,P|335:167|317:219,1,111.999996582031,2|0,0:0|0:0,0:0:0:0:
198,267,150076,2,0,P|176:216|194:164,1,111.999996582031,2|0,0:0|0:0,0:0:0:0:
314,117,150568,1,2,0:0:0:0:
284,330,150814,54,0,B|256:374|256:374|218:315,1,103.999995239258,12|0,0:0|0:0,0:0:0:0:
128,158,151060,2,0,L|183:251,1,103.999995239258,12|0,0:0|0:0,0:0:0:0:
381,158,151306,2,0,L|329:247,1,103.999995239258,12|0,0:0|0:0,0:0:0:0:
128,158,151552,22,0,B|257:374|257:374|381:157|381:157|210:157|210:157|257:231|257:231|290:170,1,827.999974731446,2|0,0:0|0:0,0:0:0:0:
304,85,153027,54,0,L|196:85,1,103.999995239258,4|0,3:0|0:0,0:0:0:0:
200,85,153519,70,0,P|110:79|214:144,1,311.999985717774,6|0,0:0|0:0,0:0:0:0:
478,175,154011,6,0,P|430:168|384:184,1,88.000002685547,14|0,1:0|0:0,0:0:0:0:
334,31,154257,1,2,1:0:0:0:
334,31,154380,1,2,1:0:0:0:
334,31,154503,2,0,P|300:67|287:114,1,88.000002685547,10|0,1:0|0:0,0:0:0:0:
147,32,154748,1,2,1:0:0:0:
147,32,154871,1,2,1:0:0:0:
147,32,154994,2,0,P|156:80|187:118,1,88.000002685547,8|0,1:0|0:0,0:0:0:0:
345,240,155240,69,2,1:0:0:0:
170,275,155363,1,2,1:0:0:0:
343,285,155486,5,10,1:0:0:0:
173,229,155609,1,2,1:0:0:0:
317,323,155732,69,2,1:0:0:0:
198,190,155855,1,2,1:0:0:0:
275,344,155978,5,10,1:0:0:0:
240,170,156101,1,2,1:0:0:0:
230,342,156223,69,2,1:0:0:0:
285,172,156346,1,2,1:0:0:0:
192,316,156470,6,0,P|146:328|102:313,1,88.000002685547,10|0,1:0|0:0,0:0:0:0:
324,198,156715,1,2,1:0:0:0:
324,198,156838,1,2,1:0:0:0:
324,198,156962,2,0,P|370:186|414:201,1,88.000002685547,4|0,3:0|0:0,0:0:0:0:
309,323,157207,1,2,1:0:0:0:
309,323,157454,70,0,P|241:383|283:267,1,311.999985717774,6|0,0:0|0:0,0:0:0:0:
461,192,157945,6,0,L|477:289,1,88.000002685547,14|0,1:0|0:0,0:0:0:0:
302,114,158191,1,2,1:0:0:0:
302,114,158314,1,2,1:0:0:0:
302,114,158437,2,0,L|318:211,1,88.000002685547,10|0,1:0|0:0,0:0:0:0:
118,68,158683,1,2,1:0:0:0:
118,68,158806,1,2,1:0:0:0:
118,68,158929,2,0,L|134:165,1,88.000002685547,8|0,1:0|0:0,0:0:0:0:
176,319,159174,69,2,1:0:0:0:
340,251,159297,1,2,1:0:0:0:
122,363,159421,2,0,L|214:385,1,88.000002685547,14|2,1:0|1:0,0:0:0:0:
340,251,159667,5,10,1:0:0:0:
176,183,159790,1,2,1:0:0:0:
394,295,159913,2,0,L|302:317,1,88.000002685547,14|2,1:0|1:0,0:0:0:0:
176,183,160158,69,10,1:0:0:0:
340,115,160281,1,2,1:0:0:0:
122,227,160404,2,0,L|214:249,1,88.000002685547,14|2,1:0|1:0,0:0:0:0:
340,115,160651,5,2,1:0:0:0:
176,47,160774,1,2,1:0:0:0:
394,159,160897,2,0,P|358:184|275:92,1,191.999994140625,4|2,3:0|1:0,0:0:0:0:
272,98,161388,70,0,P|167:170|189:42,1,311.999985717774,6|0,0:0|0:0,0:0:0:0:
470,127,161880,6,0,P|426:148|377:147,1,88.000002685547,14|0,1:0|0:0,0:0:0:0:
377,308,162126,1,2,1:0:0:0:
377,308,162249,1,2,1:0:0:0:
377,308,162372,2,0,P|333:284|306:243,1,88.000002685547,10|0,1:0|0:0,0:0:0:0:
199,365,162617,1,2,1:0:0:0:
199,365,162740,1,2,1:0:0:0:
199,365,162863,2,0,P|192:316|210:270,1,88.000002685547,8|0,1:0|0:0,0:0:0:0:
328,106,163109,69,2,1:0:0:0:
153,142,163232,1,2,1:0:0:0:
337,184,163355,5,10,1:0:0:0:
168,122,163478,1,2,1:0:0:0:
310,254,163601,69,2,1:0:0:0:
202,110,163724,1,2,1:0:0:0:
245,293,163846,5,10,1:0:0:0:
232,114,163969,1,2,1:0:0:0:
170,290,164092,69,2,1:0:0:0:
256,133,164215,1,2,1:0:0:0:
105,254,164339,6,0,P|63:263|21:252,1,88.000002685547,10|0,1:0|0:0,0:0:0:0:
273,171,164584,1,2,1:0:0:0:
273,171,164707,1,2,1:0:0:0:
273,171,164831,2,0,P|315:162|357:173,1,88.000002685547,4|0,3:0|0:0,0:0:0:0:
219,263,165076,1,2,1:0:0:0:
219,263,165322,70,0,P|266:373|303:259,1,311.999985717774,6|0,0:0|0:0,0:0:0:0:
136,106,165814,6,0,L|48:97,1,88.000002685547,14|0,1:0|0:0,0:0:0:0:
292,164,166060,1,2,1:0:0:0:
292,164,166183,1,2,1:0:0:0:
292,164,166306,2,0,L|204:174,1,88.000002685547,10|0,1:0|0:0,0:0:0:0:
442,85,166551,1,2,1:0:0:0:
442,85,166674,1,2,1:0:0:0:
442,85,166798,2,0,L|334:77,1,88.000002685547,8|0,1:0|0:0,0:0:0:0:
102,46,167043,69,2,1:0:0:0:
277,68,167167,1,2,1:0:0:0:
89,124,167290,5,10,1:0:0:0:
260,82,167413,1,2,1:0:0:0:
99,198,167535,69,10,1:0:0:0:
243,98,167658,1,2,1:0:0:0:
137,264,167781,5,10,1:0:0:0:
235,120,167904,1,2,1:0:0:0:
198,313,168027,69,10,1:0:0:0:
237,144,168150,1,2,1:0:0:0:
171,384,168273,5,10,1:0:0:0:
256,166,168396,1,2,1:0:0:0:
79,318,168519,69,10,1:0:0:0:
237,144,168642,1,2,1:0:0:0:
24,226,168765,6,0,P|11:185|21:143,1,88.000002685547,14|0,1:0|0:0,0:0:0:0:
234,121,169011,2,0,P|247:163|237:205,1,88.000002685547,10|0,1:0|0:0,0:0:0:0:
119,336,169257,70,0,P|39:347|92:286,1,207.999990478516,4|0,0:0|0:0,0:0:0:0:
393,336,169749,2,0,P|472:347|419:286,1,207.999990478516,8|0,0:0|0:0,0:0:0:0:
119,336,170240,54,0,P|160:350|202:339,1,88.000002685547,8|0,0:0|0:0,0:0:0:0:
397,340,170486,1,2,0:0:0:0:
397,340,170609,2,0,P|355:325|313:336,1,88.000002685547,2|8,0:0|0:0,0:0:0:0:
256,90,170978,6,0,L|256:-1,1,88.000002685547,2|0,0:0|0:0,0:0:0:0:
184,133,171224,2,0,P|256:175|327:130,1,176.000005371094,8|0,0:0|0:0,0:0:0:0:
161,280,171716,70,0,P|152:322|165:363,1,88.000002685547,8|0,0:0|0:0,0:0:0:0:
346,363,171962,2,0,P|359:322|350:280,1,88.000002685547,2|0,0:0|0:0,0:0:0:0:
201,209,172208,6,0,P|158:199|117:212,1,88.000002685547,8|0,0:0|0:0,0:0:0:0:
355,285,172454,1,2,0:0:0:0:
355,285,172576,2,0,P|398:295|439:282,1,88.000002685547,2|8,0:0|0:0,0:0:0:0:
92,97,173191,22,0,P|39:36|119:48,1,207.999990478516,4|0,0:0|0:0,0:0:0:0:
419,97,173683,2,0,P|472:36|393:48,1,207.999990478516,8|0,0:0|0:0,0:0:0:0:
333,331,174175,54,0,P|347:289|336:247,1,88.000002685547,8|0,0:0|0:0,0:0:0:0:
175,247,174420,1,2,0:0:0:0:
175,247,174544,2,0,P|164:289|179:331,1,88.000002685547,2|8,0:0|0:0,0:0:0:0:
420,133,174913,70,0,P|377:122|336:136,1,88.000002685547,2|0,0:0|0:0,0:0:0:0:
92,251,175158,2,0,P|134:261|175:247,1,88.000002685547,8|0,0:0|0:0,0:0:0:0:
256,60,175404,2,0,L|256:157,1,88.000002685547,2|0,0:0|0:0,0:0:0:0:
307,316,175650,6,0,P|349:306|391:321,1,88.000002685547,8|0,0:0|0:0,0:0:0:0:
209,336,175896,2,0,P|166:345|125:331,1,88.000002685547,2|0,0:0|0:0,0:0:0:0:
170,132,176142,70,0,P|184:173|175:215,1,88.000002685547,8|0,0:0|0:0,0:0:0:0:
341,248,176388,1,2,0:0:0:0:
341,248,176511,2,0,P|332:205|346:164,1,88.000002685547,2|8,0:0|0:0,0:0:0:0:
50,97,177126,38,0,P|-2:37|77:47,1,207.999990478516,4|0,0:0|0:0,0:0:0:0:
180,345,177617,2,0,L|195:243,1,103.999995239258,8|0,0:0|0:0,0:0:0:0:
332,39,177863,2,0,L|317:141,1,103.999995239258,2|0,0:0|0:0,0:0:0:0:
195,242,178109,54,0,P|149:254|101:237,1,88.000002685547,8|0,0:0|0:0,0:0:0:0:
321,145,178355,1,2,0:0:0:0:
321,145,178478,2,0,P|367:133|415:150,1,88.000002685547,2|8,0:0|0:0,0:0:0:0:
111,243,178847,70,0,P|99:200|109:158,1,88.000002685547,2|0,0:0|0:0,0:0:0:0:
220,46,179093,2,0,P|231:88|221:130,1,88.000002685547,8|0,0:0|0:0,0:0:0:0:
111,243,179339,2,0,L|20:243,1,88.000002685547,2|0,0:0|0:0,0:0:0:0:
292,254,179585,6,0,P|334:263|376:252,1,88.000002685547,8|0,0:0|0:0,0:0:0:0:
220,130,179831,2,0,P|178:121|136:132,1,88.000002685547,2|0,0:0|0:0,0:0:0:0:
334,173,180076,70,0,P|344:130|334:88,1,88.000002685547,8|0,0:0|0:0,0:0:0:0:
178,211,180323,1,2,0:0:0:0:
178,211,180445,2,0,P|167:253|177:295,1,88.000002685547,2|8,0:0|0:0,0:0:0:0:
420,287,181060,38,0,P|473:348|393:336,1,207.999990478516,4|0,0:0|0:0,0:0:0:0:
93,287,181552,2,0,P|40:348|119:336,1,207.999990478516,8|0,0:0|0:0,0:0:0:0:
256,26,182044,38,0,L|256:117,1,88.000002685547,8|0,0:0|0:0,0:0:0:0:
73,196,182289,1,2,0:0:0:0:
73,196,182413,2,0,P|115:183|159:193,1,88.000002685547,2|8,0:0|0:0,0:0:0:0:
440,192,182781,2,0,P|398:205|354:195,1,88.000002685547,2|0,0:0|0:0,0:0:0:0:
212,19,183027,21,14,1:0:0:0:
157,192,183150,1,2,1:0:0:0:
174,18,183273,5,10,1:0:0:0:
195,195,183396,1,2,1:0:0:0:
143,33,183519,70,0,P|102:65|135:175,1,176.000005371094,10|8,1:0|1:0,0:0:0:0:
453,228,184011,5,14,1:0:0:0:
272,229,184134,1,2,1:0:0:0:
443,264,184257,69,10,1:0:0:0:
280,192,184380,1,2,1:0:0:0:
419,289,184503,6,0,P|429:330|416:376,1,88.000002685547,10|0,1:0|0:0,0:0:0:0:
312,167,184749,2,0,P|302:119|320:72,1,88.000002685547,10|0,1:0|0:0,0:0:0:0:
443,264,184995,69,14,1:0:0:0:
270,318,185118,1,2,1:0:0:0:
444,301,185241,5,10,1:0:0:0:
267,280,185364,1,2,1:0:0:0:
429,332,185487,70,0,P|382:381|291:337,1,176.000005371094,10|8,1:0|1:0,0:0:0:0:
456,46,185978,5,14,1:0:0:0:
343,188,186101,1,2,1:0:0:0:
421,32,186224,69,10,1:0:0:0:
377,205,186347,1,2,1:0:0:0:
387,35,186470,6,0,P|344:25|302:35,1,88.000002685547,10|0,1:0|0:0,0:0:0:0:
416,196,186716,2,0,P|459:205|502:195,1,88.000002685547,10|0,1:0|0:0,0:0:0:0:
302,34,186962,69,14,1:0:0:0:
247,206,187085,1,2,1:0:0:0:
264,32,187208,5,10,1:0:0:0:
285,209,187331,1,2,1:0:0:0:
233,47,187454,70,0,P|183:94|227:185,1,176.000005371094,14|8,1:0|1:0,0:0:0:0:
498,217,187945,5,14,1:0:0:0:
356,330,188068,1,2,1:0:0:0:
512,252,188191,69,10,1:0:0:0:
339,296,188314,1,2,1:0:0:0:
509,286,188437,6,0,P|519:329|509:371,1,88.000002685547,14|0,1:0|0:0,0:0:0:0:
348,257,188683,2,0,P|339:214|349:171,1,88.000002685547,10|0,1:0|0:0,0:0:0:0:
