osu file format v14

[General]
AudioFilename: audio.mp3
AudioLeadIn: 0
PreviewTime: 36900
Countdown: 0
SampleSet: Soft
StackLeniency: 0.7
Mode: 0
LetterboxInBreaks: 0
WidescreenStoryboard: 1

[Editor]
Bookmarks: 4011,19749,37454,55158,70896,78765,98437,114175,129913,153519,169257,188929
DistanceSpacing: 1.2
BeatDivisor: 4
GridSize: 4
TimelineZoom: 1.2

[Metadata]
Title:VERY NICE
TitleUnicode:아주 NICE
Artist:SEVENTEEN
ArtistUnicode:세븐틴
Creator:Natsu
Version:AJU HARD
Source:
Tags:PLEDIS ENTERTAINMENT 세븐틴 에스.쿱스 S.COUPS 우지 WOOZI 호시 HOSHI 민규 MINGYU 원우 WONWOO 버논 VERNON 승관 SEUNGKWAN 디노 DINO 준 JUN 도경 DK 조슈아 JOSHUA 정한 JEONGHAN 디에잇THE8 Love&Letter Repackage Album 17 euny kpop k-pop
BeatmapID:1363450
BeatmapSetID:618500

[Difficulty]
HPDrainRate:4.5
CircleSize:4
OverallDifficulty:6
ApproachRate:7.5
SliderMultiplier:1.9
SliderTickRate:2

[Events]
//Background and Video events
0,0,"KakaoTalk_20170526_202649144.jpg",0,0
Video,0,"--+Nice.avi"
//Break Periods
2,35440,36137
2,53267,54333
2,94456,95153
2,96178,97120
2,112208,113350
2,145604,146301
2,147326,148022
2,149293,149989
2,151506,152202
//Storyboard Layer 0 (Background)
//Storyboard Layer 1 (Fail)
//Storyboard Layer 2 (Pass)
//Storyboard Layer 3 (Foreground)
//Storyboard Sound Samples

[TimingPoints]
77,491.803278688525,4,2,1,50,1,0
4011,-83.3333333333333,4,2,1,50,0,0
5240,-100,4,2,1,50,0,0
7945,-83.3333333333333,4,2,1,50,0,0
9421,-100,4,2,1,50,0,0
12863,-83.3333333333333,4,2,1,50,0,0
13601,-100,4,2,1,50,0,0
14831,-83.3333333333333,4,2,1,50,0,0
15814,-125,4,2,1,50,0,0
17904,-125,4,2,1,30,0,0
18027,-125,4,2,1,50,0,0
18150,-125,4,2,1,30,0,0
18273,-125,4,2,1,50,0,0
18396,-125,4,2,1,30,0,0
18519,-125,4,2,1,50,0,0
18642,-125,4,2,1,30,0,0
18765,-125,4,2,1,60,0,0
19749,-100,4,2,1,50,0,0
31552,-125,4,2,1,50,0,0
33519,-100,4,2,1,50,0,0
34011,-100,4,2,1,55,0,0
34503,-100,4,2,1,60,0,0
34995,-125,4,2,1,60,0,0
35240,-125,4,2,1,20,0,0
36962,-83.3333333333333,4,2,1,50,0,0
37454,-83.3333333333333,4,2,1,70,0,1
37945,-90.9090909090909,4,2,1,50,0,1
40896,-90.9090909090909,4,2,1,70,0,1
41142,-90.9090909090909,4,2,1,50,0,0
41388,-83.3333333333333,4,2,1,70,0,1
41880,-90.9090909090909,4,2,1,50,0,1
44831,-83.3333333333333,4,2,1,70,0,1
45077,-83.3333333333333,4,2,1,50,0,0
45322,-83.3333333333333,4,2,1,50,0,1
45814,-90.9090909090909,4,2,1,50,0,1
48765,-90.9090909090909,4,2,1,70,0,1
49011,-90.9090909090909,4,2,1,50,0,0
49257,-83.3333333333333,4,2,1,70,0,1
49749,-90.9090909090909,4,2,1,50,0,1
53191,-125,4,2,1,50,0,0
55158,-100,4,2,1,50,0,0
55404,-100,4,2,1,35,0,0
58601,-200,4,2,1,30,0,0
59093,-100,4,2,1,50,0,0
59339,-100,4,2,1,35,0,0
62536,-200,4,2,1,30,0,0
63027,-100,4,2,1,50,0,0
63273,-100,4,2,1,35,0,0
68929,-125,4,2,1,40,0,0
69667,-100,4,2,1,50,0,0
70158,-100,4,2,1,5,0,0
70404,-100,4,2,1,40,0,0
78273,-125,4,2,1,50,0,0
78765,-100,4,2,1,50,0,0
90568,-125,4,2,1,50,0,0
92536,-100,4,2,1,50,0,0
93027,-100,4,2,1,55,0,0
93519,-100,4,2,1,60,0,0
94011,-125,4,2,1,60,0,0
94257,-125,4,2,1,20,0,0
95978,-83.3333333333333,4,2,1,50,0,0
97945,-83.3333333333333,4,2,1,50,0,0
98437,-83.3333333333333,4,2,1,70,0,1
98929,-90.9090909090909,4,2,1,50,0,1
101880,-90.9090909090909,4,2,1,70,0,1
102126,-90.9090909090909,4,2,1,50,0,0
102372,-83.3333333333333,4,2,1,70,0,1
102863,-90.9090909090909,4,2,1,50,0,1
105814,-83.3333333333333,4,2,1,70,0,1
106060,-83.3333333333333,4,2,1,50,0,0
106306,-83.3333333333333,4,2,1,70,0,1
106798,-90.9090909090909,4,2,1,50,0,1
109749,-90.9090909090909,4,2,1,70,0,1
109995,-90.9090909090909,4,2,1,50,0,0
110240,-83.3333333333333,4,2,1,70,0,1
110732,-90.9090909090909,4,2,1,50,0,1
112208,-125,4,2,1,50,0,0
114175,-125,4,2,1,35,0,0
121552,-111.111111111111,4,2,1,40,0,0
127699,-125,4,2,1,20,0,0
128191,-125,4,2,1,10,0,0
128929,-125,4,2,1,35,0,0
129913,-125,4,2,1,50,0,0
137781,-111.111111111111,4,2,1,50,0,0
144175,-111.111111111111,4,2,1,55,0,0
144667,-111.111111111111,4,2,1,60,0,0
145158,-125,4,2,1,60,0,0
145404,-125,4,2,1,20,0,0
147126,-83.3333333333333,4,2,1,50,0,0
153519,-83.3333333333333,4,2,1,70,0,1
154011,-90.9090909090909,4,2,1,50,0,1
156962,-90.9090909090909,4,2,1,70,0,1
157208,-90.9090909090909,4,2,1,50,0,0
157454,-83.3333333333333,4,2,1,70,0,1
157945,-90.9090909090909,4,2,1,50,0,1
160896,-83.3333333333333,4,2,1,70,0,1
161142,-83.3333333333333,4,2,1,50,0,0
161388,-83.3333333333333,4,2,1,70,0,1
161880,-90.9090909090909,4,2,1,50,0,1
164831,-90.9090909090909,4,2,1,70,0,1
165077,-90.9090909090909,4,2,1,50,0,0
165322,-83.3333333333333,4,2,1,70,0,1
165814,-90.9090909090909,4,2,1,50,0,1
169257,-90.9090909090909,4,2,1,70,0,0
170240,-90.9090909090909,4,2,1,50,0,0
173191,-90.9090909090909,4,2,1,70,0,0
174175,-90.9090909090909,4,2,1,50,0,0
177126,-90.9090909090909,4,2,1,70,0,0
178109,-90.9090909090909,4,2,1,50,0,0
181060,-90.9090909090909,4,2,1,70,0,0
182044,-90.9090909090909,4,2,1,50,0,0

[Colours]
Combo1 : 4,130,255
Combo2 : 0,99,198
Combo3 : 255,0,128
Combo4 : 163,163,163
Combo5 : 164,209,255
Combo6 : 255,159,64
SliderBorder : 98,98,255
SliderTrackOverride : 30,30,30

[HitObjects]
112,120,4011,22,0,P|82:33|32:110,1,227.999993041992,4|8,3:0|0:0,0:0:0:0:
63,244,4749,2,0,P|115:264|174:239,1,113.999996520996,2|8,0:0|3:0,0:0:0:0:
273,178,5240,53,2,0:0:0:0:
273,178,5486,2,0,L|265:296,1,95,8|2,0:0|0:0,0:0:0:0:
321,373,5978,2,0,P|366:360|411:372,1,95,8|2,3:0|0:0,0:0:0:0:
507,309,6470,1,8,0:0:0:0:
413,243,6716,2,0,L|419:148,1,95,2|8,0:0|3:0,0:0:0:0:
329,76,7208,69,2,0:0:0:0:
329,76,7331,1,0,0:0:0:0:
329,76,7454,2,0,L|322:170,1,95,8|2,0:0|3:0,0:0:0:0:
185,259,7945,38,0,B|130:152|240:152|191:42,1,227.999993041992,4|8,3:0|0:0,0:0:0:0:
76,148,8683,2,0,B|186:98|186:208|292:154,1,227.999993041992,2|2,0:0|0:0,0:0:0:0:
413,97,9421,37,8,0:0:0:0:
390,208,9667,1,2,3:0:0:0:
292,153,9913,2,0,P|239:142|198:153,1,95,8|2,3:0|0:0,0:0:0:0:
102,212,10405,1,8,0:0:0:0:
199,269,10650,2,0,P|251:279|293:269,1,95,2|8,0:0|3:0,0:0:0:0:
399,226,11142,2,0,P|436:230|404:246,1,95,2|8,0:0|0:0,0:0:0:0:
291,269,11634,5,2,3:0:0:0:
224,142,11880,1,4,0:0:0:0:
146,225,12126,2,0,L|84:220,1,47.5,2|2,0:0|0:0,0:0:0:0:
45,123,12495,2,0,L|107:118,1,47.5,2|2,0:0|0:0,0:0:0:0:
235,115,12863,21,8,3:0:0:0:
235,115,13109,2,0,P|199:66|243:40,1,113.999996520996,2|8,0:0|0:0,0:0:0:0:
380,71,13601,53,2,3:0:0:0:
313,198,13847,1,8,3:0:0:0:
235,115,14093,2,0,L|173:120,1,47.5,2|2,0:0|0:0,0:0:0:0:
117,209,14462,2,0,L|179:214,1,47.5,2|2,0:0|0:0,0:0:0:0:
313,222,14830,21,8,3:0:0:0:
313,222,15076,2,0,P|277:271|321:297,1,113.999996520996,2|8,0:0|0:0,0:0:0:0:
489,272,15814,21,4,3:0:0:0:
489,272,16306,1,8,0:0:0:0:
489,272,16798,2,0,L|495:319,3,38,8|2|8|2,0:0|0:0|3:0|0:0,0:0:0:0:
502,339,17290,1,8,0:0:0:0:
323,313,17781,38,0,P|304:309|285:313,3,38,8|2|8|2,3:0|0:0|3:0|0:0,0:0:0:0:
262,331,18273,2,0,P|243:334|224:330,3,38,8|2|8|2,0:0|0:0|3:0|0:0,0:0:0:0:
198,315,18765,5,8,3:0:0:0:
175,302,18888,1,8,3:0:0:0:
149,296,19010,1,8,3:0:0:0:
123,296,19133,1,8,3:0:0:0:
97,302,19256,1,12,3:0:0:0:
5,92,19749,54,0,L|111:82,1,95,4|2,0:0|0:0,0:0:0:0:
213,73,20240,2,0,L|164:177,1,95,8|2,0:0|0:0,0:0:0:0:
131,265,20732,2,0,L|237:255,1,95,8|2,3:0|0:0,0:0:0:0:
339,246,21224,2,0,L|290:350,1,95,8|0,0:0|0:0,0:0:0:0:
269,355,21593,1,2,0:0:0:0:
269,355,21716,2,0,L|163:365,1,95,8|2,3:0|0:0,0:0:0:0:
97,278,22208,70,0,L|2:286,2,95,8|0|8,0:0|0:0|3:0,0:0:0:0:
174,363,22945,5,2,0:0:0:0:
241,270,23191,1,8,0:0:0:0:
287,374,23437,1,2,0:0:0:0:
165,287,23683,70,0,L|149:180,1,95,4|2,0:0|0:0,0:0:0:0:
143,78,24175,2,0,P|188:90|232:73,1,95,8|2,0:0|0:0,0:0:0:0:
336,27,24667,2,0,L|352:134,1,95,8|2,3:0|0:0,0:0:0:0:
375,232,25159,1,8,0:0:0:0:
401,342,25404,2,0,P|444:325|489:337,2,95,2|8|2,0:0|3:0|0:0,0:0:0:0:
287,359,26142,6,0,B|193:407|193:323|105:363,1,190,8|8,0:0|3:0,0:0:0:0:
17,289,26880,69,2,0:0:0:0:
17,289,27003,1,0,0:0:0:0:
17,289,27126,1,8,0:0:0:0:
127,260,27372,1,2,0:0:0:0:
20,176,27617,6,0,P|6:130|17:85,1,95,4|2,0:0|0:0,0:0:0:0:
113,21,28109,1,8,0:0:0:0:
210,79,28355,2,0,P|220:124|207:169,1,95,2|8,0:0|3:0,0:0:0:0:
116,238,28847,69,2,0:0:0:0:
15,290,29093,2,0,P|4:335|17:380,1,95,8|2,0:0|0:0,0:0:0:0:
119,329,29585,2,0,P|129:283|116:238,1,95,8|2,3:0|0:0,0:0:0:0:
55,139,30077,2,0,B|149:187|149:103|237:143,1,190,8|8,0:0|3:0,0:0:0:0:
424,272,31060,70,0,L|426:355,2,63.3333333333333,8|2|2,0:0|0:0|0:0,0:0:0:0:
425,204,31552,69,4,3:0:0:0:
425,204,32044,1,8,0:0:0:0:
242,161,32536,1,2,0:0:0:0:
242,161,33027,1,8,0:0:0:0:
405,312,33519,69,8,3:0:0:0:
418,289,33642,1,8,3:0:0:0:
422,263,33764,1,8,3:0:0:0:
422,237,33887,1,8,3:0:0:0:
418,211,34011,70,0,L|346:206,3,47.5,8|8|8|8,3:0|3:0|3:0|3:0,0:0:0:0:
349,191,34503,2,0,L|302:189,3,47.5,8|8|8|8,3:0|3:0|3:0|3:0,0:0:0:0:
284,165,34995,22,0,P|293:123|278:78,1,76,8|0,3:0|0:0,0:0:0:0:
256,192,36962,53,4,3:0:0:0:
256,192,37454,6,0,L|266:326,1,113.999996520996,6|0,0:0|0:0,0:0:0:0:
150,357,37945,69,14,1:0:0:0:
56,293,38191,1,2,1:0:0:0:
56,293,38314,1,2,1:0:0:0:
56,293,38437,2,0,P|41:244|53:194,1,104.500003189087,10|2,1:0|1:0,0:0:0:0:
76,159,38806,2,0,L|138:154,1,52.2500015945435,2|8,1:0|1:0,0:0:0:0:
248,219,39175,5,2,1:0:0:0:
248,219,39298,1,2,1:0:0:0:
248,219,39421,2,0,L|305:219,3,52.2500015945435,10|2|2|2,1:0|1:0|1:0|1:0,0:0:0:0:
329,249,39913,2,0,L|382:249,3,52.2500015945435,10|2|2|2,1:0|1:0|1:0|1:0,0:0:0:0:
424,250,40404,2,0,P|408:196|424:149,1,104.500003189087,10|2,1:0|1:0,0:0:0:0:
450,120,40773,1,2,1:0:0:0:
450,120,40896,70,0,L|338:120,1,104.500003189087,4|2,3:0|1:0,0:0:0:0:
176,107,41388,2,0,P|135:125|185:139,1,113.999996520996,6|0,0:0|0:0,0:0:0:0:
345,120,41880,5,14,1:0:0:0:
259,210,42126,1,2,1:0:0:0:
259,210,42249,1,2,1:0:0:0:
258,211,42372,2,0,P|243:260|255:310,1,104.500003189087,10|2,1:0|1:0,0:0:0:0:
279,344,42741,2,0,L|341:349,1,52.2500015945435,2|8,1:0|1:0,0:0:0:0:
457,312,43109,69,2,1:0:0:0:
457,312,43232,1,2,1:0:0:0:
457,312,43355,2,0,L|466:261,3,52.2500015945435,14|2|10|2,1:0|1:0|1:0|1:0,0:0:0:0:
449,221,43847,2,0,L|440:170,3,52.2500015945435,14|2|10|2,1:0|1:0|1:0|1:0,0:0:0:0:
459,132,44339,2,0,L|468:81,3,52.2500015945435,14|2|2|2,1:0|1:0|1:0|1:0,0:0:0:0:
477,35,44831,6,0,L|347:35,1,113.999996520996,4|2,3:0|1:0,0:0:0:0:
203,22,45323,2,0,P|162:40|212:54,1,113.999996520996,6|0,0:0|0:0,0:0:0:0:
363,35,45815,69,14,1:0:0:0:
288,126,46060,1,2,1:0:0:0:
288,126,46183,1,2,1:0:0:0:
287,127,46306,2,0,P|272:176|284:226,1,104.500003189087,10|2,1:0|1:0,0:0:0:0:
308,260,46675,2,0,L|370:265,1,52.2500015945435,2|8,1:0|1:0,0:0:0:0:
452,366,47044,5,2,1:0:0:0:
452,366,47167,1,2,1:0:0:0:
452,366,47290,2,0,L|386:364,3,52.2500015945435,10|2|2|2,1:0|1:0|1:0|1:0,0:0:0:0:
364,342,47781,2,0,L|298:340,3,52.2500015945435,10|2|2|2,1:0|1:0|1:0|1:0,0:0:0:0:
270,334,48273,2,0,P|289:279|271:235,1,104.500003189087,10|2,1:0|1:0,0:0:0:0:
238,214,48642,1,2,1:0:0:0:
238,214,48765,70,0,L|126:214,1,104.500003189087,4|2,3:0|1:0,0:0:0:0:
31,106,49257,2,0,P|-10:89|14:134,1,113.999996520996,6|0,0:0|0:0,0:0:0:0:
133,214,49749,5,14,1:0:0:0:
15,243,49995,1,2,1:0:0:0:
15,243,50118,1,2,1:0:0:0:
15,243,50241,2,0,P|0:292|12:342,1,104.500003189087,10|2,1:0|1:0,0:0:0:0:
35,377,50610,2,0,L|97:382,1,52.2500015945435,2|8,1:0|1:0,0:0:0:0:
217,356,50978,69,2,1:0:0:0:
217,356,51101,1,2,1:0:0:0:
217,356,51224,2,0,L|233:302,3,52.2500015945435,10|2|2|2,1:0|1:0|1:0|1:0,0:0:0:0:
248,267,51716,2,0,L|232:213,3,52.2500015945435,10|2|2|2,1:0|1:0|1:0|1:0,0:0:0:0:
214,179,52208,6,0,P|166:198|105:179,1,104.500003189087,10|2,1:0|1:0,0:0:0:0:
82,160,52577,2,0,L|70:107,1,52.2500015945435,2|12,1:0|1:0,0:0:0:0:
166,29,52945,2,0,L|177:79,1,52.2500015945435,2|0,1:0|0:0,0:0:0:0:
10,27,55158,37,12,0:0:0:0:
10,27,55404,2,0,L|33:124,1,95,2|8,0:0|3:0,0:0:0:0:
87,220,55896,1,2,0:0:0:0:
87,220,56019,2,0,L|110:123,1,95,2|2,0:0|0:0,0:0:0:0:
165,28,56511,2,0,L|188:125,1,95,2|2,0:0|0:0,0:0:0:0:
242,221,57003,1,2,0:0:0:0:
242,221,57126,2,0,L|265:124,1,95,8|2,3:0|0:0,0:0:0:0:
276,92,57495,5,2,0:0:0:0:
365,162,57741,1,2,0:0:0:0:
381,49,57986,2,0,L|400:105,1,47.5,2|8,0:0|3:0,0:0:0:0:
365,162,58601,38,0,L|377:202,1,23.75,2|0,0:0|0:0,0:0:0:0:
423,348,59093,21,12,0:0:0:0:
313,316,59339,2,0,L|291:223,1,95,2|8,0:0|3:0,0:0:0:0:
221,132,59831,2,0,L|216:179,1,47.5,2|2,0:0|0:0,0:0:0:0:
204,292,60199,2,0,L|197:349,1,47.5,2|2,0:0|0:0,0:0:0:0:
107,269,60568,2,0,L|85:176,1,95,8|2,3:0|0:0,0:0:0:0:
27,77,61060,2,0,L|4:174,1,95,8|2,3:0|0:0,0:0:0:0:
0,207,61429,5,2,0:0:0:0:
89,277,61675,1,2,0:0:0:0:
105,164,61921,2,0,L|124:220,1,47.5,2|8,0:0|3:0,0:0:0:0:
89,277,62536,38,0,L|101:317,1,23.75,2|0,0:0|0:0,0:0:0:0:
289,357,63027,21,12,0:0:0:0:
384,293,63273,2,0,L|362:200,1,95,2|8,0:0|0:0,0:0:0:0:
307,100,63765,1,2,0:0:0:0:
307,100,63888,2,0,L|284:197,1,95,2|2,0:0|0:0,0:0:0:0:
232,294,64380,1,2,0:0:0:0:
232,294,64503,2,0,L|210:201,1,95,8|2,0:0|0:0,0:0:0:0:
157,99,64995,2,0,L|134:196,1,95,8|2,3:0|0:0,0:0:0:0:
124,228,65363,5,2,0:0:0:0:
35,158,65609,1,2,0:0:0:0:
19,271,65855,2,0,L|0:215,1,47.5,2|8,0:0|3:0,0:0:0:0:
152,51,66470,38,0,L|164:112,1,47.5,10|2,0:0|0:0,0:0:0:0:
255,241,66962,2,0,L|261:180,1,47.5,8|0,3:0|0:0,0:0:0:0:
345,45,67454,2,0,L|358:118,1,47.5,8|2,0:0|0:0,0:0:0:0:
485,200,67945,22,0,L|477:253,3,47.5,8|2|2|2,3:0|0:0|3:0|0:0,0:0:0:0:
440,254,68437,2,0,L|431:308,1,47.5,8|2,0:0|0:0,0:0:0:0:
297,328,68929,54,0,P|259:339|307:303,1,190,8|2,3:0|0:0,0:0:0:0:
340,285,69667,70,0,P|405:262|330:251,1,190,2|0,0:0|0:0,0:0:0:0:
246,167,70404,38,0,L|234:118,3,47.5,10|2|2|2,3:0|0:0|0:0|0:0,0:0:0:0:
221,84,70896,2,0,P|150:115|85:84,1,142.5,4|2,0:0|0:0,0:0:0:0:
63,68,71388,2,0,B|99:157|14:157|57:249,1,190,8|8,0:0|3:0,0:0:0:0:
152,314,72126,5,2,0:0:0:0:
152,314,72372,2,0,P|196:297|256:318,1,95,8|2,0:0|0:0,0:0:0:0:
345,354,72863,2,0,L|359:252,1,95,8|2,3:0|0:0,0:0:0:0:
430,171,73355,2,0,L|442:265,1,95,8|0,0:0|0:0,0:0:0:0:
481,280,73724,2,0,L|500:227,1,47.5,2|8,0:0|3:0,0:0:0:0:
374,42,74339,70,0,L|325:54,3,47.5,2|2|2|2,0:0|0:0|0:0|0:0,0:0:0:0:
291,67,74831,2,0,P|322:138|291:203,1,142.5,8|2,3:0|0:0,0:0:0:0:
275,225,75323,2,0,B|364:188|364:273|456:230,1,190,8|8,0:0|3:0,0:0:0:0:
376,148,76061,5,2,0:0:0:0:
376,148,76307,2,0,P|333:133|270:144,1,95,8|2,0:0|0:0,0:0:0:0:
183,188,76798,2,0,L|169:86,1,95,8|2,2:0|0:0,0:0:0:0:
80,23,77290,2,0,L|67:117,1,95,8|0,0:0|0:0,0:0:0:0:
30,131,77659,2,0,L|11:78,1,47.5,2|8,0:0|3:0,0:0:0:0:
188,34,78273,38,0,L|204:90,1,38,8|0,0:0|0:0,0:0:0:0:
255,232,78765,22,0,P|303:213|362:228,1,95,6|2,0:0|0:0,0:0:0:0:
463,213,79257,2,0,L|414:317,1,95,8|2,0:0|0:0,0:0:0:0:
321,354,79749,2,0,P|272:372|214:358,1,95,8|2,3:0|0:0,0:0:0:0:
113,373,80240,2,0,L|162:269,1,95,8|0,0:0|0:0,0:0:0:0:
176,256,80609,1,2,0:0:0:0:
176,256,80732,2,0,P|224:237|283:252,1,95,8|2,3:0|0:0,0:0:0:0:
374,279,81224,6,0,L|490:279,2,95,8|0|8,0:0|0:0|3:0,0:0:0:0:
279,342,81961,69,2,0:0:0:0:
212,249,82207,1,8,0:0:0:0:
166,353,82453,1,2,0:0:0:0:
287,266,82699,6,0,P|285:219|255:183,1,95,4|2,0:0|0:0,0:0:0:0:
169,108,83191,2,0,L|273:108,1,95,8|2,0:0|0:0,0:0:0:0:
376,127,83683,2,0,P|378:173|408:209,1,95,8|2,3:0|0:0,0:0:0:0:
509,263,84175,1,8,0:0:0:0:
409,317,84421,2,0,L|296:317,2,95,2|8|2,0:0|3:0|0:0,0:0:0:0:
509,263,85158,2,0,B|461:169|545:169|505:81,1,190,8|8,0:0|3:0,0:0:0:0:
401,129,85896,69,2,0:0:0:0:
401,129,86019,1,0,0:0:0:0:
401,129,86142,1,8,0:0:0:0:
336,35,86388,1,2,0:0:0:0:
357,193,86634,6,0,P|403:207|449:192,1,95,4|2,0:0|0:0,0:0:0:0:
508,97,87125,1,8,0:0:0:0:
446,193,87371,2,0,P|436:238|449:283,1,95,2|8,0:0|3:0,0:0:0:0:
375,371,87863,69,2,0:0:0:0:
276,313,88109,2,0,P|231:302|186:315,1,95,8|2,0:0|0:0,0:0:0:0:
85,371,88601,2,0,P|95:325|82:280,1,95,8|2,3:0|0:0,0:0:0:0:
6,193,89093,2,0,B|100:241|100:157|188:197,1,190,8|8,0:0|3:0,0:0:0:0:
390,302,90076,70,0,L|392:385,2,63.3333333333333,8|2|2,0:0|0:0|0:0,0:0:0:0:
391,233,90568,69,4,3:0:0:0:
391,233,91060,1,8,0:0:0:0:
221,183,91552,1,8,3:0:0:0:
221,183,92043,1,8,0:0:0:0:
312,340,92535,69,8,3:0:0:0:
337,349,92658,1,8,3:0:0:0:
363,349,92780,1,8,3:0:0:0:
389,345,92903,1,8,3:0:0:0:
414,337,93027,70,0,L|407:265,3,47.5,8|8|8|8,3:0|3:0|3:0|3:0,0:0:0:0:
423,265,93519,2,0,L|417:218,3,47.5,8|8|8|8,3:0|3:0|3:0|3:0,0:0:0:0:
438,197,94011,22,0,P|477:206|522:190,1,76,8|0,3:0|0:0,0:0:0:0:
256,192,95978,69,12,0:0:0:0:
256,192,97945,69,4,3:0:0:0:
256,192,98437,6,0,L|266:326,1,113.999996520996,6|0,0:0|0:0,0:0:0:0:
390,359,98928,69,14,1:0:0:0:
484,295,99174,1,2,1:0:0:0:
484,295,99297,1,2,1:0:0:0:
485,294,99421,2,0,L|489:167,1,104.500003189087,10|2,1:0|1:0,0:0:0:0:
507,152,99790,2,0,L|445:147,1,52.2500015945435,2|8,1:0|1:0,0:0:0:0:
337,103,100158,5,2,1:0:0:0:
337,103,100281,1,2,1:0:0:0:
337,103,100404,2,0,L|268:100,3,52.2500015945435,10|2|2|2,1:0|1:0|1:0|1:0,0:0:0:0:
242,97,100896,2,0,L|173:94,3,52.2500015945435,10|2|2|2,1:0|1:0|1:0|1:0,0:0:0:0:
147,93,101388,2,0,P|163:147|147:194,1,104.500003189087,10|2,1:0|1:0,0:0:0:0:
123,225,101756,1,2,1:0:0:0:
123,225,101880,70,0,P|173:214|231:232,1,104.500003189087,4|2,3:0|1:0,0:0:0:0:
368,306,102372,2,0,P|411:307|379:278,1,113.999996520996,6|0,0:0|0:0,0:0:0:0:
223,228,102863,5,14,1:0:0:0:
334,166,103109,1,2,1:0:0:0:
334,166,103232,1,2,1:0:0:0:
334,166,103355,2,0,L|338:39,1,104.500003189087,10|2,1:0|1:0,0:0:0:0:
357,23,103724,2,0,L|295:18,1,52.2500015945435,2|8,1:0|1:0,0:0:0:0:
212,104,104092,69,2,1:0:0:0:
212,104,104215,1,2,1:0:0:0:
212,104,104339,2,0,L|230:152,3,52.2500015945435,14|2|10|2,1:0|1:0|1:0|1:0,0:0:0:0:
249,190,104831,2,0,L|267:238,3,52.2500015945435,14|2|10|2,1:0|1:0|1:0|1:0,0:0:0:0:
286,276,105322,2,0,L|304:324,3,52.2500015945435,14|2|2|2,1:0|1:0|1:0|1:0,0:0:0:0:
317,368,105814,6,0,P|264:350|193:376,1,113.999996520996,4|2,3:0|1:0,0:0:0:0:
48,370,106307,2,0,P|14:358|61:336,1,113.999996520996,6|0,0:0|0:0,0:0:0:0:
209,363,106798,69,14,1:0:0:0:
123,287,107044,1,2,1:0:0:0:
123,287,107167,1,2,1:0:0:0:
122,286,107290,2,0,L|118:159,1,104.500003189087,10|2,1:0|1:0,0:0:0:0:
100,144,107659,2,0,L|162:139,1,52.2500015945435,2|8,1:0|1:0,0:0:0:0:
287,172,108027,5,2,1:0:0:0:
287,172,108150,1,2,1:0:0:0:
287,172,108273,2,0,L|353:167,3,52.2500015945435,10|2|2|2,1:0|1:0|1:0|1:0,0:0:0:0:
381,165,108765,2,0,L|447:160,3,52.2500015945435,10|2|2|2,1:0|1:0|1:0|1:0,0:0:0:0:
474,158,109257,2,0,P|458:206|477:254,1,104.500003189087,10|2,1:0|1:0,0:0:0:0:
500,297,109625,1,2,1:0:0:0:
500,297,109749,70,0,P|449:286|392:304,1,104.500003189087,4|2,3:0|1:0,0:0:0:0:
250,351,110241,2,0,P|206:352|238:323,1,113.999996520996,6|0,0:0|0:0,0:0:0:0:
399,300,110732,5,14,1:0:0:0:
301,237,110978,1,2,1:0:0:0:
301,237,111101,1,2,1:0:0:0:
300,236,111224,2,0,L|296:109,1,104.500003189087,10|2,1:0|1:0,0:0:0:0:
278,94,111593,2,0,L|340:89,1,52.2500015945435,2|12,1:0|1:0,0:0:0:0:
393,322,114175,6,0,P|462:353|452:292,2,152,8|8|8,3:0|3:0|3:0,0:0:0:0:
407,231,115404,5,2,0:0:0:0:
407,231,115650,2,0,P|398:190|410:151,1,76,8|2,3:0|0:0,0:0:0:0:
432,69,116142,2,0,P|363:38|373:99,2,152,8|8|8,3:0|3:0|3:0,0:0:0:0:
413,165,117372,69,2,0:0:0:0:
413,165,117617,1,8,3:0:0:0:
413,165,117863,1,2,0:0:0:0:
325,192,118109,6,0,P|289:202|253:194,1,76,8|2,3:0|0:0,0:0:0:0:
170,233,118601,2,0,P|159:196|167:160,1,76,8|2,3:0|0:0,0:0:0:0:
129,76,119093,2,0,P|165:65|201:73,1,76,8|2,3:0|0:0,0:0:0:0:
371,142,119831,69,2,0:0:0:0:
371,142,120077,2,0,P|381:178|373:214,1,76,8|2,3:0|0:0,0:0:0:0:
412,298,120569,2,0,P|375:308|339:300,1,76,8|2,3:0|0:0,0:0:0:0:
255,339,121061,2,0,P|244:302|252:266,1,76,8|2,3:0|0:0,0:0:0:0:
304,177,121552,22,0,L|312:126,3,42.7499986953736,8|2|2|2,0:0|0:0|0:0|0:0,0:0:0:0:
318,101,122044,6,0,P|277:111|237:99,1,85.4999973907472,4|2,0:0|0:0,0:0:0:0:
212,74,122413,2,0,P|171:61|130:72,1,85.4999973907472,2|2,0:0|0:0,0:0:0:0:
111,100,122781,2,0,P|69:110|29:98,1,85.4999973907472,2|8,0:0|3:0,0:0:0:0:
30,201,123273,2,0,L|42:299,1,85.4999973907472,2|8,0:0|0:0,0:0:0:0:
73,296,123642,2,0,L|96:257,1,42.7499986953736,2|2,0:0|0:0,0:0:0:0:
167,185,124011,70,0,P|208:198|249:188,1,85.4999973907472,8|2,3:0|0:0,0:0:0:0:
282,178,124380,2,0,L|298:228,1,42.7499986953736,2|8,0:0|0:0,0:0:0:0:
328,226,124626,2,0,L|344:276,1,42.7499986953736,2|2,0:0|0:0,0:0:0:0:
288,357,124995,2,0,P|247:344|206:354,1,85.4999973907472,8|2,3:0|0:0,0:0:0:0:
173,364,125364,2,0,L|157:314,1,42.7499986953736,2|8,0:0|0:0,0:0:0:0:
127,316,125610,2,0,L|111:266,1,42.7499986953736,2|2,0:0|0:0,0:0:0:0:
90,173,125978,6,0,P|130:185|171:174,1,85.4999973907472,8|2,3:0|0:0,0:0:0:0:
197,151,126347,2,0,P|237:140|278:152,1,85.4999973907472,2|2,0:0|0:0,0:0:0:0:
307,170,126716,1,2,0:0:0:0:
400,211,126962,2,0,P|410:166|395:124,1,85.4999973907472,8|2,3:0|0:0,0:0:0:0:
378,101,127331,2,0,L|370:36,1,42.7499986953736,2|8,0:0|0:0,0:0:0:0:
281,61,127699,54,0,L|272:10,2,38,2|2|8,0:0|0:0|3:0,0:0:0:0:
301,150,128191,1,2,0:0:0:0:
301,150,128314,2,0,P|246:168|187:150,1,114,2|2,0:0|0:0,0:0:0:0:
122,95,128929,54,0,L|76:95,7,38,2|0|2|0|2|0|2|0,0:0|0:0|0:0|0:0|0:0|0:0|0:0|0:0,0:0:0:0:
53,97,129913,6,0,P|65:132|54:168,1,76,4|2,0:0|0:0,0:0:0:0:
17,251,130404,2,0,P|5:286|17:322,1,76,8|2,3:0|0:0,0:0:0:0:
92,374,130896,1,8,3:0:0:0:
253,289,131388,6,0,L|337:285,1,76,8|2,3:0|0:0,0:0:0:0:
278,208,131880,2,0,L|362:204,1,76,8|2,3:0|0:0,0:0:0:0:
304,127,132372,2,0,L|388:123,1,76,8|2,3:0|0:0,0:0:0:0:
471,120,132863,1,8,3:0:0:0:
398,287,133355,70,0,L|314:283,1,76,8|2,3:0|0:0,0:0:0:0:
373,206,133847,2,0,L|289:202,1,76,4|2,0:0|0:0,0:0:0:0:
347,125,134339,2,0,L|263:121,1,76,8|2,3:0|0:0,0:0:0:0:
180,118,134830,1,8,3:0:0:0:
87,275,135322,6,0,P|124:279|158:264,1,76,8|2,3:0|0:0,0:0:0:0:
246,288,135814,2,0,P|250:250|235:216,1,76,8|2,3:0|0:0,0:0:0:0:
257,127,136306,2,0,P|219:122|185:137,1,76,8|2,3:0|0:0,0:0:0:0:
98,114,136798,2,0,P|93:151|108:185,1,76,8|2,3:0|0:0,0:0:0:0:
87,274,137290,2,0,P|124:278|158:263,1,76,8|2,3:0|0:0,0:0:0:0:
247,211,137781,6,0,L|271:294,1,85.4999973907472,4|2,0:0|0:0,0:0:0:0:
288,322,138150,2,0,L|312:239,1,85.4999973907472,2|2,0:0|0:0,0:0:0:0:
325,208,138519,1,2,0:0:0:0:
393,286,138765,1,8,3:0:0:0:
481,103,139257,6,0,P|419:83|355:110,1,128.249996086121,8|2,0:0|0:0,0:0:0:0:
347,135,139749,2,0,L|323:218,1,85.4999973907472,8|2,3:0|0:0,0:0:0:0:
306,246,140118,2,0,L|282:163,1,85.4999973907472,2|2,0:0|0:0,0:0:0:0:
269,132,140487,1,2,0:0:0:0:
213,217,140732,1,8,3:0:0:0:
104,45,141224,2,0,P|62:34|16:52,1,85.4999973907472,8|2,0:0|0:0,0:0:0:0:
21,149,141716,70,0,P|63:160|109:142,1,85.4999973907472,4|2,0:0|0:0,0:0:0:0:
133,132,142085,2,0,P|173:119|213:130,1,85.4999973907472,2|2,0:0|0:0,0:0:0:0:
288,266,142699,2,0,P|330:277|376:259,1,85.4999973907472,8|2,3:0|0:0,0:0:0:0:
400,249,143068,2,0,P|440:236|480:247,1,85.4999973907472,2|2,0:0|0:0,0:0:0:0:
503,273,143437,1,2,0:0:0:0:
443,356,143683,37,8,3:0:0:0:
420,369,143806,1,8,3:0:0:0:
394,373,143928,1,8,3:0:0:0:
368,373,144051,1,8,3:0:0:0:
342,369,144175,70,0,L|336:300,3,42.7499986953736,8|8|8|8,3:0|3:0|3:0|3:0,0:0:0:0:
322,300,144667,2,0,L|322:258,3,42.7499986953736,8|8|8|8,3:0|3:0|3:0|3:0,0:0:0:0:
296,235,145159,22,0,P|254:244|209:229,1,76,8|0,3:0|0:0,0:0:0:0:
256,192,147126,69,12,0:0:0:0:
178,201,148847,69,12,0:0:0:0:
324,174,149093,1,12,0:0:0:0:
211,268,150814,5,12,0:0:0:0:
211,115,151060,1,12,0:0:0:0:
344,192,151306,1,12,0:0:0:0:
256,192,153027,69,4,3:0:0:0:
256,192,153519,6,0,L|389:183,1,113.999996520996,6|0,0:0|0:0,0:0:0:0:
490,257,154010,69,14,1:0:0:0:
426,351,154256,1,2,1:0:0:0:
426,351,154379,1,2,1:0:0:0:
425,352,154503,2,0,L|313:342,1,104.500003189087,10|2,1:0|1:0,0:0:0:0:
279,337,154872,2,0,P|285:311|280:286,1,52.2500015945435,2|8,1:0|1:0,0:0:0:0:
270,171,155240,5,2,1:0:0:0:
270,171,155363,1,2,1:0:0:0:
270,170,155486,2,0,P|245:178|219:175,3,52.2500015945435,10|2|2|2,1:0|1:0|1:0|1:0,0:0:0:0:
183,153,155978,2,0,P|158:145|132:148,3,52.2500015945435,10|2|2|2,1:0|1:0|1:0|1:0,0:0:0:0:
92,161,156470,2,0,L|78:281,1,104.500003189087,10|2,1:0|1:0,0:0:0:0:
80,306,156838,1,2,1:0:0:0:
80,305,156962,70,0,P|128:290|178:305,1,104.500003189087,4|2,3:0|1:0,0:0:0:0:
318,364,157454,2,0,P|359:342|318:321,1,113.999996520996,6|0,0:0|0:0,0:0:0:0:
178,305,157945,5,14,1:0:0:0:
289,243,158191,1,2,1:0:0:0:
289,243,158314,1,2,1:0:0:0:
290,242,158437,2,0,L|280:130,1,104.500003189087,10|2,1:0|1:0,0:0:0:0:
275,96,158806,2,0,P|249:102|224:97,1,52.2500015945435,2|8,1:0|1:0,0:0:0:0:
105,88,159175,69,2,1:0:0:0:
105,88,159298,1,2,1:0:0:0:
105,87,159421,2,0,P|97:111|100:137,3,52.2500015945435,14|2|10|2,1:0|1:0|1:0|1:0,0:0:0:0:
126,171,159913,2,0,P|133:195|130:221,3,52.2500015945435,14|2|10|2,1:0|1:0|1:0|1:0,0:0:0:0:
108,257,160404,2,0,P|100:281|103:307,3,52.2500015945435,14|2|2|2,1:0|1:0|1:0|1:0,0:0:0:0:
126,347,160896,6,0,P|174:331|233:348,1,113.999996520996,4|2,3:0|1:0,0:0:0:0:
380,377,161389,2,0,P|421:355|380:334,1,113.999996520996,6|0,0:0|0:0,0:0:0:0:
233,347,161880,69,14,1:0:0:0:
332,270,162126,1,2,1:0:0:0:
332,270,162249,1,2,1:0:0:0:
333,269,162372,2,0,L|323:157,1,104.500003189087,10|2,1:0|1:0,0:0:0:0:
318,123,162741,2,0,P|292:129|267:124,1,52.2500015945435,2|8,1:0|1:0,0:0:0:0:
191,36,163109,5,2,1:0:0:0:
191,36,163232,1,2,1:0:0:0:
192,36,163355,2,0,P|167:28|141:31,3,52.2500015945435,10|2|2|2,1:0|1:0|1:0|1:0,0:0:0:0:
114,64,163847,2,0,P|89:71|63:68,3,52.2500015945435,10|2|2|2,1:0|1:0|1:0|1:0,0:0:0:0:
23,55,164339,2,0,L|16:171,1,104.500003189087,10|2,1:0|1:0,0:0:0:0:
22,201,164707,1,2,1:0:0:0:
22,201,164831,70,0,P|72:183|129:203,1,104.500003189087,4|2,3:0|1:0,0:0:0:0:
222,316,165322,2,0,P|261:335|240:289,1,113.999996520996,6|0,0:0|0:0,0:0:0:0:
119,196,165814,5,14,1:0:0:0:
248,176,166060,1,2,1:0:0:0:
248,176,166183,1,2,1:0:0:0:
249,175,166306,2,0,L|239:63,1,104.500003189087,10|2,1:0|1:0,0:0:0:0:
234,29,166675,2,0,P|208:35|183:30,1,52.2500015945435,2|8,1:0|1:0,0:0:0:0:
78,91,167044,69,2,1:0:0:0:
78,91,167167,1,2,1:0:0:0:
78,90,167290,2,0,P|70:114|73:140,3,52.2500015945435,10|2|10|2,1:0|1:0|1:0|1:0,0:0:0:0:
106,166,167781,2,0,P|113:190|110:216,3,52.2500015945435,10|2|10|2,1:0|1:0|1:0|1:0,0:0:0:0:
97,256,168273,6,0,L|215:248,1,104.500003189087,10|10,1:0|1:0,0:0:0:0:
243,248,168642,2,0,L|260:314,1,52.2500015945435,2|14,1:0|1:0,0:0:0:0:
370,355,169011,2,0,L|383:304,1,52.2500015945435,10|0,1:0|0:0,0:0:0:0:
393,263,169257,38,0,P|441:281|490:267,1,104.500003189087,4|0,0:0|0:0,0:0:0:0:
445,150,169749,2,0,P|396:131|347:145,1,104.500003189087,8|0,0:0|0:0,0:0:0:0:
295,258,170240,2,0,P|343:276|392:262,1,104.500003189087,8|2,0:0|0:0,0:0:0:0:
430,242,170609,2,0,L|442:180,1,52.2500015945435,2|8,0:0|0:0,0:0:0:0:
384,84,170978,5,2,0:0:0:0:
384,84,171224,2,0,L|361:190,1,104.500003189087,8|0,0:0|0:0,0:0:0:0:
283,284,171716,2,0,L|260:181,1,104.500003189087,8|2,0:0|0:0,0:0:0:0:
178,86,172208,2,0,L|155:192,1,104.500003189087,8|2,0:0|0:0,0:0:0:0:
143,229,172576,2,0,L|125:177,1,52.2500015945435,2|8,0:0|0:0,0:0:0:0:
345,48,173191,70,0,P|393:30|442:44,1,104.500003189087,4|0,0:0|0:0,0:0:0:0:
397,161,173683,2,0,P|348:180|299:166,1,104.500003189087,8|0,0:0|0:0,0:0:0:0:
247,53,174175,2,0,P|295:35|344:49,1,104.500003189087,8|2,0:0|0:0,0:0:0:0:
382,69,174544,2,0,L|394:131,1,52.2500015945435,2|8,0:0|0:0,0:0:0:0:
335,233,174913,5,2,0:0:0:0:
335,233,175159,2,0,L|312:127,1,104.500003189087,8|2,0:0|0:0,0:0:0:0:
234,33,175651,2,0,L|211:135,1,104.500003189087,8|2,0:0|0:0,0:0:0:0:
129,231,176143,2,0,L|106:125,1,104.500003189087,8|2,0:0|0:0,0:0:0:0:
94,88,176511,2,0,L|76:140,1,52.2500015945435,2|8,0:0|0:0,0:0:0:0:
257,312,177126,70,0,P|305:330|354:316,1,104.500003189087,4|0,0:0|0:0,0:0:0:0:
309,199,177618,2,0,P|260:180|211:194,1,104.500003189087,8|2,0:0|0:0,0:0:0:0:
159,307,178109,2,0,P|207:325|256:311,1,104.500003189087,8|2,0:0|0:0,0:0:0:0:
294,291,178478,2,0,L|306:229,1,52.2500015945435,2|8,0:0|0:0,0:0:0:0:
417,184,178847,5,2,0:0:0:0:
417,184,179093,2,0,L|394:290,1,104.500003189087,8|2,0:0|0:0,0:0:0:0:
316,384,179585,2,0,L|293:281,1,104.500003189087,8|2,0:0|0:0,0:0:0:0:
211,186,180077,2,0,L|188:292,1,104.500003189087,8|2,0:0|0:0,0:0:0:0:
176,329,180445,2,0,L|158:277,1,52.2500015945435,2|8,0:0|0:0,0:0:0:0:
255,47,181060,70,0,P|303:29|352:43,1,104.500003189087,4|0,0:0|0:0,0:0:0:0:
307,160,181552,2,0,P|258:179|209:165,1,104.500003189087,8|0,0:0|0:0,0:0:0:0:
157,52,182044,2,0,P|205:34|254:48,1,104.500003189087,8|2,0:0|0:0,0:0:0:0:
292,68,182413,2,0,L|304:130,1,52.2500015945435,2|8,0:0|0:0,0:0:0:0:
326,242,182781,1,2,0:0:0:0:
201,231,183027,38,0,L|211:293,3,52.2500015945435,14|2|10|2,1:0|1:0|1:0|1:0,0:0:0:0:
217,325,183518,1,10,1:0:0:0:
430,192,184011,70,0,L|422:125,3,52.2500015945435,14|2|10|2,1:0|1:0|1:0|1:0,0:0:0:0:
416,99,184503,2,0,P|364:115|314:102,1,104.500003189087,10|10,1:0|1:0,0:0:0:0:
196,63,184995,6,0,L|206:125,3,52.2500015945435,14|2|10|2,1:0|1:0|1:0|1:0,0:0:0:0:
212,157,185486,1,10,1:0:0:0:
450,237,185979,70,0,L|442:304,3,52.2500015945435,14|2|10|2,1:0|1:0|1:0|1:0,0:0:0:0:
436,330,186471,2,0,P|384:314|334:327,1,104.500003189087,10|10,1:0|1:0,0:0:0:0:
215,359,186962,6,0,L|225:297,3,52.2500015945435,14|2|10|2,1:0|1:0|1:0|1:0,0:0:0:0:
231,265,187453,1,14,1:0:0:0:
449,141,187946,70,0,L|441:74,3,52.2500015945435,14|2|10|2,1:0|1:0|1:0|1:0,0:0:0:0:
435,49,188437,1,14,1:0:0:0:
271,95,188683,1,10,1:0:0:0:
