osu file format v14

[General]
AudioFilename: audio.mp3
AudioLeadIn: 0
PreviewTime: -1
Countdown: 1
SampleSet: Soft
StackLeniency: 0.7
Mode: 0
LetterboxInBreaks: 0
WidescreenStoryboard: 0

[Editor]
Bookmarks: 4011,19749,37454,55158,98437,114175,153519,169257
DistanceSpacing: 1.2
BeatDivisor: 4
GridSize: 32
TimelineZoom: 1.7

[Metadata]
Title:VERY NICE
TitleUnicode:VERY NICE
Artist:SEVENTEEN
ArtistUnicode:SEVENTEEN
Creator:Lassikko
Version:anime
Source:
Tags:
BeatmapID:1770797
BeatmapSetID:846700

[Difficulty]
HPDrainRate:6
CircleSize:4
OverallDifficulty:8
ApproachRate:9
SliderMultiplier:1.59999990463257
SliderTickRate:1

[Events]
//Background and Video events
0,0,"1_YCngROYq5ucVY1lHwyWsXg.jpeg",0,0
//Break Periods
2,25358,30460
2,45276,53398
//Storyboard Layer 0 (Background)
//Storyboard Layer 1 (Fail)
//Storyboard Layer 2 (Pass)
//Storyboard Layer 3 (Foreground)
//Storyboard Sound Samples

[TimingPoints]
77,491.803278688525,4,2,1,50,1,0
77,-133.333333333333,4,2,1,50,0,0
3273,-100,4,2,1,50,0,0
4011,-50,4,2,1,50,0,0
4749,-100,4,2,1,50,0,0
7945,-50,4,2,1,50,0,0
8437,-100,4,2,1,50,0,0
8683,-50,4,2,1,50,0,0
9175,-100,4,2,1,50,0,0
11880,-50,4,2,1,50,0,0
12863,-100,4,2,1,50,0,0
13601,-50,4,2,1,50,0,0
14585,-100,4,2,1,50,0,0
15814,-133.333333333333,4,2,1,50,0,0
19749,-100,4,2,1,50,0,0
21224,-50,4,2,1,50,0,0
22208,-100,4,2,1,50,0,0
23683,-50,4,2,1,50,0,0
24667,-100,4,2,1,50,0,0
31552,-133.333333333333,4,2,1,50,0,0
34503,-100,4,2,1,50,0,0
36962,-100,4,2,1,50,0,0
37454,-50,4,2,1,50,0,0
38191,-100,4,2,1,50,0,0
41388,-50,4,2,1,50,0,0
41880,-100,4,2,1,50,0,0
44708,-50,4,2,1,50,0,0
53191,-133.333333333333,4,2,1,50,0,0
55158,-100,4,2,1,50,0,0

[HitObjects]
183,90,77,6,0,L|291:101,1,89.9999980688095
360,210,568,1,0,0:0:0:0:
284,21,814,1,0,0:0:0:0:
477,139,1060,2,0,L|381:132,1,89.9999980688095
194,161,1552,1,0,0:0:0:0:
199,190,1674,1,0,0:0:0:0:
224,303,2044,1,0,0:0:0:0:
218,273,2166,1,0,0:0:0:0:
194,161,2536,1,0,0:0:0:0:
194,161,3273,6,0,L|97:169,2,79.9999952316285
325,175,4011,2,0,P|400:104|280:122,1,239.999985694885
154,239,4503,1,0,0:0:0:0:
308,64,4749,2,0,L|260:69,1,39.9999976158142
65,88,4995,1,0,0:0:0:0:
257,226,5240,5,0,0:0:0:0:
162,43,5486,1,0,0:0:0:0:
62,250,5732,1,0,0:0:0:0:
296,222,5978,2,0,L|242:227,1,39.9999976158142
62,250,6224,1,0,0:0:0:0:
268,68,6470,1,0,0:0:0:0:
190,277,6716,2,0,L|185:223,1,39.9999976158142
162,43,6962,1,0,0:0:0:0:
25,177,7208,6,0,L|122:169,1,79.9999952316285
248,156,7699,1,0,0:0:0:0:
341,87,7945,6,0,P|433:129|357:197,1,239.999985694885
208,159,8437,2,0,L|262:154,1,39.9999976158142
98,116,8683,2,0,P|22:184|115:227,1,239.999985694885
247,155,9175,2,0,L|193:160,1,39.9999976158142
337,272,9421,5,0,0:0:0:0:
309,38,9667,2,0,L|314:92,1,39.9999976158142
337,272,9913,1,0,0:0:0:0:
155,66,10159,1,0,0:0:0:0:
364,144,10405,2,0,L|310:149,1,39.9999976158142
130,172,10651,1,0,0:0:0:0:
309,38,10896,1,0,0:0:0:0:
209,164,11142,2,0,L|217:261,2,79.9999952316285
309,38,11880,6,0,P|350:26|406:30,1,79.9999952316285
469,95,12126,1,0,0:0:0:0:
401,186,12249,2,0,P|360:198|304:194,1,79.9999952316285
155,66,12495,2,0,P|79:133|169:175,1,159.999990463257
207,318,12863,2,0,L|202:264,1,39.9999976158142
192,157,13109,2,0,L|197:211,1,39.9999976158142
278,232,13355,1,0,0:0:0:0:
155,66,13601,5,0,0:0:0:0:
97,167,13724,1,0,0:0:0:0:
259,100,13847,2,0,P|274:139|275:195,1,79.9999952316285
164,272,14093,1,0,0:0:0:0:
63,330,14216,2,0,P|130:254|172:344,1,159.999990463257
277,377,14585,2,0,L|282:323,1,39.9999976158142
294,192,14830,2,0,L|289:246,1,39.9999976158142
164,272,15077,2,0,L|203:275,1,39.9999976158142
364,285,15322,1,0,0:0:0:0:
288,96,15568,1,0,0:0:0:0:
187,165,15814,6,0,L|295:176,1,89.9999980688095
364,285,16305,1,0,0:0:0:0:
288,96,16551,1,0,0:0:0:0:
409,211,16798,2,0,L|360:208,2,29.9999993562698
148,105,17167,2,0,P|118:134|117:180,1,89.9999980688095
211,301,17781,6,0,L|202:254,1,29.9999993562698
269,218,18027,1,0,0:0:0:0:
336,264,18150,1,0,0:0:0:0:
350,176,18273,6,0,L|341:129,1,29.9999993562698
281,93,18519,1,0,0:0:0:0:
223,150,18642,1,0,0:0:0:0:
139,95,18765,5,0,0:0:0:0:
110,101,18888,1,0,0:0:0:0:
80,107,19011,1,0,0:0:0:0:
51,113,19134,1,0,0:0:0:0:
21,119,19256,1,0,0:0:0:0:
105,261,19749,6,0,L|202:253,1,79.9999952316285
341,148,20240,2,0,L|244:156,1,79.9999952316285
105,261,20732,1,0,0:0:0:0:
341,148,20978,1,0,0:0:0:0:
84,337,21224,2,0,P|113:337|183:282,1,119.999992847443
274,78,21593,2,0,B|261:155|261:155|299:227,1,159.999990463257
368,326,21962,1,0,0:0:0:0:
489,160,22208,6,0,P|440:160|397:178,1,79.9999952316285
298,227,22699,2,0,B|260:155|260:155|273:78,1,159.999990463257
261,155,22945,1,0,0:0:0:0:
274,78,23191,2,0,L|177:86,1,79.9999952316285
12,119,23683,6,0,P|103:137|129:212,1,159.999990463257
95,328,24175,1,0,0:0:0:0:
285,310,24421,1,0,0:0:0:0:
129,191,24667,2,0,L|226:183,1,79.9999952316285
350,175,25158,1,0,0:0:0:0:
86,176,31060,5,0,0:0:0:0:
254,188,31224,1,0,0:0:0:0:
417,206,31388,1,0,0:0:0:0:
156,328,31552,5,0,0:0:0:0:
348,45,31798,1,0,0:0:0:0:
156,328,32044,1,0,0:0:0:0:
348,45,32290,1,0,0:0:0:0:
86,176,32536,5,0,0:0:0:0:
417,206,32658,1,0,0:0:0:0:
86,176,33027,5,0,0:0:0:0:
417,206,33149,1,0,0:0:0:0:
255,299,33519,5,0,0:0:0:0:
289,279,33641,1,0,0:0:0:0:
328,271,33764,1,0,0:0:0:0:
368,276,33887,1,0,0:0:0:0:
473,311,34011,5,0,0:0:0:0:
436,262,34134,1,0,0:0:0:0:
417,206,34257,1,0,0:0:0:0:
416,146,34379,1,0,0:0:0:0:
444,48,34503,6,0,L|429:57,1,19.9999988079071
370,81,34626,2,0,L|352:86,1,19.9999988079071
289,93,34749,2,0,L|270:92,1,19.9999988079071
209,79,34872,2,0,L|192:70,1,19.9999988079071
135,38,34995,1,0,0:0:0:0:
306,175,36962,6,0,L|266:170,1,39.9999976158142
309,179,37454,2,0,P|393:131|276:78,1,239.999985694885
116,99,37945,1,0,0:0:0:0:
314,252,38191,1,0,0:0:0:0:
274,246,38313,1,0,0:0:0:0:
229,117,38437,2,0,L|288:125,1,39.9999976158142
427,270,38683,1,0,0:0:0:0:
387,264,38806,2,0,L|328:256,1,39.9999976158142
159,230,39175,6,0,L|218:238,1,39.9999976158142
427,270,39421,1,0,0:0:0:0:
387,264,39543,1,0,0:0:0:0:
274,246,39667,1,0,0:0:0:0:
313,251,39789,1,0,0:0:0:0:
346,361,39913,1,0,0:0:0:0:
340,321,40035,1,0,0:0:0:0:
351,144,40158,1,0,0:0:0:0:
356,183,40280,1,0,0:0:0:0:
263,328,40404,1,0,0:0:0:0:
480,193,40650,2,0,L|440:187,1,39.9999976158142
220,152,40896,6,0,L|260:157,1,39.9999976158142
224,156,41388,2,0,P|140:204|257:257,1,239.999985694885
410,228,41879,1,0,0:0:0:0:
212,75,42125,2,0,L|271:83,1,39.9999976158142
297,210,42371,1,0,0:0:0:0:
99,57,42617,2,0,L|158:65,1,39.9999976158142
349,181,43109,6,0,L|290:173,1,39.9999976158142
73,142,43355,1,0,0:0:0:0:
112,147,43477,1,0,0:0:0:0:
226,166,43601,1,0,0:0:0:0:
186,160,43723,1,0,0:0:0:0:
154,51,43847,1,0,0:0:0:0:
159,90,43969,1,0,0:0:0:0:
149,268,44093,1,0,0:0:0:0:
143,228,44215,1,0,0:0:0:0:
237,84,44339,1,0,0:0:0:0:
276,89,44461,1,0,0:0:0:0:
318,95,44585,5,0,0:0:0:0:
226,166,44708,2,0,P|256:257|310:177,1,239.999985694885
337,163,54298,6,0,L|374:164,2,29.9999993562698
230,161,54667,2,0,L|196:160,1,29.9999993562698
109,160,54913,1,0,0:0:0:0:
68,161,55036,1,0,0:0:0:0:
80,111,57986,5,0,0:0:0:0:
365,171,58601,6,0,L|314:180,1,39.9999976158142
