osu file format v14

[General]
AudioFilename: audio.mp3
AudioLeadIn: 0
PreviewTime: 20628
Countdown: 0
SampleSet: None
StackLeniency: 0.7
Mode: 0
LetterboxInBreaks: 0
WidescreenStoryboard: 0

[Editor]
Bookmarks: 629,11343,23486,34914,46343,57771,69200,80628,92057,103486,126343,139200,162057,173486,184914
DistanceSpacing: 1.8
BeatDivisor: 4
GridSize: 4
TimelineZoom: 2.699999

[Metadata]
Title:ROCKET
TitleUnicode:ROCKET
Artist:SEVENTEEN
ArtistUnicode:세븐틴 (SEVENTEEN)
Creator:Azure
Version:ROCKET
Source:
Tags:Joshua Vernon
BeatmapID:1506179
BeatmapSetID:712552

[Difficulty]
HPDrainRate:8
CircleSize:4
OverallDifficulty:8
ApproachRate:9
SliderMultiplier:1.8
SliderTickRate:1

[Events]
//Background and Video events
0,0,"3736064c87072e77d0ff14703ff58da4.1000x1000x1.jpg",0,0
//Break Periods
//Storyboard Layer 0 (Background)
//Storyboard Layer 1 (Fail)
//Storyboard Layer 2 (Pass)
//Storyboard Layer 3 (Foreground)
//Storyboard Sound Samples

[TimingPoints]
629,357.142857142857,4,2,1,50,1,0
11343,-100,4,1,5,50,0,0
11521,-100,4,1,5,70,0,0
11878,-100,4,2,1,70,0,0
21343,-83.3333333333333,4,2,1,70,0,0
22057,-71.4285714285714,4,2,1,70,0,0
22414,-100,4,2,1,70,0,0
34200,-100,4,1,5,70,0,0
34557,-133.333333333333,4,2,1,70,0,0
34914,-133.333333333333,4,2,1,70,0,0
38843,-200,4,2,1,70,0,0
39557,-133.333333333333,4,2,5,70,0,0
45628,-100,4,2,1,70,0,0
46343,-100,4,2,1,70,0,1
51789,-100,4,2,5,70,0,1
52057,-100,4,2,1,70,0,1
58128,-76.9230769230769,4,2,1,70,0,0
59200,-100,4,2,1,70,0,0
60986,-76.9230769230769,4,2,1,70,0,0
62057,-100,4,2,1,70,0,0
63843,-76.9230769230769,4,2,1,70,0,0
64914,-100,4,2,1,70,0,0
67593,-83.3333333333333,4,2,1,70,0,0
68486,-166.666666666667,4,2,1,70,0,0
69557,-166.666666666667,4,2,1,40,0,0
78128,-125,4,2,1,70,0,0
79736,-100,4,2,1,70,0,0
80628,-83.3333333333333,4,2,1,70,0,0
80986,-100,4,2,1,70,0,0
83128,-166.666666666667,4,2,1,70,0,0
83486,-100,4,2,1,70,0,0
83843,-166.666666666667,4,2,1,70,0,0
84200,-83.3333333333333,4,2,1,70,0,0
84557,-166.666666666667,4,2,1,70,0,0
84914,-100,4,2,1,70,0,0
86343,-100,4,2,1,70,0,0
87414,-83.3333333333333,4,2,1,70,0,0
87771,-100,4,2,1,70,0,0
88843,-83.3333333333333,4,2,1,70,0,0
89200,-100,4,2,1,70,0,0
91343,-100,4,2,5,40,0,0
91700,-100,4,2,1,70,0,0
92057,-133.333333333333,4,2,1,70,0,0
96343,-181.818181818181,4,2,1,70,0,0
96700,-133.333333333333,4,2,5,70,0,0
97057,-100,4,2,5,70,0,0
97771,-133.333333333333,4,2,1,70,0,0
101343,-111.111111111111,4,2,1,70,0,0
102057,-111.111111111111,4,2,5,70,0,0
102414,-111.111111111111,4,2,1,70,0,0
103128,-142.857142857143,4,2,1,70,0,0
103486,-100,4,2,1,70,0,0

[Colours]
Combo1 : 234,128,179
Combo2 : 106,53,149
Combo3 : 182,90,156
Combo4 : 163,154,205

[HitObjects]
80,72,11343,5,0,0:0:0:0:
84,80,11432,1,0,0:0:0:0:
88,88,11521,1,0,0:0:0:0:
92,96,11611,1,2,0:0:0:0:
96,104,11700,2,0,L|200:92,1,90,2|0,0:0|3:0,0:0:0:0:
380,48,12057,2,0,P|388:128|336:220,1,180,0|8,1:0|3:0,0:0:0:0:
342,213,13128,1,10,3:0:0:0:
268,316,13307,2,0,L|178:326,2,90
388,356,13843,6,0,P|388:308|416:264,1,90,8|0,3:0|1:0,0:0:0:0:
332,172,14200,2,0,P|373:148|425:150,1,90
448,24,14557,2,0,L|513:94,1,90,10|0,3:0|0:0,0:0:0:0:
332,172,14914,2,0,L|304:16,1,135,0|0,1:0|3:0,0:0:0:0:
236,28,15271,2,0,P|192:32|152:64,1,90,8|0,3:0|0:0,0:0:0:0:
155,58,15986,1,10,3:0:0:0:
88,140,16164,2,0,P|40:140|-8:112,1,90
155,58,16521,1,0,0:0:0:0:
196,160,16700,5,8,3:0:0:0:
196,160,16878,1,0,1:0:0:0:
196,160,17057,2,0,L|184:288,1,90
64,356,17414,2,0,L|72:266,1,90,10|0,3:0|0:0,0:0:0:0:
120,112,17771,2,0,P|180:76|268:100,1,135,0|0,1:0|3:0,0:0:0:0:
288,140,18128,2,0,L|400:124,1,90,8|0,3:0|0:0,0:0:0:0:
144,32,18664,1,0,1:0:0:0:
36,96,18843,2,0,L|44:220,1,90,10|0,3:0|0:0,0:0:0:0:
8,364,19200,5,0,0:0:0:0:
112,292,19378,2,0,P|156:280|208:292,1,90,0|8,0:0|3:0,0:0:0:0:
368,352,19736,1,0,1:0:0:0:
468,276,19914,2,0,P|475:232|463:189,1,90
336,60,20271,2,0,L|348:40,6,22.5,10|0|0|0|0|0|0,3:0|0:0|0:0|0:0|0:0|0:0|0:0,0:0:0:0:
328,72,20628,6,0,B|280:80|280:80|216:64,2,90,0|0|8,1:0|0:0|3:0,0:0:0:0:
504,28,21164,1,0,0:0:0:0:
336,172,21343,2,0,B|300:208|300:208|224:224,2,107.999996704102,0|0|10,0:0|1:0|3:0,0:0:0:0:
504,28,21878,1,0,0:0:0:0:
436,248,22057,2,0,B|428:312|428:312|380:376,2,125.999996154785,0|0|8,1:0|0:0|3:0,0:0:0:0:
504,28,22593,1,0,0:0:0:0:
512,272,22771,2,0,L|504:384,1,90,4|2,3:3|0:0,0:0:0:0:
284,356,23128,2,0,L|290:266,1,90,4|2,3:3|0:0,0:0:0:0:
212,44,23486,5,2,1:2:0:0:
156,156,23664,1,0,0:0:0:0:
280,144,23843,1,8,3:0:0:0:
212,44,24021,1,0,0:0:0:0:
88,60,24200,2,0,L|-8:48,1,90,0|0,0:0|1:0,0:0:0:0:
129,179,24557,2,0,L|40:168,1,90,10|0,3:0|1:0,0:0:0:0:
212,276,24914,5,0,0:0:0:0:
256,160,25092,1,0,0:0:0:0:
129,179,25271,1,8,3:0:0:0:
212,276,25449,1,0,1:0:0:0:
336,256,25628,2,0,L|348:368,1,90,0|0,0:0|1:0,0:0:0:0:
442,186,25986,2,0,L|452:276,1,90,10|0,3:0|0:0,0:0:0:0:
312,168,26343,1,0,1:0:0:0:
212,92,26521,1,0,0:0:0:0:
316,24,26700,2,0,P|360:8|420:28,1,90,8|0,3:0|1:0,0:0:0:0:
272,196,27057,5,0,0:0:0:0:
147,180,27235,1,0,0:0:0:0:
204,68,27414,1,0,0:0:0:0:
204,68,27771,5,0,1:0:0:0:
216,228,27949,1,0,0:0:0:0:
24,168,28128,2,0,L|54:68,1,90,8|0,3:0|0:0,0:0:0:0:
308,32,28486,2,0,L|281:117,1,90
372,204,28843,2,0,L|388:260,1,45,10|0,3:0|0:0,0:0:0:0:
416,316,29021,1,0,0:0:0:0:
424,336,29111,1,0,0:0:0:0:
440,348,29200,6,0,P|400:376|328:380,1,90,4|0,1:2|0:0,0:0:0:0:
388,180,29557,2,0,P|428:152|500:148,1,90,8|0,3:0|0:0,0:0:0:0:
228,212,29914,1,0,0:0:0:0:
176,96,30093,1,0,0:0:0:0:
388,180,30271,1,10,3:0:0:0:
340,264,30450,1,0,1:0:0:0:
308,92,30628,5,0,0:0:0:0:
432,60,30807,1,0,0:0:0:0:
313,283,30986,1,8,3:0:0:0:
189,251,31165,1,0,1:0:0:0:
68,216,31343,2,0,L|76:320,1,90,0|0,0:0|1:0,0:0:0:0:
136,116,31700,2,0,L|129:26,1,90,10|0,3:0|0:0,0:0:0:0:
220,200,32057,6,0,P|264:204|320:192,1,90,0|0,1:0|0:0,0:0:0:0:
416,128,32414,2,0,P|436:172|436:228,1,90,8|0,3:0|0:0,0:0:0:0:
308,88,32771,2,0,P|336:48|384:20,1,90,0|0,0:0|1:0,0:0:0:0:
308,195,33128,2,0,L|200:183,1,90,10|0,3:0|1:0,0:0:0:0:
400,288,33486,2,0,L|508:276,1,90
276,328,33843,1,0,0:0:0:0:
276,328,34021,1,0,0:0:0:0:
276,328,34200,1,0,1:0:0:0:
260,336,34289,1,0,0:0:0:0:
244,344,34378,1,0,0:0:0:0:
228,352,34468,1,0,0:0:0:0:
212,360,34557,6,0,L|68:348,1,135.000005149842,0|2,0:0|0:0,0:0:0:0:
77,348,35271,1,0,0:0:0:0:
77,348,35628,2,0,P|69:317|72:268,1,67.5000025749208
61,216,35986,2,0,P|68:247|66:296,1,67.5000025749208
36,104,36343,5,2,0:0:0:0:
36,104,36700,1,0,0:0:0:0:
36,104,37057,2,0,L|108:108,1,67.5000025749208
170,104,37414,2,0,L|102:107,1,67.5000025749208
276,72,37771,5,2,0:0:0:0:
276,72,38128,1,0,0:0:0:0:
276,72,38486,2,0,L|272:152,1,67.5000025749208
160,300,38843,6,0,P|104:328|148:280,1,180
208,68,39914,6,0,L|279:73,1,67.5000025749208
340,140,40271,2,0,L|411:145,1,67.5000025749208
496,104,40628,1,0,1:0:0:0:
496,200,40807,1,0,0:0:0:0:
496,200,40896,1,0,0:0:0:0:
496,200,40986,2,0,B|504:232|504:232|488:276,1,67.5000025749208,0|0,0:0|1:0,0:0:0:0:
396,360,41343,2,0,B|388:328|388:328|404:284,1,67.5000025749208,2|0,1:0|0:0,0:0:0:0:
304,136,41700,2,0,L|276:208,1,67.5000025749208
208,344,42057,6,0,L|183:281,1,67.5000025749208,0|0,1:0|0:0,0:0:0:0:
183,281,42325,1,0,0:0:0:0:
183,281,42414,2,0,P|156:268|104:264,1,67.5000025749208,0|0,0:0|1:0,0:0:0:0:
28,108,42771,2,0,P|55:121|107:125,1,67.5000025749208,2|0,1:0|0:0,0:0:0:0:
268,84,43128,1,0,0:0:0:0:
344,28,43307,1,0,0:0:0:0:
416,88,43486,2,0,L|504:80,1,67.5000025749208,0|0,1:0|0:0,0:0:0:0:
268,84,43843,1,0,0:0:0:0:
268,84,44200,6,0,L|180:76,1,67.5000025749208,2|0,1:0|0:0,0:0:0:0:
416,88,44557,1,0,0:0:0:0:
436,180,44736,2,0,P|440:216|428:264,1,67.5000025749208,0|2,0:0|1:0,0:0:0:0:
292,348,45093,1,2,1:0:0:0:
228,280,45271,2,0,P|224:244|236:196,1,67.5000025749208,0|0,1:0|1:0,0:0:0:0:
232,204,45539,1,0,2:0:0:0:
236,196,45628,6,0,L|328:184,1,90,0|0,0:0|1:0,0:0:0:0:
236,196,45986,2,0,L|144:184,1,90,0|0,0:0|1:0,0:0:0:0:
40,332,46343,6,0,B|56:272|0:232|0:232|-8:196|36:148,1,180,4|8,0:0|3:2,0:0:0:0:
96,56,46878,2,0,P|173:71|147:146,1,180,0|0,1:0|0:0,0:0:0:0:
16,171,47414,1,8,3:2:0:0:
96,56,47593,2,0,B|136:12|192:28|192:28|216:68|272:60,1,180,0|0,1:0|0:0,0:0:0:0:
472,32,48128,1,8,3:2:0:0:
380,120,48307,1,0,1:0:0:0:
380,120,48396,1,0,0:0:0:0:
380,120,48486,1,0,0:0:0:0:
472,32,48664,1,0,1:0:0:0:
504,152,48843,2,0,L|500:276,1,90,8|0,3:2|0:0,0:0:0:0:
364,360,49200,6,0,L|356:252,1,90,0|0,1:0|0:0,0:0:0:0:
184,324,49557,2,0,L|192:216,1,90,8|0,3:2|1:0,0:0:0:0:
176,152,49825,1,0,0:0:0:0:
176,152,49914,2,0,P|136:136|80:148,1,90
76,324,50271,1,8,3:2:0:0:
68,124,50450,1,0,1:0:0:0:
76,324,50628,2,0,L|184:316,2,90,0|0|8,1:0|0:0|3:2,0:0:0:0:
240,260,51164,1,0,1:0:0:0:
336,360,51343,2,0,L|228:352,2,90,0|0|8,0:0|0:0|3:2,0:0:0:0:
416,344,51789,1,0,1:0:0:0:
416,344,51878,2,0,L|424:280,1,45,2|0,1:0|0:0,0:0:0:0:
500,132,52057,6,0,B|456:80|404:92|404:92|384:128|344:128,1,180,0|8,1:0|3:2,0:0:0:0:
208,32,52593,2,0,P|276:-16|328:56,1,180,0|0,1:0|0:0,0:0:0:0:
152,160,53128,2,0,B|104:120|120:64|120:64|104:28|32:56,1,180,8|0,3:2|0:0,0:0:0:0:
8,196,53664,1,0,0:0:0:0:
204,88,53843,2,0,L|312:96,1,90,8|0,3:2|1:0,0:0:0:0:
424,0,54200,2,0,L|416:108,1,90,0|0,0:0|1:0,0:0:0:0:
448,276,54557,1,8,3:2:0:0:
348,352,54736,2,0,L|296:348,1,45
236,304,54914,6,0,L|146:297,1,90,0|0,1:0|0:0,0:0:0:0:
40,232,55271,1,8,3:2:0:0:
40,232,55361,1,0,0:0:0:0:
40,232,55450,2,0,P|28:188|44:120,1,90
152,36,55807,1,0,1:0:0:0:
260,104,55986,2,0,P|272:148|256:216,1,90,8|0,3:2|0:0,0:0:0:0:
184,284,56343,5,0,1:0:0:0:
266,191,56521,2,0,L|334:199,1,45
372,248,56700,2,0,L|484:264,1,90,8|0,0:0|0:0,0:0:0:0:
312,344,57057,1,0,1:0:0:0:
266,191,57236,1,0,1:0:0:0:
266,191,57325,1,0,0:0:0:0:
266,191,57414,2,0,L|264:228,7,22.5,8|0|0|0|0|0|0|0,3:2|0:0|0:0|0:0|0:0|0:0|0:0|0:0,0:0:0:0:
248,164,57771,1,4,0:0:0:0:
188,52,57950,1,0,0:0:0:0:
76,108,58128,6,0,B|40:104|24:132|24:132|-8:136|-28:96,2,116.999994644165,8|0|0,3:2|1:0|0:0,0:0:0:0:
188,52,58664,2,0,B|216:16|244:32|244:32|264:56|308:56,2,116.999994644165,0|8|0,0:0|3:2|1:0,0:0:0:0:
76,108,59200,5,0,0:0:0:0:
180,176,59378,2,0,L|172:276,1,90,0|8,0:0|3:2,0:0:0:0:
308,356,59736,2,0,P|344:292|432:328,1,180,0|0,1:0|1:0,0:0:0:0:
308,356,60271,1,8,3:2:0:0:
172,265,60450,2,0,L|180:176,1,90,0|0,0:0|1:0,0:0:0:0:
276,44,60807,1,0,0:0:0:0:
376,120,60986,6,0,B|408:112|436:132|436:132|464:128|480:80,2,116.999994644165,8|0|0,2:2|1:0|0:0,0:0:0:0:
276,44,61521,2,0,B|244:56|216:36|216:36|192:32|160:68,2,116.999994644165,0|8|0,0:0|3:2|1:0,0:0:0:0:
376,120,62057,5,0,1:0:0:0:
296,216,62236,2,0,L|184:236,1,90,0|8,0:0|3:2,0:0:0:0:
36,296,62593,2,0,P|100:276|96:372,1,180,0|0,1:0|0:0,0:0:0:0:
0,212,63128,2,0,L|12:156,1,45,8|2,3:2|0:0,0:0:0:0:
84,132,63307,2,0,L|96:76,1,45
168,24,63486,1,0,1:0:0:0:
260,120,63664,1,0,0:0:0:0:
384,84,63843,6,0,B|416:88|436:56|436:56|472:48|504:80,2,116.999994644165,8|0|0,3:2|1:0|0:0,0:0:0:0:
260,120,64378,2,0,B|232:120|208:144|208:144|176:156|136:120,2,116.999994644165,0|8|0,0:0|3:2|1:0,0:0:0:0:
384,84,64914,5,0,0:0:0:0:
468,180,65093,2,0,P|480:224|464:284,1,90,0|8,0:0|3:2,0:0:0:0:
312,352,65450,2,0,P|300:308|316:248,1,90,0|0,1:0|0:0,0:0:0:0:
144,252,65807,2,0,L|220:181,1,90,0|8,1:0|3:2,0:0:0:0:
96,76,66164,2,0,P|120:88|160:88,1,45
212,60,66343,6,0,L|332:52,2,90,0|0|8,1:0|0:0|3:2,0:0:0:0:
24,128,66878,1,0,0:0:0:0:
36,144,66968,1,0,0:0:0:0:
44,160,67057,2,0,P|48:208|36:260,2,90,0|0|8,0:0|1:0|3:2,0:0:0:0:
122,54,67593,6,0,B|136:64|136:64|152:56|152:56|248:60,1,107.999996704102,0|0,0:0|3:0,0:0:0:0:
224,59,68486,6,0,P|288:107|228:95,1,215.999993408203,0|4,3:0|3:2,0:0:0:0:
234,102,69557,6,0,L|242:174,1,53.9999983520508
220,240,69914,2,0,P|192:248|148:248,1,53.9999983520508
308,212,70271,2,0,P|336:204|380:204,1,53.9999983520508
468,276,70628,1,0,0:0:0:0:
468,276,70807,1,0,0:0:0:0:
408,352,70986,1,0,0:0:0:0:
408,352,71164,1,0,0:0:0:0:
268,320,71343,2,0,L|336:316,1,53.9999983520508
152,356,71700,1,0,0:0:0:0:
124,344,72057,6,0,L|120:272,1,53.9999983520508
52,240,72414,2,0,L|54:186,1,53.9999983520508
96,112,72771,2,0,P|68:104|32:100,2,53.9999983520508
160,168,73307,1,0,0:0:0:0:
160,168,73664,6,0,P|208:156|284:152,1,107.999996704102
436,120,74378,1,0,0:0:0:0:
436,120,74557,2,0,L|432:184,1,53.9999983520508
376,352,74914,6,0,B|379:320|379:320|368:288|368:288|376:240,1,107.999996704102
432,173,75450,1,0,0:0:0:0:
356,128,75628,2,0,L|300:124,1,53.9999983520508
228,80,75986,2,0,L|174:83,1,53.9999983520508
100,40,76343,1,0,0:0:0:0:
48,148,76521,1,0,0:0:0:0:
100,40,76700,2,0,P|128:55|144:72,1,53.9999983520508
240,136,77057,2,0,P|212:152|190:158,1,53.9999983520508
84,212,77414,2,0,P|82:179|89:157,1,53.9999983520508
100,40,77771,1,0,0:0:0:0:
240,136,77950,1,0,0:0:0:0:
100,40,78128,6,0,L|104:128,1,72
40,180,78486,2,0,L|36:268,1,72
20,344,78843,1,0,0:0:0:0:
164,276,79021,1,0,0:0:0:0:
20,344,79200,1,0,0:0:0:0:
20,344,79289,1,0,0:0:0:0:
20,344,79378,1,0,0:0:0:0:
184,368,79557,2,0,L|224:368,1,36,0|2,0:0|0:0,0:0:0:0:
236,376,79736,6,0,P|280:370|336:372,1,90
468,280,80093,2,0,P|423:280|378:274,1,90
228,232,80450,1,0,0:0:0:0:
184,132,80628,6,0,P|212:60|208:132,1,215.999993408203,4|0,3:2|0:0,0:0:0:0:
208,256,81164,5,0,0:0:0:0:
104,224,81343,2,0,P|56:224|12:216,2,90,0|0|2,0:0|1:0|3:0,0:0:0:0:
228,232,81878,1,0,1:0:0:0:
432,336,82057,1,0,0:0:0:0:
329,194,82236,1,0,0:0:0:0:
495,248,82414,1,8,3:0:0:0:
329,302,82593,1,0,1:0:0:0:
448,128,82771,1,0,0:0:0:0:
408,356,82950,1,0,1:0:0:0:
260,216,83128,6,0,L|276:116,1,80.9999975280763,2|0,3:0|3:0,0:0:0:0:
308,128,83486,6,0,L|292:20,1,90,0|0,1:0|0:0,0:0:0:0:
244,240,83843,6,0,P|244:272|240:308,1,53.9999983520508,8|0,3:0|1:0,0:0:0:0:
352,208,84200,6,0,L|476:192,1,107.999996704102
204,168,84557,6,0,P|178:164|132:164,1,53.9999983520508
16,208,84914,6,0,L|20:232,7,22.5,0|0|0|0|0|0|0|0,1:0|0:0|0:0|0:0|0:0|0:0|0:0|0:0,0:0:0:0:
52,268,85271,2,0,L|48:292,7,22.5
12,332,85628,1,2,3:0:0:0:
12,332,86343,6,0,L|160:324,1,135,4|0,1:2|0:0,0:0:0:0:
160,300,86700,2,0,P|202:307|264:312,1,90,8|0,3:0|0:0,0:0:0:0:
420,348,87057,1,0,0:0:0:0:
340,276,87236,1,0,0:0:0:0:
420,348,87414,6,0,L|424:280,1,53.9999983520508,2|0,3:0|0:0,0:0:0:0:
488,144,87593,2,0,L|492:212,1,53.9999983520508,0|0,1:0|0:0,0:0:0:0:
436,48,87771,6,0,L|300:64,1,135
296,92,88128,2,0,L|192:80,1,90,8|0,3:0|1:0,0:0:0:0:
28,124,88486,1,0,0:0:0:0:
96,40,88664,1,0,1:0:0:0:
28,124,88843,6,0,P|30:155|32:192,1,53.9999983520508,2|0,3:0|0:0,0:0:0:0:
116,292,89021,2,0,P|113:260|112:224,1,53.9999983520508
40,348,89200,6,0,L|144:340,1,90,0|0,1:0|0:0,0:0:0:0:
156,324,89468,1,0,0:0:0:0:
156,324,89557,2,0,P|202:332|256:336,1,90,8|0,3:0|0:0,0:0:0:0:
424,340,89914,1,0,0:0:0:0:
494,258,90093,1,0,1:0:0:0:
439,165,90272,1,2,3:0:0:0:
333,190,90450,1,0,1:0:0:0:
439,165,90628,6,0,P|446:143|452:116,1,45
352,48,90807,2,0,P|344:69|339:97,1,45
504,64,90986,2,0,L|492:8,1,45,8|0,3:0|0:0,0:0:0:0:
240,112,91164,2,0,L|252:168,1,45
161,33,91343,5,0,1:0:0:0:
122,44,91432,1,0,1:0:0:0:
94,72,91522,1,0,1:0:0:0:
83,111,91611,1,2,2:1:0:0:
94,151,91700,2,0,L|88:208,1,45,2|0,3:0|0:0,0:0:0:0:
192,244,91878,2,0,L|198:301,1,45
96,372,92057,5,2,1:2:0:0:
96,372,92414,1,0,0:0:0:0:
96,372,92771,2,0,P|62:360|16:356,1,67.5000025749208
131,304,93128,2,0,P|164:292|211:288,1,67.5000025749208
376,320,93486,5,0,1:0:0:0:
376,320,93843,1,0,0:0:0:0:
376,320,94200,2,0,P|400:344|420:384,1,67.5000025749208
352,240,94557,2,0,P|328:216|308:176,1,67.5000025749208
200,36,94914,5,0,1:0:0:0:
200,36,95271,1,0,0:0:0:0:
200,36,95628,2,0,P|232:36|280:28,1,67.5000025749208
172,116,95986,2,0,P|140:116|92:108,1,67.5000025749208
8,68,96343,6,0,P|18:105|24:156,1,74.2500022659302,0|0,1:0|3:0,0:0:0:0:
36,192,96700,1,0,1:0:0:0:
32,212,96789,1,0,1:0:0:0:
32,232,96878,1,0,1:0:0:0:
40,252,96967,1,0,1:0:0:0:
52,268,97057,6,0,B|72:312|56:336|56:336|48:308|12:296,2,120,2|0|0,2:1|1:0|1:0,0:0:0:0:
176,192,97771,5,0,1:0:0:0:
176,192,98128,2,0,L|272:200,1,67.5000025749208
308,332,98486,2,0,L|240:326,2,67.5000025749208,0|0|0,1:0|0:0|0:0,0:0:0:0:
400,356,99021,1,0,0:0:0:0:
468,288,99200,5,0,1:0:0:0:
444,196,99378,1,0,0:0:0:0:
444,196,99468,1,0,0:0:0:0:
444,196,99557,2,0,L|436:120,1,67.5000025749208
344,19,99914,1,0,1:0:0:0:
228,178,100093,1,0,0:0:0:0:
415,117,100271,1,0,0:0:0:0:
228,56,100450,1,0,0:0:0:0:
344,216,100628,6,0,P|333:253|328:300,1,67.5000025749208,0|0,1:0|0:0,0:0:0:0:
244,368,100986,2,0,P|233:330|228:284,1,67.5000025749208,0|0,1:0|0:0,0:0:0:0:
152,156,101343,6,0,L|136:260,1,80.9999975280763,0|0,1:0|0:0,0:0:0:0:
16,372,101700,2,0,L|28:291,1,80.9999975280763,0|0,1:0|0:0,0:0:0:0:
40,112,102057,1,0,1:0:0:0:
136,344,102236,1,2,1:0:0:0:
272,164,102414,5,0,1:0:0:0:
280,168,102503,1,0,1:0:0:0:
288,172,102593,2,0,L|352:168,1,40.4999987640381,0|0,1:0|1:0,0:0:0:0:
440,128,102771,1,0,1:0:0:0:
448,160,102861,1,0,1:0:0:0:
456,192,102950,1,0,1:0:0:0:
464,224,103039,1,0,1:0:0:0:
472,256,103128,2,0,B|472:280|452:296|452:296|392:304,1,94.499997116089,0|0,0:0|3:0,0:0:0:0:
380,288,103486,6,0,P|296:256|248:320,1,180
112,360,104021,2,0,B|132:296|76:264|76:264|48:236|80:160,1,180
116,64,104557,1,0,0:0:0:0:
116,64,104736,2,0,P|136:143|65:200,1,180
144,36,105271,2,0,L|256:44,1,90
288,104,105539,1,0,0:0:0:0:
288,104,105628,2,0,P|336:96|380:96,1,90
504,28,105986,1,0,0:0:0:0:
384,128,106164,1,0,0:0:0:0:
508,68,106343,2,0,L|524:208,1,135
492,216,106700,2,0,P|504:248|504:276,1,45
468,332,106878,1,0,0:0:0:0:
384,216,107057,1,0,0:0:0:0:
336,352,107236,2,0,L|440:340,2,90
196,324,107771,2,0,P|152:320|96:316,2,90
328,268,108307,1,0,0:0:0:0:
68,244,108486,2,0,P|72:200|68:140,2,90
36,320,108932,1,0,0:0:0:0:
52,340,109021,1,0,0:0:0:0:
76,340,109111,1,0,0:0:0:0:
96,328,109200,2,0,P|180:296|260:336,1,180
416,356,109736,2,0,B|368:328|380:276|380:276|424:236|404:168,1,180
504,308,110271,1,0,0:0:0:0:
320,204,110450,2,0,P|368:124|452:120,1,180
240,152,110986,2,0,P|192:144|140:136,1,90
8,228,111343,2,0,P|52:221|96:213,1,90
172,244,111611,1,0,0:0:0:0:
172,244,111700,1,0,0:0:0:0:
48,348,111878,1,0,0:0:0:0:
212,356,112057,2,0,P|220:308|216:240,1,90
188,116,112414,1,0,0:0:0:0:
172,128,112503,1,0,0:0:0:0:
160,136,112593,2,0,L|48:128,1,90
28,8,112950,1,0,0:0:0:0:
268,60,113128,2,0,P|284:104|276:152,1,90
236,216,113396,1,0,0:0:0:0:
236,216,113486,2,0,P|228:260|256:320,1,90
