osu file format v14

[General]
AudioFilename: audio.mp3
AudioLeadIn: 0
PreviewTime: -1
Countdown: 1
SampleSet: Soft
StackLeniency: 0.7
Mode: 1
LetterboxInBreaks: 0
WidescreenStoryboard: 0

[Editor]
DistanceSpacing: 2.1
BeatDivisor: 4
GridSize: 4
TimelineZoom: 2

[Metadata]
Title:Mansae
TitleUnicode:만세
Artist:SEVENTEEN
ArtistUnicode:세븐틴
Creator:raii
Version:wait, girl
Source:Seventeen
Tags:
BeatmapID:1616000
BeatmapSetID:768396

[Difficulty]
HPDrainRate:5
CircleSize:5
OverallDifficulty:5
ApproachRate:5
SliderMultiplier:1.4
SliderTickRate:1

[Events]
//Background and Video events
0,0,"jygfj.jpg",0,0
//Break Periods
//Storyboard Layer 0 (Background)
//Storyboard Layer 1 (Fail)
//Storyboard Layer 2 (Pass)
//Storyboard Layer 3 (Foreground)
//Storyboard Sound Samples

[TimingPoints]
10968,535.714285714286,4,2,0,100,1,0

[HitObjects]
120,112,10967,5,2,0:0:0:0:
120,112,11503,1,2,0:0:0:0:
120,112,12039,1,2,0:0:0:0:
120,112,12575,1,2,0:0:0:0:
120,112,13110,1,2,0:0:0:0:
120,112,13646,1,2,0:0:0:0:
120,112,14182,1,2,0:0:0:0:
120,112,14717,1,2,0:0:0:0:
120,112,15253,1,2,0:0:0:0:
120,112,15789,1,2,0:0:0:0:
120,112,16325,1,2,0:0:0:0:
120,112,16860,1,2,0:0:0:0:
160,96,18468,1,0,0:0:0:0:
160,96,18601,1,2,0:0:0:0:
160,96,18735,1,0,0:0:0:0:
160,96,19003,1,0,0:0:0:0:
160,96,19271,1,0,0:0:0:0:
160,96,19539,1,2,0:0:0:0:
160,96,20075,1,0,0:0:0:0:
160,96,20343,1,0,0:0:0:0:
160,96,20476,1,2,0:0:0:0:
160,96,20744,1,0,0:0:0:0:
160,96,21146,1,0,0:0:0:0:
160,96,21280,1,2,0:0:0:0:
160,96,21414,1,0,0:0:0:0:
160,96,21682,1,0,0:0:0:0:
160,96,21950,1,0,0:0:0:0:
160,96,22218,1,0,0:0:0:0:
160,96,22485,1,0,0:0:0:0:
160,96,22619,1,2,0:0:0:0:
160,96,22887,1,0,0:0:0:0:
160,96,23289,1,0,0:0:0:0:
160,96,23423,1,2,0:0:0:0:
160,96,23557,1,0,0:0:0:0:
160,96,23825,1,0,0:0:0:0:
160,96,24360,1,0,0:0:0:0:
160,96,24628,1,0,0:0:0:0:
160,96,24762,1,2,0:0:0:0:
160,96,25030,1,0,0:0:0:0:
160,96,25432,1,0,0:0:0:0:
160,96,25566,1,0,0:0:0:0:
160,96,25700,1,2,0:0:0:0:
160,96,25968,1,0,0:0:0:0:
144,100,27039,1,2,0:0:0:0:
144,100,27173,1,0,0:0:0:0:
144,100,27307,1,0,0:0:0:0:
144,100,27441,1,0,0:0:0:0:
144,100,27575,1,2,0:0:0:0:
144,100,27709,1,0,0:0:0:0:
144,100,27843,1,0,0:0:0:0:
144,100,27976,1,0,0:0:0:0:
144,100,28110,1,2,0:0:0:0:
144,100,28646,1,2,0:0:0:0:
144,100,28914,1,2,0:0:0:0:
144,100,29048,1,0,0:0:0:0:
144,100,29316,1,0,0:0:0:0:
144,100,29450,1,0,0:0:0:0:
144,100,29584,1,2,0:0:0:0:
144,100,29718,1,2,0:0:0:0:
144,100,29851,1,0,0:0:0:0:
144,100,30253,1,0,0:0:0:0:
144,100,30521,1,0,0:0:0:0:
144,100,30789,1,2,0:0:0:0:
144,100,31057,1,0,0:0:0:0:
144,104,31191,1,0,0:0:0:0:
144,104,31325,1,0,0:0:0:0:
144,104,31459,1,2,0:0:0:0:
144,104,31726,1,2,0:0:0:0:
144,104,31860,1,0,0:0:0:0:
144,104,32396,1,0,0:0:0:0:
144,104,32664,1,0,0:0:0:0:
144,104,32932,1,2,0:0:0:0:
144,104,33200,1,0,0:0:0:0:
144,104,33334,1,0,0:0:0:0:
152,104,33601,1,0,0:0:0:0:
152,104,33735,1,2,0:0:0:0:
152,104,34003,1,2,0:0:0:0:
152,104,34539,1,0,0:0:0:0:
152,104,34807,1,0,0:0:0:0:
152,104,35075,1,2,0:0:0:0:
152,104,35343,1,0,0:0:0:0:
152,104,35476,1,2,0:0:0:0:
152,104,35878,1,0,0:0:0:0:
152,104,36146,1,2,0:0:0:0:
152,104,36548,1,2,0:0:0:0:
152,104,36682,1,0,0:0:0:0:
152,104,36950,1,0,0:0:0:0:
152,104,37218,1,2,0:0:0:0:
152,104,37619,1,0,0:0:0:0:
152,104,37753,1,0,0:0:0:0:
152,104,38021,1,0,0:0:0:0:
144,108,38289,1,2,0:0:0:0:
144,108,38825,1,0,0:0:0:0:
144,108,39093,1,0,0:0:0:0:
144,108,39360,1,2,0:0:0:0:
144,108,39628,1,0,0:0:0:0:
144,108,39762,1,2,0:0:0:0:
144,108,40164,1,0,0:0:0:0:
144,108,40432,1,2,0:0:0:0:
144,108,40968,1,0,0:0:0:0:
144,108,41235,1,0,0:0:0:0:
144,108,41503,1,2,0:0:0:0:
152,108,42039,1,0,0:0:0:0:
152,112,42173,1,2,0:0:0:0:
152,108,42575,1,2,0:0:0:0:
156,108,43110,1,0,0:0:0:0:
156,108,43646,1,2,0:0:0:0:
156,108,44182,1,0,0:0:0:0:
156,108,44450,1,0,0:0:0:0:
156,108,44718,1,2,0:0:0:0:
156,108,44851,1,0,0:0:0:0:
156,108,45253,1,0,0:0:0:0:
156,108,45521,1,0,0:0:0:0:
156,108,45655,1,0,0:0:0:0:
156,108,45789,1,2,0:0:0:0:
160,112,46057,1,0,0:0:0:0:
156,108,46325,1,2,0:0:0:0:
156,108,46459,1,0,0:0:0:0:
160,112,46860,1,2,0:0:0:0:
156,108,47128,1,0,0:0:0:0:
156,108,47262,1,0,0:0:0:0:
156,108,47396,1,2,0:0:0:0:
152,112,47664,1,0,0:0:0:0:
152,112,47932,1,2,0:0:0:0:
156,108,48200,1,0,0:0:0:0:
156,108,48334,1,0,0:0:0:0:
152,112,48468,1,0,0:0:0:0:
152,112,48601,1,2,0:0:0:0:
156,108,49003,1,2,0:0:0:0:
156,108,49271,1,0,0:0:0:0:
156,108,49539,1,0,0:0:0:0:
160,112,49673,1,0,0:0:0:0:
160,112,49807,1,0,0:0:0:0:
160,112,50075,1,2,0:0:0:0:
160,112,50610,1,0,0:0:0:0:
160,112,50878,1,0,0:0:0:0:
160,112,51146,1,2,0:0:0:0:
160,112,51414,1,2,0:0:0:0:
160,112,51548,1,2,0:0:0:0:
160,112,51682,1,0,0:0:0:0:
160,112,52218,1,2,0:0:0:0:
160,112,52753,1,0,0:0:0:0:
160,112,53021,1,0,0:0:0:0:
160,112,53289,1,2,0:0:0:0:
160,112,53423,1,0,0:0:0:0:
160,112,53825,1,2,0:0:0:0:
160,112,54360,1,2,0:0:0:0:
160,112,54628,1,0,0:0:0:0:
160,112,54896,1,0,0:0:0:0:
160,112,55030,1,0,0:0:0:0:
160,112,55432,1,2,0:0:0:0:
161,117,55700,1,2,0:0:0:0:
161,117,55834,1,2,0:0:0:0:
161,117,55968,1,0,0:0:0:0:
163,116,56503,1,2,0:0:0:0:
161,117,56771,1,0,0:0:0:0:
159,119,57039,1,2,0:0:0:0:
159,119,57173,1,0,0:0:0:0:
159,119,57575,1,2,0:0:0:0:
161,117,57709,1,0,0:0:0:0:
162,111,58110,1,0,0:0:0:0:
162,112,58378,1,0,0:0:0:0:
161,117,58646,1,2,0:0:0:0:
162,117,58914,1,0,0:0:0:0:
162,117,59182,1,2,0:0:0:0:
162,117,59316,1,0,0:0:0:0:
162,117,59718,1,2,0:0:0:0:
162,117,60253,1,0,0:0:0:0:
162,117,60789,1,0,0:0:0:0:
163,117,61860,1,0,0:0:0:0:
163,117,62932,1,0,0:0:0:0:
163,117,64003,1,0,0:0:0:0:
163,117,65075,1,0,0:0:0:0:
163,117,65878,1,0,0:0:0:0:
163,117,66146,1,2,0:0:0:0:
162,122,66682,1,0,0:0:0:0:
126,142,67753,1,2,0:0:0:0:
126,142,67887,1,2,0:0:0:0:
126,142,68021,1,2,0:0:0:0:
126,142,68155,1,2,0:0:0:0:
126,142,68289,1,0,0:0:0:0:
126,142,68423,1,2,0:0:0:0:
126,142,68557,1,2,0:0:0:0:
126,142,68691,1,0,0:0:0:0:
126,142,68825,1,2,0:0:0:0:
126,142,69360,1,4,0:0:0:0:
126,142,69628,1,0,0:0:0:0:
126,142,69762,1,0,0:0:0:0:
126,142,69896,1,2,0:0:0:0:
126,142,70164,1,0,0:0:0:0:
126,142,70432,1,2,0:0:0:0:
126,142,70566,1,2,0:0:0:0:
126,142,70700,1,2,0:0:0:0:
126,142,70834,1,2,0:0:0:0:
126,142,70968,1,0,0:0:0:0:
126,142,71235,1,2,0:0:0:0:
126,142,71369,1,2,0:0:0:0:
126,142,71771,1,0,0:0:0:0:
126,142,72039,1,2,0:0:0:0:
126,142,72173,1,2,0:0:0:0:
126,142,72307,1,0,0:0:0:0:
126,142,72575,1,0,0:0:0:0:
126,142,73110,1,4,0:0:0:0:
126,142,73378,1,0,0:0:0:0:
126,142,73512,1,0,0:0:0:0:
126,142,73646,1,2,0:0:0:0:
126,142,73914,1,0,0:0:0:0:
126,142,74182,1,2,0:0:0:0:
126,142,74450,1,0,0:0:0:0:
126,142,74718,1,2,0:0:0:0:
121,139,74851,1,2,0:0:0:0:
121,138,74985,1,2,0:0:0:0:
121,138,75119,1,2,0:0:0:0:
121,138,75253,1,0,0:0:0:0:
121,138,75521,1,0,0:0:0:0:
121,139,75789,1,0,0:0:0:0:
121,138,75923,1,2,0:0:0:0:
121,138,76057,1,0,0:0:0:0:
121,138,76191,1,2,0:0:0:0:
121,138,76325,1,2,0:0:0:0:
121,138,76459,1,0,0:0:0:0:
121,139,76593,1,2,0:0:0:0:
121,138,76860,1,0,0:0:0:0:
121,138,77128,1,2,0:0:0:0:
121,138,77396,1,4,0:0:0:0:
121,138,77664,1,6,0:0:0:0:
121,138,77932,1,0,0:0:0:0:
121,138,78066,1,0,0:0:0:0:
121,138,78200,1,2,0:0:0:0:
121,138,78468,1,2,0:0:0:0:
121,138,78601,1,2,0:0:0:0:
121,138,78735,1,2,0:0:0:0:
121,138,78869,1,2,0:0:0:0:
121,138,79003,1,0,0:0:0:0:
126,138,79271,1,0,0:0:0:0:
130,138,79405,1,2,0:0:0:0:
130,138,79539,1,0,0:0:0:0:
130,138,79807,1,2,0:0:0:0:
130,138,79941,1,2,0:0:0:0:
130,138,80075,1,0,0:0:0:0:
130,138,80343,1,0,0:0:0:0:
130,138,80610,1,2,0:0:0:0:
130,138,80744,1,0,0:0:0:0:
134,135,80878,1,2,0:0:0:0:
134,135,81012,1,2,0:0:0:0:
134,135,81146,1,0,0:0:0:0:
134,135,81414,1,0,0:0:0:0:
134,135,81682,1,0,0:0:0:0:
134,135,81950,1,0,0:0:0:0:
134,135,82218,1,2,0:0:0:0:
134,135,82485,1,2,0:0:0:0:
139,133,82753,1,0,0:0:0:0:
139,133,82887,1,0,0:0:0:0:
139,133,83021,1,0,0:0:0:0:
139,133,83289,1,2,0:0:0:0:
139,133,83557,1,0,0:0:0:0:
139,133,83825,1,0,0:0:0:0:
139,133,83959,1,0,0:0:0:0:
139,133,84628,1,0,0:0:0:0:
139,133,84762,1,0,0:0:0:0:
139,133,85164,1,0,0:0:0:0:
139,133,85298,1,0,0:0:0:0:
139,133,85432,1,2,0:0:0:0:
139,133,85566,1,0,0:0:0:0:
139,133,85700,1,2,0:0:0:0:
139,133,85834,1,2,0:0:0:0:
139,133,85968,1,0,0:0:0:0:
139,133,86235,1,2,0:0:0:0:
133,132,86369,1,0,0:0:0:0:
139,133,86503,1,2,0:0:0:0:
139,133,86637,1,2,0:0:0:0:
139,133,86771,1,0,0:0:0:0:
133,132,86905,1,2,0:0:0:0:
133,132,87039,1,0,0:0:0:0:
133,132,87173,1,0,0:0:0:0:
133,132,87307,1,2,0:0:0:0:
134,132,87441,1,2,0:0:0:0:
139,133,87575,1,0,0:0:0:0:
133,132,87843,1,2,0:0:0:0:
66,94,88110,1,0,0:0:0:0:
134,132,88378,1,2,0:0:0:0:
139,133,88512,1,0,0:0:0:0:
143,135,88646,1,2,0:0:0:0:
143,135,88780,1,2,0:0:0:0:
143,135,88914,1,0,0:0:0:0:
143,135,89048,1,2,0:0:0:0:
143,135,89182,1,0,0:0:0:0:
143,135,89316,1,0,0:0:0:0:
139,133,89450,1,2,0:0:0:0:
143,135,89584,1,0,0:0:0:0:
143,135,89718,1,2,0:0:0:0:
143,135,89985,1,2,0:0:0:0:
143,135,90253,1,0,0:0:0:0:
143,135,90521,1,2,0:0:0:0:
143,135,90655,1,0,0:0:0:0:
143,135,90789,1,2,0:0:0:0:
143,135,90923,1,2,0:0:0:0:
160,125,91057,1,0,0:0:0:0:
152,135,91191,1,0,0:0:0:0:
152,135,91325,1,2,0:0:0:0:
152,135,91459,1,0,0:0:0:0:
152,135,91593,1,2,0:0:0:0:
152,135,91726,1,2,0:0:0:0:
150,137,91860,1,0,0:0:0:0:
152,135,92128,1,2,0:0:0:0:
152,135,92396,1,0,0:0:0:0:
168,136,94539,1,0,0:0:0:0:
168,136,94807,1,0,0:0:0:0:
168,136,94941,1,2,0:0:0:0:
168,136,95075,1,2,0:0:0:0:
172,136,95209,1,0,0:0:0:0:
168,136,95343,1,2,0:0:0:0:
168,136,95476,1,0,0:0:0:0:
168,136,95610,1,2,0:0:0:0:
176,136,95744,1,0,0:0:0:0:
168,136,95878,1,2,0:0:0:0:
168,136,96012,1,2,0:0:0:0:
172,136,96146,1,0,0:0:0:0:
168,136,96414,1,2,0:0:0:0:
176,136,96682,1,2,0:0:0:0:
175,134,96816,1,0,0:0:0:0:
175,134,96950,1,2,0:0:0:0:
172,136,97084,1,2,0:0:0:0:
174,134,97218,1,0,0:0:0:0:
174,134,97351,1,2,0:0:0:0:
176,136,97485,1,0,0:0:0:0:
176,136,97619,1,0,0:0:0:0:
175,134,97753,1,0,0:0:0:0:
175,134,97887,1,2,0:0:0:0:
172,136,98021,1,2,0:0:0:0:
174,134,98155,1,0,0:0:0:0:
174,134,98289,1,2,0:0:0:0:
172,131,98423,1,0,0:0:0:0:
172,131,98557,1,2,0:0:0:0:
175,134,98825,1,0,0:0:0:0:
174,134,99093,1,0,0:0:0:0:
174,134,99226,1,2,0:0:0:0:
172,131,99360,1,2,0:0:0:0:
172,131,99494,1,0,0:0:0:0:
175,134,99628,1,2,0:0:0:0:
175,134,99762,1,0,0:0:0:0:
174,134,99896,1,2,0:0:0:0:
174,134,100030,1,2,0:0:0:0:
174,134,100164,1,0,0:0:0:0:
172,131,100298,1,2,0:0:0:0:
172,131,100432,1,2,0:0:0:0:
171,130,100566,1,0,0:0:0:0:
171,129,100700,1,0,0:0:0:0:
173,127,100968,1,0,0:0:0:0:
171,130,101503,1,0,0:0:0:0:
171,130,102039,1,0,0:0:0:0:
171,130,102575,1,2,0:0:0:0:
171,130,103110,1,0,0:0:0:0:
171,130,103378,1,2,0:0:0:0:
171,130,103512,1,2,0:0:0:0:
171,130,103646,1,0,0:0:0:0:
171,130,103914,1,0,0:0:0:0:
176,130,104182,1,2,0:0:0:0:
176,130,104316,1,0,0:0:0:0:
171,130,104450,1,2,0:0:0:0:
176,130,104584,1,2,0:0:0:0:
171,130,104718,1,0,0:0:0:0:
176,130,105253,1,0,0:0:0:0:
176,130,105521,1,2,0:0:0:0:
171,130,105655,1,2,0:0:0:0:
176,130,105789,1,0,0:0:0:0:
176,130,106057,1,0,0:0:0:0:
176,130,106325,1,0,0:0:0:0:
171,129,106459,1,0,0:0:0:0:
169,128,106593,1,2,0:0:0:0:
171,130,106726,1,0,0:0:0:0:
169,128,106860,1,2,0:0:0:0:
171,129,107396,1,0,0:0:0:0:
171,130,107664,1,2,0:0:0:0:
171,129,107932,1,0,0:0:0:0:
171,129,108066,1,2,0:0:0:0:
171,129,108468,1,2,0:0:0:0:
171,130,108601,1,0,0:0:0:0:
167,124,109003,1,0,0:0:0:0:
171,129,109137,1,2,0:0:0:0:
167,125,109539,1,0,0:0:0:0:
167,124,109807,1,0,0:0:0:0:
167,124,109941,1,0,0:0:0:0:
171,129,110075,1,0,0:0:0:0:
167,130,110343,1,2,0:0:0:0:
167,125,110476,1,2,0:0:0:0:
167,124,110610,1,0,0:0:0:0:
167,124,110744,1,2,0:0:0:0:
167,124,110878,1,0,0:0:0:0:
167,125,111012,1,2,0:0:0:0:
167,125,111146,1,2,0:0:0:0:
167,125,111280,1,0,0:0:0:0:
167,124,111414,1,2,0:0:0:0:
167,124,111548,1,0,0:0:0:0:
167,124,111682,1,0,0:0:0:0:
172,126,112218,1,0,0:0:0:0:
172,126,112485,1,2,0:0:0:0:
167,124,112619,1,0,0:0:0:0:
172,126,112887,1,0,0:0:0:0:
172,126,113021,1,2,0:0:0:0:
172,126,113289,1,0,0:0:0:0:
167,124,113557,1,2,0:0:0:0:
172,126,113691,1,2,0:0:0:0:
172,126,113825,1,0,0:0:0:0:
172,126,114093,1,0,0:0:0:0:
167,124,114360,1,0,0:0:0:0:
172,126,114628,1,0,0:0:0:0:
172,126,114762,1,0,0:0:0:0:
172,126,114896,1,2,0:0:0:0:
173,125,115164,1,2,0:0:0:0:
173,125,115298,1,0,0:0:0:0:
172,126,115700,1,0,0:0:0:0:
168,121,115968,1,2,0:0:0:0:
168,120,116235,1,2,0:0:0:0:
167,120,116369,1,2,0:0:0:0:
168,121,116503,1,0,0:0:0:0:
168,121,116771,1,0,0:0:0:0:
168,120,117039,1,2,0:0:0:0:
167,120,117307,1,0,0:0:0:0:
168,121,117441,1,0,0:0:0:0:
168,121,117575,1,2,0:0:0:0:
168,120,117843,1,0,0:0:0:0:
167,120,118110,1,2,0:0:0:0:
168,125,118646,1,0,0:0:0:0:
167,125,119718,1,0,0:0:0:0:
165,124,120789,1,2,0:0:0:0:
165,124,121860,1,2,0:0:0:0:
161,116,122932,1,0,0:0:0:0:
160,116,124003,1,2,0:0:0:0:
160,116,124137,1,2,0:0:0:0:
160,116,124271,1,2,0:0:0:0:
160,116,124405,1,2,0:0:0:0:
160,116,124539,1,0,0:0:0:0:
169,112,125075,1,0,0:0:0:0:
169,112,125610,1,0,0:0:0:0:
169,112,125878,1,0,0:0:0:0:
169,112,126012,1,2,0:0:0:0:
169,112,126146,1,2,0:0:0:0:
169,112,126280,1,0,0:0:0:0:
163,110,126414,1,2,0:0:0:0:
162,110,126548,1,0,0:0:0:0:
162,109,126682,1,2,0:0:0:0:
162,111,126950,1,0,0:0:0:0:
162,111,127218,1,0,0:0:0:0:
163,110,127351,1,0,0:0:0:0:
162,110,127485,1,0,0:0:0:0:
162,111,127753,1,0,0:0:0:0:
162,111,128021,1,2,0:0:0:0:
162,111,128557,1,0,0:0:0:0:
162,111,128825,1,2,0:0:0:0:
162,111,129093,1,2,0:0:0:0:
162,111,129226,1,0,0:0:0:0:
162,111,129494,1,0,0:0:0:0:
162,111,129628,1,2,0:0:0:0:
162,111,129896,1,0,0:0:0:0:
162,111,130432,1,0,0:0:0:0:
169,111,130968,1,2,0:0:0:0:
169,111,131235,1,0,0:0:0:0:
168,111,131369,1,0,0:0:0:0:
169,111,131503,1,2,0:0:0:0:
169,111,131771,1,0,0:0:0:0:
169,111,132039,1,2,0:0:0:0:
169,111,132575,1,0,0:0:0:0:
169,111,132843,1,2,0:0:0:0:
169,111,132976,1,2,0:0:0:0:
169,111,133110,1,0,0:0:0:0:
169,111,133378,1,0,0:0:0:0:
169,111,133646,1,0,0:0:0:0:
169,111,133780,1,0,0:0:0:0:
165,107,133914,1,2,0:0:0:0:
165,107,134182,1,0,0:0:0:0:
165,107,134316,1,2,0:0:0:0:
164,106,134450,1,0,0:0:0:0:
166,106,134584,1,2,0:0:0:0:
169,111,134718,1,2,0:0:0:0:
165,107,134851,1,0,0:0:0:0:
165,107,134985,1,2,0:0:0:0:
165,107,135119,1,2,0:0:0:0:
169,109,135253,1,0,0:0:0:0:
173,112,135521,1,0,0:0:0:0:
173,112,135789,1,0,0:0:0:0:
173,112,136057,1,2,0:0:0:0:
172,112,136191,1,2,0:0:0:0:
169,109,136325,1,0,0:0:0:0:
173,112,136593,1,0,0:0:0:0:
173,112,136860,1,2,0:0:0:0:
173,112,137396,1,0,0:0:0:0:
173,112,137664,1,0,0:0:0:0:
173,112,137798,1,0,0:0:0:0:
173,112,137932,1,2,0:0:0:0:
173,112,138200,1,0,0:0:0:0:
173,112,138468,1,2,0:0:0:0:
173,112,139003,1,0,0:0:0:0:
173,112,139539,1,2,0:0:0:0:
168,109,139807,1,2,0:0:0:0:
167,109,139941,1,0,0:0:0:0:
167,108,140075,1,2,0:0:0:0:
167,108,140343,1,0,0:0:0:0:
168,109,140610,1,0,0:0:0:0:
167,109,140878,1,2,0:0:0:0:
167,109,141012,1,0,0:0:0:0:
167,108,141414,1,0,0:0:0:0:
167,109,141682,1,2,0:0:0:0:
167,109,141816,1,0,0:0:0:0:
167,108,142485,1,0,0:0:0:0:
167,109,142619,1,2,0:0:0:0:
167,108,143021,1,0,0:0:0:0:
167,108,143289,1,2,0:0:0:0:
163,104,143557,1,2,0:0:0:0:
162,104,143825,1,0,0:0:0:0:
163,104,144360,1,0,0:0:0:0:
159,105,145432,1,2,0:0:0:0:
159,105,146503,1,0,0:0:0:0:
159,105,147039,1,2,0:0:0:0:
159,105,147575,1,0,0:0:0:0:
159,105,147843,1,2,0:0:0:0:
159,105,148110,1,0,0:0:0:0:
159,105,148646,1,2,0:0:0:0:
155,106,149718,1,2,0:0:0:0:
154,104,150789,1,2,0:0:0:0:
154,104,151860,1,2,0:0:0:0:
153,104,152932,1,0,0:0:0:0:
153,104,153468,1,2,0:0:0:0:
153,104,154003,1,0,0:0:0:0:
153,104,154539,1,2,0:0:0:0:
152,103,155610,1,0,0:0:0:0:
151,102,156682,1,2,0:0:0:0:
151,102,157753,1,2,0:0:0:0:
151,102,158289,1,2,0:0:0:0:
151,102,158825,1,0,0:0:0:0:
150,102,159896,1,2,0:0:0:0:
150,102,160030,1,2,0:0:0:0:
150,102,160164,1,0,0:0:0:0:
150,102,160298,1,2,0:0:0:0:
150,102,160432,1,0,0:0:0:0:
150,102,160566,1,2,0:0:0:0:
150,102,160700,1,2,0:0:0:0:
150,102,160834,1,0,0:0:0:0:
150,102,160968,1,2,0:0:0:0:
152,107,161235,1,0,0:0:0:0:
152,107,161503,1,0,0:0:0:0:
152,107,161637,1,0,0:0:0:0:
152,106,161771,1,0,0:0:0:0:
152,107,162039,1,2,0:0:0:0:
152,107,162307,1,0,0:0:0:0:
152,107,162575,1,2,0:0:0:0:
152,107,163110,1,0,0:0:0:0:
152,107,163244,1,2,0:0:0:0:
152,107,163512,1,2,0:0:0:0:
152,107,163646,1,2,0:0:0:0:
152,107,163780,1,2,0:0:0:0:
152,107,163914,1,0,0:0:0:0:
152,107,164182,1,2,0:0:0:0:
152,107,164718,1,2,0:0:0:0:
152,107,165253,1,0,0:0:0:0:
152,107,165521,1,2,0:0:0:0:
152,107,165655,1,2,0:0:0:0:
152,107,165789,1,0,0:0:0:0:
152,107,166057,1,0,0:0:0:0:
152,107,166325,1,2,0:0:0:0:
152,107,166860,1,0,0:0:0:0:
152,107,167128,1,2,0:0:0:0:
152,107,167262,1,2,0:0:0:0:
152,107,167396,1,0,0:0:0:0:
152,107,167664,1,0,0:0:0:0:
152,107,167932,1,2,0:0:0:0:
152,107,168200,1,2,0:0:0:0:
152,107,168334,1,0,0:0:0:0:
152,107,168601,1,2,0:0:0:0:
152,107,168735,1,0,0:0:0:0:
152,107,169003,1,2,0:0:0:0:
152,107,169137,1,2,0:0:0:0:
152,107,169271,1,2,0:0:0:0:
152,107,169405,1,2,0:0:0:0:
152,107,169539,1,0,0:0:0:0:
152,107,170075,1,0,0:0:0:0:
152,107,170343,1,2,0:0:0:0:
152,107,170476,1,2,0:0:0:0:
152,107,170610,1,0,0:0:0:0:
152,107,170878,1,0,0:0:0:0:
152,107,171146,1,2,0:0:0:0:
152,107,171682,1,0,0:0:0:0:
152,107,171950,1,0,0:0:0:0:
152,107,172084,1,0,0:0:0:0:
152,107,172218,1,2,0:0:0:0:
152,107,172485,1,0,0:0:0:0:
149,102,172753,1,2,0:0:0:0:
149,102,173021,1,2,0:0:0:0:
148,102,173155,1,0,0:0:0:0:
148,102,173423,1,0,0:0:0:0:
149,102,173557,1,0,0:0:0:0:
149,102,173825,1,2,0:0:0:0:
148,102,174360,1,0,0:0:0:0:
148,102,174896,1,0,0:0:0:0:
148,102,175164,1,2,0:0:0:0:
148,102,175298,1,2,0:0:0:0:
148,102,175432,1,0,0:0:0:0:
148,102,175700,1,0,0:0:0:0:
148,102,175968,1,2,0:0:0:0:
148,102,176101,1,0,0:0:0:0:
148,102,176503,1,0,0:0:0:0:
148,102,176637,1,0,0:0:0:0:
148,102,176771,1,0,0:0:0:0:
148,102,176905,1,2,0:0:0:0:
148,102,177173,1,2,0:0:0:0:
148,102,177307,1,0,0:0:0:0:
148,102,177575,1,0,0:0:0:0:
145,97,177843,1,2,0:0:0:0:
145,97,178110,1,0,0:0:0:0:
148,102,178378,1,2,0:0:0:0:
148,102,178512,1,0,0:0:0:0:
145,97,178646,1,2,0:0:0:0:
145,97,178780,1,2,0:0:0:0:
145,97,178914,1,0,0:0:0:0:
145,97,179048,1,2,0:0:0:0:
148,102,179182,1,0,0:0:0:0:
148,102,179316,1,0,0:0:0:0:
148,102,179450,1,2,0:0:0:0:
145,97,179584,1,0,0:0:0:0:
145,97,179718,1,2,0:0:0:0:
145,97,179851,1,2,0:0:0:0:
145,97,179985,1,0,0:0:0:0:
148,102,180253,1,0,0:0:0:0:
145,97,180521,1,0,0:0:0:0:
145,97,180655,1,2,0:0:0:0:
145,97,180789,1,2,0:0:0:0:
145,97,180923,1,0,0:0:0:0:
144,97,181057,1,2,0:0:0:0:
144,97,181191,1,0,0:0:0:0:
145,97,181325,1,0,0:0:0:0:
145,97,181459,1,0,0:0:0:0:
145,97,181593,1,2,0:0:0:0:
145,97,181726,1,0,0:0:0:0:
145,97,181860,1,2,0:0:0:0:
144,97,181994,1,2,0:0:0:0:
144,97,182128,1,0,0:0:0:0:
145,97,182396,1,0,0:0:0:0:
145,97,182664,1,2,0:0:0:0:
145,97,182798,1,2,0:0:0:0:
144,97,182932,1,0,0:0:0:0:
144,97,183066,1,2,0:0:0:0:
145,97,183200,1,2,0:0:0:0:
145,97,183334,1,0,0:0:0:0:
145,97,183468,1,0,0:0:0:0:
145,97,183601,1,0,0:0:0:0:
145,97,183735,1,2,0:0:0:0:
144,97,183869,1,0,0:0:0:0:
144,97,184003,1,2,0:0:0:0:
145,97,184137,1,2,0:0:0:0:
145,97,184271,1,0,0:0:0:0:
145,97,184539,1,0,0:0:0:0:
136,83,185075,1,0,0:0:0:0:
136,83,185610,1,0,0:0:0:0:
136,83,186146,1,2,0:0:0:0:
136,83,186682,1,0,0:0:0:0:
138,74,186950,1,2,0:0:0:0:
138,74,187084,1,2,0:0:0:0:
138,73,187218,1,0,0:0:0:0:
138,73,187351,1,2,0:0:0:0:
138,73,187485,1,0,0:0:0:0:
138,73,187619,1,2,0:0:0:0:
138,74,187753,1,2,0:0:0:0:
138,74,187887,1,0,0:0:0:0:
138,74,188021,1,2,0:0:0:0:
138,73,188155,1,0,0:0:0:0:
138,73,188289,1,0,0:0:0:0:
138,73,188423,1,2,0:0:0:0:
138,73,188557,1,0,0:0:0:0:
135,69,188825,1,2,0:0:0:0:
134,69,189093,1,0,0:0:0:0:
133,68,189226,1,2,0:0:0:0:
133,67,189360,1,2,0:0:0:0:
133,67,189494,1,0,0:0:0:0:
135,69,189628,1,2,0:0:0:0:
135,69,189762,1,0,0:0:0:0:
134,69,189896,1,0,0:0:0:0:
134,69,190030,1,2,0:0:0:0:
133,68,190164,1,0,0:0:0:0:
133,67,190298,1,2,0:0:0:0:
133,67,190432,1,2,0:0:0:0:
129,62,190566,1,0,0:0:0:0:
128,62,190700,1,2,0:0:0:0:
128,62,190968,1,0,0:0:0:0:
128,61,191235,1,2,0:0:0:0:
127,61,191369,1,2,0:0:0:0:
129,62,191503,1,0,0:0:0:0:
128,62,191637,1,2,0:0:0:0:
128,62,191771,1,0,0:0:0:0:
128,62,191905,1,2,0:0:0:0:
128,61,192039,1,2,0:0:0:0:
128,61,192173,1,0,0:0:0:0:
129,56,192307,1,2,0:0:0:0:
129,56,192441,1,0,0:0:0:0:
128,56,192575,1,2,0:0:0:0:
128,55,192709,1,2,0:0:0:0:
127,55,192843,1,0,0:0:0:0:
127,54,193110,1,0,0:0:0:0:
128,56,193646,1,0,0:0:0:0:
127,54,194182,1,0,0:0:0:0:
128,56,194718,1,2,0:0:0:0:
256,192,194851,12,0,195253,0:0:0:0:
