osu file format v14

[General]
AudioFilename: audio.mp3
AudioLeadIn: 0
PreviewTime: 91600
Countdown: 0
SampleSet: Soft
StackLeniency: 0.7
Mode: 0
LetterboxInBreaks: 0
WidescreenStoryboard: 1

[Editor]
Bookmarks: 10310,41277,51600,61922,92890,113535,123858,134180,144503
DistanceSpacing: 1.4
BeatDivisor: 4
GridSize: 32
TimelineZoom: 1.4

[Metadata]
Title:tp na ame
TitleUnicode:тп на аме
Artist:SEREGA PIRAT
ArtistUnicode:СЕРЕГА ПИРАТ
Creator:nemidnight
Version:ryxliee & tachi's hard
Source:
Tags:russian rock русский рок anti-mage антимаг dota2 дота2 anti mage анти маг дота 2 dota 2 video game valve bublyaa tachibana_ ryxliee
BeatmapID:3536193
BeatmapSetID:1717881

[Difficulty]
HPDrainRate:4
CircleSize:3.6
OverallDifficulty:6.6
ApproachRate:8
SliderMultiplier:1.32
SliderTickRate:1

[Events]
//Background and Video events
0,0,"am.jpg",0,0
//Break Periods
2,113575,121495
//Storyboard Layer 0 (Background)
//Storyboard Layer 1 (Fail)
//Storyboard Layer 2 (Pass)
//Storyboard Layer 3 (Foreground)
//Storyboard Layer 4 (Overlay)
//Storyboard Sound Samples

[TimingPoints]
10310,322.58064516129,4,2,2,60,1,0
10310,-125,4,2,2,60,0,0
20632,-100,4,2,1,70,0,0
30955,-111.111111111111,4,2,2,80,0,0
32568,-111.111111111111,4,2,2,80,0,0
32809,-111.111111111111,4,2,2,5,0,0
32890,-111.111111111111,4,2,2,80,0,0
35390,-111.111111111111,4,2,2,5,0,0
35471,-111.111111111111,4,2,2,80,0,0
37971,-111.111111111111,4,2,2,5,0,0
38051,-111.111111111111,4,2,2,80,0,0
40632,-111.111111111111,4,2,3,80,0,0
41277,-81.9672131147541,4,2,1,90,0,1
41519,-81.9672131147541,4,2,1,5,0,1
41600,-81.9672131147541,4,2,1,90,0,1
44100,-81.9672131147541,4,2,1,5,0,1
44180,-81.9672131147541,4,2,1,90,0,1
46680,-81.9672131147541,4,2,1,5,0,1
46761,-81.9672131147541,4,2,1,90,0,1
49261,-81.9672131147541,4,2,1,5,0,1
49342,-81.9672131147541,4,2,1,90,0,1
50229,-81.9672131147541,4,2,1,5,0,1
50309,-81.9672131147541,4,2,1,90,0,1
50955,-81.9672131147541,4,2,4,90,0,1
51600,-81.9672131147541,4,2,1,90,0,1
51842,-81.9672131147541,4,2,1,5,0,1
51922,-81.9672131147541,4,2,1,90,0,1
54422,-81.9672131147541,4,2,1,5,0,1
54503,-81.9672131147541,4,2,1,90,0,1
57003,-81.9672131147541,4,2,1,5,0,1
57084,-81.9672131147541,4,2,1,90,0,1
59584,-81.9672131147541,4,2,1,5,0,1
59664,-81.9672131147541,4,2,1,90,0,1
60551,-81.9672131147541,4,2,1,5,0,1
60632,-81.9672131147541,4,2,1,90,0,1
61277,-81.9672131147541,4,2,4,90,0,1
61922,-100,4,2,5,70,0,0
62164,-100,4,2,5,5,0,0
62245,-100,4,2,2,70,0,0
64745,-100,4,2,2,5,0,0
64826,-100,4,2,2,70,0,0
67326,-100,4,2,2,5,0,0
67406,-100,4,2,2,70,0,0
69906,-100,4,2,2,5,0,0
69987,-100,4,2,2,70,0,0
73132,-100,4,2,2,5,0,0
73213,-100,4,2,2,70,0,0
75713,-100,4,2,2,5,0,0
75793,-100,4,2,2,70,0,0
78293,-100,4,2,2,5,0,0
78374,-100,4,2,2,70,0,0
80874,-100,4,2,2,5,0,0
80955,-100,4,2,2,70,0,0
82568,-111.111111111111,4,2,2,80,0,0
87003,-111.111111111111,4,2,2,5,0,0
87084,-111.111111111111,4,2,2,80,0,0
92245,-111.111111111111,4,2,3,80,0,0
92890,-81.9672131147541,4,2,1,90,0,1
93132,-81.9672131147541,4,2,1,5,0,1
93213,-81.9672131147541,4,2,1,90,0,1
95713,-81.9672131147541,4,2,1,5,0,1
95793,-81.9672131147541,4,2,1,90,0,1
98293,-81.9672131147541,4,2,1,5,0,1
98374,-81.9672131147541,4,2,1,90,0,1
100874,-81.9672131147541,4,2,1,5,0,1
100955,-81.9672131147541,4,2,1,90,0,1
101842,-81.9672131147541,4,2,1,5,0,1
101922,-81.9672131147541,4,2,1,90,0,1
102568,-81.9672131147541,4,2,4,90,0,1
103213,-81.9672131147541,4,2,1,90,0,1
103455,-81.9672131147541,4,2,1,5,0,1
103535,-81.9672131147541,4,2,1,90,0,1
106035,-81.9672131147541,4,2,1,5,0,1
106116,-81.9672131147541,4,2,1,90,0,1
108616,-81.9672131147541,4,2,1,5,0,1
108697,-81.9672131147541,4,2,1,90,0,1
111197,-81.9672131147541,4,2,1,5,0,1
111277,-81.9672131147541,4,2,1,90,0,1
112164,-81.9672131147541,4,2,1,5,0,1
112245,-81.9672131147541,4,2,1,90,0,1
112890,-81.9672131147541,4,2,4,90,0,1
113535,-81.9672131147541,4,2,1,80,0,0
122245,-111.111111111111,4,2,1,80,0,0
123858,-111.111111111111,4,2,1,90,0,0
125713,-111.111111111111,4,2,1,5,0,0
125793,-111.111111111111,4,2,1,90,0,0
128293,-111.111111111111,4,2,1,5,0,0
128374,-111.111111111111,4,2,1,90,0,0
130874,-111.111111111111,4,2,1,5,0,0
130955,-111.111111111111,4,2,1,90,0,0
133455,-111.111111111111,4,2,1,5,0,0
133535,-111.111111111111,4,2,1,90,0,0

[Colours]
Combo1 : 219,71,0
Combo2 : 203,99,233
Combo3 : 252,71,135
Combo4 : 18,162,248

[HitObjects]
107,114,10310,6,0,B|198:140|145:174|236:205,1,158.4,2|0,3:2|0:0,0:0:0:0:
299,246,10955,2,0,P|322:228|334:205,1,52.8,8|0,0:0|0:0,0:0:0:0:
374,140,11277,2,0,P|397:157|409:181,1,52.8
485,198,11600,2,0,L|473:255,1,52.8
424,311,11922,2,0,P|364:322|319:333,1,105.6,2|8,3:2|0:0,0:0:0:0:
258,382,12406,2,0,P|198:371|153:360,1,105.6,2|0,3:2|0:0,0:0:0:0:
78,338,12890,6,0,B|108:378|108:378|121:322|138:262,1,158.4,2|0,3:2|0:0,0:0:0:0:
85,210,13535,2,0,P|109:192|137:189,1,52.8,8|0,0:0|0:0,0:0:0:0:
159,114,13858,2,0,P|184:128|200:152,1,52.8
266,192,14180,1,0,0:0:0:0:
266,192,14342,1,0,0:0:0:0:
257,269,14503,2,0,P|318:254|370:243,1,105.6,2|0,3:2|0:0,0:0:0:0:
426,287,14987,2,0,P|469:249|461:197,1,105.6,2|0,3:2|0:0,0:0:0:0:
476,125,15471,6,0,B|467:83|408:79|408:79|371:111|334:105,1,158.4,2|0,3:2|0:0,0:0:0:0:
303,38,16116,2,0,P|278:52|267:74,1,52.8,8|0,0:0|0:0,0:0:0:0:
209,127,16439,2,0,P|234:141|245:163,1,52.8
223,237,16761,1,0,0:0:0:0:
223,237,16922,1,0,0:0:0:0:
183,307,17084,2,0,P|228:315|286:327,1,105.6,2|8,3:2|0:0,0:0:0:0:
342,382,17568,2,0,P|387:374|445:361,1,105.6,2|0,3:2|0:0,0:0:0:0:
480,292,18051,6,0,B|498:207|416:251|446:140,1,158.4,2|0,3:2|0:0,0:0:0:0:
489,82,18697,2,0,B|464:67|464:67|429:67,1,52.8,8|0,0:0|0:0,0:0:0:0:
373,108,19019,1,0,0:0:0:0:
366,118,19342,2,0,B|341:133|341:133|306:133,1,52.8
241,109,19664,2,0,P|273:135|267:194,1,105.6,2|8,3:2|0:0,0:0:0:0:
297,267,20148,2,0,P|237:242|177:227,1,105.6,2|0,3:2|0:0,0:0:0:0:
114,254,20632,6,0,P|106:196|93:112,1,132,2|10,3:2|0:0,0:0:0:0:
133,48,21116,1,2,0:0:0:0:
133,48,21277,2,0,P|198:34|219:105,1,132,2|8,0:0|0:0,0:0:0:0:
267,158,21761,1,2,0:0:0:0:
267,158,21922,2,0,P|332:172|353:101,1,132,2|10,3:2|0:0,0:0:0:0:
406,42,22406,1,2,3:2:0:0:
464,108,22568,2,0,P|453:144|447:174,1,66,2|0,0:0|0:0,0:0:0:0:
382,236,22890,2,0,P|392:272|398:304,1,66,10|0,0:0|0:0,0:0:0:0:
459,368,23213,6,0,P|405:350|328:332,1,132,2|10,3:2|0:0,0:0:0:0:
242,356,23697,1,2,0:0:0:0:
175,292,23858,2,0,B|205:220|205:220|186:202|178:174,1,132,2|10,0:0|0:0,0:0:0:0:
268,149,24342,1,2,0:0:0:0:
224,67,24503,2,0,P|176:42|111:83,1,132,2|10,3:2|0:0,0:0:0:0:
20,79,24987,1,2,3:2:0:0:
2,169,25148,2,0,P|12:204|17:235,1,66,2|0,0:0|3:2,0:0:0:0:
102,280,25471,1,10,0:0:0:0:
102,280,25632,1,0,3:2:0:0:
152,202,25793,6,0,B|241:196|186:154|285:147,1,132,2|10,3:2|0:0,0:0:0:0:
363,139,26277,1,2,0:0:0:0:
363,139,26439,2,0,P|413:183|399:247,1,132,2|10,0:0|0:0,0:0:0:0:
444,330,26922,1,2,0:0:0:0:
444,330,27084,2,0,P|384:320|307:308,1,132,2|10,3:2|0:0,0:0:0:0:
248,375,27568,1,2,3:2:0:0:
183,310,27729,2,0,P|185:277|205:251,1,66,2|0,0:0|0:0,0:0:0:0:
288,211,28051,2,0,P|285:178|265:152,1,66,10|2,0:0|0:0,0:0:0:0:
207,80,28374,6,0,P|141:90|77:104,1,132,2|10,3:2|0:0,0:0:0:0:
8,167,28858,1,2,0:0:0:0:
71,233,29019,2,0,P|79:269|88:303,1,66,2|0,0:0|0:0,0:0:0:0:
169,339,29342,2,0,P|176:306|184:274,1,66,10|0,0:0|0:0,0:0:0:0:
224,191,29664,2,0,P|260:173|323:242,1,132,2|10,3:2|0:0,0:0:0:0:
347,314,30148,1,2,3:2:0:0:
431,277,30309,2,0,P|441:240|452:208,1,66,2|0,0:0|3:2,0:0:0:0:
380,152,30632,2,0,P|371:120|361:88,1,66,10|0,0:0|3:2,0:0:0:0:
432,44,30955,6,0,B|380:71|330:37|359:13|309:-17|255:11,1,178.199994561768,6|0,3:2|0:0,0:0:0:0:
204,43,31600,2,0,P|147:63|93:86,2,118.799996374512,8|0|2,0:0|0:0|0:0,0:0:0:0:
274,86,32406,1,2,0:0:0:0:
274,86,32568,2,0,P|287:131|270:172,1,89.0999972808839,2|0,3:2|0:0,0:0:0:0:
272,188,32890,2,0,P|281:227|286:257,1,59.3999981872559,10|0,0:0|3:2,0:0:0:0:
364,268,33213,2,0,P|357:296|351:326,1,59.3999981872559,2|0,0:0|0:0,0:0:0:0:
281,371,33535,6,0,B|230:378|193:338|225:325|200:280|128:293,1,178.199994561768,2|0,3:2|0:0,0:0:0:0:
64,251,34180,2,0,P|87:305|106:361,2,118.799996374512,8|0|2,0:0|0:0|0:0,0:0:0:0:
23,183,34987,1,2,0:0:0:0:
23,183,35149,2,0,P|68:170|109:187,1,89.0999972808839,2|0,3:2|0:0,0:0:0:0:
123,177,35471,2,0,P|154:180|181:164,1,59.3999981872559,2|2,0:0|3:2,0:0:0:0:
231,102,35793,1,10,3:3:0:0:
231,102,35955,1,6,3:3:0:0:
290,160,36116,6,0,B|281:224|274:274|274:274|269:235|244:215,1,178.199994561768,2|0,3:2|0:0,0:0:0:0:
186,275,36761,2,0,P|131:251|75:232,2,118.799996374512,8|0|2,0:0|0:0|0:0,0:0:0:0:
238,346,37568,1,2,0:0:0:0:
238,346,37729,2,0,P|283:359|324:342,1,89.0999972808839,2|0,3:2|0:0,0:0:0:0:
338,345,38051,2,0,P|367:341|393:355,1,59.3999981872559,10|2,0:0|3:2,0:0:0:0:
473,377,38374,2,0,P|479:349|490:318,1,59.3999981872559,2|2,0:0|0:0,0:0:0:0:
463,240,38697,6,0,B|389:220|389:220|366:225|366:225|284:204,1,178.199994561768,2|0,3:2|0:0,0:0:0:0:
207,194,39342,2,0,P|230:139|295:130,2,118.799996374512,8|0|2,0:0|0:0|0:0,0:0:0:0:
212,280,40148,1,2,0:0:0:0:
212,280,40309,2,0,P|227:311|224:343,2,59.3999981872559,2|2|2,3:2|0:0|0:0,0:0:0:0:
16,106,41277,6,0,P|18:56|90:32,1,120.779995024018,4|0,3:2|0:0,0:0:0:0:
99,18,41600,2,0,B|161:36|161:36|178:67|178:67|242:94,1,161.039993365357,10|2,0:0|3:2,0:0:0:0:
304,169,42084,1,0,3:2:0:0:
378,95,42245,2,0,P|366:56|354:18,1,80.5199966826784,10|0,0:0|0:0,0:0:0:0:
478,79,42568,2,0,P|458:155|441:252,1,161.039993365357,2|10,3:2|0:0,0:0:0:0:
465,342,43051,1,0,0:0:0:0:
465,342,43213,2,0,P|431:313|384:314,1,80.5199966826784,2|0,3:2|3:2,0:0:0:0:
310,367,43535,1,10,0:0:0:0:
310,367,43697,1,0,3:2:0:0:
223,308,43858,6,0,P|212:250|250:207,1,120.779995024018,2|0,3:2|0:0,0:0:0:0:
256,182,44180,2,0,B|306:177|313:135|313:135|280:105|266:54,1,161.039993365357,10|2,0:0|3:2,0:0:0:0:
186,12,44664,1,0,3:2:0:0:
186,12,44825,2,0,P|141:30|114:47,1,80.5199966826784,10|0,0:0|0:0,0:0:0:0:
20,94,45148,2,0,P|65:78|118:166,1,161.039993365357,2|10,3:2|0:0,0:0:0:0:
77,252,45631,2,0,P|37:258|0:271,1,80.5199966826784,0|2,3:2|0:0,0:0:0:0:
61,355,45954,1,0,3:2:0:0:
159,319,46116,2,0,P|198:325|236:338,1,80.5199966826784,10|0,0:0|0:0,0:0:0:0:
356,384,46439,6,0,B|337:367|320:356|320:356|331:317|338:283,1,120.779995024018,2|0,3:2|0:0,0:0:0:0:
360,269,46761,2,0,B|348:195|348:195|341:187|341:187|325:98,1,161.039993365357,10|2,0:0|3:2,0:0:0:0:
286,15,47245,1,0,3:2:0:0:
343,102,47406,2,0,P|381:113|423:91,1,80.5199966826784,10|0,0:0|0:0,0:0:0:0:
510,48,47729,2,0,P|443:83|452:158,1,161.039993365357,2|10,3:2|0:0,0:0:0:0:
504,255,48212,1,0,0:0:0:0:
504,255,48374,2,0,P|509:294|490:328,1,80.5199966826784,2|0,0:0|3:2,0:0:0:0:
405,384,48696,1,10,0:0:0:0:
405,384,48858,1,0,3:2:0:0:
324,317,49019,6,0,P|339:263|353:196,1,120.779995024018,2|0,3:2|0:0,0:0:0:0:
373,183,49341,2,0,B|336:199|289:164|318:149|273:114|234:127,1,161.039993365357,10|0,0:0|0:0,0:0:0:0:
147,186,49825,1,0,3:2:0:0:
223,257,49986,2,0,P|237:313|202:359,1,120.779995024018,10|0,0:0|0:0,0:0:0:0:
185,378,50309,2,0,P|152:369|106:360,1,80.5199966826784,2|0,3:2|3:2,0:0:0:0:
8,337,50632,1,8,0:0:0:0:
8,337,50793,1,0,3:2:0:0:
81,261,50955,2,0,P|103:234|82:178,1,80.5199966826784,10|10,3:3|3:3,0:0:0:0:
28,118,51277,1,10,0:0:0:0:
28,118,51439,1,2,3:2:0:0:
95,38,51600,6,0,P|148:53|219:78,1,120.779995024018,4|0,3:2|0:0,0:0:0:0:
218,90,51923,2,0,B|330:80|249:36|370:18,1,161.039993365357,10|2,0:0|3:2,0:0:0:0:
460,32,52407,1,0,3:2:0:0:
502,127,52568,2,0,B|489:165|489:165|487:168|487:168|477:204,1,80.5199966826784,10|0,0:0|0:0,0:0:0:0:
473,308,52891,2,0,P|442:240|368:255,1,161.039993365357,2|10,3:2|0:0,0:0:0:0:
307,339,53374,1,0,0:0:0:0:
307,339,53536,2,0,P|273:368|226:367,1,80.5199966826784,2|0,3:2|3:2,0:0:0:0:
145,339,53858,1,10,0:0:0:0:
145,339,54020,1,0,3:2:0:0:
192,245,54181,6,0,P|203:187|164:143,1,120.779995024018,2|0,3:2|0:0,0:0:0:0:
142,146,54503,2,0,B|132:108|99:78|99:78|106:36|156:31,1,161.039993365357,10|2,0:0|0:0,0:0:0:0:
260,4,54987,1,0,3:2:0:0:
260,4,55148,2,0,P|305:22|332:39,1,80.5199966826784,10|0,0:0|0:0,0:0:0:0:
431,4,55471,2,0,B|406:25|379:43|379:43|431:123,1,161.039993365357,2|10,3:2|0:0,0:0:0:0:
495,205,55954,2,0,P|454:203|418:224,1,80.5199966826784,0|2,3:2|0:0,0:0:0:0:
485,304,56277,1,0,3:2:0:0:
397,361,56439,2,0,P|357:363|322:344,1,80.5199966826784,10|0,0:0|0:0,0:0:0:0:
255,262,56762,6,0,B|268:197|280:141,1,120.779995024018,2|0,3:2|0:0,0:0:0:0:
292,127,57084,2,0,B|228:113|228:113|210:81|210:81|139:65,1,161.039993365357,10|2,0:0|0:0,0:0:0:0:
66,7,57568,1,0,3:2:0:0:
0,79,57729,2,0,P|20:113|35:151,1,80.5199966826784,10|0,0:0|0:0,0:0:0:0:
138,140,58051,2,0,P|118:182|84:291,1,161.039993365357,2|10,3:2|0:0,0:0:0:0:
9,364,58535,1,0,0:0:0:0:
9,364,58697,2,0,P|42:334|82:339,1,80.5199966826784,2|0,0:0|3:2,0:0:0:0:
179,372,59019,1,10,0:0:0:0:
179,372,59181,1,0,3:2:0:0:
251,296,59342,6,0,P|238:236|222:178,1,120.779995024018,2|0,3:2|0:0,0:0:0:0:
208,166,59664,2,0,B|245:182|292:147|263:132|308:97|347:110,1,161.039993365357,8|0,0:0|0:0,0:0:0:0:
434,167,60148,1,0,3:2:0:0:
478,72,60309,2,0,P|453:26|370:25,1,120.779995024018,8|0,0:0|0:0,0:0:0:0:
376,9,60632,2,0,P|343:18|297:27,1,80.5199966826784,2|8,3:2|0:0,0:0:0:0:
215,91,60955,1,8,0:0:0:0:
215,91,61116,1,4,3:3:0:0:
122,40,61278,2,0,P|100:67|121:123,1,80.5199966826784,10|10,3:3|3:3,0:0:0:0:
179,192,61600,1,6,3:3:0:0:
179,192,61762,1,2,3:2:0:0:
128,268,61922,6,0,P|71:259|15:252,1,99,6|0,3:2|0:0,0:0:0:0:
14,236,62245,1,10,0:0:0:0:
14,236,62406,2,0,P|-19:288|14:359,1,132,2|0,0:0|0:0,0:0:0:0:
89,380,62890,2,0,P|125:375|176:368,1,66,10|2,0:0|0:0,0:0:0:0:
224,309,63213,2,0,P|261:315|288:322,1,66,2|0,3:2|0:0,0:0:0:0:
358,382,63535,1,10,0:0:0:0:
427,320,63697,2,0,P|414:256|396:173,1,132,2|0,3:2|0:0,0:0:0:0:
345,122,64180,1,10,0:0:0:0:
345,122,64342,1,2,0:0:0:0:
417,64,64503,6,0,P|372:27|313:33,1,99,2|0,3:2|0:0,0:0:0:0:
312,16,64826,1,10,0:0:0:0:
312,16,64987,2,0,P|261:55|197:47,1,132,2|0,0:0|0:0,0:0:0:0:
119,7,65471,1,10,0:0:0:0:
119,7,65632,1,2,0:0:0:0:
57,76,65794,2,0,P|68:111|75:141,1,66,2|0,3:2|0:0,0:0:0:0:
117,221,66116,1,10,0:0:0:0:
180,153,66278,2,0,B|217:138|248:166|234:170|266:198|310:186,1,132,2|0,3:2|3:2,0:0:0:0:
380,139,66761,1,10,0:0:0:0:
380,139,66923,1,2,3:2:0:0:
466,170,67084,6,0,P|457:227|450:279,1,99,2|0,3:2|0:0,0:0:0:0:
464,298,67407,1,10,0:0:0:0:
464,298,67568,2,0,B|422:269|422:269|334:309,1,132,2|2,0:0|0:0,0:0:0:0:
288,373,68052,2,0,P|255:377|226:362,1,66,10|2,0:0|0:0,0:0:0:0:
162,296,68375,2,0,P|170:261|185:211,1,66,2|0,3:2|0:0,0:0:0:0:
244,167,68697,1,10,0:0:0:0:
209,81,68859,2,0,B|152:86|152:86|142:98|142:98|67:109,1,132,2|0,3:2|0:0,0:0:0:0:
5,154,69342,1,10,0:0:0:0:
5,154,69504,1,2,0:0:0:0:
45,236,69664,6,0,P|94:264|139:247,1,99,2|0,3:2|0:0,0:0:0:0:
147,231,69988,1,10,0:0:0:0:
147,231,70149,2,0,P|133:168|115:97,1,132,2|2,0:0|0:0,0:0:0:0:
59,37,70632,1,10,0:0:0:0:
59,37,70793,1,2,0:0:0:0:
146,4,70956,2,0,P|179:4|209:21,1,66,2|0,3:2|0:0,0:0:0:0:
214,111,71278,1,10,0:0:0:0:
272,182,71439,2,0,B|309:197|340:169|326:165|358:137|402:149,1,132,0|0,3:2|3:2,0:0:0:0:
478,194,71923,1,8,0:0:0:0:
478,194,72085,1,0,3:2:0:0:
429,264,72245,6,0,B|454:330|454:330|427:368,2,99,2|2|2,3:2|0:0|0:0,0:0:0:0:
358,215,72890,2,0,L|259:202,1,99,2|0,0:0|0:0,0:0:0:0:
245,187,73213,2,0,L|179:196,1,66,10|2,0:0|0:0,0:0:0:0:
109,245,73535,2,0,B|84:311|84:311|111:349,2,99,2|2|2,3:2|0:0|3:2,0:0:0:0:
167,181,74180,1,2,0:0:0:0:
159,169,74503,1,10,0:0:0:0:
151,160,74826,6,0,B|127:143|127:143|61:168,2,99,2|2|2,3:2|0:0|0:0,0:0:0:0:
204,227,75471,2,0,P|245:246|300:225,1,99,2|0,0:0|0:0,0:0:0:0:
300,212,75793,2,0,P|327:197|372:204,1,66,10|2,0:0|0:0,0:0:0:0:
423,258,76116,2,0,B|446:274|446:274|512:249,2,99,2|2|2,3:2|0:0|3:2,0:0:0:0:
384,181,76761,1,2,0:0:0:0:
388,168,77084,1,10,0:0:0:0:
394,156,77406,6,0,B|439:134|439:134|483:153,2,99,2|2|2,3:2|0:0|0:0,0:0:0:0:
335,219,78051,2,0,L|217:212,1,99,2|0,0:0|0:0,0:0:0:0:
220,203,78374,2,0,P|203:174|205:142,1,66,10|2,0:0|0:0,0:0:0:0:
243,64,78697,2,0,B|288:86|288:86|332:66,2,99,2|2|2,3:2|0:0|3:2,0:0:0:0:
171,16,79342,1,2,0:0:0:0:
161,24,79664,1,10,0:0:0:0:
149,30,79987,6,0,B|104:8|104:8|59:27,2,99,2|2|2,3:2|0:0|0:0,0:0:0:0:
197,101,80632,2,0,P|242:115|286:93,1,99,2|0,0:0|0:0,0:0:0:0:
308,91,80954,2,0,L|320:21,1,66,10|2,0:0|0:0,0:0:0:0:
405,20,81277,2,0,B|449:39|449:39|494:17,2,99,2|2|2,3:2|0:0|3:2,0:0:0:0:
324,4,81922,1,2,0:0:0:0:
324,4,82084,1,0,3:2:0:0:
308,91,82245,1,10,0:0:0:0:
308,91,82406,1,0,3:2:0:0:
358,157,82568,6,0,B|406:180|454:165|454:165|414:188|401:235,1,178.199994561768,6|0,3:2|0:0,0:0:0:0:
364,298,83213,2,0,P|402:266|477:295,2,118.799996374512,8|0|2,0:0|0:0|0:0,0:0:0:0:
305,356,84019,1,2,0:0:0:0:
305,356,84180,2,0,P|259:344|189:329,1,118.799996374512,2|10,3:2|0:0,0:0:0:0:
111,360,84664,2,0,P|58:329|72:263,1,118.799996374512,2|0,3:2|0:0,0:0:0:0:
76,195,85148,6,0,B|114:172|154:203|154:203|159:210|159:210|184:250|230:246,1,178.199994561768,2|0,3:2|0:0,0:0:0:0:
311,269,85793,2,0,P|331:334|342:392,2,118.799996374512,8|0|2,0:0|0:0|0:0,0:0:0:0:
351,198,86599,1,2,0:0:0:0:
351,198,86761,2,0,P|390:182|445:202,1,89.0999972808839,2|0,3:2|0:0,0:0:0:0:
452,192,87084,2,0,P|458:159|473:124,1,59.3999981872559,2|2,0:0|3:2,0:0:0:0:
512,66,87406,1,8,3:3:0:0:
512,66,87568,1,4,3:3:0:0:
443,18,87729,6,0,B|391:2|351:40|383:58|339:111|269:82,1,178.199994561768,2|0,3:2|0:0,0:0:0:0:
229,36,88374,2,0,P|167:18|120:59,2,118.799996374512,8|0|2,0:0|0:0|0:0,0:0:0:0:
294,88,89180,1,2,0:0:0:0:
294,88,89342,2,0,P|283:148|274:211,1,118.799996374512,2|10,3:2|0:0,0:0:0:0:
316,277,89826,2,0,P|280:323|223:331,1,118.799996374512,2|2,3:2|0:0,0:0:0:0:
145,303,90309,6,0,B|130:216|130:216|126:211|126:211|107:112,1,178.199994561768,2|0,3:2|0:0,0:0:0:0:
152,56,90955,2,0,P|96:76|38:91,2,118.799996374512,8|0|2,0:0|0:0|0:0,0:0:0:0:
221,8,91761,1,2,0:0:0:0:
221,8,91922,2,0,P|248:20|276:27,2,59.3999981872559,2|2|2,3:2|0:0|0:0,0:0:0:0:
0,111,92890,6,0,P|17:167|34:240,1,120.779995024018,4|0,3:2|0:0,0:0:0:0:
27,247,93213,2,0,B|135:252|61:307|169:319,1,161.039993365357,10|2,0:0|3:2,0:0:0:0:
252,370,93697,1,0,3:2:0:0:
321,291,93858,2,0,P|309:252|297:214,1,80.5199966826784,10|0,0:0|0:0,0:0:0:0:
224,137,94181,2,0,P|270:68|335:85,1,161.039993365357,2|10,3:2|0:0,0:0:0:0:
415,160,94664,1,0,0:0:0:0:
415,160,94826,2,0,P|444:126|443:79,1,80.5199966826784,2|0,3:2|3:2,0:0:0:0:
389,10,95148,1,10,0:0:0:0:
389,10,95310,1,0,3:2:0:0:
299,63,95471,6,0,P|258:58|172:36,1,120.779995024018,2|0,3:2|0:0,0:0:0:0:
175,26,95793,2,0,B|137:32|95:15|95:15|60:39|77:87,1,161.039993365357,10|2,0:0|3:2,0:0:0:0:
129,184,96277,1,0,3:2:0:0:
129,184,96438,2,0,P|174:202|201:219,1,80.5199966826784,10|0,0:0|0:0,0:0:0:0:
303,240,96761,2,0,P|228:233|201:303,1,161.039993365357,2|10,3:2|0:0,0:0:0:0:
270,382,97244,2,0,P|307:368|347:362,1,80.5199966826784,0|2,3:2|0:0,0:0:0:0:
437,308,97567,1,0,3:2:0:0:
383,217,97729,2,0,P|381:177|405:146,1,80.5199966826784,10|0,0:0|0:0,0:0:0:0:
486,78,98052,6,0,B|428:69|428:69|424:60|424:60|348:47,1,120.779995024018,2|0,3:2|0:0,0:0:0:0:
369,35,98374,2,0,B|294:48|294:48|286:55|286:55|212:67,1,161.039993365357,10|2,0:0|3:2,0:0:0:0:
165,161,98858,1,0,3:2:0:0:
100,79,99019,2,0,P|63:63|25:74,1,80.5199966826784,10|0,0:0|0:0,0:0:0:0:
1,170,99342,2,0,P|-8:94|61:48,1,161.039993365357,2|10,3:2|0:0,0:0:0:0:
153,10,99825,1,0,0:0:0:0:
153,10,99987,2,0,P|191:16|243:26,1,80.5199966826784,2|0,0:0|3:2,0:0:0:0:
310,101,100309,1,10,0:0:0:0:
310,101,100471,1,0,3:2:0:0:
232,171,100632,6,0,P|248:229|260:288,1,120.779995024018,2|0,3:2|0:0,0:0:0:0:
256,305,100954,2,0,B|295:292|340:327|311:342|358:377|395:361,1,161.039993365357,8|0,0:0|0:0,0:0:0:0:
479,299,101438,1,0,3:2:0:0:
413,217,101599,2,0,B|391:182|391:182|434:98,1,120.779995024018,10|0,0:0|0:0,0:0:0:0:
446,97,101922,2,0,P|413:88|367:79,1,80.5199966826784,2|0,3:2|3:2,0:0:0:0:
289,16,102245,1,8,0:0:0:0:
289,16,102406,1,0,3:2:0:0:
209,84,102568,2,0,P|187:111|208:167,1,80.5199966826784,10|10,3:3|3:3,0:0:0:0:
266,235,102890,1,10,0:0:0:0:
266,235,103052,1,2,3:2:0:0:
181,293,103213,6,0,P|124:273|65:256,1,120.779995024018,4|0,3:2|0:0,0:0:0:0:
47,262,103536,2,0,P|19:196|86:154,1,161.039993365357,10|2,0:0|3:2,0:0:0:0:
186,169,104020,1,0,3:2:0:0:
138,75,104181,2,0,B|97:60|97:60|61:50,1,80.5199966826784,10|0,0:0|0:0,0:0:0:0:
201,13,104504,2,0,P|276:40|352:68,1,161.039993365357,2|10,3:2|0:0,0:0:0:0:
436,5,104987,1,0,0:0:0:0:
436,5,105149,2,0,P|465:31|473:70,1,80.5199966826784,2|0,3:2|3:2,0:0:0:0:
465,177,105471,1,10,0:0:0:0:
465,177,105633,1,0,3:2:0:0:
363,151,105794,6,0,B|302:161|302:161|298:165|298:165|240:175,1,120.779995024018,2|0,3:2|0:0,0:0:0:0:
231,168,106116,2,0,B|189:177|179:212|179:212|208:244|223:295,1,161.039993365357,10|2,0:0|0:0,0:0:0:0:
135,347,106600,1,0,3:2:0:0:
135,347,106761,2,0,P|117:302|100:275,1,80.5199966826784,10|0,0:0|0:0,0:0:0:0:
15,212,107084,2,0,B|32:181|67:173|67:173|59:114|15:93,1,161.039993365357,2|10,3:2|0:0,0:0:0:0:
65,1,107567,2,0,P|103:18|138:48,1,80.5199966826784,0|2,3:2|0:0,0:0:0:0:
176,138,107890,1,0,3:2:0:0:
238,53,108052,2,0,P|273:34|312:36,1,80.5199966826784,10|0,0:0|0:0,0:0:0:0:
416,53,108375,6,0,B|427:106|440:171,1,120.779995024018,2|0,3:2|0:0,0:0:0:0:
450,193,108697,2,0,B|386:179|386:179|368:147|368:147|297:131,1,161.039993365357,10|2,0:0|0:0,0:0:0:0:
238,53,109181,1,0,3:2:0:0:
176,137,109342,2,0,P|196:171|211:209,1,80.5199966826784,10|0,0:0|0:0,0:0:0:0:
204,313,109664,2,0,P|238:226|300:238,1,161.039993365357,2|10,3:2|0:0,0:0:0:0:
368,311,110148,1,0,0:0:0:0:
368,311,110310,2,0,P|401:341|441:336,1,80.5199966826784,2|0,0:0|3:2,0:0:0:0:
511,268,110632,1,10,0:0:0:0:
511,268,110794,1,0,3:2:0:0:
420,215,110955,6,0,P|407:155|391:97,1,120.779995024018,2|0,3:2|0:0,0:0:0:0:
379,88,111277,2,0,B|278:117|340:144|237:170,1,161.039993365357,8|0,0:0|0:0,0:0:0:0:
159,231,111761,1,0,3:2:0:0:
126,131,111922,2,0,P|95:81|38:83,1,120.779995024018,8|0,0:0|0:0,0:0:0:0:
21,88,112245,2,0,P|30:120|39:166,1,80.5199966826784,2|8,3:2|0:0,0:0:0:0:
17,272,112568,1,8,0:0:0:0:
17,272,112729,1,4,3:3:0:0:
88,348,112890,2,0,P|127:350|157:325,1,80.5199966826784,10|10,3:3|3:3,0:0:0:0:
202,232,113213,1,6,3:3:0:0:
202,232,113375,1,2,3:2:0:0:
422,58,122245,5,2,3:2:0:0:
302,156,122568,2,0,L|244:145,2,59.3999981872559,10|8|2,0:0|0:0|3:2,0:0:0:0:
425,248,123213,2,0,L|483:237,2,59.3999981872559,10|4|2,3:3|3:3|3:2,0:0:0:0:
319,360,123858,6,0,P|260:371|211:333,1,118.799996374512,0|0,3:2|3:2,0:0:0:0:
147,310,124342,1,0,0:0:0:0:
147,310,124503,2,0,B|162:191|162:191|168:226|189:240,1,178.199994561768,8|0,0:0|3:2,0:0:0:0:
333,297,125309,1,8,0:0:0:0:
397,253,125471,2,0,P|389:203|377:151,1,89.0999972808839,0|0,3:2|0:0,0:0:0:0:
359,160,125793,2,0,P|362:130|369:97,1,59.3999981872559,8|0,0:0|0:0,0:0:0:0:
417,42,126116,1,0,3:2:0:0:
417,42,126277,1,0,3:2:0:0:
348,4,126439,6,0,B|281:8|297:42|238:45,1,118.799996374512,0|0,3:2|3:2,0:0:0:0:
185,100,126923,1,0,0:0:0:0:
185,100,127084,2,0,B|134:66|134:66|66:87,1,118.799996374512,8|2,0:0|3:2,0:0:0:0:
12,122,127568,1,0,3:2:0:0:
92,253,127890,1,8,0:0:0:0:
92,253,128052,2,0,P|124:224|168:222,1,89.0999972808839,2|0,3:2|0:0,0:0:0:0:
190,214,128374,2,0,P|214:232|222:272,1,59.3999981872559,10|0,0:0|0:0,0:0:0:0:
205,337,128697,1,2,0:0:0:0:
205,337,128858,1,10,0:0:0:0:
270,378,129019,6,0,P|322:365|396:351,1,118.799996374512,0|0,3:2|3:2,0:0:0:0:
464,377,129503,1,0,0:0:0:0:
464,377,129664,2,0,B|407:331|407:331|448:234,1,178.199994561768,8|0,0:0|3:2,0:0:0:0:
512,93,130470,1,8,0:0:0:0:
453,41,130632,2,0,P|410:34|366:62,1,89.0999972808839,0|0,3:2|0:0,0:0:0:0:
367,76,130954,2,0,P|350:99|322:110,1,59.3999981872559,8|0,0:0|0:0,0:0:0:0:
256,80,131277,1,0,3:2:0:0:
256,80,131438,1,0,3:2:0:0:
204,137,131600,6,0,P|212:195|222:269,1,118.799996374512,0|0,3:2|3:2,0:0:0:0:
264,318,132084,1,0,0:0:0:0:
264,318,132245,2,0,P|221:290|145:305,1,118.799996374512,8|2,0:0|3:2,0:0:0:0:
97,348,132729,1,0,3:2:0:0:
4,224,133051,1,8,0:0:0:0:
4,224,133213,2,0,P|13:182|26:135,1,89.0999972808839,2|0,3:2|0:0,0:0:0:0:
16,122,133535,2,0,P|26:84|34:57,1,59.3999981872559,10|0,0:0|3:2,0:0:0:0:
104,32,133858,1,2,3:2:0:0:
104,32,134019,1,10,0:0:0:0:
143,98,134180,6,0,P|190:134|252:116,1,118.799996374512,2|2,3:2|3:2,0:0:0:0:
292,62,134664,1,2,0:0:0:0:
292,62,134826,2,0,L|274:187,1,118.799996374512,10|0,0:0|0:0,0:0:0:0:
243,252,135309,1,2,3:2:0:0:
243,252,135470,2,0,B|319:247|285:286|351:288,1,118.799996374512,2|0,0:0|3:2,0:0:0:0:
418,327,135954,1,2,0:0:0:0:
472,272,136116,2,0,P|478:243|487:214,1,59.3999981872559,10|0,0:0|0:0,0:0:0:0:
414,187,136439,2,0,P|407:158|398:129,1,59.3999981872559,2|0,3:2|3:2,0:0:0:0:
471,105,136761,6,0,P|417:87|344:72,1,118.799996374512,2|2,3:2|3:2,0:0:0:0:
301,19,137245,1,2,0:0:0:0:
240,66,137406,2,0,B|249:124|249:124|247:127|247:127|257:194,1,118.799996374512,10|2,0:0|3:2,0:0:0:0:
316,230,137890,1,2,3:2:0:0:
273,293,138051,6,0,P|225:318|166:278,1,118.799996374512,2|2,0:0|3:2,0:0:0:0:
99,263,138535,1,2,0:0:0:0:
127,191,138696,2,0,P|121:158|115:132,1,59.3999981872559,10|0,0:0|0:0,0:0:0:0:
42,107,139019,2,0,P|47:74|54:43,1,59.3999981872559,2|10,3:2|0:0,0:0:0:0:
113,1,139341,6,0,B|179:19|151:35|227:63,1,118.799996374512,2|2,3:2|3:2,0:0:0:0:
285,22,139825,1,2,0:0:0:0:
285,22,139987,2,0,P|339:59|327:109,1,118.799996374512,10|2,0:0|0:0,0:0:0:0:
388,162,140470,1,2,3:2:0:0:
388,162,140632,2,0,P|328:152|255:142,1,118.799996374512,2|2,0:0|3:2,0:0:0:0:
200,110,141116,1,2,0:0:0:0:
161,176,141277,2,0,P|162:208|181:231,1,59.3999981872559,10|0,0:0|0:0,0:0:0:0:
176,306,141600,2,0,P|202:317|231:312,1,59.3999981872559,2|2,3:2|3:2,0:0:0:0:
303,340,141922,6,0,P|317:275|335:217,1,118.799996374512,2|2,3:2|3:2,0:0:0:0:
400,188,142406,1,2,0:0:0:0:
353,126,142567,2,0,P|317:134|286:142,1,59.3999981872559,10|0,0:0|0:0,0:0:0:0:
249,202,142890,2,0,P|220:194|191:188,1,59.3999981872559,2|0,3:2|3:2,0:0:0:0:
119,217,143213,6,0,P|150:191|122:123,1,118.799996374512,2|2,0:0|3:2,0:0:0:0:
62,85,143696,1,2,0:0:0:0:
97,16,143858,2,0,P|134:26|164:36,1,59.3999981872559,10|0,0:0|0:0,0:0:0:0:
213,81,144180,2,0,P|241:72|270:64,1,59.3999981872559,2|2,3:2|0:0,0:0:0:0:
