osu file format v14

[General]
AudioFilename: audio.mp3
AudioLeadIn: 0
PreviewTime: 91600
Countdown: 0
SampleSet: Soft
StackLeniency: 0.3
Mode: 0
LetterboxInBreaks: 0
WidescreenStoryboard: 1

[Editor]
Bookmarks: 10310,20632,30955,41277,61922,82568,92890,113535,123858,144503
DistanceSpacing: 1.2
BeatDivisor: 4
GridSize: 32
TimelineZoom: 1.8

[Metadata]
Title:tp na ame
TitleUnicode:тп на аме
Artist:SEREGA PIRAT
ArtistUnicode:СЕРЕГА ПИРАТ
Creator:nemidnight
Version:bublyaa's insane
Source:
Tags:russian rock русский рок anti-mage антимаг dota2 дота2 anti mage анти маг дота 2 dota 2 video game valve bublyaa tachibana_ ryxliee
BeatmapID:3512042
BeatmapSetID:1717881

[Difficulty]
HPDrainRate:5
CircleSize:4
OverallDifficulty:8
ApproachRate:9
SliderMultiplier:1.5
SliderTickRate:1

[Events]
//Background and Video events
0,0,"am.jpg",0,0
//Break Periods
2,113574,121645
//Storyboard Layer 0 (Background)
//Storyboard Layer 1 (Fail)
//Storyboard Layer 2 (Pass)
//Storyboard Layer 3 (Foreground)
//Storyboard Layer 4 (Overlay)
//Storyboard Sound Samples

[TimingPoints]
10310,322.58064516129,4,2,2,60,1,0
10310,-125,4,2,2,60,0,0
11922,-100,4,2,2,60,0,0
13213,-125,4,2,2,60,0,0
14503,-100,4,2,2,60,0,0
15793,-125,4,2,2,60,0,0
17406,-100,4,2,2,60,0,0
18374,-125,4,2,2,60,0,0
19342,-166.666666666667,4,2,2,60,0,0
19987,-125,4,2,2,60,0,0
20632,-102.040816326531,4,2,1,70,0,0
29664,-92.5925925925929,4,2,1,70,0,0
30955,-84.7457627118644,4,2,2,80,0,0
31600,-102.040816326531,4,2,2,80,0,0
32568,-92.5925925925926,4,2,2,80,0,0
34180,-102.040816326531,4,2,2,80,0,0
34826,-92.5925925925926,4,2,2,80,0,0
36761,-102.040816326531,4,2,2,80,0,0
37406,-92.5925925925926,4,2,2,80,0,0
39019,-102.040816326531,4,2,2,80,0,0
40632,-128.205128205128,4,2,3,80,0,0
41277,-84.7457627118644,4,2,1,90,0,1
50955,-84.7457627118644,4,2,4,90,0,1
51600,-84.7457627118644,4,2,1,90,0,1
61277,-84.7457627118644,4,2,4,90,0,1
61922,-102.040816326531,4,2,5,70,0,0
62245,-102.040816326531,4,2,2,70,0,0
82568,-84.7457627118644,4,2,2,80,0,0
83213,-92.5925925925926,4,2,2,80,0,0
84180,-84.7457627118644,4,2,2,80,0,0
85793,-92.5925925925926,4,2,2,80,0,0
86761,-84.7457627118644,4,2,2,80,0,0
88374,-92.5925925925926,4,2,2,80,0,0
89342,-84.7457627118644,4,2,2,80,0,0
90632,-92.5925925925926,4,2,2,80,0,0
92245,-128.205128205128,4,2,3,80,0,0
92890,-84.7457627118644,4,2,1,90,0,1
102568,-84.7457627118644,4,2,4,90,0,1
103213,-84.7457627118644,4,2,1,90,0,1
112890,-84.7457627118644,4,2,4,90,0,1
113535,-84.7457627118644,4,2,1,80,0,0
123858,-92.5925925925926,4,2,1,90,0,1
144503,-92.5925925925926,4,2,1,90,0,0

[Colours]
Combo1 : 219,71,0
Combo2 : 203,99,233
Combo3 : 252,71,135
Combo4 : 18,162,248

[HitObjects]
136,100,10310,5,2,3:2:0:0:
136,100,10632,2,0,P|177:110|202:124,1,60
267,188,10955,2,0,L|258:247,1,60,8|0,0:0|0:0,0:0:0:0:
334,259,11277,2,0,L|342:199,1,60
363,89,11600,2,0,P|323:107|314:132,1,60
447,86,11922,2,0,L|363:77,1,75,2|0,3:2|0:0,0:0:0:0:
418,251,12245,2,0,B|422:273|438:286|438:286|428:261|430:238,1,75,8|2,0:0|3:2,0:0:0:0:
471,169,12568,2,0,B|449:161|429:169|429:169|456:173|475:185,1,75
512,257,12890,2,0,B|528:242|532:221|532:221|515:242|495:252,1,75,2|0,3:2|0:0,0:0:0:0:
352,299,13213,6,0,L|344:359,1,60
225,281,13535,2,0,B|277:275|277:275|293:286|293:286|361:281,1,120,8|0,0:0|0:0,0:0:0:0:
225,281,14180,2,0,P|188:304|169:323,1,60
66,291,14503,2,0,L|73:366,1,75,2|0,3:2|0:0,0:0:0:0:
183,240,14826,2,0,L|175:315,1,75,0|2,0:0|3:2,0:0:0:0:
66,291,15148,2,0,L|58:215,1,75
37,103,15471,2,0,B|74:93|111:127|70:136|124:188|163:163,1,150,2|0,3:2|0:0,0:0:0:0:
169,21,16116,6,0,P|135:32|102:52,1,60,8|0,0:0|0:0,0:0:0:0:
157,166,16439,2,0,P|164:131|163:92,1,60
164,106,16761,2,0,P|224:122|291:130,1,120,0|2,0:0|3:2,0:0:0:0:
437,112,17406,2,0,L|447:37,1,75,8|2,0:0|3:2,0:0:0:0:
368,27,17729,2,0,L|357:101,1,75
489,196,18051,6,0,P|483:157|439:141,1,75,2|0,3:2|0:0,0:0:0:0:
395,196,18374,2,0,P|372:199|331:217,1,60
285,276,18697,2,0,P|263:260|232:246,1,60,8|0,0:0|0:0,0:0:0:0:
144,271,19019,1,0,0:0:0:0:
144,271,19180,1,0,0:0:0:0:
144,271,19342,2,0,P|137:242|147:270,1,89.9999972534181,0|2,0:0|3:2,0:0:0:0:
52,312,19987,2,0,P|40:278|40:241,1,60,8|2,0:0|3:2,0:0:0:0:
66,180,20309,2,0,P|95:159|131:150,1,60
144,271,20632,6,0,P|198:288|249:316,1,110.249998990631,2|0,3:2|0:0,0:0:0:0:
253,324,20955,1,10,0:0:0:0:
375,370,21116,1,2,0:0:0:0:
375,370,21277,2,0,P|446:368|459:297,1,146.999998654175,2|8,0:0|0:0,0:0:0:0:
484,191,21761,1,2,0:0:0:0:
484,191,21922,2,0,B|425:194|447:243|374:233,1,110.249998990631,2|0,3:2|0:0,0:0:0:0:
365,251,22245,2,0,L|279:231,1,73.4999993270874,10|2,0:0|3:2,0:0:0:0:
200,314,22568,2,0,P|165:296|135:249,1,73.4999993270874,2|0,0:0|0:0,0:0:0:0:
52,247,22890,2,0,P|50:207|75:158,1,73.4999993270874,10|0,0:0|3:2,0:0:0:0:
171,131,23213,6,0,L|278:107,1,110.249998990631,2|0,3:2|0:0,0:0:0:0:
288,88,23535,1,10,0:0:0:0:
437,114,23697,1,2,0:0:0:0:
437,114,23858,2,0,B|400:99|355:133|388:152|342:189|295:170,1,146.999998654175,2|10,0:0|0:0,0:0:0:0:
288,88,24342,1,0,0:0:0:0:
204,55,24503,2,0,P|148:38|81:31,1,110.249998990631,2|0,3:2|0:0,0:0:0:0:
71,36,24826,1,10,0:0:0:0:
25,129,24987,1,2,3:2:0:0:
25,129,25148,2,0,P|52:155|68:188,1,73.4999993270874,2|0,0:0|3:2,0:0:0:0:
4,244,25471,5,10,0:0:0:0:
4,244,25632,1,0,3:2:0:0:
14,348,25793,2,0,B|43:357|83:314|47:300|87:260|125:268,1,146.999998654175,2|10,3:2|0:0,0:0:0:0:
270,357,26277,1,2,0:0:0:0:
194,374,26439,2,0,P|149:368|104:338,1,73.4999993270874,2|0,0:0|0:0,0:0:0:0:
147,273,26761,2,0,P|179:288|216:292,1,73.4999993270874,10|0,0:0|0:0,0:0:0:0:
270,357,27084,2,0,B|320:362|320:362|328:367|328:367|388:374,1,110.249998990631,2|0,3:2|0:0,0:0:0:0:
408,376,27406,1,10,0:0:0:0:
495,314,27568,1,2,3:2:0:0:
495,314,27729,2,0,P|490:274|459:237,1,73.4999993270874,2|0,0:0|0:0,0:0:0:0:
497,141,28051,2,0,P|459:125|412:133,1,73.4999993270874,10|2,0:0|0:0,0:0:0:0:
340,193,28374,6,0,L|217:216,1,110.249998990631,2|0,3:2|0:0,0:0:0:0:
201,234,28697,2,0,P|159:204|162:166,1,73.4999993270874,10|2,0:0|0:0,0:0:0:0:
309,100,29019,2,0,L|225:116,1,73.4999993270874,2|0,0:0|0:0,0:0:0:0:
156,185,29342,2,0,L|72:169,1,73.4999993270874,10|0,0:0|0:0,0:0:0:0:
0,94,29664,2,0,B|3:64|28:56|28:56|102:69,1,121.500002966309,2|0,3:2|0:0,0:0:0:0:
128,53,29987,2,0,L|207:68,1,81.0000019775391,10|2,0:0|3:2,0:0:0:0:
313,7,30309,2,0,B|307:39|307:39|296:51|296:51|286:97,1,81.0000019775391,2|0,0:0|3:2,0:0:0:0:
252,198,30632,5,10,0:0:0:0:
301,87,30793,1,0,3:2:0:0:
179,241,30955,2,0,B|136:170|136:170|251:198|251:198|285:191|285:191|367:209,1,309.749989129258,6|0,3:2|0:0,0:0:0:0:
362,197,31600,2,0,L|276:178,1,73.4999993270874,10|0,0:0|0:0,0:0:0:0:
347,295,31922,2,0,L|433:276,1,73.4999993270874,2|0,0:0|0:0,0:0:0:0:
481,204,32245,5,2,0:0:0:0:
481,204,32406,1,2,0:0:0:0:
481,204,32568,2,0,P|398:230|424:282,1,162.000003955078,2|8,3:2|0:0,0:0:0:0:
488,371,33051,2,0,B|516:335|516:335|389:367,1,162.000003955078,2|0,3:2|0:0,0:0:0:0:
336,313,33535,2,0,B|291:307|255:327|267:358|235:380|169:359,1,162.000003955078,2|0,3:2|0:0,0:0:0:0:
34,340,34180,2,0,L|45:255,1,73.4999993270874,10|0,0:0|0:0,0:0:0:0:
120,278,34503,2,0,L|110:350,1,73.4999993270874,2|0,0:0|0:0,0:0:0:0:
93,195,34826,5,2,0:0:0:0:
93,195,34987,1,2,0:0:0:0:
93,195,35148,2,0,L|116:15,1,162.000003955078,2|0,3:2|0:0,0:0:0:0:
238,90,35632,2,0,P|158:94|112:15,1,162.000003955078,2|4,3:2|3:3,0:0:0:0:
122,175,36116,2,0,B|163:190|207:141|157:128|197:78|247:91,1,162.000003955078,2|0,3:2|0:0,0:0:0:0:
422,32,36761,2,0,B|429:53|422:72|422:72|418:45|405:26,1,73.4999993270874,10|0,0:0|0:0,0:0:0:0:
320,81,37084,2,0,B|312:59|319:40|319:40|323:67|336:86,1,73.4999993270874,2|0,0:0|0:0,0:0:0:0:
477,146,37406,5,2,0:0:0:0:
477,146,37568,1,2,0:0:0:0:
477,146,37729,2,0,P|412:121|360:196,1,162.000003955078,2|8,3:2|0:0,0:0:0:0:
509,235,38213,2,0,P|460:205|348:184,1,162.000003955078,2|0,3:2|0:0,0:0:0:0:
247,210,38697,2,0,B|278:219|301:204|292:186|322:168|360:184,1,121.500002966309,2|0,3:2|0:0,0:0:0:0:
369,197,39019,6,0,P|411:176|452:184,1,73.4999993270874
383,327,39342,2,0,P|343:296|326:254,1,73.4999993270874,8|0,0:0|0:0,0:0:0:0:
492,247,39664,2,0,P|483:294|457:331,1,73.4999993270874
320,384,39987,5,2,0:0:0:0:
320,384,40148,1,2,0:0:0:0:
320,384,40309,2,0,P|280:365|239:357,1,73.4999993270874,2|2,3:2|0:0,0:0:0:0:
323,376,40632,2,0,P|283:357|192:343,1,117.000003927612,2|0,0:0|0:0,0:0:0:0:
0,374,41277,6,0,P|3:325|44:310,1,88.4999968940736,4|0,3:2|0:0,0:0:0:0:
146,259,41600,2,0,P|170:209|165:172,1,88.4999968940736,10|0,0:0|0:0,0:0:0:0:
129,70,41922,2,0,L|32:53,1,88.4999968940736,2|0,3:2|3:2,0:0:0:0:
59,276,42245,2,0,P|104:262|156:259,1,88.4999968940736,10|0,0:0|0:0,0:0:0:0:
129,70,42568,2,0,P|168:90|202:118,1,88.4999968940736,2|0,3:2|0:0,0:0:0:0:
313,0,42890,6,0,P|332:85|320:173,1,176.999993788147,10|2,0:0|3:2,0:0:0:0:
255,278,43374,1,0,3:2:0:0:
202,118,43535,1,10,0:0:0:0:
255,285,43697,1,0,3:2:0:0:
374,121,43858,2,0,P|337:129|324:186,1,88.4999968940736,2|0,3:2|0:0,0:0:0:0:
427,221,44180,6,0,P|478:239|513:268,1,88.4999968940736,10|0,0:0|0:0,0:0:0:0:
366,321,44503,2,0,P|315:339|280:368,1,88.4999968940736,2|0,3:2|3:2,0:0:0:0:
77,321,44826,2,0,L|227:351,1,132.74999534111,10|0,0:0|0:0,0:0:0:0:
287,359,45148,2,0,P|320:318|306:268,1,88.4999968940736,2|0,3:2|0:0,0:0:0:0:
319,172,45471,1,10,0:0:0:0:
136,233,45632,1,0,3:2:0:0:
136,233,45793,2,0,P|82:214|31:207,1,88.4999968940736,2|0,0:0|3:2,0:0:0:0:
0,96,46116,2,0,P|54:77|105:70,1,88.4999968940736,10|0,0:0|0:0,0:0:0:0:
141,3,46439,6,0,B|197:8|197:42|191:86|270:81,1,132.74999534111,2|0,3:2|0:0,0:0:0:0:
326,114,46761,2,0,L|342:17,1,88.4999968940736,10|0,0:0|0:0,0:0:0:0:
425,39,47084,2,0,L|410:126,1,88.4999968940736,2|0,3:2|3:2,0:0:0:0:
512,278,47406,2,0,P|486:225|417:225,1,132.74999534111,10|0,0:0|0:0,0:0:0:0:
394,325,47729,2,0,P|341:342|302:368,1,88.4999968940736,2|0,3:2|0:0,0:0:0:0:
71,289,48051,2,0,P|167:319|238:367,1,176.999993788147,10|2,0:0|0:0,0:0:0:0:
313,359,48535,5,0,3:2:0:0:
182,298,48697,1,10,0:0:0:0:
329,206,48858,1,0,3:2:0:0:
100,226,49019,2,0,P|132:295|192:293,1,132.74999534111,2|0,3:2|0:0,0:0:0:0:
254,272,49342,2,0,L|224:86,1,176.999993788147,10|0,0:0|0:0,0:0:0:0:
303,0,49826,1,0,3:2:0:0:
226,98,49987,2,0,P|185:114|147:138,1,88.4999968940736,10|0,0:0|0:0,0:0:0:0:
100,226,50309,5,2,3:2:0:0:
100,226,50471,1,0,3:2:0:0:
8,183,50632,1,8,0:0:0:0:
8,183,50794,1,0,3:2:0:0:
66,94,50955,2,0,P|64:49|54:6,1,88.4999968940736,10|10,3:3|3:3,0:0:0:0:
128,0,51277,2,0,P|138:43|140:88,1,88.4999968940736,10|2,0:0|3:2,0:0:0:0:
31,279,51600,6,0,P|-4:232|13:197,1,88.4999968940736,4|0,3:2|0:0,0:0:0:0:
100,226,51922,2,0,P|154:250|186:275,1,88.4999968940736,10|0,0:0|0:0,0:0:0:0:
225,355,52245,2,0,P|280:333|320:328,1,88.4999968940736,2|0,3:2|3:2,0:0:0:0:
512,346,52568,2,0,L|372:314,1,132.74999534111,10|0,0:0|0:0,0:0:0:0:
309,329,52890,2,0,P|300:266|337:238,1,88.4999968940736,2|0,3:2|0:0,0:0:0:0:
489,207,53213,2,0,P|438:246|396:228,1,88.4999968940736,10|0,0:0|0:0,0:0:0:0:
358,151,53535,2,0,L|350:50,1,88.4999968940736,2|0,3:2|3:2,0:0:0:0:
467,0,53858,5,10,0:0:0:0:
438,137,54019,1,0,3:2:0:0:
286,0,54180,2,0,P|260:65|238:144,1,132.74999534111,2|0,3:2|0:0,0:0:0:0:
225,203,54503,2,0,P|175:218|134:182,1,88.4999968940736,10|0,0:0|0:0,0:0:0:0:
23,96,54826,2,0,P|89:113|122:140,1,88.4999968940736,2|0,0:0|3:2,0:0:0:0:
225,203,55148,2,0,P|204:284|170:325,1,132.74999534111,10|0,0:0|0:0,0:0:0:0:
148,306,55471,2,0,P|99:307|72:340,1,88.4999968940736,2|0,3:2|0:0,0:0:0:0:
227,384,55793,5,10,0:0:0:0:
369,308,55955,2,0,L|411:136,1,176.999993788147,0|0,3:2|3:2,0:0:0:0:
408,380,56439,2,0,P|376:350|368:307,1,88.4999968940736,10|0,0:0|0:0,0:0:0:0:
468,245,56761,6,0,L|501:106,1,132.74999534111,2|0,3:2|0:0,0:0:0:0:
512,41,57084,2,0,P|469:15|427:38,1,88.4999968940736,10|0,0:0|0:0,0:0:0:0:
411,136,57406,2,0,P|364:146|317:171,1,88.4999968940736,2|0,0:0|3:2,0:0:0:0:
173,48,57729,2,0,P|237:61|302:96,1,132.74999534111,10|0,0:0|0:0,0:0:0:0:
327,163,58051,2,0,P|308:206|265:214,1,88.4999968940736,2|0,3:2|0:0,0:0:0:0:
211,294,58374,2,0,P|168:275|160:232,1,88.4999968940736,10|0,0:0|0:0,0:0:0:0:
173,48,58697,2,0,P|193:87|203:141,1,88.4999968940736,2|0,0:0|3:2,0:0:0:0:
158,237,59019,5,10,0:0:0:0:
99,86,59180,1,0,3:2:0:0:
8,227,59342,2,0,P|66:293|115:271,1,132.74999534111,2|0,3:2|0:0,0:0:0:0:
158,237,59664,2,0,L|337:280,1,176.999993788147,8|0,0:0|0:0,0:0:0:0:
483,312,60148,1,0,3:2:0:0:
358,194,60309,2,0,P|339:235|329:282,1,88.4999968940736,8|0,0:0|0:0,0:0:0:0:
390,384,60632,5,2,3:2:0:0:
390,384,60793,1,8,0:0:0:0:
483,312,60955,5,8,0:0:0:0:
483,312,61116,1,4,3:3:0:0:
430,235,61277,5,10,3:3:0:0:
430,235,61438,1,10,3:3:0:0:
471,165,61600,5,6,3:3:0:0:
471,165,61761,1,2,3:2:0:0:
437,22,61922,6,0,P|454:78|472:174,1,146.999998654175,6|10,3:2|0:0,0:0:0:0:
430,235,62406,2,0,P|369:233|337:116,1,183.749998317719,2|0,0:0|0:0,0:0:0:0:
339,111,62890,2,0,P|308:128|257:142,1,73.4999993270874,10|2,0:0|0:0,0:0:0:0:
186,104,63213,2,0,P|152:92|106:66,1,73.4999993270874,2|0,3:2|0:0,0:0:0:0:
85,0,63535,1,10,0:0:0:0:
118,75,63697,2,0,P|102:167|76:255,1,183.749998317719,2|0,3:2|0:0,0:0:0:0:
67,275,64180,2,0,P|31:281|-1:300,1,73.4999993270874,10|2,0:0|0:0,0:0:0:0:
129,382,64503,6,0,L|142:301,1,73.4999993270874,2|0,3:2|0:0,0:0:0:0:
195,166,64826,1,10,0:0:0:0:
195,166,64987,2,0,L|170:310,1,146.999998654175,2|0,0:0|0:0,0:0:0:0:
225,382,65471,1,10,0:0:0:0:
225,382,65632,1,2,0:0:0:0:
297,286,65793,2,0,P|282:229|262:198,1,73.4999993270874,2|0,3:2|0:0,0:0:0:0:
273,130,66116,1,10,0:0:0:0:
273,130,66277,2,0,P|342:155|420:172,1,146.999998654175,2|0,3:2|3:2,0:0:0:0:
481,323,66761,6,0,P|507:267|491:241,1,73.4999993270874,10|2,0:0|3:2,0:0:0:0:
413,171,67084,2,0,L|413:75,1,73.4999993270874,2|0,3:2|0:0,0:0:0:0:
479,25,67406,1,10,0:0:0:0:
479,25,67568,2,0,B|459:60|397:58|425:31|372:20|348:55,1,146.999998654175,2|2,0:0|0:0,0:0:0:0:
195,13,68051,2,0,P|242:31|267:55,1,73.4999993270874,10|2,0:0|0:0,0:0:0:0:
332,210,68374,2,0,P|291:147|307:109,1,110.249998990631,2|0,3:2|0:0,0:0:0:0:
299,118,68697,1,10,0:0:0:0:
348,55,68858,2,0,P|286:127|157:106,1,220.499997981262,2|10,3:2|0:0,0:0:0:0:
111,14,69503,5,2,0:0:0:0:
111,14,69664,2,0,P|99:50|91:97,1,73.4999993270874,2|0,3:2|0:0,0:0:0:0:
14,172,69987,1,10,0:0:0:0:
14,172,70148,2,0,P|36:240|51:328,1,146.999998654175,2|2,0:0|0:0,0:0:0:0:
100,168,70632,2,0,P|128:193|158:229,1,73.4999993270874,10|2,0:0|0:0,0:0:0:0:
153,334,70955,2,0,P|194:363|229:348,1,73.4999993270874,2|0,3:2|0:0,0:0:0:0:
269,202,71277,1,10,0:0:0:0:
269,202,71439,2,0,L|246:354,1,146.999998654175,0|0,3:2|3:2,0:0:0:0:
346,241,71922,2,0,L|356:168,1,73.4999993270874,8|0,0:0|3:2,0:0:0:0:
481,260,72245,6,0,P|439:235|455:169,1,110.249998990631,2|0,3:2|0:0,0:0:0:0:
471,167,72568,2,0,P|485:136|462:90,1,73.4999993270874,10|2,0:0|0:0,0:0:0:0:
431,29,72890,2,0,L|276:17,1,146.999998654175,2|10,0:0|0:0,0:0:0:0:
208,133,73374,1,2,0:0:0:0:
208,133,73535,2,0,P|195:72|198:2,1,110.249998990631,2|0,3:2|0:0,0:0:0:0:
187,26,73858,2,0,P|187:72|197:117,1,73.4999993270874,10|2,0:0|3:2,0:0:0:0:
134,190,74180,2,0,L|18:169,1,110.249998990631,2|0,0:0|0:0,0:0:0:0:
29,162,74503,2,0,L|137:181,1,110.249998990631,10|0,0:0|0:0,0:0:0:0:
212,218,74826,6,0,P|204:274|152:308,1,110.249998990631,2|0,3:2|0:0,0:0:0:0:
138,295,75148,2,0,P|99:294|64:322,1,73.4999993270874,10|2,0:0|0:0,0:0:0:0:
194,384,75471,2,0,L|342:366,1,146.999998654175,2|10,0:0|0:0,0:0:0:0:
459,356,75955,1,2,0:0:0:0:
459,356,76116,2,0,P|495:308|475:248,1,110.249998990631,2|0,3:2|0:0,0:0:0:0:
460,255,76439,2,0,P|431:214|447:174,1,73.4999993270874,10|2,0:0|3:2,0:0:0:0:
472,104,76761,2,0,P|495:68|506:16,1,73.4999993270874,2|0,0:0|3:2,0:0:0:0:
343,7,77084,5,10,0:0:0:0:
335,50,77245,1,0,3:2:0:0:
350,91,77406,2,0,P|337:138|276:159,1,110.249998990631,2|0,3:2|0:0,0:0:0:0:
264,136,77729,2,0,P|220:115|186:125,1,73.4999993270874,10|2,0:0|0:0,0:0:0:0:
107,161,78051,2,0,L|94:29,1,110.249998990631,2|0,0:0|0:0,0:0:0:0:
89,52,78374,2,0,L|96:132,1,73.4999993270874,10|2,0:0|0:0,0:0:0:0:
108,259,78697,2,0,P|60:202|27:208,1,110.249998990631,2|0,3:2|0:0,0:0:0:0:
13,216,79019,2,0,P|11:269|36:283,1,73.4999993270874,10|2,0:0|3:2,0:0:0:0:
114,343,79342,2,0,L|235:325,1,110.249998990631,2|0,0:0|0:0,0:0:0:0:
224,334,79664,2,0,L|114:350,1,110.249998990631,10|0,0:0|0:0,0:0:0:0:
108,259,79987,6,0,P|126:207|193:210,1,110.249998990631,2|0,3:2|0:0,0:0:0:0:
200,223,80309,2,0,P|239:225|275:198,1,73.4999993270874,10|2,0:0|0:0,0:0:0:0:
320,126,80632,2,0,P|340:86|372:53,1,73.4999993270874,2|0,0:0|0:0,0:0:0:0:
477,72,80955,1,10,0:0:0:0:
477,72,81116,1,2,0:0:0:0:
477,72,81277,2,0,L|452:189,1,110.249998990631,2|0,3:2|0:0,0:0:0:0:
450,192,81600,1,10,0:0:0:0:
358,136,81761,2,0,L|325:286,1,146.999998654175,2|0,3:2|3:2,0:0:0:0:
441,355,82245,2,0,P|488:317|482:283,1,73.4999993270874,10|0,0:0|3:2,0:0:0:0:
327,279,82568,6,0,B|255:290|255:290|232:317|232:317|138:333,1,176.999993788147,6|0,3:2|0:0,0:0:0:0:
12,279,83213,2,0,P|20:239|35:202,1,81.0000019775391,10|0,0:0|0:0,0:0:0:0:
108,227,83535,2,0,P|92:264|84:303,1,81.0000019775391,2|0,0:0|0:0,0:0:0:0:
163,328,83858,5,2,0:0:0:0:
163,328,84019,1,2,0:0:0:0:
163,328,84180,2,0,B|164:267|205:232|205:232|258:227|273:177,1,176.999993788147,2|8,3:2|0:0,0:0:0:0:
192,137,84664,2,0,B|117:127|117:127|92:136|92:136|2:125,1,176.999993788147,2|0,3:2|0:0,0:0:0:0:
78,29,85148,2,0,L|266:54,1,176.999993788147,2|0,3:2|0:0,0:0:0:0:
429,109,85793,2,0,L|444:29,1,81.0000019775391,10|0,0:0|0:0,0:0:0:0:
367,32,86116,2,0,L|351:111,1,81.0000019775391,2|0,0:0|0:0,0:0:0:0:
403,189,86439,5,2,0:0:0:0:
403,189,86600,1,2,0:0:0:0:
403,189,86761,2,0,B|487:167|487:167|509:263,1,176.999993788147,2|0,3:2|0:0,0:0:0:0:
487,346,87245,2,0,P|361:296|295:290,1,176.999993788147,2|4,3:2|3:3,0:0:0:0:
170,349,87729,2,0,B|300:331|300:331|328:275,1,176.999993788147,2|0,3:2|0:0,0:0:0:0:
110,256,88374,2,0,B|92:292|92:292|93:348,1,81.0000019775391,10|0,0:0|0:0,0:0:0:0:
169,348,88697,2,0,B|187:312|187:312|187:272,1,81.0000019775391,2|0,0:0|0:0,0:0:0:0:
165,196,89019,5,2,0:0:0:0:
165,196,89180,1,2,0:0:0:0:
165,196,89342,2,0,P|72:206|37:115,1,176.999993788147,2|8,3:2|0:0,0:0:0:0:
0,38,89826,2,0,P|105:73|179:75,1,176.999993788147,2|0,3:2|0:0,0:0:0:0:
269,24,90309,2,0,L|415:46,1,132.74999534111,2|0,3:2|0:0,0:0:0:0:
401,51,90632,6,0,L|303:36,1,81.0000019775391,2|0,0:0|0:0,0:0:0:0:
444,134,90955,2,0,L|505:57,1,81.0000019775391,8|0,0:0|0:0,0:0:0:0:
359,131,91277,2,0,L|394:222,1,81.0000019775391
501,237,91600,5,2,0:0:0:0:
501,237,91761,1,2,0:0:0:0:
501,237,91922,2,0,P|444:221|414:216,1,81.0000019775391,2|2,3:2|0:0,0:0:0:0:
502,229,92245,2,0,P|421:209|379:205,1,117.000003927612,2|0,0:0|0:0,0:0:0:0:
203,133,92890,6,0,P|160:182|169:202,1,88.4999968940736,4|0,3:2|0:0,0:0:0:0:
250,273,93213,2,0,P|268:321|251:364,1,88.4999968940736,10|0,0:0|0:0,0:0:0:0:
160,384,93535,2,0,L|58:365,1,88.4999968940736,2|0,3:2|3:2,0:0:0:0:
10,189,93858,2,0,P|45:244|52:288,1,88.4999968940736,10|0,0:0|0:0,0:0:0:0:
18,89,94180,2,0,P|75:119|103:153,1,88.4999968940736,2|0,3:2|0:0,0:0:0:0:
0,0,94503,6,0,P|117:-5|192:23,1,176.999993788147,10|2,0:0|3:2,0:0:0:0:
261,162,94987,1,0,3:2:0:0:
91,135,95148,1,10,0:0:0:0:
271,75,95309,1,0,3:2:0:0:
342,205,95471,2,0,P|393:186|402:141,1,88.4999968940736,2|0,3:2|0:0,0:0:0:0:
497,41,95793,6,0,P|431:64|402:85,1,88.4999968940736,10|0,0:0|0:0,0:0:0:0:
342,205,96116,2,0,P|408:228|437:249,1,88.4999968940736,2|0,3:2|3:2,0:0:0:0:
289,289,96439,2,0,P|378:349|413:393,1,132.74999534111,10|0,0:0|0:0,0:0:0:0:
467,384,96761,2,0,P|498:354|484:294,1,88.4999968940736,2|0,3:2|0:0,0:0:0:0:
342,205,97084,1,10,0:0:0:0:
289,289,97245,2,0,B|241:281|186:310|186:310|172:349|131:363,1,176.999993788147,0|0,3:2|3:2,0:0:0:0:
21,260,97729,2,0,P|70:268|126:288,1,88.4999968940736,10|0,0:0|0:0,0:0:0:0:
222,136,98051,6,0,B|184:138|159:149|167:182|146:198|88:199,1,132.74999534111,2|0,3:2|0:0,0:0:0:0:
28,185,98374,2,0,L|14:97,1,88.4999968940736,10|0,0:0|0:0,0:0:0:0:
96,109,98697,2,0,L|110:197,1,88.4999968940736,2|0,3:2|3:2,0:0:0:0:
229,0,99019,2,0,P|187:38|185:86,1,88.4999968940736,10|0,0:0|0:0,0:0:0:0:
222,136,99342,2,0,P|265:150|313:181,1,88.4999968940736,2|0,3:2|0:0,0:0:0:0:
458,0,99664,2,0,P|407:84|377:178,1,176.999993788147,10|2,0:0|0:0,0:0:0:0:
358,237,100148,5,0,3:2:0:0:
500,163,100309,1,10,0:0:0:0:
321,89,100471,1,0,3:2:0:0:
501,173,100632,2,0,P|477:223|440:231,1,88.4999968940736,2|0,3:2|0:0,0:0:0:0:
412,305,100955,2,0,L|220:334,1,176.999993788147,8|0,0:0|0:0,0:0:0:0:
136,384,101439,1,0,3:2:0:0:
236,331,101600,2,0,P|212:287|166:278,1,88.4999968940736,10|0,0:0|0:0,0:0:0:0:
74,312,101922,5,2,3:2:0:0:
74,312,102084,1,0,3:2:0:0:
13,225,102245,1,8,0:0:0:0:
13,225,102407,1,0,3:2:0:0:
107,151,102568,2,0,P|114:202|102:251,1,88.4999968940736,10|10,3:3|3:3,0:0:0:0:
200,192,102890,2,0,P|193:243|169:287,1,88.4999968940736,10|2,0:0|3:2,0:0:0:0:
0,85,103213,6,0,P|30:57|82:73,1,88.4999968940736,4|0,3:2|0:0,0:0:0:0:
164,80,103535,2,0,P|184:42|203:-6,1,88.4999968940736,10|0,0:0|0:0,0:0:0:0:
304,70,103858,2,0,P|324:109|341:150,1,88.4999968940736,2|0,3:2|3:2,0:0:0:0:
438,10,104180,2,0,P|434:84|424:158,1,132.74999534111,10|0,0:0|0:0,0:0:0:0:
471,204,104503,2,0,P|434:225|393:213,1,88.4999968940736,2|0,3:2|0:0,0:0:0:0:
282,299,104826,2,0,P|282:255|314:226,1,88.4999968940736,10|0,0:0|0:0,0:0:0:0:
445,346,105148,2,0,L|331:328,1,88.4999968940736,2|0,3:2|3:2,0:0:0:0:
160,297,105471,5,10,0:0:0:0:
314,226,105632,1,0,3:2:0:0:
226,383,105793,2,0,P|158:343|173:277,1,132.74999534111,2|0,3:2|0:0,0:0:0:0:
207,234,106116,2,0,L|221:135,1,88.4999968940736,10|0,0:0|0:0,0:0:0:0:
89,99,106439,2,0,L|103:198,1,88.4999968940736,2|0,0:0|3:2,0:0:0:0:
71,380,106761,2,0,L|48:223,1,132.74999534111,10|0,0:0|0:0,0:0:0:0:
101,186,107084,2,0,P|130:143|111:93,1,88.4999968940736,2|0,3:2|0:0,0:0:0:0:
0,66,107406,5,10,0:0:0:0:
123,109,107568,2,0,P|210:79|311:70,1,176.999993788147,0|0,3:2|3:2,0:0:0:0:
146,185,108051,2,0,P|116:142|135:92,1,88.4999968940736,10|0,0:0|0:0,0:0:0:0:
183,19,108374,6,0,P|273:73|309:63,1,132.74999534111,2|0,3:2|0:0,0:0:0:0:
350,13,108697,2,0,L|441:23,1,88.4999968940736,10|0,0:0|0:0,0:0:0:0:
512,127,109019,2,0,L|421:137,1,88.4999968940736,2|0,0:0|3:2,0:0:0:0:
224,189,109342,2,0,L|381:206,1,132.74999534111,10|0,0:0|0:0,0:0:0:0:
435,219,109664,2,0,P|466:262|449:316,1,88.4999968940736,2|0,3:2|0:0,0:0:0:0:
390,342,109987,2,0,P|347:373|293:356,1,88.4999968940736,10|0,0:0|0:0,0:0:0:0:
224,189,110309,2,0,P|266:216|302:253,1,88.4999968940736,2|0,0:0|3:2,0:0:0:0:
141,357,110632,5,10,0:0:0:0:
291,268,110793,1,0,3:2:0:0:
140,366,110955,2,0,P|95:317|119:246,1,132.74999534111,2|0,3:2|0:0,0:0:0:0:
51,207,111277,2,0,L|90:4,1,176.999993788147,8|0,0:0|0:0,0:0:0:0:
155,159,111761,1,0,3:2:0:0:
84,33,111922,2,0,P|131:2|183:24,1,88.4999968940736,8|0,0:0|0:0,0:0:0:0:
239,63,112245,5,2,3:2:0:0:
239,63,112406,1,8,0:0:0:0:
343,2,112568,5,8,0:0:0:0:
343,2,112729,1,4,3:3:0:0:
415,68,112890,5,10,3:3:0:0:
415,68,113051,1,10,3:3:0:0:
383,139,113213,5,6,3:3:0:0:
383,139,113374,1,2,3:2:0:0:
383,139,122245,5,2,3:2:0:0:
361,279,122568,5,10,0:0:0:0:
395,168,122729,1,8,0:0:0:0:
359,287,122890,2,0,P|269:304|179:345,1,176.999993788147,2|10,3:2|3:3,0:0:0:0:
101,347,123374,1,4,3:3:0:0:
128,262,123535,1,2,3:2:0:0:
128,262,123858,6,0,L|262:227,1,121.500002966309,0|0,3:2|0:0,0:0:0:0:
244,224,124180,2,0,L|126:253,1,121.500002966309,0|0,3:2|0:0,0:0:0:0:
42,273,124503,2,0,P|24:187|107:158,1,162.000003955078,8|0,0:0|0:0,0:0:0:0:
139,101,124987,2,0,L|131:13,1,81.0000019775391,0|0,3:2|0:0,0:0:0:0:
216,93,125309,1,8,0:0:0:0:
216,93,125471,2,0,L|208:5,1,81.0000019775391,0|0,3:2|0:0,0:0:0:0:
295,86,125793,2,0,B|341:86|370:123|352:144|365:176|442:177,1,162.000003955078,8|0,0:0|3:2,0:0:0:0:
417,176,126277,1,0,3:2:0:0:
487,126,126439,6,0,L|497:4,1,121.500002966309,0|0,3:2|0:0,0:0:0:0:
490,4,126761,2,0,L|479:125,1,121.500002966309,0|0,3:2|0:0,0:0:0:0:
417,176,127084,2,0,B|427:249|427:249|437:258|437:258|443:298,1,121.500002966309,8|0,0:0|0:0,0:0:0:0:
495,361,127406,1,2,3:2:0:0:
495,361,127568,1,0,3:2:0:0:
353,283,127729,6,0,L|338:194,1,81.0000019775391,2|8,0:0|0:0,0:0:0:0:
313,103,128051,2,0,P|255:104|232:157,1,121.500002966309,2|0,3:2|0:0,0:0:0:0:
228,182,128374,2,0,P|168:206|114:241,1,121.500002966309,10|0,0:0|0:0,0:0:0:0:
57,297,128697,1,2,0:0:0:0:
57,297,128858,1,10,0:0:0:0:
41,208,129019,6,0,L|53:63,1,121.500002966309,2|0,3:2|0:0,0:0:0:0:
60,87,129342,2,0,L|49:208,1,121.500002966309,0|0,3:2|0:0,0:0:0:0:
120,236,129664,2,0,P|169:150|118:80,1,162.000003955078,8|0,0:0|0:0,0:0:0:0:
85,10,130148,2,0,P|70:47|60:87,1,81.0000019775391,0|0,3:2|0:0,0:0:0:0:
171,23,130471,1,8,0:0:0:0:
171,23,130632,2,0,P|155:60|145:99,1,81.0000019775391,0|0,3:2|0:0,0:0:0:0:
259,67,130955,2,0,B|333:61|333:61|346:48|346:48|438:38,1,162.000003955078,8|0,0:0|3:2,0:0:0:0:
414,40,131439,1,0,3:2:0:0:
512,34,131600,6,0,L|497:171,1,121.500002966309,0|0,3:2|0:0,0:0:0:0:
491,153,131922,2,0,L|504:32,1,121.500002966309,0|0,3:2|0:0,0:0:0:0:
414,40,132245,2,0,P|396:93|383:172,1,121.500002966309,8|0,0:0|0:0,0:0:0:0:
438,250,132568,1,2,3:2:0:0:
438,250,132729,1,0,3:2:0:0:
433,384,132890,6,0,P|455:350|473:314,1,81.0000019775391,2|8,0:0|0:0,0:0:0:0:
491,153,133213,2,0,P|528:188|513:252,1,121.500002966309,2|0,3:2|0:0,0:0:0:0:
438,250,133535,2,0,P|398:257|353:270,1,81.0000019775391,10|0,0:0|3:2,0:0:0:0:
296,329,133858,1,2,3:2:0:0:
296,329,134019,1,10,0:0:0:0:
210,368,134180,6,0,L|227:227,1,121.500002966309,2|0,3:2|0:0,0:0:0:0:
228,213,134503,2,0,P|190:194|149:255,1,121.500002966309,2|0,3:2|0:0,0:0:0:0:
137,324,134826,2,0,P|53:320|41:236,1,162.000003955078,10|0,0:0|0:0,0:0:0:0:
15,134,135309,1,2,3:2:0:0:
15,134,135471,2,0,P|72:143|103:156,1,81.0000019775391,2|8,0:0|0:0,0:0:0:0:
194,0,135793,2,0,P|172:65|164:133,1,121.500002966309,2|0,3:2|0:0,0:0:0:0:
169,142,136116,2,0,P|211:172|258:118,1,121.500002966309,10|0,0:0|0:0,0:0:0:0:
266,52,136439,1,2,3:2:0:0:
266,52,136600,1,0,3:2:0:0:
359,0,136761,6,0,L|369:127,1,121.500002966309,2|0,3:2|0:0,0:0:0:0:
376,121,137084,2,0,L|366:0,1,121.500002966309,2|0,3:2|0:0,0:0:0:0:
443,0,137406,2,0,B|453:116|453:116|497:162,1,162.000003955078,10|2,0:0|3:2,0:0:0:0:
484,148,137890,1,2,3:2:0:0:
323,183,138051,6,0,P|362:209|396:241,1,81.0000019775391,2|8,0:0|0:0,0:0:0:0:
403,338,138374,2,0,P|475:328|463:262,1,121.500002966309,2|0,3:2|0:0,0:0:0:0:
403,338,138697,2,0,L|216:365,1,162.000003955078,10|2,0:0|3:2,0:0:0:0:
242,361,139180,1,10,0:0:0:0:
164,339,139342,6,0,L|188:197,1,121.500002966309,2|0,3:2|0:0,0:0:0:0:
176,218,139664,2,0,L|155:337,1,121.500002966309,2|0,3:2|0:0,0:0:0:0:
82,365,139987,2,0,P|26:293|75:223,1,162.000003955078,10|2,0:0|0:0,0:0:0:0:
110,174,140471,1,2,3:2:0:0:
110,174,140632,2,0,P|111:122|82:88,1,81.0000019775391,2|8,0:0|0:0,0:0:0:0:
0,11,140955,2,0,L|134:27,1,121.500002966309,2|0,3:2|0:0,0:0:0:0:
183,80,141277,2,0,P|235:26|298:32,1,121.500002966309,10|0,0:0|0:0,0:0:0:0:
346,65,141600,1,2,3:2:0:0:
346,65,141761,1,2,3:2:0:0:
414,134,141922,6,0,L|438:7,1,121.500002966309,2|0,3:2|0:0,0:0:0:0:
443,16,142245,2,0,L|420:135,1,121.500002966309,2|0,3:2|0:0,0:0:0:0:
501,178,142568,2,0,P|442:256|479:316,1,162.000003955078,10|2,0:0|3:2,0:0:0:0:
464,305,143051,1,0,3:2:0:0:
340,370,143213,6,0,L|357:271,1,81.0000019775391,2|8,0:0|0:0,0:0:0:0:
361,197,143535,2,0,L|338:316,1,121.500002966309,2|0,3:2|0:0,0:0:0:0:
251,370,143858,2,0,B|230:277,1,81.0000019775391,10|0,0:0|3:2,0:0:0:0:
233,290,144180,1,2,0:0:0:0:
256,192,144342,1,10,0:0:0:0:
