osu file format v14

[General]
AudioFilename: audio.mp3
AudioLeadIn: 0
PreviewTime: 91600
Countdown: 0
SampleSet: Soft
StackLeniency: 0.7
Mode: 0
LetterboxInBreaks: 0
WidescreenStoryboard: 0

[Editor]
Bookmarks: 10310,20632,30955,41277,61922,72245,82568,92890,113535,123858,144503
DistanceSpacing: 2.5
BeatDivisor: 4
GridSize: 32
TimelineZoom: 1.4

[Metadata]
Title:tp na ame
TitleUnicode:тп на аме
Artist:SEREGA PIRAT
ArtistUnicode:СЕРЕГА ПИРАТ
Creator:nemidnight
Version:mana void
Source:
Tags:russian rock русский рок anti-mage антимаг dota2 дота2 anti mage анти маг дота 2 dota 2 video game valve bublyaa tachibana_ ryxliee
BeatmapID:3510655
BeatmapSetID:1717881

[Difficulty]
HPDrainRate:5.5
CircleSize:4
OverallDifficulty:9
ApproachRate:9.2
SliderMultiplier:1.5
SliderTickRate:1

[Events]
//Background and Video events
0,0,"am.jpg",0,0
//Break Periods
2,113574,121675
//Storyboard Layer 0 (Background)
//Storyboard Layer 1 (Fail)
//Storyboard Layer 2 (Pass)
//Storyboard Layer 3 (Foreground)
//Storyboard Layer 4 (Overlay)
//Storyboard Sound Samples

[TimingPoints]
10310,322.58064516129,4,2,2,60,1,0
10310,-125,4,2,2,60,0,0
11922,-100,4,2,2,60,0,0
12890,-90.9090909090909,4,2,2,60,0,0
13535,-125,4,2,2,60,0,0
14503,-100,4,2,2,60,0,0
15471,-125,4,2,2,60,0,0
17084,-100,4,2,2,60,0,0
18051,-125,4,2,2,60,0,0
19422,-125,4,2,2,5,0,0
19503,-125,4,2,2,60,0,0
19584,-125,4,2,2,5,0,0
19664,-90.9090909090909,4,2,2,60,0,0
20632,-100,4,2,1,70,0,0
30955,-90.9090909090909,4,2,2,80,0,0
32326,-90.9090909090909,4,2,2,5,0,0
32406,-90.9090909090909,4,2,2,80,0,0
32487,-90.9090909090909,4,2,2,5,0,0
32568,-76.9230769230769,4,2,2,80,0,0
33535,-66.6666666666667,4,2,2,80,0,0
34180,-90.9090909090909,4,2,2,80,0,0
34906,-90.9090909090909,4,2,2,5,0,0
34986,-90.9090909090909,4,2,2,80,0,0
35067,-90.9090909090909,4,2,2,5,0,0
35148,-76.9230769230769,4,2,2,80,0,0
36116,-90.9090909090909,4,2,2,80,0,0
37487,-90.9090909090909,4,2,2,5,0,0
37567,-90.9090909090909,4,2,2,80,0,0
37648,-90.9090909090909,4,2,2,5,0,0
37729,-76.9230769230769,4,2,2,80,0,0
38697,-90.9090909090909,4,2,2,80,0,0
40632,-285.714285714286,4,2,3,80,0,0
41277,-83.3333333333333,4,2,1,90,0,1
50955,-83.3333333333333,4,2,4,90,0,1
51035,-83.3333333333333,4,2,4,5,0,1
51116,-83.3333333333333,4,2,4,90,0,1
51197,-83.3333333333333,4,2,4,5,0,1
51278,-83.3333333333333,4,2,4,90,0,1
51358,-83.3333333333333,4,2,4,5,0,1
51439,-83.3333333333333,4,2,4,90,0,1
51519,-83.3333333333333,4,2,4,5,0,1
51600,-83.3333333333333,4,2,1,90,0,1
61277,-83.3333333333333,4,2,4,90,0,1
61358,-83.3333333333333,4,2,4,5,0,1
61439,-83.3333333333333,4,2,4,90,0,1
61520,-83.3333333333333,4,2,4,5,0,1
61601,-83.3333333333333,4,2,4,90,0,1
61681,-83.3333333333333,4,2,4,5,0,1
61762,-83.3333333333333,4,2,4,90,0,1
61842,-83.3333333333333,4,2,4,5,0,1
61922,-100,4,2,5,70,0,0
62245,-100,4,2,2,70,0,0
82568,-90.9090909090909,4,2,2,80,0,0
83939,-90.9090909090909,4,2,2,5,0,0
84019,-90.9090909090909,4,2,2,80,0,0
84100,-90.9090909090909,4,2,2,5,0,0
84180,-76.9230769230769,4,2,2,80,0,0
85148,-66.6666666666667,4,2,2,80,0,0
85793,-90.9090909090909,4,2,2,80,0,0
86519,-90.9090909090909,4,2,2,5,0,0
86599,-90.9090909090909,4,2,2,80,0,0
86680,-90.9090909090909,4,2,2,5,0,0
86761,-76.9230769230769,4,2,2,80,0,0
87729,-90.9090909090909,4,2,2,80,0,0
89100,-90.9090909090909,4,2,2,5,0,0
89180,-90.9090909090909,4,2,2,80,0,0
89261,-90.9090909090909,4,2,2,5,0,0
89342,-76.9230769230769,4,2,2,80,0,0
90309,-90.9090909090909,4,2,2,80,0,0
92245,-285.714285714286,4,2,3,80,0,0
92890,-83.3333333333333,4,2,1,90,0,1
102568,-83.3333333333333,4,2,4,90,0,1
102648,-83.3333333333333,4,2,4,5,0,1
102729,-83.3333333333333,4,2,4,90,0,1
102810,-83.3333333333333,4,2,4,5,0,1
102891,-83.3333333333333,4,2,4,90,0,1
102971,-83.3333333333333,4,2,4,5,0,1
103052,-83.3333333333333,4,2,4,90,0,1
103132,-83.3333333333333,4,2,4,5,0,1
103213,-83.3333333333333,4,2,1,90,0,1
112890,-83.3333333333333,4,2,4,90,0,1
112971,-83.3333333333333,4,2,4,5,0,1
113052,-83.3333333333333,4,2,4,90,0,1
113133,-83.3333333333333,4,2,4,5,0,1
113214,-83.3333333333333,4,2,4,90,0,1
113294,-83.3333333333333,4,2,4,5,0,1
113375,-83.3333333333333,4,2,4,90,0,1
113535,-83.3333333333333,4,2,1,80,0,0
123858,-90.9090909090909,4,2,1,90,0,1
144342,-90.9090909090909,4,2,1,90,0,0

[Colours]
Combo1 : 219,71,0
Combo2 : 203,99,233
Combo3 : 252,71,135
Combo4 : 18,162,248

[HitObjects]
505,273,10310,6,0,B|394:253|468:312|311:280,1,180,2|0,3:2|0:0,0:0:0:0:
242,241,10955,2,0,P|254:214|278:196,1,60,8|0,0:0|0:0,0:0:0:0:
353,138,11277,2,0,P|371:162|374:191,1,60
267,105,11600,2,0,L|279:37,1,60
489,109,11922,6,0,P|416:98|353:137,1,150,2|8,3:2|0:0,0:0:0:0:
223,236,12406,2,0,P|268:178|266:104,1,150,2|0,3:2|0:0,0:0:0:0:
52,162,12890,6,0,B|32:144|-4:146|-4:146|110:107|79:198|181:151,1,247.500007553101,2|0,3:2|0:0,0:0:0:0:
243,81,13535,2,0,P|219:64|177:64,1,60,8|0,0:0|0:0,0:0:0:0:
276,164,13858,2,0,P|302:151|323:115,1,60
184,149,14180,2,0,L|194:208,1,60
81,368,14503,6,0,P|133:315|202:288,1,150,2|0,3:2|0:0,0:0:0:0:
324,273,14987,2,0,P|251:254|193:207,1,150,2|0,3:2|0:0,0:0:0:0:
39,118,15471,6,0,B|89:118|126:150|126:150|185:146|203:79,1,180,2|0,3:2|0:0,0:0:0:0:
241,21,16116,2,0,P|266:35|281:61,1,60,8|0,0:0|0:0,0:0:0:0:
378,61,16439,2,0,P|378:90|363:116,1,60
270,140,16761,2,0,L|329:129,1,60
499,178,17084,6,0,B|413:194|437:191|320:213,1,150,2|8,3:2|0:0,0:0:0:0:
191,166,17568,2,0,B|247:232|233:213|310:303,1,150,2|0,3:2|0:0,0:0:0:0:
443,329,18051,6,0,B|345:308|396:403|267:368,1,180,2|0,3:2|0:0,0:0:0:0:
182,375,18697,2,0,L|194:304,1,60,8|0,0:0|0:0,0:0:0:0:
213,222,19019,1,0,0:0:0:0:
43,200,19342,5,0,0:0:0:0:
43,200,19503,1,0,0:0:0:0:
198,376,19664,6,0,P|209:290|254:211,1,165.000005035401,2|8,3:2|0:0,0:0:0:0:
388,160,20148,2,0,P|308:193|217:194,1,165.000005035401,2|0,3:2|0:0,0:0:0:0:
28,79,20632,6,0,P|91:90|123:147,1,112.5,2|0,3:2|0:0,0:0:0:0:
118,126,20955,1,10,0:0:0:0:
11,242,21116,1,2,0:0:0:0:
94,299,21277,2,0,P|159:285|246:275,1,150,2|8,0:0|0:0,0:0:0:0:
337,327,21761,1,2,0:0:0:0:
458,184,21922,6,0,P|448:128|389:98,1,112.5,2|0,3:2|0:0,0:0:0:0:
403,99,22245,1,10,0:0:0:0:
258,159,22406,1,2,3:2:0:0:
242,60,22568,2,0,P|279:67|315:77,1,75,2|0,0:0|0:0,0:0:0:0:
145,143,22890,2,0,P|100:151|66:162,1,75,10|0,0:0|0:0,0:0:0:0:
231,243,23213,6,0,P|286:252|356:276,1,112.5,2|0,3:2|0:0,0:0:0:0:
340,269,23535,1,10,0:0:0:0:
161,320,23697,1,2,0:0:0:0:
135,230,23858,2,0,P|152:176|161:120,1,112.5,2|0,0:0|0:0,0:0:0:0:
161,120,24180,1,10,0:0:0:0:
231,243,24342,1,0,0:0:0:0:
341,95,24503,6,0,P|301:62|233:56,1,112.5,2|0,3:2|0:0,0:0:0:0:
242,54,24826,1,10,0:0:0:0:
414,27,24987,1,2,3:2:0:0:
449,122,25148,2,0,P|441:167|430:201,1,75,2|0,0:0|3:2,0:0:0:0:
495,339,25471,2,0,P|503:294|514:260,1,75,10|0,0:0|3:2,0:0:0:0:
354,351,25793,6,0,P|293:371|224:303,1,150,2|10,3:2|0:0,0:0:0:0:
267,167,26277,1,2,0:0:0:0:
367,202,26439,2,0,P|354:247|293:281,1,112.5,2|0,0:0|0:0,0:0:0:0:
300,280,26761,1,10,0:0:0:0:
144,297,26922,1,0,0:0:0:0:
96,204,27084,6,0,P|173:209|222:221,1,112.5,2|0,3:2|0:0,0:0:0:0:
207,216,27406,1,10,0:0:0:0:
79,122,27568,1,2,3:2:0:0:
142,39,27729,2,0,P|169:64|179:99,1,75,2|0,0:0|0:0,0:0:0:0:
286,196,28051,2,0,P|296:160|323:135,1,75,10|2,0:0|0:0,0:0:0:0:
432,20,28374,6,0,P|355:25|306:37,1,112.5,2|0,3:2|0:0,0:0:0:0:
320,32,28697,1,10,0:0:0:0:
460,104,28858,1,2,0:0:0:0:
406,189,29019,2,0,P|415:226|423:263,1,75,2|0,0:0|0:0,0:0:0:0:
300,363,29342,2,0,P|307:326|316:289,1,75,10|0,0:0|0:0,0:0:0:0:
298,109,29664,6,0,P|277:153|191:177,1,112.5,2|0,3:2|0:0,0:0:0:0:
221,180,29987,1,10,0:0:0:0:
64,97,30148,1,2,3:2:0:0:
178,57,30309,2,0,P|162:91|149:126,1,75,2|0,0:0|3:2,0:0:0:0:
32,294,30632,2,0,P|16:259|3:224,1,75,10|0,0:0|3:2,0:0:0:0:
217,302,30955,6,0,B|364:253|286:401|443:343,1,247.500007553101,6|0,3:2|0:0,0:0:0:0:
426,194,31600,2,0,P|400:226|393:266,1,82.5000025177003,8|0,0:0|0:0,0:0:0:0:
249,374,31922,2,0,P|241:333|216:301,1,82.5000025177003
182,155,32245,6,0,P|201:160|217:173,1,41.2500012588501,2|0,0:0|0:0,0:0:0:0:
300,148,32406,2,0,P|305:167|302:187,1,41.2500012588501,2|0,0:0|0:0,0:0:0:0:
195,313,32568,6,0,P|123:248|25:199,1,194.999991073609,2|8,3:2|0:0,0:0:0:0:
148,373,33051,2,0,P|220:308|318:259,1,194.999991073609,2|0,3:2|0:0,0:0:0:0:
512,113,33535,6,0,B|553:212|353:245|415:72|228:160,1,337.500012874604,2|0,3:2|0:0,0:0:0:0:
386,49,34180,2,0,P|377:98|369:136,1,82.5000025177003,8|0,0:0|0:0,0:0:0:0:
186,0,34503,2,0,P|195:49|203:87,1,82.5000025177003
200,254,34826,6,0,P|231:237|240:226,1,41.2500012588501,2|0,0:0|0:0,0:0:0:0:
321,237,34987,2,0,P|321:201|316:188,1,41.2500012588501,2|0,0:0|0:0,0:0:0:0:
142,168,35148,6,0,P|209:234|207:329,1,194.999991073609,2|0,3:2|0:0,0:0:0:0:
46,201,35632,2,0,P|113:134|111:39,1,194.999991073609,2|4,3:2|3:3,0:0:0:0:
321,34,36116,6,0,P|207:62|85:130,1,247.500007553101,2|0,3:2|0:0,0:0:0:0:
233,227,36761,2,0,P|225:186|199:155,1,82.5000025177003,8|0,0:0|0:0,0:0:0:0:
321,34,37084,2,0,P|328:74|354:105,1,82.5000025177003
364,277,37406,6,0,P|382:268|402:264,1,41.2500012588501,2|0,0:0|0:0,0:0:0:0:
446,188,37568,2,0,P|463:198|477:214,1,41.2500012588501,2|0,0:0|0:0,0:0:0:0:
378,357,37729,6,0,P|318:314|191:280,1,194.999991073609,2|8,3:2|0:0,0:0:0:0:
0,240,38213,2,0,P|94:216|175:163,1,194.999991073609,2|0,3:2|0:0,0:0:0:0:
380,109,38697,6,0,B|319:107|276:153|276:153|192:158|180:65,1,247.500007553101,2|0,3:2|0:0,0:0:0:0:
16,28,39342,2,0,P|79:54|75:218,1,247.500007553101,8|0,0:0|0:0,0:0:0:0:
138,376,39987,6,0,P|183:361|220:351,1,82.5000025177003,2|2,0:0|0:0,0:0:0:0:
324,217,40309,2,0,P|289:237|271:273,1,82.5000025177003,2|2,3:2|0:0,0:0:0:0:
350,294,40632,6,0,P|383:313|402:347,1,78.7499975967408,2|0,0:0|0:0,0:0:0:0:
512,136,41277,6,0,B|426:123|481:177|355:150,1,134.999995880127,4|0,3:2|0:0,0:0:0:0:
362,126,41600,2,0,P|317:133|272:139,1,89.9999972534181,10|0,0:0|0:0,0:0:0:0:
118,109,41922,1,2,3:2:0:0:
205,276,42084,1,0,3:2:0:0:
56,309,42245,2,0,P|72:269|112:250,1,89.9999972534181,10|0,0:0|0:0,0:0:0:0:
229,56,42568,6,0,P|236:100|242:145,1,89.9999972534181,2|0,3:2|0:0,0:0:0:0:
387,316,42890,2,0,P|364:258|250:235,1,179.999994506836,10|2,0:0|3:2,0:0:0:0:
144,337,43374,5,0,3:2:0:0:
324,146,43535,1,10,0:0:0:0:
406,186,43697,1,0,3:2:0:0:
291,333,43858,6,0,L|141:309,1,134.999995880127,2|0,3:2|0:0,0:0:0:0:
132,308,44180,2,0,P|176:301|221:294,1,89.9999972534181,10|0,0:0|0:0,0:0:0:0:
256,286,44422,1,0,3:2:0:0:
256,286,44503,1,2,3:2:0:0:
41,370,44664,1,0,3:2:0:0:
0,195,44826,2,0,P|44:201|88:208,1,89.9999972534181,10|0,0:0|0:0,0:0:0:0:
266,71,45148,6,0,P|190:109|185:184,1,134.999995880127,2|0,3:2|0:0,0:0:0:0:
198,184,45471,1,10,0:0:0:0:
48,47,45632,2,0,P|82:82|80:127,1,89.9999972534181,0|2,3:2|0:0,0:0:0:0:
154,256,45955,1,0,3:2:0:0:
356,141,46116,2,0,P|311:147|267:154,1,89.9999972534181,10|0,0:0|0:0,0:0:0:0:
63,246,46439,6,0,P|106:248|137:280,1,89.9999972534181,2|0,3:2|0:0,0:0:0:0:
357,326,46761,2,0,P|326:358|237:347,1,134.999995880127,10|0,0:0|0:0,0:0:0:0:
224,318,47084,1,2,3:2:0:0:
383,168,47245,1,0,3:2:0:0:
247,92,47406,2,0,P|253:136|260:180,1,89.9999972534181,10|0,0:0|0:0,0:0:0:0:
440,331,47729,6,0,P|446:287|453:243,1,89.9999972534181,2|0,3:2|0:0,0:0:0:0:
465,21,48051,2,0,P|380:39|341:153,1,179.999994506836,10|2,0:0|0:0,0:0:0:0:
228,18,48535,5,0,3:2:0:0:
381,203,48697,1,10,0:0:0:0:
443,131,48858,1,0,3:2:0:0:
176,85,49019,6,0,B|68:65|124:155|-20:117,2,179.999994506836,2|10|0,3:2|0:0|0:0,0:0:0:0:
266,177,49826,1,0,3:2:0:0:
105,330,49987,2,0,P|113:285|122:241,1,89.9999972534181,10|0,0:0|0:0,0:0:0:0:
267,70,50309,5,2,3:2:0:0:
155,168,50471,1,0,3:2:0:0:
228,269,50632,5,8,0:0:0:0:
161,8,50793,1,0,3:2:0:0:
267,70,50955,6,0,P|287:79|309:82,1,44.999998626709,10|0,3:3|0:0,0:0:0:0:
377,173,51116,2,0,P|395:160|409:142,1,44.999998626709,2|0,3:2|0:0,0:0:0:0:
161,8,51277,6,0,P|151:28|148:50,1,44.999998626709,10|0,0:0|0:0,0:0:0:0:
70,134,51439,2,0,P|82:152|100:166,1,44.999998626709,2|0,3:2|0:0,0:0:0:0:
293,171,51600,6,0,P|220:173|168:243,1,134.999995880127,4|0,3:2|0:0,0:0:0:0:
151,242,51922,2,0,P|158:287|164:332,1,89.9999972534181,10|0,0:0|0:0,0:0:0:0:
284,296,52245,1,2,3:2:0:0:
100,166,52406,1,0,3:2:0:0:
305,81,52568,2,0,P|298:126|292:171,1,89.9999972534181,10|0,0:0|0:0,0:0:0:0:
95,138,52890,6,0,P|138:134|174:160,1,89.9999972534181,2|0,3:2|0:0,0:0:0:0:
353,298,53213,2,0,P|317:323|191:274,1,179.999994506836,10|2,0:0|3:2,0:0:0:0:
292,170,53697,5,0,3:2:0:0:
88,294,53858,1,10,0:0:0:0:
152,366,54019,1,0,3:2:0:0:
190,136,54180,6,0,L|40:160,1,134.999995880127,2|0,3:2|0:0,0:0:0:0:
31,161,54502,2,0,P|75:168|120:175,1,89.9999972534181,10|0,0:0|0:0,0:0:0:0:
278,250,54826,1,2,0:0:0:0:
56,285,54987,1,0,3:2:0:0:
203,115,55148,2,0,P|227:158|216:201,1,89.9999972534181,10|0,0:0|0:0,0:0:0:0:
95,363,55471,6,0,P|120:320|162:308,1,89.9999972534181,2|0,3:2|0:0,0:0:0:0:
328,287,55793,1,10,0:0:0:0:
135,168,55955,2,0,P|90:174|46:181,1,89.9999972534181,0|2,3:2|0:0,0:0:0:0:
170,384,56277,1,0,3:2:0:0:
306,204,56439,2,0,P|350:210|394:217,1,89.9999972534181,10|0,0:0|0:0,0:0:0:0:
246,48,56761,6,0,P|222:91|233:134,1,89.9999972534181,2|0,3:2|0:0,0:0:0:0:
411,298,57084,2,0,P|418:254|394:216,1,89.9999972534181,10|0,0:0|0:0,0:0:0:0:
228,284,57406,1,2,3:2:0:0:
346,97,57568,1,0,3:2:0:0:
217,299,57729,2,0,P|173:291|128:285,1,89.9999972534181,10|0,0:0|0:0,0:0:0:0:
394,216,58051,6,0,P|438:208|483:202,1,89.9999972534181,2|0,3:2|0:0,0:0:0:0:
330,82,58374,2,0,P|250:119|253:231,1,179.999994506836,10|2,0:0|0:0,0:0:0:0:
348,326,58858,5,0,3:2:0:0:
93,246,59019,1,10,0:0:0:0:
124,341,59180,1,0,3:2:0:0:
323,166,59342,6,0,P|234:134|120:113,2,179.999994506836,2|8|0,3:2|0:0|0:0,0:0:0:0:
325,340,60148,1,0,3:2:0:0:
92,283,60309,2,0,P|133:252|183:254,1,89.9999972534181,8|0,0:0|0:0,0:0:0:0:
351,358,60632,5,2,3:2:0:0:
249,107,60793,1,8,0:0:0:0:
359,159,60955,5,8,0:0:0:0:
202,347,61116,1,4,3:3:0:0:
202,220,61277,6,0,P|182:231|169:249,1,44.999998626709,10|0,3:3|0:0,0:0:0:0:
59,279,61439,2,0,P|59:301|68:321,1,44.999998626709,2|0,3:2|0:0,0:0:0:0:
283,184,61600,6,0,P|271:164|253:151,1,44.999998626709,6|0,3:3|0:0,0:0:0:0:
225,41,61762,2,0,P|202:41|182:50,1,44.999998626709,2|0,3:2|0:0,0:0:0:0:
60,165,61922,6,0,P|105:144|179:130,1,112.5,6|0,3:2|0:0,0:0:0:0:
166,130,62245,1,10,0:0:0:0:
325,27,62406,2,0,B|297:119|367:81|330:190,1,150,2|0,0:0|0:0,0:0:0:0:
223,216,62890,2,0,P|230:179|261:145,1,75,10|2,0:0|0:0,0:0:0:0:
342,280,63213,6,0,P|297:259|223:245,1,112.5,2|0,3:2|0:0,0:0:0:0:
235,245,63535,1,10,0:0:0:0:
107,354,63697,2,0,B|97:268|102:292|90:201,1,150,2|0,3:2|0:0,0:0:0:0:
149,127,64180,1,10,0:0:0:0:
16,23,64342,1,2,0:0:0:0:
34,106,64503,6,0,B|109:95|57:60|145:48,1,112.5,2|0,3:2|0:0,0:0:0:0:
127,51,64826,1,10,0:0:0:0:
280,19,64987,2,0,P|235:46|237:145,1,150,2|0,0:0|0:0,0:0:0:0:
310,207,65471,1,10,0:0:0:0:
323,198,65632,1,2,0:0:0:0:
465,131,65793,6,0,P|406:108|329:94,1,112.5,2|0,3:2|0:0,0:0:0:0:
358,97,66116,1,10,0:0:0:0:
433,235,66277,2,0,P|410:294|388:395,1,150,2|0,3:2|3:2,0:0:0:0:
280,380,66761,1,10,0:0:0:0:
152,288,66922,1,2,3:2:0:0:
211,198,67084,6,0,P|232:250|239:309,1,112.5,2|0,3:2|0:0,0:0:0:0:
238,305,67406,1,10,0:0:0:0:
51,374,67568,2,0,P|74:316|158:288,1,150,2|2,0:0|0:0,0:0:0:0:
211,198,68051,1,10,0:0:0:0:
198,189,68212,1,2,0:0:0:0:
54,122,68374,6,0,P|77:180|143:205,1,112.5,2|0,3:2|0:0,0:0:0:0:
118,203,68697,1,10,0:0:0:0:
211,76,68858,2,0,B|302:60|255:124|360:106,1,150,2|0,3:2|0:0,0:0:0:0:
348,11,69342,1,10,0:0:0:0:
466,114,69503,1,2,0:0:0:0:
397,202,69664,6,0,P|415:259|426:317,1,112.5,2|0,3:2|0:0,0:0:0:0:
425,310,69987,1,10,0:0:0:0:
282,377,70148,2,0,P|237:321|160:323,1,150,2|2,0:0|0:0,0:0:0:0:
65,364,70632,1,10,0:0:0:0:
62,379,70793,1,2,0:0:0:0:
4,231,70955,6,0,P|76:231|122:175,1,150,2|10,3:2|0:0,0:0:0:0:
211,44,71439,2,0,P|117:60|55:82,1,150,0|0,3:2|3:2,0:0:0:0:
125,6,71922,1,8,0:0:0:0:
156,102,72084,1,0,3:2:0:0:
287,0,72245,6,0,P|305:44|276:109,1,112.5,2|0,3:2|0:0,0:0:0:0:
283,102,72568,1,10,0:0:0:0:
418,182,72729,1,2,0:0:0:0:
491,116,72890,2,0,P|424:94|362:91,1,112.5,2|0,0:0|0:0,0:0:0:0:
382,90,73213,1,10,0:0:0:0:
276,206,73374,1,2,0:0:0:0:
368,279,73535,6,0,P|425:291|489:249,1,112.5,2|0,3:2|0:0,0:0:0:0:
472,269,73858,1,10,0:0:0:0:
325,372,74019,1,2,3:2:0:0:
251,302,74180,2,0,P|257:265|263:228,1,75,2|0,0:0|0:0,0:0:0:0:
99,253,74503,2,0,P|92:289|86:326,1,75,10|0,0:0|0:0,0:0:0:0:
190,163,74826,6,0,P|122:150|68:148,1,112.5,2|0,3:2|0:0,0:0:0:0:
78,147,75148,1,10,0:0:0:0:
188,290,75309,1,2,0:0:0:0:
273,220,75471,2,0,P|292:176|279:111,1,112.5,2|0,0:0|0:0,0:0:0:0:
280,114,75793,1,10,0:0:0:0:
419,204,75955,1,2,0:0:0:0:
484,102,76116,6,0,P|427:105|372:117,1,112.5,2|0,3:2|0:0,0:0:0:0:
372,117,76439,1,10,0:0:0:0:
220,54,76600,1,2,3:2:0:0:
358,14,76761,2,0,P|395:7|432:1,1,75,2|0,0:0|3:2,0:0:0:0:
272,150,77084,2,0,P|235:143|198:137,1,75,10|0,0:0|3:2,0:0:0:0:
381,257,77406,6,0,P|407:313|382:371,1,112.5,2|0,3:2|0:0,0:0:0:0:
392,358,77729,1,10,0:0:0:0:
222,319,77890,1,2,0:0:0:0:
140,359,78051,2,0,P|126:305|151:257,1,112.5,2|0,0:0|0:0,0:0:0:0:
151,257,78374,1,10,0:0:0:0:
311,317,78535,1,2,0:0:0:0:
327,190,78697,6,0,P|271:192|216:203,1,112.5,2|0,3:2|0:0,0:0:0:0:
216,203,79019,1,10,0:0:0:0:
68,275,79180,1,2,3:2:0:0:
110,168,79342,2,0,P|103:131|97:94,1,75,2|0,0:0|0:0,0:0:0:0:
243,19,79664,2,0,P|249:55|255:92,1,75,10|0,0:0|0:0,0:0:0:0:
408,199,79987,6,0,P|399:140|351:110,1,112.5,2|0,3:2|0:0,0:0:0:0:
358,111,80309,1,10,0:0:0:0:
512,208,80471,1,2,0:0:0:0:
432,284,80632,2,0,P|376:273|320:271,1,112.5,2|0,0:0|0:0,0:0:0:0:
320,271,80955,1,10,0:0:0:0:
202,156,81116,1,2,0:0:0:0:
115,245,81277,6,0,P|125:300|127:356,1,112.5,2|0,3:2|0:0,0:0:0:0:
127,356,81600,1,10,0:0:0:0:
242,238,81761,1,2,3:2:0:0:
183,148,81922,2,0,P|146:154|109:160,1,75,2|0,0:0|3:2,0:0:0:0:
327,66,82245,2,0,P|363:72|400:78,1,75,10|0,0:0|3:2,0:0:0:0:
510,257,82568,6,0,B|363:208|441:356|284:298,1,247.500007553101,6|0,3:2|0:0,0:0:0:0:
287,141,83213,2,0,P|316:168|324:208,1,82.5000025177003,8|0,0:0|0:0,0:0:0:0:
174,283,83535,2,0,P|182:243|211:215,1,82.5000025177003
126,63,83858,6,0,P|107:69|91:81,1,41.2500012588501,2|0,0:0|0:0,0:0:0:0:
4,80,84019,2,0,P|0:100|2:120,1,41.2500012588501,2|0,0:0|0:0,0:0:0:0:
165,174,84180,6,0,P|153:91|88:-4,1,194.999991073609,2|8,3:2|0:0,0:0:0:0:
151,246,84664,2,0,P|168:188|242:70,1,194.999991073609,2|0,3:2|0:0,0:0:0:0:
512,190,85148,6,0,B|477:158|468:122|468:122|433:158|378:151|378:151|342:175|342:175|289:142|223:152,1,337.500012874604,2|0,3:2|0:0,0:0:0:0:
380,37,85793,2,0,P|390:76|400:116,1,82.5000025177003,8|0,0:0|0:0,0:0:0:0:
324,273,86116,2,0,P|313:233|303:193,1,82.5000025177003
226,36,86439,6,0,P|207:42|192:56,1,41.2500012588501,2|0,0:0|0:0,0:0:0:0:
105,56,86600,2,0,P|101:76|105:96,1,41.2500012588501,2|0,0:0|0:0,0:0:0:0:
229,228,86761,6,0,P|186:186|42:187,1,194.999991073609,2|0,3:2|0:0,0:0:0:0:
204,302,87245,2,0,P|247:260|391:261,1,194.999991073609,2|4,3:2|3:3,0:0:0:0:
480,94,87729,6,0,B|492:73|514:61|514:61|463:57|401:87|482:133|410:177|340:155,1,247.500007553101,2|0,3:2|0:0,0:0:0:0:
275,13,88374,2,0,P|315:18|344:47,1,82.5000025177003,8|0,0:0|0:0,0:0:0:0:
264,201,88697,2,0,P|249:163|258:123,1,82.5000025177003
400,223,89019,6,0,P|385:237|377:256,1,41.2500012588501,2|0,0:0|0:0,0:0:0:0:
294,279,89180,2,0,P|299:298|311:314,1,41.2500012588501,2|0,0:0|0:0,0:0:0:0:
480,325,89342,6,0,P|375:285|278:279,1,194.999991073609,2|8,3:2|0:0,0:0:0:0:
176,108,89826,2,0,P|281:148|378:154,1,194.999991073609,2|0,3:2|0:0,0:0:0:0:
216,332,90309,6,0,B|149:189|256:165|315:206|283:266,1,247.500007553101,2|0,3:2|0:0,0:0:0:0:
214,108,90955,2,0,P|131:139|-2:228,1,247.500007553101,8|0,0:0|0:0,0:0:0:0:
57,139,91600,6,0,P|49:99|40:59,1,82.5000025177003,2|2,0:0|0:0,0:0:0:0:
220,2,91922,2,0,P|181:15|157:48,1,82.5000025177003,2|2,3:2|0:0,0:0:0:0:
238,84,92245,6,0,P|276:96|298:127,1,78.7499975967408,2|0,0:0|0:0,0:0:0:0:
500,233,92890,6,0,P|426:228|375:257,1,134.999995880127,4|0,3:2|0:0,0:0:0:0:
352,287,93213,2,0,P|307:281|262:274,1,89.9999972534181,10|0,0:0|0:0,0:0:0:0:
153,103,93535,1,2,3:2:0:0:
367,174,93697,1,0,3:2:0:0:
144,241,93858,2,0,P|137:287|156:330,1,89.9999972534181,10|0,0:0|0:0,0:0:0:0:
279,139,94180,6,0,P|273:94|266:49,1,89.9999972534181,2|0,3:2|0:0,0:0:0:0:
91,189,94503,2,0,B|138:145|195:159|195:159|200:197|238:218,1,179.999994506836,10|2,0:0|3:2,0:0:0:0:
406,104,94987,5,0,3:2:0:0:
285,349,95148,1,10,0:0:0:0:
202,297,95309,1,0,3:2:0:0:
380,183,95471,6,0,P|427:211|436:288,1,134.999995880127,2|0,3:2|0:0,0:0:0:0:
446,314,95793,2,0,P|465:267|460:228,1,89.9999972534181,10|0,0:0|0:0,0:0:0:0:
450,203,96035,1,0,3:2:0:0:
450,203,96116,1,2,3:2:0:0:
296,367,96277,1,0,3:2:0:0:
206,206,96439,2,0,P|250:198|295:192,1,89.9999972534181,10|0,0:0|0:0,0:0:0:0:
465,46,96761,6,0,B|384:59|419:52|300:70,1,134.999995880127,2|0,3:2|0:0,0:0:0:0:
298,81,97084,1,10,0:0:0:0:
432,266,97245,2,0,P|452:227|443:183,1,89.9999972534181,0|2,3:2|0:0,0:0:0:0:
277,337,97568,1,0,3:2:0:0:
192,116,97729,2,0,P|199:160|205:205,1,89.9999972534181,10|0,0:0|0:0,0:0:0:0:
25,337,98051,6,0,P|56:305|99:295,1,89.9999972534181,2|0,3:2|0:0,0:0:0:0:
337,281,98374,2,0,P|244:266|206:208,1,134.999995880127,10|0,0:0|0:0,0:0:0:0:
205,204,98697,1,2,3:2:0:0:
96,376,98858,1,0,3:2:0:0:
35,159,99019,2,0,P|78:170|108:202,1,89.9999972534181,10|0,0:0|0:0,0:0:0:0:
277,53,99342,6,0,P|233:64|203:96,1,89.9999972534181,2|0,3:2|0:0,0:0:0:0:
291,303,99664,2,0,P|258:206|161:179,1,179.999994506836,10|2,0:0|0:0,0:0:0:0:
142,307,100148,5,0,3:2:0:0:
86,43,100309,1,10,0:0:0:0:
5,93,100471,1,0,3:2:0:0:
277,53,100632,6,0,B|332:58|361:92|361:92|410:94|443:43,2,179.999994506836,2|8|0,3:2|0:0|0:0,0:0:0:0:
91,130,101439,1,0,3:2:0:0:
272,262,101600,2,0,P|266:217|258:172,1,89.9999972534181,10|0,0:0|0:0,0:0:0:0:
138,38,101922,5,2,3:2:0:0:
174,178,102084,1,0,3:2:0:0:
46,253,102245,5,8,0:0:0:0:
262,60,102406,1,0,3:2:0:0:
138,38,102568,6,0,P|115:40|96:52,1,44.999998626709,10|0,3:3|0:0,0:0:0:0:
168,139,102729,2,0,P|159:159|159:181,1,44.999998626709,2|0,3:2|0:0,0:0:0:0:
410,211,102890,6,0,P|432:208|451:196,1,44.999998626709,10|0,0:0|0:0,0:0:0:0:
387,103,103051,2,0,P|395:82|395:60,1,44.999998626709,2|0,3:2|0:0,0:0:0:0:
207,0,103213,6,0,P|246:67|267:126,1,134.999995880127,4|0,3:2|0:0,0:0:0:0:
283,153,103535,2,0,P|276:198|270:243,1,89.9999972534181,10|0,0:0|0:0,0:0:0:0:
139,199,103858,1,2,3:2:0:0:
315,327,104019,1,0,3:2:0:0:
451,217,104180,2,0,P|407:219|375:250,1,89.9999972534181,10|0,0:0|0:0,0:0:0:0:
168,339,104503,6,0,P|199:369|243:371,1,89.9999972534181,2|0,3:2|0:0,0:0:0:0:
327,132,104826,2,0,P|289:155|292:293,1,179.999994506836,10|2,0:0|3:2,0:0:0:0:
427,240,105309,5,0,3:2:0:0:
292,13,105471,1,10,0:0:0:0:
391,59,105632,1,0,3:2:0:0:
215,206,105793,6,0,P|146:193|49:183,1,134.999995880127,2|0,3:2|0:0,0:0:0:0:
49,177,106116,2,0,P|94:170|139:164,1,89.9999972534181,10|0,0:0|0:0,0:0:0:0:
301,280,106439,1,2,0:0:0:0:
76,287,106600,1,0,3:2:0:0:
226,120,106761,2,0,P|271:127|316:133,1,89.9999972534181,10|0,0:0|0:0,0:0:0:0:
496,259,107084,6,0,P|459:283|415:283,1,89.9999972534181,2|0,3:2|0:0,0:0:0:0:
242,214,107406,1,10,0:0:0:0:
420,90,107568,2,0,P|425:134|432:179,1,89.9999972534181,0|2,3:2|0:0,0:0:0:0:
300,311,107890,1,0,3:2:0:0:
219,101,108051,2,0,P|263:100|299:125,1,89.9999972534181,10|0,0:0|0:0,0:0:0:0:
104,239,108374,6,0,P|60:232|15:226,1,89.9999972534181,2|0,3:2|0:0,0:0:0:0:
300,311,108697,2,0,P|344:304|389:298,1,89.9999972534181,10|0,0:0|0:0,0:0:0:0:
159,171,109019,1,2,3:2:0:0:
251,373,109180,1,0,3:2:0:0:
147,156,109342,2,0,P|146:111|171:75,1,89.9999972534181,10|0,0:0|0:0,0:0:0:0:
387,15,109664,6,0,P|387:59|362:95,1,89.9999972534181,2|0,3:2|0:0,0:0:0:0:
193,245,109987,2,0,P|260:200|369:181,1,179.999994506836,10|2,0:0|0:0,0:0:0:0:
214,356,110471,5,0,3:2:0:0:
77,120,110632,1,10,0:0:0:0:
28,207,110793,1,0,3:2:0:0:
266,102,110955,6,0,B|374:82|318:172|462:134,2,179.999994506836,2|8|0,3:2|0:0|0:0,0:0:0:0:
102,209,111761,1,0,3:2:0:0:
297,319,111922,2,0,P|341:312|386:306,1,89.9999972534181,8|0,0:0|0:0,0:0:0:0:
229,176,112245,5,2,3:2:0:0:
56,369,112406,1,8,0:0:0:0:
167,297,112568,5,8,0:0:0:0:
11,127,112729,1,4,3:3:0:0:
102,209,112890,6,0,P|83:221|70:239,1,44.999998626709,10|0,3:3|0:0,0:0:0:0:
167,297,113051,2,0,P|168:319|177:339,1,44.999998626709,10|0,3:3|0:0,0:0:0:0:
284,298,113213,2,0,P|304:307|326:310,1,44.999998626709,6|0,3:3|0:0,0:0:0:0:
328,197,113374,1,2,3:2:0:0:
401,66,122245,6,0,P|318:85|280:127,1,134.999995880127,2|0,3:2|0:0,0:0:0:0:
284,119,122568,1,10,0:0:0:0:
421,299,122729,1,8,0:0:0:0:
296,351,122890,2,0,P|314:281|329:237,1,89.9999972534181,2|0,3:2|0:0,0:0:0:0:
138,130,123213,5,10,3:3:0:0:
316,156,123374,1,4,3:3:0:0:
204,81,123535,2,0,P|216:124|227:167,1,89.9999972534181,2|2,3:2|3:2,0:0:0:0:
47,347,123858,6,0,P|85:281|162:275,1,123.75000377655,0|0,3:2|0:0,0:0:0:0:
104,167,124180,2,0,P|180:166|223:230,1,123.75000377655,0|0,3:2|0:0,0:0:0:0:
297,135,124503,2,0,P|335:200|293:285,1,165.000005035401,8|0,0:0|0:0,0:0:0:0:
396,139,124987,2,0,P|436:144|476:154,1,82.5000025177003,0|0,3:2|0:0,0:0:0:0:
512,253,125309,1,8,0:0:0:0:
337,364,125471,6,0,P|250:338|186:307,1,123.75000377655,0|0,3:2|0:0,0:0:0:0:
205,297,125793,2,0,P|154:308|111:313,1,82.5000025177003,8|0,0:0|0:0,0:0:0:0:
26,376,126116,1,0,3:2:0:0:
26,376,126277,1,0,3:2:0:0:
8,169,126439,6,0,P|84:188|142:197,1,123.75000377655,0|0,3:2|0:0,0:0:0:0:
129,298,126761,2,0,P|183:241|220:195,1,123.75000377655,0|0,3:2|0:0,0:0:0:0:
301,261,127084,2,0,P|279:185|258:130,1,123.75000377655,8|0,0:0|0:0,0:0:0:0:
180,88,127407,1,2,3:2:0:0:
180,88,127568,1,0,3:2:0:0:
367,2,127729,6,0,P|432:4|469:74,1,123.75000377655,2|0,0:0|0:0,0:0:0:0:
509,187,128051,2,0,B|450:176|450:176|445:172|445:172|369:159,1,123.75000377655,2|0,3:2|0:0,0:0:0:0:
293,48,128374,2,0,B|220:67|274:88|180:118,1,123.75000377655,10|0,0:0|0:0,0:0:0:0:
60,109,128697,1,2,0:0:0:0:
60,109,128858,1,10,0:0:0:0:
63,314,129019,6,0,P|104:269|163:253,1,123.75000377655,0|0,3:2|0:0,0:0:0:0:
235,329,129342,2,0,P|216:270|232:211,1,123.75000377655,0|0,3:2|0:0,0:0:0:0:
333,188,129664,2,0,P|273:174|215:91,1,165.000005035401,8|0,0:0|0:0,0:0:0:0:
390,1,130148,2,0,P|385:41|375:81,1,82.5000025177003,0|0,3:2|0:0,0:0:0:0:
440,174,130471,1,8,0:0:0:0:
300,283,130632,6,0,B|270:247|231:245|231:245|213:267|181:272,1,123.75000377655,0|0,3:2|0:0,0:0:0:0:
170,293,130955,2,0,P|123:283|81:280,1,82.5000025177003,8|0,0:0|0:0,0:0:0:0:
19,194,131277,1,0,3:2:0:0:
19,194,131439,1,0,3:2:0:0:
157,41,131600,6,0,P|121:109|106:168,1,123.75000377655,0|0,3:2|0:0,0:0:0:0:
209,138,131922,2,0,P|249:203|293:245,1,123.75000377655,0|0,3:2|0:0,0:0:0:0:
322,145,132245,2,0,P|398:142|457:125,1,123.75000377655,8|0,0:0|0:0,0:0:0:0:
372,31,132568,1,2,3:2:0:0:
372,31,132729,1,0,3:2:0:0:
500,216,132890,6,0,B|474:290|474:290|500:312|508:351,1,123.75000377655,2|0,0:0|0:0,0:0:0:0:
372,380,133213,2,0,P|314:324|238:332,1,123.75000377655,2|0,3:2|0:0,0:0:0:0:
141,370,133535,2,0,B|174:299|120:321|157:226,1,123.75000377655,10|0,0:0|0:0,0:0:0:0:
280,213,133858,1,2,3:2:0:0:
280,213,134019,1,10,0:0:0:0:
78,172,134180,6,0,P|127:221|195:200,1,123.75000377655,0|0,3:2|0:0,0:0:0:0:
85,161,134503,2,0,P|151:143|167:73,1,123.75000377655,0|0,3:2|0:0,0:0:0:0:
78,150,134826,2,0,P|95:83|18:22,1,165.000005035401,8|0,0:0|0:0,0:0:0:0:
237,8,135309,2,0,P|289:16|320:24,1,82.5000025177003,0|0,3:2|0:0,0:0:0:0:
405,95,135632,1,8,0:0:0:0:
222,189,135793,6,0,P|258:137|335:135,1,123.75000377655,0|0,3:2|0:0,0:0:0:0:
335,155,136116,2,0,P|387:163|418:171,1,82.5000025177003,8|0,0:0|0:0,0:0:0:0:
493,251,136439,1,0,3:2:0:0:
493,251,136600,1,0,3:2:0:0:
317,359,136761,6,0,P|350:303|397:249,1,123.75000377655,0|0,3:2|0:0,0:0:0:0:
285,232,137084,2,0,P|253:175|229:107,1,123.75000377655,0|0,3:2|0:0,0:0:0:0:
171,203,137406,2,0,P|106:202|35:188,1,123.75000377655,8|0,0:0|0:0,0:0:0:0:
91,287,137729,1,2,3:2:0:0:
91,287,137890,1,0,3:2:0:0:
279,369,138051,6,0,B|316:357|346:340|346:340|365:354|390:365,1,123.75000377655,2|0,0:0|0:0,0:0:0:0:
512,320,138374,2,0,B|502:258|502:258|499:253|499:253|484:164,1,123.75000377655,2|0,3:2|0:0,0:0:0:0:
388,102,138697,2,0,P|353:153|278:159,1,123.75000377655,10|0,0:0|0:0,0:0:0:0:
272,29,139019,1,2,3:2:0:0:
272,29,139180,1,10,0:0:0:0:
66,52,139342,6,0,P|95:19|195:20,1,123.75000377655,0|0,3:2|0:0,0:0:0:0:
152,109,139664,2,0,P|195:117|244:204,1,123.75000377655,0|0,3:2|0:0,0:0:0:0:
144,214,139987,2,0,P|158:255|83:361,1,165.000005035401,8|0,0:0|0:0,0:0:0:0:
13,208,140471,2,0,P|23:161|33:125,1,82.5000025177003,0|0,3:2|0:0,0:0:0:0:
122,68,140793,1,8,0:0:0:0:
237,239,140955,6,0,B|301:233|301:233|306:236|306:236|372:229,1,123.75000377655,0|0,3:2|0:0,0:0:0:0:
385,208,141277,2,0,P|425:216|465:227,1,82.5000025177003,8|0,0:0|0:0,0:0:0:0:
484,339,141600,1,0,3:2:0:0:
484,339,141761,1,0,3:2:0:0:
311,191,141922,6,0,P|328:112|350:40,1,123.75000377655,0|0,3:2|0:0,0:0:0:0:
298,203,142245,2,0,P|238:148|186:93,1,123.75000377655,0|0,3:2|0:0,0:0:0:0:
298,221,142568,2,0,P|221:245|147:262,1,123.75000377655,8|0,0:0|0:0,0:0:0:0:
37,316,142890,1,2,3:2:0:0:
37,316,143051,1,0,3:2:0:0:
0,99,143213,6,0,B|80:112|14:135|135:168,1,123.75000377655,2|0,0:0|0:0,0:0:0:0:
234,89,143535,2,0,P|186:123|215:192,1,123.75000377655,2|0,3:2|0:0,0:0:0:0:
333,235,143858,2,0,P|397:216|481:189,1,123.75000377655,10|0,0:0|0:0,0:0:0:0:
511,127,144180,1,2,3:2:0:0:
422,325,144342,1,10,0:0:0:0:
