osu file format v14

[General]
AudioFilename: audio.mp3
AudioLeadIn: 0
PreviewTime: -1
Countdown: 0
SampleSet: Drum
StackLeniency: 0.7
Mode: 0
LetterboxInBreaks: 0
WidescreenStoryboard: 1

[Editor]
DistanceSpacing: 1.2
BeatDivisor: 4
GridSize: 32
TimelineZoom: 1.4

[Metadata]
Title:Pochemu ti eshe ne fanat?
TitleUnicode:Почему ты еще не фанат?
Artist:SEREGA PIRAT
ArtistUnicode:СЕРЕГА ПИРАТ
Creator:[Katana]
Version:Hard
Source:
Tags:dota 2 serega pirat pirat anti-mage valve russian dota 2
BeatmapID:3694775
BeatmapSetID:1800378

[Difficulty]
HPDrainRate:4
CircleSize:3.4
OverallDifficulty:7
ApproachRate:8
SliderMultiplier:2.3
SliderTickRate:1

[Events]
//Background and Video events
0,0,"maxresdefault.jpg",0,0
//Break Periods
//Storyboard Layer 0 (Background)
//Storyboard Layer 1 (Fail)
//Storyboard Layer 2 (Pass)
//Storyboard Layer 3 (Foreground)
//Storyboard Layer 4 (Overlay)
//Storyboard Sound Samples

[TimingPoints]
260,454.545454545455,4,3,1,100,1,0
29350,-133.333333333333,4,3,1,90,0,0
43896,-100,4,3,1,85,0,0
58441,-200,4,3,1,100,0,0
61850,-100,4,3,1,100,0,0
87532,-200,4,3,1,100,0,0
91169,-100,4,3,1,100,0,0
101623,-100,4,3,1,100,0,1
117760,-100,4,3,1,100,0,0
119578,-100,4,3,1,100,0,1
145714,-100,4,3,1,100,0,0

[HitObjects]
107,51,29350,6,0,P|99:110|162:221,1,172.500006580353,4|8,0:0|0:0,0:0:0:0:
232,281,30032,2,0,P|219:238|232:195,1,86.2500032901765
292,85,30487,2,0,P|316:151|316:199,1,86.2500032901765,0|8,0:0|0:0,0:0:0:0:
309,269,30941,5,0,0:0:0:0:
387,383,31169,2,0,P|424:323|406:208,1,172.500006580353,4|8,0:0|0:0,0:0:0:0:
346,119,31850,2,0,P|349:175|271:272,1,172.500006580353,4|0,0:0|0:0,0:0:0:0:
151,301,32532,6,0,P|97:308|59:275,2,86.2500032901765,8|0|4,0:0|0:0|0:0,0:0:0:0:
332,288,33214,2,0,P|266:271|235:237,1,86.2500032901765,0|8,0:0|0:0,0:0:0:0:
115,271,33669,2,0,P|145:240|167:185,1,86.2500032901765,0|4,0:0|0:0,0:0:0:0:
181,78,34123,1,0,0:0:0:0:
77,0,34350,2,0,P|72:52|85:98,1,86.2500032901765,8|0,0:0|0:0,0:0:0:0:
82,214,34805,2,0,B|108:177|120:174|255:171,1,172.500006580353,4|8,0:0|0:0,0:0:0:0:
398,142,35487,2,0,L|283:113,1,86.2500032901765,4|0,0:0|0:0,0:0:0:0:
188,45,35941,5,4,0:0:0:0:
262,172,36169,2,0,P|261:100|350:53,1,172.500006580353,8|4,0:0|0:0,0:0:0:0:
445,5,36850,2,0,P|414:57|421:110,1,86.2500032901765,0|8,0:0|0:0,0:0:0:0:
458,221,37305,2,0,P|440:180|378:146,1,86.2500032901765,0|4,0:0|0:0,0:0:0:0:
310,45,37760,5,0,0:0:0:0:
345,151,37987,1,8,0:0:0:0:
288,247,38214,1,0,0:0:0:0:
237,144,38441,2,0,B|214:76|172:44|132:69|134:153,1,172.500006580353,4|8,0:0|0:0,0:0:0:0:
120,261,39123,2,0,P|74:235|68:116,1,172.500006580353,4|0,0:0|0:0,0:0:0:0:
109,15,39805,6,0,B|107:68|141:86|187:53|226:51|256:95|246:122,1,172.500006580353,8|4,0:0|0:0,0:0:0:0:
271,199,40487,2,0,P|314:178|341:124,1,86.2500032901765,0|8,0:0|0:0,0:0:0:0:
373,41,40941,2,0,P|409:78|420:206,1,172.500006580353
370,311,41623,5,8,0:0:0:0:
370,311,41850,1,0,0:0:0:0:
370,311,42078,2,0,B|376:257|322:225|266:216|326:140,1,172.500006580353,4|8,0:0|0:0,0:0:0:0:
362,50,42760,2,0,B|337:106|278:70|259:32|154:109|135:181,1,258.75000987053,4|8,0:0|0:0,0:0:0:0:
65,328,43896,6,0,B|93:268|71:191|183:300|200:135,1,230,6|8,0:0|0:0,0:0:0:0:
215,18,44578,2,0,P|265:67|274:130,1,115,0|4,0:0|0:0,0:0:0:0:
293,262,45260,1,8,0:0:0:0:
422,33,45714,6,0,B|399:91|488:82|339:78|429:-2|269:29|297:165,1,230,4|8,0:0|0:0,0:0:0:0:
282,250,46396,1,4,0:0:0:0:
374,182,46623,1,0,0:0:0:0:
230,66,47078,1,8,0:0:0:0:
52,18,47532,6,0,B|59:107|123:105|142:19|151:182|48:154|112:242,1,230,4|8,0:0|0:0,0:0:0:0:
98,334,48214,5,0,0:0:0:0:
98,334,48441,1,4,0:0:0:0:
98,334,48896,1,8,0:0:0:0:
339,200,49350,6,4,B|412:188|415:228|352:258|257:234|221:173,1,230,4|8,0:0|0:0,0:0:0:0:
131,85,50032,5,4,0:0:0:0:
257,28,50260,1,0,0:0:0:0:
190,199,50714,5,8,0:0:0:0:
73,125,51169,6,0,P|72:82|135:30,2,115,4|0|8,0:0|0:0|0:0,0:0:0:0:
71,332,52078,6,0,B|102:269|157:272|204:209|184:160,1,172.5,4|0,0:0|0:0,0:0:0:0:
223,88,52532,2,0,B|268:141|267:214|336:265|276:271,1,172.5,8|0,0:0|0:0,0:0:0:0:
332,335,52987,2,0,B|399:300|396:253|366:171|396:117,1,230,4|8,0:0|0:0,0:0:0:0:
418,11,53669,2,0,P|396:65|338:88,1,115,4|0,0:0|0:0,0:0:0:0:
214,90,54123,1,0,0:0:0:0:
73,40,54350,6,0,B|115:93|112:169|57:200|203:191,1,230,8|4,0:0|0:0,0:0:0:0:
337,165,55032,5,0,0:0:0:0:
337,165,55260,1,8,0:0:0:0:
422,272,55487,5,0,0:0:0:0:
459,139,55714,2,0,B|445:68|391:49|279:60,1,172.5,4|0,0:0|0:0,0:0:0:0:
217,42,56169,2,0,B|213:100|265:133|228:164|163:211|323:164,1,230,8|4,0:0|0:0,0:0:0:0:
411,127,56850,5,0,0:0:0:0:
455,33,57078,1,8,0:0:0:0:
352,49,57305,1,4,0:0:0:0:
292,133,57532,1,0,0:0:0:0:
101,51,57987,5,8,0:0:0:0:
22,216,58441,6,0,B|61:193|71:201|98:236|149:192,1,115,4|0,0:0|0:0,0:0:0:0:
215,101,59123,2,0,P|204:151|209:176,1,57.5,4|0,0:0|0:0,0:0:0:0:
218,277,59578,5,0,0:0:0:0:
297,179,59805,2,0,P|328:142|326:124,1,57.5
325,8,60260,5,4,0:0:0:0:
408,103,60487,2,0,P|421:139|406:169,2,57.5
325,8,61169,5,0,0:0:0:0:
325,8,61396,2,0,P|284:56|286:70,1,57.5,4|4,0:0|0:0,0:0:0:0:
259,156,61850,5,0,0:0:0:0:
158,44,62078,6,4,P|173:111|152:163,1,115,6|4,0:0|0:0,0:0:0:0:
80,266,62532,2,0,P|61:213|71:136,1,115,8|4,0:0|0:0,0:0:0:0:
107,35,62987,5,4,0:0:0:0:
183,135,63214,1,0,0:0:0:0:
241,23,63441,2,0,P|274:80|271:145,1,115,8|4,0:0|0:0,0:0:0:0:
252,288,63896,2,0,P|308:274|390:108,1,230,4|8,0:0|0:0,0:0:0:0:
396,0,64578,6,0,P|377:35|301:76,1,115,4|0,0:0|0:0,0:0:0:0:
200,127,65032,1,4,0:0:0:0:
276,227,65260,1,8,0:0:0:0:
303,103,65487,2,0,P|292:66|212:42,1,115,0|4,0:0|0:0,0:0:0:0:
92,33,66169,6,0,P|71:107|131:254,1,230,8|4,0:0|0:0,0:0:0:0:
358,338,67078,6,0,P|292:280|280:210,1,115,8|0,0:0|0:0,0:0:0:0:
265,131,67532,5,4,0:0:0:0:
265,131,67760,1,4,0:0:0:0:
360,36,67987,6,0,P|374:92|336:173,1,115,8|4,0:0|0:0,0:0:0:0:
309,262,68441,5,0,0:0:0:0:
465,178,68669,2,0,B|440:242|480:223|498:187|509:171|444:177,1,115,4|8,0:0|0:0,0:0:0:0:
174,32,69350,6,0,B|150:96|162:92|259:35|135:197|330:79,1,230,4|12,0:0|0:0,0:0:0:0:
411,10,70032,2,0,P|415:73|366:163,1,115,4|4,0:0|0:0,0:0:0:0:
319,335,70714,6,0,P|352:276|328:216,1,115,8|4,0:0|0:0,0:0:0:0:
278,135,71169,1,4,0:0:0:0:
200,219,71396,1,4,0:0:0:0:
148,119,71623,2,0,P|106:169|106:230,1,115,8|0,0:0|0:0,0:0:0:0:
71,333,72078,2,0,P|37:271|26:189,1,115,0|4,0:0|0:0,0:0:0:0:
24,124,72532,5,8,0:0:0:0:
24,124,72760,1,0,0:0:0:0:
95,31,72987,1,4,0:0:0:0:
232,18,73441,6,0,L|122:233,1,230,8|4,0:0|0:0,0:0:0:0:
60,343,74350,6,0,P|114:311|108:222,1,115,8|0,0:0|0:0,0:0:0:0:
110,114,74805,2,0,P|142:181|310:157,1,230,4|8,0:0|0:0,0:0:0:0:
375,70,75487,5,4,0:0:0:0:
455,11,75714,1,0,0:0:0:0:
456,114,75941,1,4,0:0:0:0:
374,177,76169,1,8,0:0:0:0:
221,316,76623,6,0,P|256:249|308:88,1,230,4|8,0:0|0:0,0:0:0:0:
332,2,77305,2,4,P|376:41|386:120,1,115
391,197,77760,2,0,P|452:168|468:105,1,115,0|8,0:0|0:0,0:0:0:0:
450,24,78214,5,4,0:0:0:0:
450,24,78441,2,0,P|417:75|250:64,1,230,4|8,0:0|0:0,0:0:0:0:
159,38,79123,2,0,P|185:107|176:167,1,115,4|0,0:0|0:0,0:0:0:0:
157,259,79578,5,4,0:0:0:0:
89,166,79805,1,8,0:0:0:0:
201,141,80032,1,0,0:0:0:0:
292,210,80260,1,4,0:0:0:0:
461,364,80714,6,0,L|226:299,1,230,8|4,0:0|0:0,0:0:0:0:
336,140,81623,5,8,0:0:0:0:
336,140,81850,2,0,P|294:124|210:120,1,115,4|4,0:0|0:0,0:0:0:0:
106,164,82305,5,4,0:0:0:0:
106,164,82532,1,8,0:0:0:0:
36,256,82760,1,0,0:0:0:0:
141,302,82987,2,0,P|201:317|266:295,1,115,0|4,0:0|0:0,0:0:0:0:
328,218,83441,2,0,P|265:222|148:108,1,230,8|4,0:0|0:0,0:0:0:0:
83,21,84350,6,0,P|62:102|136:223,1,230,8|4,0:0|0:0,0:0:0:0:
233,279,85032,5,0,0:0:0:0:
233,279,85260,1,8,0:0:0:0:
321,205,85487,2,4,P|357:151|354:87,1,115
348,0,85941,5,4,0:0:0:0:
348,0,86169,1,8,0:0:0:0:
261,75,86396,6,0,P|237:140|252:209,1,115,0|8,0:0|0:0,0:0:0:0:
249,298,86850,5,4,0:0:0:0:
340,368,87078,1,4,0:0:0:0:
409,276,87305,5,4,0:0:0:0:
409,276,87532,2,0,P|425:239|386:153,1,115,4|0,0:0|0:0,0:0:0:0:
311,74,88214,2,0,P|324:113|250:225,1,172.5,4|0,0:0|0:0,0:0:0:0:
152,279,89123,5,0,0:0:0:0:
152,279,89350,2,0,P|108:240|110:167,1,115,4|0,0:0|0:0,0:0:0:0:
109,59,90032,2,0,P|146:68|227:188,1,172.5,4|0,0:0|0:0,0:0:0:0:
246,293,90941,5,0,0:0:0:0:
327,374,91169,6,0,P|351:326|337:244,1,115,4|0,0:0|0:0,0:0:0:0:
345,139,91623,2,0,B|332:181|281:184|219:128|140:238,1,230,8|4,0:0|0:0,0:0:0:0:
68,311,92305,5,0,0:0:0:0:
68,311,92532,2,0,P|61:237|102:161,1,115,8|0,0:0|0:0,0:0:0:0:
111,89,92987,2,0,B|160:128|168:192|207:94|325:61,1,230,4|8,0:0|0:0,0:0:0:0:
413,37,93669,2,0,B|364:104|412:165|267:248,1,230,4|4,0:0|0:0,0:0:0:0:
181,303,94350,5,8,0:0:0:0:
100,237,94578,1,0,0:0:0:0:
199,210,94805,2,0,P|264:201|366:78,1,230,4|8,0:0|0:0,0:0:0:0:
372,4,95487,2,0,P|423:47|440:210,1,230,4|0,0:0|0:0,0:0:0:0:
371,290,96169,5,8,0:0:0:0:
311,191,96396,1,0,0:0:0:0:
241,282,96623,2,0,B|190:333|190:337|88:313|100:192,1,230,4|8,0:0|0:0,0:0:0:0:
110,90,97305,6,0,B|158:136|204:135|234:61|346:64,1,230,4|4,0:0|0:0,0:0:0:0:
428,22,97987,2,0,B|377:79|408:137|262:190,1,230,8|4,0:0|0:0,0:0:0:0:
157,254,98669,1,0,0:0:0:0:
157,254,98896,2,0,B|236:226|285:271|297:301|355:285|389:218,1,230,8|4,0:0|0:0,0:0:0:0:
451,123,99578,2,0,P|401:106|326:112,1,115,0|8,0:0|0:0,0:0:0:0:
234,155,100032,5,0,0:0:0:0:
234,155,100260,1,4,0:0:0:0:
146,48,100487,1,0,0:0:0:0:
70,118,100714,2,0,P|50:180|151:305,1,230,8|0,0:0|0:0,0:0:0:0:
438,328,101623,6,0,P|379:289|337:114,1,230,12|14,0:0|0:0,0:0:0:0:
390,18,102532,6,0,P|385:93|328:148,1,115,8|0,0:0|0:0,0:0:0:0:
278,208,102987,5,0,0:0:0:0:
278,208,103214,1,0,0:0:0:0:
186,89,103441,2,0,P|190:155|163:217,1,115,8|0,0:0|0:0,0:0:0:0:
97,334,103896,5,4,0:0:0:0:
97,334,104123,2,0,P|81:273|101:197,1,115,0|8,0:0|0:0,0:0:0:0:
128,114,104578,1,4,0:0:0:0:
128,114,104805,1,0,0:0:0:0:
186,225,105032,6,0,P|209:156|269:111,1,115,0|8,0:0|0:0,0:0:0:0:
322,48,105487,1,0,0:0:0:0:
322,48,105714,2,0,P|348:104|286:262,1,230,4|8,0:0|0:0,0:0:0:0:
174,317,106396,5,0,0:0:0:0:
174,317,106623,2,0,P|127:274|121:212,1,115,4|0,0:0|0:0,0:0:0:0:
121,98,107078,2,0,P|157:155|226:161,1,115,8|0,0:0|0:0,0:0:0:0:
323,139,107532,5,4,0:0:0:0:
379,51,107760,1,0,0:0:0:0:
467,103,107987,1,8,0:0:0:0:
436,201,108214,1,4,0:0:0:0:
360,271,108441,2,0,P|299:307|223:312,1,115,0|4,0:0|0:0,0:0:0:0:
124,310,108896,6,0,P|165:262|147:100,1,230,8|4,0:0|0:0,0:0:0:0:
94,15,109805,6,0,P|88:84|132:161,1,115,8|0,0:0|0:0,0:0:0:0:
169,247,110260,2,0,P|181:186|218:117,1,115,4|0,0:0|0:0,0:0:0:0:
229,38,110714,5,8,0:0:0:0:
229,38,110941,2,0,P|221:102|350:190,1,230
439,160,111623,5,8,0:0:0:0:
439,160,111850,1,4,0:0:0:0:
389,55,112078,5,0,0:0:0:0:
389,55,112305,1,0,0:0:0:0:
389,55,112532,2,0,P|337:108|281:120,1,115,8|0,0:0|0:0,0:0:0:0:
177,151,112987,6,0,B|256:214|280:224|311:268|379:182,1,230,4|8,0:0|0:0,0:0:0:0:
429,81,113669,5,0,0:0:0:0:
429,81,113896,2,0,P|450:146|432:211,1,115,4|0,0:0|0:0,0:0:0:0:
416,314,114350,5,8,0:0:0:0:
416,314,114578,2,0,P|413:249|364:218,1,115,0|4,0:0|0:0,0:0:0:0:
245,192,115032,2,0,P|311:160|374:117,1,115,0|8,0:0|0:0,0:0:0:0:
439,51,115487,2,0,L|294:70,1,115,4|0,0:0|0:0,0:0:0:0:
187,75,115941,5,4,0:0:0:0:
187,75,116169,2,0,P|235:111|195:296,1,230,8|6,0:0|0:0,0:0:0:0:
81,334,117760,6,0,P|80:259|121:196,1,115
163,91,118214,2,0,P|158:127|209:227,1,115
248,308,118669,5,0,0:0:0:0:
248,308,118896,1,0,0:0:0:0:
326,208,119123,2,0,P|359:146|352:61,1,115,4|0,0:0|0:0,0:0:0:0:
334,10,119578,5,0,0:0:0:0:
265,102,119805,1,8,0:0:0:0:
419,58,120032,5,8,0:0:0:0:
419,58,120260,2,0,P|425:127|298:251,1,230,4|8,0:0|0:0,0:0:0:0:
178,290,120941,6,4,P|215:248|225:162,1,115
153,30,121623,6,0,P|112:93|101:269,1,230,8|4,0:0|0:0,0:0:0:0:
153,368,122305,2,0,P|161:302|199:252,1,115,4|8,0:0|0:0,0:0:0:0:
247,192,122760,5,4,0:0:0:0:
247,192,122987,1,0,0:0:0:0:
170,77,123214,5,4,0:0:0:0:
170,77,123441,2,0,P|106:141|152:303,1,230,8|4,0:0|0:0,0:0:0:0:
269,328,124350,5,8,0:0:0:0:
369,201,124578,2,4,P|322:222|231:200,1,115
105,40,125260,6,0,P|108:108|153:155,1,115,8|0,0:0|0:0,0:0:0:0:
241,188,125714,1,4,0:0:0:0:
241,188,125941,1,4,0:0:0:0:
316,289,126169,2,0,P|256:308|173:294,1,115,8|0,0:0|0:0,0:0:0:0:
97,237,126623,1,0,0:0:0:0:
97,237,126850,6,0,P|150:208|230:213,1,115,4|8,0:0|0:0,0:0:0:0:
449,331,127532,6,0,P|392:278|366:125,1,230,4|8,0:0|0:0,0:0:0:0:
422,7,128214,2,4,L|309:71,1,115
83,62,128896,6,0,P|137:124|132:187,1,115,8|0,0:0|0:0,0:0:0:0:
141,279,129350,2,0,P|217:255|267:114,1,230,4|8,0:0|0:0,0:0:0:0:
246,11,130032,1,4,0:0:0:0:
246,11,130260,1,0,0:0:0:0:
324,95,130487,6,0,P|356:146|360:210,1,115,4|8,0:0|0:0,0:0:0:0:
351,313,130941,1,0,0:0:0:0:
351,313,131169,1,4,0:0:0:0:
85,240,131623,5,8,0:0:0:0:
92,102,131850,2,0,L|180:200,1,115,4|0,0:0|0:0,0:0:0:0:
246,256,132305,1,0,0:0:0:0:
297,128,132532,6,0,P|343:191|351:259,1,115,8|4,0:0|0:0,0:0:0:0:
384,360,132987,2,0,P|438:309|438:143,1,230,4|8,0:0|0:0,0:0:0:0:
382,38,133669,5,4,0:0:0:0:
382,38,133896,1,0,0:0:0:0:
301,149,134123,1,4,0:0:0:0:
301,149,134350,1,8,0:0:0:0:
86,322,134805,6,0,B|135:273|105:218|78:165|188:103,1,230,4|8,0:0|0:0,0:0:0:0:
254,47,135487,5,4,0:0:0:0:
254,47,135714,1,4,0:0:0:0:
318,141,135941,1,0,0:0:0:0:
383,32,136169,6,0,P|418:84|417:152,1,115,8|4,0:0|0:0,0:0:0:0:
419,261,136623,2,0,B|362:231|339:229|261:282|196:190,1,230,4|8,0:0|0:0,0:0:0:0:
123,104,137305,5,4,0:0:0:0:
123,104,137532,1,0,0:0:0:0:
63,216,137760,2,0,P|120:218|205:165,1,115,4|8,0:0|0:0,0:0:0:0:
344,44,138441,5,4,0:0:0:0:
398,267,138896,5,8,0:0:0:0:
324,355,139123,1,4,0:0:0:0:
299,242,139350,1,4,0:0:0:0:
207,311,139578,1,0,0:0:0:0:
207,311,139805,6,0,P|167:257|150:187,1,115,8|0,0:0|0:0,0:0:0:0:
148,96,140260,2,0,B|209:124|223:146|241:212|264:111|341:88,1,230,4|8,0:0|0:0,0:0:0:0:
444,45,140941,5,4,0:0:0:0:
371,119,141169,1,0,0:0:0:0:
472,140,141396,1,4,0:0:0:0:
432,235,141623,2,0,B|399:294|346:329|223:294,1,230,8|4,0:0|0:0,0:0:0:0:
75,159,142532,6,0,B|93:264|105:306|130:256|134:191|187:153,1,230,8|4,0:0|0:0,0:0:0:0:
226,75,143214,1,0,0:0:0:0:
276,165,143441,1,8,0:0:0:0:
326,61,143669,2,4,P|363:128|372:218,1,115
399,276,144123,5,4,0:0:0:0:
399,276,144350,1,8,0:0:0:0:
273,355,144578,5,4,0:0:0:0:
273,355,144805,1,8,0:0:0:0:
309,174,145032,5,4,0:0:0:0:
309,174,145260,1,8,0:0:0:0:
309,174,145714,5,6,0:0:0:0:
