osu file format v14

[General]
AudioFilename: audio.mp3
AudioLeadIn: 0
PreviewTime: -1
Countdown: 0
SampleSet: Normal
StackLeniency: 0.7
Mode: 0
LetterboxInBreaks: 0
WidescreenStoryboard: 1

[Editor]
DistanceSpacing: 1.5
BeatDivisor: 4
GridSize: 32
TimelineZoom: 1

[Metadata]
Title:Pochemu ti eshe ne fanat?
TitleUnicode:Почему ты еще не фанат?
Artist:SEREGA PIRAT
ArtistUnicode:СЕРЕГА ПИРАТ
Creator:[Katana]
Version:Potomu 4to ya fanat
Source:
Tags:dota 2 serega pirat pirat anti-mage valve russian dota 2
BeatmapID:3692956
BeatmapSetID:1800378

[Difficulty]
HPDrainRate:5
CircleSize:4.2
OverallDifficulty:9
ApproachRate:9.2
SliderMultiplier:2.3
SliderTickRate:1

[Events]
//Background and Video events
0,0,"maxresdefault.jpg",0,0
//Break Periods
//Storyboard Layer 0 (Background)
//Storyboard Layer 1 (Fail)
//Storyboard Layer 2 (Pass)
//Storyboard Layer 3 (Foreground)
//Storyboard Layer 4 (Overlay)
//Storyboard Sound Samples

[TimingPoints]
260,454.545454545455,4,1,0,100,1,0
29350,-133.333333333333,4,1,0,100,0,0
43896,-100,4,1,0,100,0,0
58441,-200,4,1,0,100,0,0
61850,-100,4,1,0,100,0,0
87532,-200,4,1,0,100,0,0
91169,-100,4,1,0,100,0,0
101623,-66.6666666666667,4,1,0,100,0,1
117760,-100,4,1,0,100,0,0
124350,-100,4,1,0,100,0,1
145714,-100,4,1,0,100,0,0

[HitObjects]
61,146,29350,6,0,B|74:219|74:219|104:188|97:84,1,172.500006580353
121,9,30032,2,0,B|184:24|155:58|117:59,1,86.2500032901765
42,77,30487,2,0,B|-2:95|35:130|105:123,1,86.2500032901765
224,130,30941,5,0,0:0:0:0:
379,36,31169,1,0,0:0:0:0:
431,134,31396,1,0,0:0:0:0:
373,230,31623,1,0,0:0:0:0:
373,230,31850,2,0,B|318:276|318:276|312:230|416:78,1,258.75000987053
440,34,32760,5,0,0:0:0:0:
299,161,32987,1,0,0:0:0:0:
340,47,33214,2,0,P|377:104|384:153,1,86.2500032901765
464,252,33669,2,0,B|474:202|361:177|321:187,1,172.500006580353
162,304,34351,5,0,0:0:0:0:
360,300,34578,1,0,0:0:0:0:
506,166,34805,2,0,L|472:274,1,86.2500032901765
391,379,35260,5,0,0:0:0:0:
391,379,35487,2,0,P|418:326|404:205,1,172.500006580353
291,39,36169,5,0,0:0:0:0:
242,130,36396,1,0,0:0:0:0:
398,16,36623,6,0,L|347:118,1,86.2500032901765
291,233,37078,2,0,L|325:129,1,86.2500032901765
301,20,37532,2,0,P|315:88|346:102,1,86.2500032901765
450,98,37987,5,0,0:0:0:0:
496,298,38214,1,0,0:0:0:0:
370,167,38441,2,0,L|437:335,1,172.500006580353
457,121,39123,2,0,P|465:193|394:283,1,172.500006580353
236,321,39805,5,0,0:0:0:0:
272,143,40032,1,0,0:0:0:0:
203,64,40260,2,0,L|154:242,1,172.500006580353
119,326,40941,2,0,B|163:309|239:348|310:282,1,172.500006580353
436,232,41623,5,0,0:0:0:0:
306,132,41850,1,0,0:0:0:0:
357,51,42078,2,0,P|383:110|348:224,1,172.500006580353
287,298,42760,5,0,0:0:0:0:
82,41,43214,5,0,0:0:0:0:
70,297,43896,5,0,0:0:0:0:
108,152,44123,2,0,P|130:181|140:240,1,57.5
199,324,44350,5,0,0:0:0:0:
199,324,44578,1,0,0:0:0:0:
278,145,44805,2,0,P|244:211|94:226,1,230
54,46,45714,5,0,0:0:0:0:
124,203,45941,5,0,0:0:0:0:
140,153,46055,1,0,0:0:0:0:
173,113,46169,1,0,0:0:0:0:
320,23,46396,5,0,0:0:0:0:
377,148,46623,2,0,L|446:14,1,115
488,0,47078,2,0,L|520:147,1,115
500,249,47532,6,0,P|492:213|441:182,1,57.5
455,181,47760,5,0,0:0:0:0:
417,166,47873,1,0,0:0:0:0:
376,166,47987,1,0,0:0:0:0:
250,266,48214,5,0,0:0:0:0:
279,108,48441,2,0,L|356:338,1,230
52,331,49350,5,0,0:0:0:0:
77,292,49464,1,0,0:0:0:0:
91,248,49578,1,0,0:0:0:0:
98,202,49691,1,0,0:0:0:0:
104,156,49805,1,0,0:0:0:0:
104,156,50032,5,0,0:0:0:0:
214,23,50260,1,0,0:0:0:0:
99,25,50487,2,0,L|188:120,1,115
400,52,51169,5,0,0:0:0:0:
390,90,51282,1,0,0:0:0:0:
371,138,51396,1,0,0:0:0:0:
211,22,51623,2,0,P|256:80|264:145,1,115
259,266,52078,5,0,0:0:0:0:
319,129,52305,5,0,0:0:0:0:
319,129,52419,1,0,0:0:0:0:
319,129,52532,2,0,B|468:202|489:100,1,172.5
480,124,52987,5,0,0:0:0:0:
467,86,53100,1,0,0:0:0:0:
431,66,53214,1,0,0:0:0:0:
390,69,53328,1,0,0:0:0:0:
358,93,53441,1,0,0:0:0:0:
432,209,53669,5,0,0:0:0:0:
480,124,53896,2,0,P|510:182|487:265,1,115
421,379,54350,2,0,B|481:325|401:291|352:285|341:197,1,172.5
348,225,54805,5,0,0:0:0:0:
326,183,54919,1,0,0:0:0:0:
343,140,55032,1,0,0:0:0:0:
374,106,55146,1,0,0:0:0:0:
361,61,55260,1,0,0:0:0:0:
238,181,55487,5,0,0:0:0:0:
360,243,55714,2,0,P|310:277|166:256,1,172.5
111,193,56169,2,0,P|115:266|25:380,1,172.5
68,351,56623,5,0,0:0:0:0:
192,268,56850,1,0,0:0:0:0:
150,185,57078,2,0,L|269:131,1,115
381,78,57532,2,0,P|449:124|406:262,1,230
361,323,58214,5,0,0:0:0:0:
301,142,58441,6,0,P|275:184|186:174,1,143.75
120,16,59123,2,0,P|132:66|132:94,1,57.5
159,236,59578,5,0,0:0:0:0:
244,73,59805,1,0,0:0:0:0:
324,170,60032,1,0,0:0:0:0:
79,211,60260,1,0,0:0:0:0:
48,88,60487,6,0,P|104:106|112:117,1,57.5
197,154,60941,1,0,0:0:0:0:
241,29,61169,2,0,P|292:91|298:115,1,86.25
293,95,61623,5,0,0:0:0:0:
190,247,61850,1,0,0:0:0:0:
57,118,62078,5,0,0:0:0:0:
276,186,62305,1,0,0:0:0:0:
351,70,62532,2,0,L|221:122,1,115
137,147,62873,5,0,0:0:0:0:
137,147,62987,1,0,0:0:0:0:
234,18,63214,5,0,0:0:0:0:
53,119,63441,1,0,0:0:0:0:
88,8,63669,6,0,L|196:87,1,115
307,157,64123,5,0,0:0:0:0:
203,263,64350,1,0,0:0:0:0:
288,340,64578,2,0,P|301:277|274:233,1,115
147,121,65032,5,0,0:0:0:0:
304,49,65260,1,0,0:0:0:0:
106,331,65714,5,0,0:0:0:0:
64,109,66169,5,0,0:0:0:0:
126,251,66396,2,0,P|165:187|185:121,1,115
152,51,67078,6,0,P|208:78|291:58,1,115
360,54,67419,5,0,0:0:0:0:
360,54,67532,1,0,0:0:0:0:
442,0,67760,2,0,P|465:66|453:120,1,115
399,248,68214,5,0,0:0:0:0:
353,69,68441,1,0,0:0:0:0:
453,125,68669,2,0,P|397:157|301:143,1,115
152,14,69350,6,0,P|132:98|107:148,1,115
77,255,69805,1,0,0:0:0:0:
216,117,70032,2,0,L|184:246,1,115
91,346,70714,6,0,P|160:349|224:309,1,115
276,228,71169,2,0,P|205:273|95:208,1,172.5
124,249,71623,5,0,0:0:0:0:
42,139,71850,1,0,0:0:0:0:
172,184,72078,2,0,P|241:213|319:198,1,115
417,202,72532,5,0,0:0:0:0:
303,123,72760,1,0,0:0:0:0:
424,57,72987,1,0,0:0:0:0:
149,26,73441,6,0,P|118:87|135:166,1,115
152,236,73782,5,0,0:0:0:0:
177,197,73896,1,0,0:0:0:0:
197,155,74010,1,0,0:0:0:0:
214,112,74123,1,0,0:0:0:0:
280,7,74350,6,0,P|312:54|328:127,1,115
354,245,74805,5,0,0:0:0:0:
406,117,75032,2,0,P|452:200|443:260,1,115
388,353,75487,5,0,0:0:0:0:
312,237,75714,1,0,0:0:0:0:
420,152,75941,2,0,L|388:279,1,115
101,303,76623,6,0,L|57:192,1,115
13,67,77078,1,0,0:0:0:0:
117,163,77305,2,0,L|217:268,1,115
339,343,77760,5,0,0:0:0:0:
351,299,77873,1,0,0:0:0:0:
362,253,77987,2,0,P|370:196|386:128,1,115
395,14,78441,6,0,P|365:69|296:97,1,115
189,111,78782,1,0,0:0:0:0:
189,111,78896,1,0,0:0:0:0:
264,212,79123,1,0,0:0:0:0:
280,40,79350,6,0,P|330:104|337:168,1,115
364,247,79691,1,0,0:0:0:0:
364,247,79805,1,0,0:0:0:0:
295,324,80032,1,0,0:0:0:0:
200,113,80260,1,0,0:0:0:0:
414,29,80714,6,0,P|401:95|355:129,1,115
317,142,81055,5,0,0:0:0:0:
278,131,81169,1,0,0:0:0:0:
251,100,81282,1,0,0:0:0:0:
264,61,81396,1,0,0:0:0:0:
388,2,81623,6,0,P|425:58|418:118,1,115
399,222,81964,1,0,0:0:0:0:
399,222,82078,1,0,0:0:0:0:
314,99,82305,1,0,0:0:0:0:
419,29,82532,1,0,0:0:0:0:
456,150,82760,5,0,0:0:0:0:
459,201,82873,1,0,0:0:0:0:
451,252,82987,1,0,0:0:0:0:
352,374,83214,1,0,0:0:0:0:
454,363,83441,2,0,L|276:198,1,230
48,23,84350,6,0,P|52:95|78:157,1,115
96,246,84691,5,0,0:0:0:0:
122,208,84805,1,0,0:0:0:0:
144,167,84919,1,0,0:0:0:0:
162,125,85032,1,0,0:0:0:0:
211,7,85260,6,0,P|248:64|254:160,1,115
287,208,85714,5,0,0:0:0:0:
474,38,85941,1,0,0:0:0:0:
230,110,86169,5,0,0:0:0:0:
397,314,86396,1,0,0:0:0:0:
144,237,86623,5,0,0:0:0:0:
344,64,86850,1,0,0:0:0:0:
253,313,87078,5,0,0:0:0:0:
118,85,87305,1,0,0:0:0:0:
32,341,87532,6,0,P|76:322|122:243,1,115
125,145,88214,2,0,P|167:173|209:249,1,115
234,352,88896,2,0,B|282:338|297:317|234:288,1,86.25
255,299,89350,5,0,0:0:0:0:
124,204,89578,1,0,0:0:0:0:
21,328,89805,1,0,0:0:0:0:
21,328,90032,6,0,L|34:251,1,57.5
63,109,90487,2,0,L|97:180,1,57.5
181,291,90941,5,0,0:0:0:0:
354,176,91169,2,0,P|279:213|212:180,1,115
167,130,91623,5,0,0:0:0:0:
334,53,91850,1,0,0:0:0:0:
434,130,92078,2,0,P|388:168|320:176,1,115
220,186,92532,5,0,0:0:0:0:
151,93,92760,2,0,P|119:157|126:232,1,115
113,302,93214,5,0,0:0:0:0:
263,364,93441,1,0,0:0:0:0:
368,275,93669,2,0,P|301:286|158:203,1,230
94,74,94350,5,0,0:0:0:0:
26,226,94578,1,0,0:0:0:0:
198,76,94805,2,0,L|144:205,1,115
111,289,95260,5,0,0:0:0:0:
232,166,95487,2,0,B|187:221|214:264|274:184|337:204|312:99,1,230
303,4,96169,5,0,0:0:0:0:
159,99,96396,1,0,0:0:0:0:
18,21,96623,2,0,B|-7:102|21:171|99:185|83:275,1,230
119,360,97305,2,0,B|178:331|157:279|130:255|176:201|265:178,1,230
415,128,97987,5,0,0:0:0:0:
491,256,98214,1,0,0:0:0:0:
379,353,98441,2,0,B|388:286|347:245,1,115
198,150,98896,5,0,0:0:0:0:
116,53,99123,2,0,P|88:124|100:203,1,115
99,288,99578,5,0,0:0:0:0:
181,192,99805,1,0,0:0:0:0:
106,130,100032,2,0,L|243:87,1,115
327,35,100487,5,0,0:0:0:0:
391,169,100714,1,0,0:0:0:0:
423,95,100941,5,0,0:0:0:0:
252,68,101169,1,0,0:0:0:0:
319,129,101396,5,0,0:0:0:0:
248,198,101623,2,0,P|178:241|188:79,1,345.000013160706
408,26,102532,6,0,P|417:97|382:201,1,172.500006580353
287,345,102987,5,0,0:0:0:0:
196,159,103214,1,0,0:0:0:0:
310,31,103441,2,0,L|263:211,1,172.500006580353
210,379,103896,5,0,0:0:0:0:
82,154,104123,2,0,P|108:217|226:244,1,172.500006580353
438,203,104578,1,0,0:0:0:0:
328,27,104805,1,0,0:0:0:0:
455,19,105032,5,0,0:0:0:0:
296,202,105260,1,0,0:0:0:0:
413,327,105487,5,0,0:0:0:0:
413,327,105714,2,0,B|380:385|448:363|459:282|436:221|465:144|274:117,1,345.000013160706
140,76,106396,5,0,0:0:0:0:
61,229,106623,1,0,0:0:0:0:
35,41,106850,5,0,0:0:0:0:
237,203,107078,1,0,0:0:0:0:
382,81,107305,5,0,0:0:0:0:
143,181,107532,1,0,0:0:0:0:
335,327,107760,5,0,0:0:0:0:
284,91,107987,1,0,0:0:0:0:
109,281,108214,5,0,0:0:0:0:
351,191,108441,1,0,0:0:0:0:
100,73,108669,5,0,0:0:0:0:
267,333,108896,2,0,P|232:273|249:168,1,172.500006580353
412,356,109805,6,0,P|425:280|326:186,1,172.500006580353
209,108,110260,5,0,0:0:0:0:
439,36,110487,1,0,0:0:0:0:
270,4,110714,2,0,P|154:6|145:217,1,345.000013160706
256,322,111396,5,0,0:0:0:0:
474,166,111623,5,0,0:0:0:0:
315,347,111850,1,0,0:0:0:0:
132,187,112078,5,0,0:0:0:0:
42,353,112305,1,0,0:0:0:0:
10,131,112532,5,0,0:0:0:0:
198,253,112760,1,0,0:0:0:0:
274,140,112987,2,0,B|290:56|355:107|379:276|472:84|241:41|181:147,1,345.000013160706
76,299,113669,5,0,0:0:0:0:
67,57,113896,1,0,0:0:0:0:
156,223,114123,5,0,0:0:0:0:
234,50,114350,1,0,0:0:0:0:
368,251,114578,5,0,0:0:0:0:
58,305,115032,5,0,0:0:0:0:
270,188,115260,1,0,0:0:0:0:
83,34,115487,5,0,0:0:0:0:
321,66,115714,1,0,0:0:0:0:
114,189,115941,5,0,0:0:0:0:
226,14,116169,5,0,0:0:0:0:
258,235,116396,2,0,B|281:328|307:273|339:179,1,172.500006580353
421,26,117305,6,0,P|417:128|374:212,1,172.500006580353
308,303,117760,1,0,0:0:0:0:
211,204,117987,1,0,0:0:0:0:
347,224,118214,2,0,L|253:120,1,115
179,34,118669,5,0,0:0:0:0:
105,107,118896,2,0,P|75:191|90:266,1,115
62,317,119350,5,0,0:0:0:0:
163,206,119578,1,0,0:0:0:0:
219,344,119805,5,0,0:0:0:0:
409,263,120032,1,0,0:0:0:0:
275,171,120260,5,0,0:0:0:0:
332,58,120487,2,0,P|372:134|355:201,1,115
333,281,120941,5,0,0:0:0:0:
242,370,121169,2,0,P|221:304|227:229,1,115
234,133,121623,2,0,L|128:228,1,115
16,302,122078,5,0,0:0:0:0:
74,127,122305,1,0,0:0:0:0:
117,257,122532,2,0,P|144:311|225:342,1,115
327,334,122987,5,0,0:0:0:0:
219,199,123214,1,0,0:0:0:0:
358,79,123441,2,0,P|323:191|236:287,1,230
77,37,124350,6,0,P|89:113|145:185,1,115
173,247,124691,5,0,0:0:0:0:
186,208,124805,1,0,0:0:0:0:
201,170,124919,1,0,0:0:0:0:
218,134,125032,1,0,0:0:0:0:
298,21,125260,6,0,P|305:95|359:148,1,115
435,202,125600,5,0,0:0:0:0:
435,202,125714,1,0,0:0:0:0:
470,56,125941,5,0,0:0:0:0:
304,138,126169,1,0,0:0:0:0:
379,29,126396,2,0,L|235:55,1,115
116,54,126850,2,0,P|169:84|199:160,1,115
68,326,127532,6,0,L|173:253,1,115
272,176,127873,5,0,0:0:0:0:
292,211,127987,1,0,0:0:0:0:
251,211,128100,1,0,0:0:0:0:
216,189,128214,1,0,0:0:0:0:
189,158,128328,1,0,0:0:0:0:
174,120,128441,2,0,B|165:41|370:121,1,172.5
318,102,128896,5,0,0:0:0:0:
387,10,129123,1,0,0:0:0:0:
444,135,129350,2,0,P|430:211|350:246,1,115
268,298,129805,5,0,0:0:0:0:
134,365,130032,2,0,P|168:312|183:234,1,115
187,112,130487,5,0,0:0:0:0:
281,227,130714,1,0,0:0:0:0:
338,140,130941,1,0,0:0:0:0:
278,15,131169,1,0,0:0:0:0:
69,112,131623,5,0,0:0:0:0:
139,21,131850,5,0,0:0:0:0:
156,63,131964,1,0,0:0:0:0:
158,109,132078,1,0,0:0:0:0:
150,154,132191,1,0,0:0:0:0:
137,198,132305,1,0,0:0:0:0:
95,329,132532,6,0,P|147:296|194:235,1,115
238,136,132873,5,0,0:0:0:0:
238,136,132987,1,0,0:0:0:0:
310,253,133214,5,0,0:0:0:0:
195,67,133441,1,0,0:0:0:0:
292,10,133669,2,0,L|324:144,1,115
352,271,134123,5,0,0:0:0:0:
369,234,134237,1,0,0:0:0:0:
380,195,134350,1,0,0:0:0:0:
421,50,134578,5,0,0:0:0:0:
299,137,134805,6,0,B|364:98|319:82|267:53|216:117|209:211,1,230
182,325,135487,5,0,0:0:0:0:
178,285,135600,1,0,0:0:0:0:
174,244,135714,1,0,0:0:0:0:
170,203,135828,1,0,0:0:0:0:
165,163,135941,1,0,0:0:0:0:
168,13,136169,6,0,P|201:72|263:99,1,115
384,102,136510,5,0,0:0:0:0:
384,102,136623,1,0,0:0:0:0:
288,245,136850,5,0,0:0:0:0:
451,188,137078,1,0,0:0:0:0:
279,72,137305,2,0,L|347:196,1,115
451,344,137760,5,0,0:0:0:0:
451,344,137987,2,0,B|450:278|392:248|265:294|235:200,1,230
94,53,138896,5,0,0:0:0:0:
146,204,139123,5,0,0:0:0:0:
174,168,139237,1,0,0:0:0:0:
208,197,139350,1,0,0:0:0:0:
228,238,139464,1,0,0:0:0:0:
274,241,139578,1,0,0:0:0:0:
434,252,139805,6,0,P|405:239|334:144,1,115
307,41,140146,5,0,0:0:0:0:
307,41,140260,1,0,0:0:0:0:
207,195,140487,5,0,0:0:0:0:
141,60,140714,2,0,P|110:124|114:208,1,115
53,307,141169,5,0,0:0:0:0:
134,181,141396,1,0,0:0:0:0:
53,54,141623,2,0,L|182:103,1,115
318,136,142078,6,0,B|275:136|262:74|393:99|396:124|449:141|368:219|331:234,1,230
284,264,142760,1,0,0:0:0:0:
239,251,142873,1,0,0:0:0:0:
207,217,142987,1,0,0:0:0:0:
188,175,143100,1,0,0:0:0:0:
177,130,143214,1,0,0:0:0:0:
269,13,143441,6,0,P|268:55|322:120,1,115
464,172,143896,5,0,0:0:0:0:
229,78,144123,1,0,0:0:0:0:
452,24,144350,5,0,0:0:0:0:
229,78,144578,1,0,0:0:0:0:
387,211,144805,5,0,0:0:0:0:
352,7,145032,1,0,0:0:0:0:
230,175,145260,5,0,0:0:0:0:
151,48,145487,1,0,0:0:0:0:
101,248,145714,1,0,0:0:0:0:
